osu file format v14

[General]
AudioFilename: audio.mp3
AudioLeadIn: 0
PreviewTime: 205564
Countdown: 0
SampleSet: Soft
StackLeniency: 0.7
Mode: 0
LetterboxInBreaks: 0
WidescreenStoryboard: 0

[Editor]
DistanceSpacing: 1
BeatDivisor: 4
GridSize: 16
TimelineZoom: 3.8

[Metadata]
Title:Watashi no Tenshi feat. Narumi Sena (CV: Amamiya Sora)
TitleUnicode:ワタシノテンシ feat. 成海聖奈(CV:雨宮天)
Artist:HoneyWorks
ArtistUnicode:HoneyWorks
Creator:Toofu
Version:Insane
Source:
Tags:full ver japanese my little angel very cute sister imouto mona gom pop j-pop jpop howrengar xunni
BeatmapID:2713498
BeatmapSetID:1308891

[Difficulty]
HPDrainRate:5
CircleSize:4.5
OverallDifficulty:7.8
ApproachRate:9
SliderMultiplier:1.6
SliderTickRate:1

[Events]
//Background and Video events
0,0,"y1Tian9.jpg",0,0
//Break Periods
//Storyboard Layer 0 (Background)
//Storyboard Layer 1 (Fail)
//Storyboard Layer 2 (Pass)
//Storyboard Layer 3 (Foreground)
//Storyboard Layer 4 (Overlay)
//Storyboard Sound Samples

[TimingPoints]
565,357.142857142857,4,2,1,50,1,0
832,-100,4,2,1,5,0,0
922,-100,4,2,1,50,0,0
1814,-100,4,2,3,50,0,0
2261,-100,4,2,3,5,0,0
2351,-100,4,2,3,50,0,0
2529,-100,4,2,1,50,0,0
2663,-100,4,2,3,50,0,0
2886,-100,4,2,1,50,0,0
3064,-100,4,2,3,50,0,0
3243,-100,4,2,1,50,0,0
3689,-100,4,2,1,5,0,0
3779,-100,4,2,1,50,0,0
4672,-100,4,2,3,50,0,0
4850,-100,4,2,1,50,0,0
5207,-100,4,2,3,50,0,0
5386,-100,4,2,1,50,0,0
5564,-100,4,2,3,50,0,0
5743,-100,4,2,1,50,0,0
5922,-100,4,2,3,50,0,0
6189,-100,4,2,3,5,0,0
6279,-100,4,2,1,50,0,0
6547,-100,4,2,1,5,0,0
6637,-100,4,2,1,50,0,0
7529,-100,4,2,3,50,0,0
7707,-100,4,2,1,50,0,0
8064,-100,4,2,3,50,0,0
8243,-100,4,2,1,50,0,0
8422,-100,4,2,3,50,0,0
8511,-100,4,2,1,50,0,0
9404,-100,4,2,1,5,0,0
9493,-125,4,2,1,50,0,0
9761,-125,4,2,1,5,0,0
9850,-166.666666666667,4,2,1,50,0,0
10118,-166.666666666667,4,2,1,5,0,0
10207,-250,4,2,1,50,0,0
10475,-250,4,2,1,5,0,0
10564,-100,4,2,1,50,0,0
10922,-100,4,2,3,50,0,0
11100,-100,4,2,1,50,0,0
11279,-83.3333333333333,4,2,1,50,0,0
11547,-250,4,2,1,5,0,0
11636,-250,4,2,1,50,0,0
11904,-250,4,2,1,5,0,0
11993,-100,4,2,1,50,0,0
12261,-100,4,2,1,5,0,0
12350,-100,4,2,1,50,0,0
13332,-100,4,2,1,5,0,0
13422,-100,4,2,1,50,0,0
13689,-100,4,2,1,5,0,0
13779,-100,4,2,1,50,0,0
14761,-100,4,2,1,5,0,0
14850,-100,4,2,1,50,0,0
16547,-100,4,2,1,5,0,0
16636,-100,4,2,1,50,0,0
17082,-100,4,2,1,5,0,0
17172,-100,4,2,3,50,0,0
17216,-100,4,2,3,5,0,0
17350,-100,4,2,3,50,0,0
17395,-100,4,2,3,5,0,0
17529,-100,4,2,3,50,0,0
17573,-100,4,2,3,5,0,0
17707,-100,4,2,1,50,0,0
17975,-100,4,2,1,5,0,0
18064,-100,4,2,1,50,0,0
19047,-100,4,2,1,5,0,0
19136,-100,4,2,1,50,0,0
19404,-100,4,2,1,5,0,0
19493,-100,4,2,1,50,0,0
23332,-100,4,2,1,5,0,0
23422,-100,4,2,1,50,0,0
25654,-100,4,2,1,5,0,0
25743,-100,4,2,1,50,0,0
26189,-100,4,2,1,5,0,0
26278,-100,4,2,1,50,0,0
29047,-100,4,2,1,5,0,0
29136,-100,4,2,1,50,0,0
31368,-100,4,2,1,5,0,0
31457,-100,4,2,1,50,0,0
31904,-100,4,2,1,5,0,0
31993,-100,4,2,1,50,0,0
32261,-100,4,2,1,5,0,0
32350,-100,4,2,1,50,0,0
32797,-100,4,2,1,5,0,0
32886,-100,4,2,1,50,0,0
33332,-100,4,2,1,5,0,0
33421,-100,4,2,1,50,0,0
34761,-100,4,2,1,5,0,0
34850,-100,4,2,1,50,0,0
37082,-100,4,2,1,5,0,0
37172,-100,4,2,1,50,0,0
37975,-100,4,2,1,5,0,0
38065,-100,4,2,1,50,0,0
39225,-100,4,2,1,5,0,0
39315,-100,4,2,1,50,0,0
42439,-100,4,2,1,5,0,0
42529,-100,4,2,1,50,0,0
42797,-100,4,2,1,5,0,0
42887,-100,4,2,1,50,0,0
43689,-100,4,2,1,5,0,0
43779,-100,4,2,1,50,0,0
45743,-166.666666666667,4,2,1,50,0,0
46279,-83.3333333333333,4,2,1,70,0,1
46547,-83.3333333333333,4,2,1,5,0,1
46636,-83.3333333333333,4,2,1,70,0,1
47707,-83.3333333333333,4,2,3,70,0,1
47975,-83.3333333333333,4,2,3,5,0,1
48064,-83.3333333333333,4,2,1,70,0,1
48422,-83.3333333333333,4,2,3,70,0,1
48600,-83.3333333333333,4,2,1,70,0,1
49404,-83.3333333333333,4,2,1,5,0,1
49493,-83.3333333333333,4,2,1,70,0,1
50564,-83.3333333333333,4,2,3,70,0,1
50743,-83.3333333333333,4,2,1,70,0,1
50832,-83.3333333333333,4,2,1,5,0,1
50921,-83.3333333333333,4,2,1,70,0,1
51279,-83.3333333333333,4,2,3,70,0,1
51457,-83.3333333333333,4,2,1,70,0,1
51904,-83.3333333333333,4,2,1,5,0,1
51993,-83.3333333333333,4,2,1,70,0,1
53422,-83.3333333333333,4,2,3,70,0,1
53600,-83.3333333333333,4,2,1,70,0,1
54136,-83.3333333333333,4,2,1,70,0,1
54225,-83.3333333333333,4,2,3,5,0,1
54314,-83.3333333333333,4,2,1,70,0,1
54761,-83.3333333333333,4,2,1,5,0,1
54850,-83.3333333333333,4,2,3,70,0,1
55029,-83.3333333333333,4,2,1,70,0,1
56279,-83.3333333333333,4,2,3,70,0,1
56457,-83.3333333333333,4,2,1,70,0,1
56814,-83.3333333333333,4,2,3,70,0,1
56993,-83.3333333333333,4,2,1,70,0,1
57975,-83.3333333333333,4,2,1,5,0,1
58064,-83.3333333333333,4,2,1,70,0,1
59136,-83.3333333333333,4,2,3,70,0,1
59314,-83.3333333333333,4,2,3,70,0,1
59404,-83.3333333333333,4,2,1,5,0,1
59493,-83.3333333333333,4,2,1,70,0,1
59850,-83.3333333333333,4,2,3,70,0,1
60029,-83.3333333333333,4,2,1,70,0,1
60832,-83.3333333333333,4,2,1,5,0,1
60921,-83.3333333333333,4,2,1,70,0,1
61993,-83.3333333333333,4,2,3,70,0,1
62261,-83.3333333333333,4,2,1,5,0,1
62350,-83.3333333333333,4,2,1,70,0,1
62707,-83.3333333333333,4,2,3,70,0,1
62886,-83.3333333333333,4,2,1,70,0,1
63332,-83.3333333333333,4,2,1,5,0,1
63422,-83.3333333333333,4,2,1,70,0,1
64404,-83.3333333333333,4,2,1,5,0,1
64493,-83.3333333333333,4,2,1,70,0,1
64850,-83.3333333333333,4,2,3,70,0,1
65029,-83.3333333333333,4,2,1,70,0,1
65564,-83.3333333333333,4,2,3,70,0,1
65743,-83.3333333333333,4,2,1,70,0,1
66189,-83.3333333333333,4,2,1,5,0,1
66279,-83.3333333333333,4,2,1,70,0,1
67261,-83.3333333333333,4,2,1,5,0,1
67350,-83.3333333333333,4,2,1,70,0,1
68243,-83.3333333333333,4,2,3,70,0,1
68422,-83.3333333333333,4,2,1,70,0,1
68779,-83.3333333333333,4,2,3,70,0,1
68957,-83.3333333333333,4,2,1,50,0,1
69136,-100,4,2,1,50,0,0
75118,-100,4,2,1,5,0,0
75207,-100,4,2,1,50,0,0
76100,-100,4,2,3,50,0,0
76189,-100,4,2,1,50,0,0
76547,-100,4,2,1,5,0,0
76636,-100,4,2,1,50,0,0
76993,-100,4,2,1,50,0,0
77082,-100,4,2,3,5,0,0
77172,-100,4,2,1,50,0,0
77350,-100,4,2,3,50,0,0
77618,-100,4,2,3,5,0,0
77707,-100,4,2,1,50,0,0
77975,-100,4,2,1,5,0,0
78064,-100,4,2,1,50,0,0
78957,-100,4,2,3,50,0,0
79047,-100,4,2,3,50,0,0
79136,-100,4,2,3,50,0,0
79314,-100,4,2,1,50,0,0
79493,-100,4,2,3,50,0,0
79672,-100,4,2,1,50,0,0
79850,-100,4,2,3,50,0,0
80029,-100,4,2,1,50,0,0
80207,-100,4,2,3,50,0,0
80564,-100,4,2,1,50,0,0
80832,-100,4,2,1,5,0,0
80922,-100,4,2,1,50,0,0
81814,-100,4,2,3,50,0,0
81993,-100,4,2,3,50,0,0
82172,-100,4,2,3,50,0,0
82261,-100,4,2,1,5,0,0
82350,-100,4,2,3,50,0,0
82529,-100,4,2,1,50,0,0
82707,-100,4,2,1,50,0,0
82797,-100,4,2,3,5,0,0
82886,-100,4,2,1,50,0,0
83064,-100,4,2,3,50,0,0
83243,-100,4,2,3,50,0,0
83422,-100,4,2,1,50,0,0
83689,-100,4,2,1,5,0,0
83779,-125,4,2,1,50,0,0
84047,-125,4,2,1,5,0,0
84136,-166.666666666667,4,2,1,50,0,0
84404,-166.666666666667,4,2,1,5,0,0
84493,-250,4,2,1,50,0,0
84761,-250,4,2,1,5,0,0
84850,-100,4,2,3,50,0,0
85118,-100,4,2,1,50,0,0
85207,-100,4,2,3,50,0,0
85386,-100,4,2,1,50,0,0
85564,-100,4,2,1,50,0,0
86547,-100,4,2,1,5,0,0
86636,-100,4,2,1,50,0,0
87618,-100,4,2,1,5,0,0
87707,-100,4,2,1,50,0,0
87975,-100,4,2,1,5,0,0
88064,-100,4,2,1,50,0,0
89404,-100,4,2,1,5,0,0
89493,-100,4,2,1,50,0,0
92261,-100,4,2,1,5,0,0
92350,-100,4,2,1,50,0,0
93332,-100,4,2,1,5,0,0
93422,-100,4,2,1,50,0,0
93689,-100,4,2,1,5,0,0
93779,-100,4,2,1,50,0,0
97618,-100,4,2,1,5,0,0
97707,-100,4,2,1,50,0,0
99939,-100,4,2,1,5,0,0
100029,-100,4,2,1,50,0,0
102707,-100,4,2,3,50,0,0
103064,-100,4,2,1,50,0,0
105654,-100,4,2,1,5,0,0
105743,-100,4,2,1,50,0,0
106189,-100,4,2,1,5,0,0
106279,-100,4,2,1,50,0,0
106547,-100,4,2,1,5,0,0
106636,-100,4,2,1,50,0,0
107082,-100,4,2,1,5,0,0
107172,-100,4,2,1,50,0,0
107618,-100,4,2,1,5,0,0
107707,-100,4,2,1,50,0,0
109047,-100,4,2,1,5,0,0
109136,-100,4,2,1,50,0,0
111368,-100,4,2,1,5,0,0
111457,-100,4,2,1,50,0,0
112261,-100,4,2,1,5,0,0
112350,-100,4,2,1,50,0,0
113511,-100,4,2,1,5,0,0
113600,-100,4,2,1,50,0,0
117082,-100,4,2,1,5,0,0
117172,-100,4,2,1,50,0,0
117975,-100,4,2,1,5,0,0
118064,-100,4,2,1,50,0,0
120029,-166.666666666667,4,2,1,50,0,0
120564,-83.3333333333333,4,2,1,70,0,1
120832,-83.3333333333333,4,2,1,5,0,1
120922,-83.3333333333333,4,2,1,70,0,1
121993,-83.3333333333333,4,2,3,70,0,1
122261,-83.3333333333333,4,2,1,5,0,1
122350,-83.3333333333333,4,2,1,70,0,1
122707,-83.3333333333333,4,2,3,70,0,1
122886,-83.3333333333333,4,2,1,70,0,1
123689,-83.3333333333333,4,2,1,5,0,1
123779,-83.3333333333333,4,2,1,70,0,1
124850,-83.3333333333333,4,2,3,70,0,1
125118,-83.3333333333333,4,2,1,5,0,1
125207,-83.3333333333333,4,2,1,70,0,1
125564,-83.3333333333333,4,2,3,70,0,1
125743,-83.3333333333333,4,2,1,70,0,1
126189,-83.3333333333333,4,2,1,5,0,1
126279,-83.3333333333333,4,2,1,70,0,1
127707,-83.3333333333333,4,2,3,70,0,1
127886,-83.3333333333333,4,2,1,70,0,1
128511,-83.3333333333333,4,2,1,5,0,1
128600,-83.3333333333333,4,2,1,70,0,1
129047,-83.3333333333333,4,2,1,5,0,1
129136,-83.3333333333333,4,2,3,70,0,1
129314,-83.3333333333333,4,2,1,70,0,1
130564,-83.3333333333333,4,2,3,70,0,1
130743,-83.3333333333333,4,2,1,70,0,1
131100,-83.3333333333333,4,2,3,70,0,1
131189,-83.3333333333333,4,2,1,70,0,1
133422,-83.3333333333333,4,2,3,70,0,1
133600,-83.3333333333333,4,2,1,70,0,1
134136,-83.3333333333333,4,2,3,70,0,1
134314,-83.3333333333333,4,2,1,70,0,1
135118,-83.3333333333333,4,2,1,5,0,1
135207,-83.3333333333333,4,2,1,70,0,1
136279,-83.3333333333333,4,2,3,70,0,1
136547,-83.3333333333333,4,2,1,5,0,1
136636,-83.3333333333333,4,2,1,70,0,1
136993,-83.3333333333333,4,2,3,70,0,1
137172,-83.3333333333333,4,2,1,70,0,1
137618,-83.3333333333333,4,2,1,5,0,1
137707,-83.3333333333333,4,2,1,70,0,1
138689,-83.3333333333333,4,2,1,5,0,1
138779,-83.3333333333333,4,2,1,70,0,1
139850,-83.3333333333333,4,2,3,70,0,1
140029,-83.3333333333333,4,2,1,70,0,1
140475,-83.3333333333333,4,2,1,5,0,1
140564,-83.3333333333333,4,2,1,70,0,1
141547,-83.3333333333333,4,2,1,5,0,1
141636,-83.3333333333333,4,2,1,70,0,1
142529,-83.3333333333333,4,2,3,70,0,1
142707,-83.3333333333333,4,2,1,70,0,1
143064,-83.3333333333333,4,2,3,70,0,1
143243,-83.3333333333333,4,2,1,70,0,1
143422,-100,4,2,1,50,0,0
149136,-133.333333333333,4,2,1,50,0,0
150475,-133.333333333333,4,2,1,50,0,0
150564,-133.333333333333,4,2,3,50,0,0
151189,-133.333333333333,4,2,3,5,0,0
151278,-133.333333333333,4,2,3,50,0,0
151904,-133.333333333333,4,2,3,5,0,0
151993,-133.333333333333,4,2,3,50,0,0
152350,-133.333333333333,4,2,1,50,0,0
153243,-133.333333333333,4,2,3,50,0,0
153332,-133.333333333333,4,2,1,50,0,0
153422,-133.333333333333,4,2,3,50,0,0
154136,-133.333333333333,4,2,1,50,0,0
154493,-133.333333333333,4,2,3,50,0,0
154850,-133.333333333333,4,2,1,50,0,0
155475,-133.333333333333,4,2,1,5,0,0
155564,-133.333333333333,4,2,1,50,0,0
155832,-133.333333333333,4,2,1,5,0,0
155921,-133.333333333333,4,2,1,50,0,0
156100,-133.333333333333,4,2,3,50,0,0
158064,-133.333333333333,4,2,1,50,0,0
158957,-133.333333333333,4,2,3,50,0,0
159047,-133.333333333333,4,2,3,50,0,0
159136,-133.333333333333,4,2,3,50,0,0
160475,-133.333333333333,4,2,1,5,0,0
160564,-133.333333333333,4,2,1,50,0,0
161814,-133.333333333333,4,2,3,50,0,0
163779,-133.333333333333,4,2,1,50,0,0
164672,-133.333333333333,4,2,3,50,0,0
164761,-133.333333333333,4,2,1,50,0,0
166279,-117.647058823529,4,2,1,50,0,0
167529,-117.647058823529,4,2,3,50,0,0
167886,-117.647058823529,4,2,1,50,0,0
169136,-105.263157894737,4,2,1,50,0,0
170386,-105.263157894737,4,2,3,50,0,0
170475,-105.263157894737,4,2,1,50,0,0
171279,-105.263157894737,4,2,3,50,0,0
171368,-105.263157894737,4,2,1,50,0,0
171636,-105.263157894737,4,2,3,50,0,0
171725,-105.263157894737,4,2,1,50,0,0
171993,-133.333333333333,4,2,1,50,0,0
172410,-133.333333333333,4,2,1,5,0,0
172469,-133.333333333333,4,2,1,50,0,0
172707,-133.333333333333,4,2,2,70,0,0
173064,-133.333333333333,4,2,1,50,0,0
173124,-133.333333333333,4,2,1,5,0,0
173183,-133.333333333333,4,2,1,50,0,0
173838,-133.333333333333,4,2,1,5,0,0
173897,-133.333333333333,4,2,1,50,0,0
174136,-133.333333333333,4,2,2,70,0,0
174493,-133.333333333333,4,2,1,50,0,0
174553,-133.333333333333,4,2,1,5,0,0
174612,-133.333333333333,4,2,1,50,0,0
175267,-133.333333333333,4,2,1,5,0,0
175326,-133.333333333333,4,2,1,50,0,0
175564,-133.333333333333,4,2,2,70,0,0
175922,-133.333333333333,4,2,1,50,0,0
175981,-133.333333333333,4,2,1,5,0,0
176040,-133.333333333333,4,2,1,50,0,0
176695,-133.333333333333,4,2,1,5,0,0
176754,-133.333333333333,4,2,1,50,0,0
176993,-133.333333333333,4,2,2,70,0,0
177350,-133.333333333333,4,2,1,50,0,0
177410,-133.333333333333,4,2,1,5,0,0
177469,-133.333333333333,4,2,1,50,0,0
178124,-133.333333333333,4,2,1,5,0,0
178183,-133.333333333333,4,2,1,50,0,0
178422,-133.333333333333,4,2,2,70,0,0
178779,-133.333333333333,4,2,1,50,0,0
178838,-133.333333333333,4,2,1,5,0,0
178897,-133.333333333333,4,2,1,50,0,0
179553,-133.333333333333,4,2,1,5,0,0
179612,-133.333333333333,4,2,1,50,0,0
179850,-133.333333333333,4,2,2,70,0,0
180207,-133.333333333333,4,2,1,50,0,0
180267,-133.333333333333,4,2,1,5,0,0
180326,-133.333333333333,4,2,1,50,0,0
180981,-133.333333333333,4,2,1,5,0,0
181040,-133.333333333333,4,2,1,50,0,0
181279,-133.333333333333,4,2,2,70,0,0
181457,-133.333333333333,4,2,1,60,0,0
181695,-133.333333333333,4,2,1,5,0,0
181754,-133.333333333333,4,2,1,60,0,0
182588,-133.333333333333,4,2,1,5,0,0
182707,-133.333333333333,4,2,2,70,0,0
182826,-133.333333333333,4,2,2,5,0,0
182886,-133.333333333333,4,2,1,60,0,0
183303,-133.333333333333,4,2,1,5,0,0
183422,-200,4,2,1,60,0,0
183660,-200,4,2,1,5,0,0
183779,-200,4,2,1,60,0,0
184136,-200,4,2,2,70,0,0
184314,-200,4,2,1,60,0,0
185564,-200,4,2,2,70,0,0
185922,-200,4,2,1,60,0,0
186993,-200,4,2,2,70,0,0
187172,-200,4,2,1,60,0,0
188422,-200,4,2,2,70,0,0
188600,-200,4,2,1,60,0,0
189850,-200,4,2,2,70,0,0
190029,-200,4,2,1,60,0,0
191279,-200,4,2,2,70,0,0
191457,-200,4,2,1,60,0,0
191993,-200,4,2,1,50,0,0
192707,-200,4,2,1,50,0,0
194761,-200,4,2,1,5,0,0
194850,-100,4,2,1,50,0,0
197082,-100,4,2,1,5,0,0
197172,-100,4,2,1,50,0,0
197975,-100,4,2,1,5,0,0
198065,-100,4,2,1,50,0,0
199225,-100,4,2,1,5,0,0
199315,-100,4,2,1,50,0,0
202439,-100,4,2,1,5,0,0
202529,-100,4,2,1,50,0,0
202797,-100,4,2,1,5,0,0
202887,-100,4,2,1,50,0,0
203689,-100,4,2,1,5,0,0
203779,-100,4,2,1,50,0,0
205743,-166.666666666667,4,2,1,50,0,0
206279,-133.333333333333,4,2,3,50,0,0
206814,-133.333333333333,4,2,1,50,0,0
207707,-133.333333333333,4,2,3,50,0,0
208600,-133.333333333333,4,2,1,50,0,0
209136,-133.333333333333,4,2,3,50,0,0
209672,-133.333333333333,4,2,1,50,0,0
210564,-133.333333333333,4,2,3,50,0,0
210922,-133.333333333333,4,2,1,50,0,0
211904,-133.333333333333,4,2,1,5,0,0
211993,-133.333333333333,4,2,3,50,0,0
212172,-133.333333333333,4,2,1,50,0,0
213422,-133.333333333333,4,2,3,50,0,0
213600,-133.333333333333,4,2,1,50,0,0
214136,-133.333333333333,4,2,3,50,0,0
214493,-133.333333333333,4,2,1,50,0,0
214761,-133.333333333333,4,2,1,5,0,0
214850,-133.333333333333,4,2,3,50,0,0
215029,-133.333333333333,4,2,1,50,0,0
216100,-133.333333333333,4,2,3,50,0,0
217172,-166.666666666667,4,2,1,50,0,0
217707,-83.3333333333333,4,2,1,70,0,1
217975,-83.3333333333333,4,2,1,5,0,1
218064,-83.3333333333333,4,2,1,70,0,1
219136,-83.3333333333333,4,2,3,70,0,1
219404,-83.3333333333333,4,2,1,5,0,1
219493,-83.3333333333333,4,2,1,70,0,1
219850,-83.3333333333333,4,2,3,70,0,1
220029,-83.3333333333333,4,2,1,70,0,1
220564,-83.3333333333333,4,2,3,70,0,1
220832,-83.3333333333333,4,2,1,5,0,1
220921,-83.3333333333333,4,2,1,70,0,1
222261,-83.3333333333333,4,2,1,5,0,1
222350,-83.3333333333333,4,2,1,70,0,1
222707,-83.3333333333333,4,2,3,70,0,1
222886,-83.3333333333333,4,2,1,70,0,1
223332,-83.3333333333333,4,2,1,5,0,1
223422,-83.3333333333333,4,2,3,70,0,1
223600,-83.3333333333333,4,2,1,70,0,1
224850,-83.3333333333333,4,2,3,70,0,1
225029,-83.3333333333333,4,2,1,70,0,1
225654,-83.3333333333333,4,2,1,5,0,1
225743,-83.3333333333333,4,2,1,70,0,1
226189,-83.3333333333333,4,2,1,5,0,1
226278,-83.3333333333333,4,2,3,70,0,1
226457,-83.3333333333333,4,2,1,70,0,1
227707,-83.3333333333333,4,2,3,70,0,1
227886,-83.3333333333333,4,2,1,70,0,1
227975,-83.3333333333333,4,2,1,5,0,1
228064,-83.3333333333333,4,2,1,70,0,1
229136,-83.3333333333333,4,2,3,70,0,1
229404,-83.3333333333333,4,2,1,5,0,1
229493,-83.3333333333333,4,2,1,70,0,1
230832,-83.3333333333333,4,2,1,5,0,1
230921,-83.3333333333333,4,2,1,70,0,1
231279,-83.3333333333333,4,2,3,70,0,1
231457,-83.3333333333333,4,2,1,70,0,1
231993,-83.3333333333333,4,2,3,70,0,1
232261,-83.3333333333333,4,2,1,5,0,1
232350,-83.3333333333333,4,2,1,70,0,1
233422,-83.3333333333333,4,2,3,70,0,1
233689,-83.3333333333333,4,2,1,5,0,1
233779,-83.3333333333333,4,2,1,70,0,1
234136,-83.3333333333333,4,2,3,70,0,1
234314,-83.3333333333333,4,2,1,70,0,1
234761,-83.3333333333333,4,2,1,5,0,1
234850,-83.3333333333333,4,2,3,70,0,1
235029,-83.3333333333333,4,2,1,70,0,1
235832,-83.3333333333333,4,2,1,5,0,1
235922,-83.3333333333333,4,2,1,70,0,1
236279,-83.3333333333333,4,2,3,70,0,1
236457,-83.3333333333333,4,2,1,70,0,1
236993,-83.3333333333333,4,2,3,70,0,1
237172,-83.3333333333333,4,2,1,70,0,1
237618,-83.3333333333333,4,2,1,5,0,1
237708,-83.3333333333333,4,2,3,70,0,1
237886,-83.3333333333333,4,2,1,70,0,1
238689,-83.3333333333333,4,2,1,5,0,1
238779,-83.3333333333333,4,2,1,70,0,1
239136,-83.3333333333333,4,2,3,70,0,1
239314,-83.3333333333333,4,2,1,70,0,1
239672,-83.3333333333333,4,2,3,70,0,1
239850,-83.3333333333333,4,2,1,70,0,1
240564,-100,4,2,1,50,0,0
246547,-100,4,2,1,5,0,0
246636,-100,4,2,1,50,0,0
247529,-100,4,2,3,50,0,0
247975,-100,4,2,1,5,0,0
248064,-100,4,2,1,50,0,0
249404,-100,4,2,1,5,0,0
249493,-100,4,2,1,50,0,0
250386,-100,4,2,3,50,0,0
250743,-100,4,2,1,50,0,0
251904,-100,4,2,1,5,0,0
251993,-100,4,2,3,50,0,0
252261,-100,4,2,1,5,0,0
252350,-100,4,2,1,50,0,0
253243,-100,4,2,3,50,0,0
253332,-100,4,2,3,50,0,0
253689,-100,4,2,1,5,0,0
253778,-100,4,2,1,50,0,0
254225,-100,4,2,1,5,0,0
254314,-100,4,2,1,50,0,0
254850,-100,4,2,1,50,0,0
254939,-100,4,2,1,5,0,0
255029,-100,4,2,1,50,0,0
255118,-100,4,2,1,5,0,0
255207,-125,4,2,1,50,0,0
255297,-125,4,2,1,5,0,0
255387,-125,4,2,1,50,0,0
255476,-125,4,2,1,5,0,0
255564,-166.666666666667,4,2,1,50,0,0
255654,-166.666666666667,4,2,1,5,0,0
255744,-166.666666666667,4,2,1,50,0,0
255833,-166.666666666667,4,2,1,5,0,0
255921,-250,4,2,1,50,0,0
256011,-250,4,2,1,5,0,0
256101,-250,4,2,1,50,0,0
256189,-250,4,2,1,5,0,0
256279,-100,4,2,1,50,0,0
256457,-100,4,2,3,50,0,0
256547,-100,4,2,1,50,0,0
257350,-100,4,2,1,5,0,0

[Colours]
Combo1 : 132,193,255
Combo2 : 255,149,202
Combo3 : 255,255,140
Combo4 : 157,253,196

[HitObjects]
27,62,565,6,0,B|85:61|85:61|113:71|113:71|145:70,1,120,6|0,3:2|0:0,0:0:0:0:
175,70,922,1,2,3:2:0:0:
274,122,1100,1,2,0:0:0:0:
384,41,1279,2,0,P|384:98|387:132,1,80,2|0,3:2|0:0,0:0:0:0:
334,300,1636,2,0,P|334:243|331:209,1,80,2|2,3:2|0:0,0:0:0:0:
227,268,1993,6,0,B|154:257|154:257|108:266,1,120,2|0,3:2|0:0,0:0:0:0:
82,283,2350,1,2,3:2:0:0:
159,358,2529,1,2,0:0:0:0:
297,330,2707,2,0,P|306:292|310:252,1,80,0|2,0:0|0:0,0:0:0:0:
295,123,3064,1,2,3:2:0:0:
295,123,3422,6,0,P|350:110|439:138,1,120,2|0,3:2|0:0,0:0:0:0:
436,140,3779,1,2,3:2:0:0:
400,249,3957,1,2,0:0:0:0:
477,377,4136,2,0,P|484:324|473:274,1,80,2|0,3:2|0:0,0:0:0:0:
322,305,4493,2,0,P|318:344|325:384,1,80,2|2,3:2|0:0,0:0:0:0:
263,234,4850,5,2,3:2:0:0:
133,299,5029,1,2,0:0:0:0:
200,166,5207,1,2,3:2:0:0:
221,315,5386,1,2,0:0:0:0:
122,210,5564,2,0,P|106:145|131:46,1,160,2|0,3:2|3:2,0:0:0:0:
125,55,6279,6,0,P|184:61|244:55,1,120,6|0,3:2|0:0,0:0:0:0:
266,47,6636,1,2,3:2:0:0:
354,98,6814,1,8,0:0:0:0:
458,28,6993,2,0,P|465:62|464:107,1,80,2|2,3:2|3:2,0:0:0:0:
433,194,7350,1,8,0:0:0:0:
464,303,7529,1,0,3:0:0:0:
464,303,7618,1,0,3:0:0:0:
464,303,7707,6,0,L|318:303,1,120,2|0,3:2|3:2,0:0:0:0:
314,307,8064,1,2,3:2:0:0:
211,248,8243,1,2,3:2:0:0:
88,334,8422,2,0,P|96:267|98:206,1,120,2|0,0:0|3:2,0:0:0:0:
87,182,8779,1,10,0:0:0:0:
84,74,8957,5,0,3:2:0:0:
93,81,9047,1,0,3:2:0:0:
103,86,9136,6,0,P|142:106|244:96,1,120,2|0,3:2|0:0,0:0:0:0:
193,140,9493,2,0,P|145:138|101:120,1,96,2|0,3:2|0:0,0:0:0:0:
104,153,9850,2,0,P|137:166|172:171,1,71.9999978027344,2|0,3:2|0:0,0:0:0:0:
156,201,10207,2,0,P|127:195|102:185,1,48,2|0,3:2|0:0,0:0:0:0:
118,264,10564,5,2,3:2:0:0:
21,325,10743,1,2,0:0:0:0:
21,325,10832,1,2,0:0:0:0:
21,325,10922,1,2,0:0:0:0:
99,384,11100,1,2,0:0:0:0:
176,344,11279,2,0,P|219:313|293:370,1,143.999995605469,2|0,0:0|0:0,0:0:0:0:
302,373,11636,2,0,P|320:379|359:375,1,48,2|0,0:0|0:0,0:0:0:0:
370,372,11993,6,0,B|403:340|403:340|412:196,1,160,2|8,3:2|0:0,0:0:0:0:
382,137,12529,1,8,0:0:0:0:
245,220,12707,2,0,P|281:204|321:205,1,80,2|2,0:0|0:0,0:0:0:0:
240,102,13064,1,10,0:0:0:0:
240,102,13422,6,0,P|165:114|120:190,1,160,2|8,3:2|0:0,0:0:0:0:
211,193,13957,1,8,0:0:0:0:
164,329,14136,2,0,P|150:291|153:252,1,80,2|2,0:0|3:2,0:0:0:0:
243,275,14493,1,10,0:0:0:0:
243,275,14850,6,0,B|295:265|293:324|350:316,1,120,2|0,3:2|0:0,0:0:0:0:
381,307,15207,1,10,0:0:0:0:
373,216,15386,1,10,0:0:0:0:
509,144,15564,1,2,0:0:0:0:
367,121,15743,1,2,0:0:0:0:
468,226,15922,1,10,0:0:0:0:
446,77,16100,1,2,0:0:0:0:
212,99,16279,6,0,B|265:100|265:100|311:122|311:122|366:121,1,160,2|10,3:2|0:0,0:0:0:0:
334,34,16814,1,2,3:2:0:0:
334,34,17172,1,2,3:2:0:0:
237,24,17350,1,10,0:0:0:0:
143,67,17529,1,2,0:0:0:0:
39,23,17707,6,0,B|39:87|39:87|51:127|51:127|52:186,1,160,6|8,3:2|0:0,0:0:0:0:
18,277,18243,1,8,0:0:0:0:
171,244,18422,2,0,P|133:255|94:248,1,80,2|2,0:0|0:0,0:0:0:0:
140,333,18779,1,10,0:0:0:0:
140,333,19136,6,0,B|186:316|232:324|205:344|254:363|292:342,1,160,2|8,3:2|0:0,0:0:0:0:
365,291,19672,1,8,0:0:0:0:
314,186,19850,2,0,P|290:217|286:256,1,80,2|2,0:0|0:0,0:0:0:0:
219,205,20207,1,10,0:0:0:0:
219,205,20564,5,2,3:2:0:0:
198,119,20743,1,2,0:0:0:0:
250,46,20922,1,10,0:0:0:0:
342,85,21100,1,10,0:0:0:0:
455,56,21279,5,2,0:0:0:0:
437,150,21457,1,2,3:2:0:0:
486,241,21636,1,10,0:0:0:0:
436,336,21814,1,2,0:0:0:0:
337,317,21993,5,10,0:0:0:0:
236,364,22172,1,2,3:2:0:0:
135,315,22350,1,2,0:0:0:0:
196,229,22529,1,10,0:0:0:0:
127,152,22707,2,0,P|120:191|121:231,2,80,0|2|10,0:0|3:2|0:0,0:0:0:0:
285,29,23422,6,0,P|326:20|370:23,1,80,6|6,3:2|0:0,0:0:0:0:
512,92,23779,2,0,P|471:101|427:98,1,80,10|2,0:0|3:2,0:0:0:0:
268,161,24136,2,0,P|306:152|346:153,1,80,2|2,0:0|3:2,0:0:0:0:
465,223,24493,1,10,0:0:0:0:
431,313,24672,1,2,0:0:0:0:
273,270,24850,5,2,3:2:0:0:
189,329,25029,2,0,B|150:333|150:333|110:323,1,80,2|8,0:0|0:0,0:0:0:0:
15,384,25386,2,0,B|-5:333|0:297|19:309|26:263|13:220,1,160,10|2,0:0|3:2,0:0:0:0:
43,104,25922,1,10,0:0:0:0:
43,104,26279,6,0,P|86:97|138:107,1,80,2|2,3:2|0:0,0:0:0:0:
202,140,26636,1,10,0:0:0:0:
304,96,26814,1,2,3:2:0:0:
278,259,26993,2,0,P|283:214|278:169,1,80,2|2,0:0|3:2,0:0:0:0:
230,333,27350,2,0,P|269:338|309:335,1,80,10|2,0:0|0:0,0:0:0:0:
444,297,27707,6,0,B|454:262|448:239|435:240|430:217|447:160,1,120,6|0,3:2|0:0,0:0:0:0:
449,145,28064,1,10,0:0:0:0:
343,81,28243,1,0,3:2:0:0:
208,124,28422,1,2,0:0:0:0:
64,62,28600,1,2,3:2:0:0:
0,214,28779,1,8,0:0:0:0:
3,218,29136,2,0,P|-4:249|2:297,1,80,6|2,3:2|0:0,0:0:0:0:
100,275,29493,5,10,0:0:0:0:
172,381,29672,2,0,B|123:400|86:375|86:375|48:369|17:385,1,160,10|2,0:0|3:2,0:0:0:0:
0,291,30207,2,0,P|-7:251|1:213,1,80,10|2,0:0|0:0,0:0:0:0:
84,149,30564,6,0,P|121:157|192:150,1,80,2|2,3:2|0:0,0:0:0:0:
249,119,30922,1,10,0:0:0:0:
251,291,31100,2,0,P|259:251|258:212,1,80,10|0,0:0|0:0,0:0:0:0:
247,86,31457,1,2,3:2:0:0:
344,154,31636,1,10,0:0:0:0:
507,384,31993,6,0,B|531:328|521:299|505:276|505:276|508:304|500:322,1,160,2|10,3:2|0:0,0:0:0:0:
415,282,32529,2,0,B|377:268|343:284|343:284|308:320|262:310,1,160,2|2,3:2|3:2,0:0:0:0:
269,199,33064,1,10,0:0:0:0:
269,199,33422,6,0,P|218:194|175:202,1,80,10|4,0:0|0:3,0:0:0:0:
83,345,33779,2,0,P|78:305|84:265,1,80,4|10,0:3|0:0,0:0:0:0:
106,181,34136,1,2,0:0:0:0:
175,259,34314,1,0,3:2:0:0:
182,102,34493,1,10,0:0:0:0:
182,102,34850,6,0,P|218:113|266:103,1,80,6|2,3:2|0:0,0:0:0:0:
364,45,35207,1,10,0:0:0:0:
406,204,35386,2,0,B|412:152|422:105|422:105|403:131|374:138,1,160,2|2,3:2|0:0,0:0:0:0:
284,204,35922,1,10,0:0:0:0:
337,365,36100,6,0,L|346:286,1,80,2|2,0:0|0:3,0:0:0:0:
467,232,36457,2,0,L|475:311,1,80,2|10,3:2|0:0,0:0:0:0:
507,130,36814,1,2,3:2:0:0:
431,66,36993,1,0,0:0:0:0:
332,104,37172,1,2,3:2:0:0:
241,53,37350,1,10,0:0:0:0:
347,8,37529,1,2,0:0:0:0:
261,127,37707,6,0,B|208:142|208:142|142:115|142:115|176:98,1,160,6|10,3:2|0:0,0:0:0:0:
140,193,38243,1,10,0:0:0:0:
140,193,38600,1,2,0:0:0:0:
36,158,38779,1,10,0:0:0:0:
50,265,38957,6,0,B|56:307|56:307|45:354,1,80,2|0,3:2|0:0,0:0:0:0:
139,276,39314,1,2,3:2:0:0:
123,369,39493,2,0,L|202:365,1,80,10|0,0:0|3:2,0:0:0:0:
371,279,39850,2,0,B|323:295|283:284|301:266|260:258|208:278,1,160,6|10,3:2|0:0,0:0:0:0:
290,365,40386,1,2,3:2:0:0:
452,381,40564,6,0,B|464:345|464:345|450:284,1,80,6|2,3:2|0:0,0:0:0:0:
413,228,40922,1,10,0:0:0:0:
468,126,41100,2,0,B|424:142|385:132|399:113|359:95|314:116,1,160,2|2,3:2|0:0,0:0:0:0:
249,172,41636,1,10,0:0:0:0:
179,80,41814,2,0,P|164:121|169:164,1,80,2|2,3:2|0:3,0:0:0:0:
207,266,42172,1,2,3:2:0:0:
81,196,42350,1,8,0:0:0:0:
8,342,42529,1,10,0:0:0:0:
8,342,42886,5,2,3:2:0:0:
8,342,43064,2,0,B|39:359|39:359|109:362,1,80,14|2,0:0|0:0,0:0:0:0:
218,318,43422,2,0,B|161:318|161:318|116:292|116:292|65:292,1,160,6|14,3:2|0:0,0:0:0:0:
188,246,43957,1,2,0:0:0:0:
150,181,44136,1,2,0:0:0:0:
223,116,44314,1,2,3:2:0:0:
178,4,44493,1,14,0:0:0:0:
306,48,44672,1,2,3:2:0:0:
453,5,44850,5,6,3:2:0:0:
430,117,45029,1,2,3:2:0:0:
434,128,45118,1,2,3:2:0:0:
438,137,45207,2,0,L|456:187,1,40,14|0,0:0|0:0,0:0:0:0:
399,298,45386,2,0,L|381:248,1,40,2|2,0:0|3:2,0:0:0:0:
343,173,45564,1,2,3:2:0:0:
226,335,45743,6,0,L|165:334,2,47.9999985351563,2|2|2,0:0|0:0|0:0,0:0:0:0:
226,335,46279,6,0,B|216:274|216:274|221:235|221:235|212:192,1,143.999995605469,6|0,3:2|0:0,0:0:0:0:
193,160,46636,1,8,0:0:0:0:
116,252,46814,1,8,0:0:0:0:
238,77,46993,2,0,B|283:66|283:66|342:84,1,95.9999970703126,2|2,0:3|3:2,0:0:0:0:
304,196,47350,2,0,B|259:207|259:207|200:189,1,95.9999970703126,10|2,0:0|0:0,0:0:0:0:
439,106,47707,6,0,B|423:155|436:187|448:179|460:209|442:245,1,143.999995605469,2|0,3:2|0:0,0:0:0:0:
431,280,48064,1,10,0:0:0:0:
350,340,48243,1,8,0:0:0:0:
257,292,48422,1,2,0:0:0:0:
166,318,48600,5,2,3:2:0:0:
125,231,48779,1,8,0:0:0:0:
246,168,48957,1,2,0:0:0:0:
118,65,49136,6,0,B|129:98|127:120|127:120|103:159|118:207,1,143.999995605469,2|0,3:2|0:0,0:0:0:0:
125,231,49493,1,10,0:0:0:0:
39,107,49672,1,8,0:0:0:0:
17,245,49850,2,0,P|18:298|56:355,1,95.9999970703126,2|2,0:3|3:2,0:0:0:0:
222,284,50207,2,0,P|222:236|202:193,1,95.9999970703126,10|2,0:0|0:0,0:0:0:0:
199,361,50564,6,0,B|231:377|275:363|253:352|296:329|335:343,1,143.999995605469,2|0,3:2|0:0,0:0:0:0:
363,348,50922,1,10,0:0:0:0:
422,288,51100,1,8,0:0:0:0:
375,176,51279,1,2,0:0:0:0:
417,31,51457,1,0,3:2:0:0:
510,135,51636,2,0,P|444:113|359:98,1,143.999995605469,12|0,0:0|0:0,0:0:0:0:
345,94,51993,5,6,3:2:0:0:
199,220,52172,1,2,0:0:0:0:
260,57,52350,1,10,0:0:0:0:
303,221,52529,1,10,0:0:0:0:
164,122,52707,2,0,P|118:107|70:105,1,95.9999970703126,2|2,0:3|3:2,0:0:0:0:
83,214,53064,1,10,0:0:0:0:
136,33,53243,1,2,0:0:0:0:
164,231,53422,6,0,P|157:284|162:326,1,95.9999970703126,2|2,3:2|0:0,0:0:0:0:
254,239,53779,1,10,0:0:0:0:
248,384,53957,1,2,3:2:0:0:
412,292,54136,2,0,P|367:308|319:312,1,95.9999970703126,0|2,0:0|3:2,0:0:0:0:
417,171,54492,1,10,0:0:0:0:
417,171,54850,6,0,P|418:123|433:77,1,95.9999970703126,2|2,3:2|0:0,0:0:0:0:
247,139,55207,2,0,P|287:164|319:199,1,95.9999970703126,10|10,0:0|0:0,0:0:0:0:
354,12,55564,2,0,P|311:34|264:44,1,95.9999970703126,2|0,0:3|3:2,0:0:0:0:
118,21,55922,1,10,0:0:0:0:
247,139,56100,5,2,0:0:0:0:
247,139,56189,1,2,0:0:0:0:
247,139,56279,2,0,B|228:157|242:190|242:190|263:230|231:312,1,143.999995605469,6|0,3:2|0:0,0:0:0:0:
229,299,56636,1,10,0:0:0:0:
150,226,56814,1,6,3:2:0:0:
27,302,56993,1,2,3:2:0:0:
21,181,57172,1,2,3:2:0:0:
119,384,57350,2,0,P|119:336|108:290,1,95.9999970703126,14|10,0:0|0:0,0:0:0:0:
397,284,57707,6,0,B|349:295|349:295|303:284|303:284|256:293,1,143.999995605469,6|0,3:2|0:0,0:0:0:0:
229,299,58064,1,8,0:0:0:0:
354,210,58243,1,8,0:0:0:0:
273,95,58422,2,0,P|265:142|271:193,1,95.9999970703126,2|2,0:3|3:2,0:0:0:0:
443,194,58779,2,0,P|448:146|440:99,1,95.9999970703126,10|2,0:0|0:0,0:0:0:0:
306,22,59136,6,0,B|271:1|240:11|247:22|214:34|166:14,1,143.999995605469,2|0,3:2|0:0,0:0:0:0:
139,0,59493,1,10,0:0:0:0:
86,89,59672,1,8,0:0:0:0:
133,209,59851,1,2,0:0:0:0:
112,313,60029,5,2,3:2:0:0:
223,273,60208,1,10,0:0:0:0:
319,329,60386,1,2,0:0:0:0:
431,274,60565,6,0,B|448:231|436:193|421:208|408:170|428:109,1,143.999995605469,2|0,3:2|0:0,0:0:0:0:
422,105,60922,1,8,0:0:0:0:
320,45,61101,1,8,0:0:0:0:
198,131,61279,2,0,B|240:151|240:151|322:142,1,95.9999970703126,2|2,0:3|3:2,0:0:0:0:
232,42,61636,2,0,B|190:22|190:22|140:27,1,95.9999970703126,10|2,0:0|0:0,0:0:0:0:
39,101,61993,6,0,B|28:186|28:186|47:268,1,143.999995605469,2|0,3:2|0:0,0:0:0:0:
51,275,62350,1,10,0:0:0:0:
137,241,62529,1,8,0:0:0:0:
250,284,62707,1,2,0:0:0:0:
371,228,62886,1,0,3:2:0:0:
256,106,63064,2,0,B|306:83|339:94|324:103|352:113|396:102,1,143.999995605469,12|0,0:0|0:0,0:0:0:0:
427,83,63422,5,6,3:2:0:0:
498,257,63600,1,2,0:0:0:0:
352,177,63779,1,10,0:0:0:0:
510,134,63957,1,10,0:0:0:0:
390,287,64136,2,0,P|344:302|297:301,1,95.9999970703126,2|0,0:3|0:0,0:0:0:0:
188,248,64493,1,10,0:0:0:0:
90,305,64672,1,2,0:0:0:0:
101,109,64850,6,0,P|97:156|106:203,1,95.9999970703126,2|2,3:2|0:0,0:0:0:0:
198,150,65208,1,10,0:0:0:0:
249,23,65386,1,10,0:0:0:0:
376,117,65564,2,0,P|329:117|282:105,1,95.9999970703126,2|2,0:0|3:2,0:0:0:0:
461,56,65922,1,8,0:0:0:0:
461,56,66279,6,0,B|453:110|453:110|453:165,1,95.9999970703126,6|2,3:2|0:0,0:0:0:0:
463,268,66636,2,0,B|420:234|420:234|372:206,1,95.9999970703126,10|10,0:0|0:0,0:0:0:0:
290,157,66993,2,0,B|340:136|340:136|388:109,1,95.9999970703126,2|0,0:3|0:0,0:0:0:0:
284,51,67351,1,10,0:0:0:0:
193,118,67529,5,2,0:0:0:0:
193,118,67618,1,0,0:0:0:0:
193,118,67708,2,0,B|175:137|142:123|142:123|102:102|20:134,1,143.999995605469,2|0,3:2|0:0,0:0:0:0:
31,151,68065,1,10,0:0:0:0:
68,234,68243,1,10,0:0:0:0:
34,360,68422,1,2,0:0:0:0:
137,317,68601,1,2,3:2:0:0:
238,359,68779,1,10,3:2:0:0:
350,303,68957,5,8,0:0:0:0:
350,303,69047,1,0,3:2:0:0:
350,303,69136,2,0,P|343:262|346:212,1,80,6|2,3:2|0:0,0:0:0:0:
410,165,69493,1,2,3:2:0:0:
477,219,69672,2,0,P|483:258|482:298,1,80,2|2,0:0|3:2,0:0:0:0:
482,135,70029,2,0,P|456:104|421:87,1,80,2|2,0:0|3:2,0:0:0:0:
311,114,70386,6,0,P|257:134|149:94,1,160,2|2,0:0|0:0,0:0:0:0:
106,38,70922,1,2,3:2:0:0:
40,85,71100,2,0,B|20:131|49:170|63:157|78:193|60:236,1,160,2|0,0:0|0:0,0:0:0:0:
6,325,71636,2,0,P|58:346|105:340,1,80,2|2,3:2|0:0,0:0:0:0:
253,286,71993,6,0,P|217:268|177:265,1,80,14|2,0:0|3:2,0:0:0:0:
153,272,72261,1,0,0:0:0:0:
153,272,72350,1,2,3:2:0:0:
235,369,72529,2,0,P|275:373|313:361,1,80,10|0,0:0|3:2,0:0:0:0:
334,349,72797,1,0,3:2:0:0:
334,349,72886,1,2,3:2:0:0:
329,238,73064,2,0,P|324:198|336:160,1,80,10|2,0:0|0:0,0:0:0:0:
349,139,73332,1,0,3:2:0:0:
349,139,73421,1,0,3:2:0:0:
437,208,73600,5,0,3:2:0:0:
437,208,73689,1,0,3:2:0:0:
437,208,73779,1,10,0:0:0:0:
451,48,73957,2,0,L|398:51,1,40,2|2,0:0|0:0,0:0:0:0:
305,59,74136,1,6,3:2:0:0:
5,315,74850,6,0,B|49:303|76:312|63:330|93:333|135:321,1,120,6|0,3:2|0:0,0:0:0:0:
153,312,75207,1,10,0:0:0:0:
307,323,75385,1,10,0:0:0:0:
242,202,75564,2,0,P|236:246|237:301,1,80,2|0,0:3|3:2,0:0:0:0:
399,281,75922,2,0,P|398:241|392:201,1,80,8|2,0:0|0:0,0:0:0:0:
384,360,76279,6,0,B|449:356|449:356|502:314,1,120,6|0,3:2|0:0,0:0:0:0:
509,299,76635,1,10,0:0:0:0:
490,194,76814,1,10,0:0:0:0:
512,68,76993,2,0,P|468:61|398:60,1,80,0|0,0:0|3:2,0:0:0:0:
313,110,77349,1,8,0:0:0:0:
313,110,77707,6,0,B|254:95|254:95|182:110,1,120,6|0,3:2|0:0,0:0:0:0:
167,121,78064,1,10,0:0:0:0:
28,109,78242,1,8,0:0:0:0:
91,266,78421,2,0,P|98:213|87:163,1,80,2|0,0:3|3:2,0:0:0:0:
240,178,78778,2,0,P|236:217|243:257,1,80,10|2,0:0|0:0,0:0:0:0:
320,219,79135,5,2,3:2:0:0:
450,154,79314,1,2,0:0:0:0:
383,287,79492,1,10,0:0:0:0:
362,138,79671,1,10,0:0:0:0:
467,248,79850,2,0,P|457:325|398:377,1,160,2|14,0:0|0:0,0:0:0:0:
399,377,80564,6,0,P|337:365|281:368,1,120,6|0,3:2|0:0,0:0:0:0:
250,377,80921,1,10,0:0:0:0:
148,330,81099,1,10,0:0:0:0:
19,369,81279,2,0,P|22:334|25:270,1,80,2|0,0:3|3:2,0:0:0:0:
30,150,81635,1,8,0:0:0:0:
170,223,81814,1,2,0:0:0:0:
170,223,81903,1,0,0:0:0:0:
170,223,81993,6,0,L|24:223,1,120,6|0,3:2|0:0,0:0:0:0:
151,316,82349,1,10,0:0:0:0:
247,269,82528,1,10,0:0:0:0:
360,334,82707,2,0,L|376:244,1,80,0|2,0:0|3:2,0:0:0:0:
390,169,83064,5,10,0:0:0:0:
390,169,83422,6,0,P|346:169|260:223,1,120,6|0,3:2|0:0,0:0:0:0:
285,161,83779,2,0,P|329:140|376:136,1,96,2|0,3:2|0:0,0:0:0:0:
358,109,84136,2,0,P|323:111|289:123,1,71.9999978027344,2|0,3:2|0:0,0:0:0:0:
290,90,84493,2,0,P|319:81|345:78,1,48,2|0,3:2|0:0,0:0:0:0:
297,14,84850,5,10,0:0:0:0:
213,67,85029,1,2,0:0:0:0:
213,67,85118,1,2,3:2:0:0:
213,67,85207,1,10,0:0:0:0:
100,31,85386,1,2,3:2:0:0:
0,120,85564,1,2,3:2:0:0:
456,219,86279,6,0,B|437:170|462:133|462:133|468:95|452:64,1,160,2|8,3:2|0:0,0:0:0:0:
370,10,86815,1,8,0:0:0:0:
303,105,86993,2,0,P|342:111|382:110,1,80,2|2,0:0|0:0,0:0:0:0:
239,49,87350,1,10,0:0:0:0:
239,49,87707,6,0,B|184:46|184:46|126:81,1,120,2|0,3:2|0:0,0:0:0:0:
113,97,88064,1,8,0:0:0:0:
145,223,88243,1,10,0:0:0:0:
0,175,88422,2,0,L|79:176,1,80,2|2,0:0|3:2,0:0:0:0:
34,302,88779,1,10,0:0:0:0:
34,302,89136,6,0,P|87:300|177:318,1,120,2|0,3:2|0:0,0:0:0:0:
174,323,89493,1,10,0:0:0:0:
247,353,89672,1,10,0:0:0:0:
324,315,89850,1,2,0:0:0:0:
435,357,90029,1,2,0:0:0:0:
505,285,90208,1,10,0:0:0:0:
354,384,90386,1,2,0:0:0:0:
424,272,90564,6,0,B|413:223|431:185|444:210|461:151|447:118,1,160,2|10,3:2|0:0,0:0:0:0:
354,147,91100,1,10,0:0:0:0:
354,147,91457,2,0,L|300:154,1,40,2|2,3:2|0:0,0:0:0:0:
242,159,91636,1,10,0:0:0:0:
156,113,91815,1,2,0:0:0:0:
71,148,91993,6,0,B|73:207|73:207|61:252|61:252|61:316,1,160,6|10,3:2|0:0,0:0:0:0:
181,269,92529,1,10,0:0:0:0:
222,360,92708,2,0,P|184:371|145:364,1,80,2|2,0:0|0:0,0:0:0:0:
289,262,93065,1,10,0:0:0:0:
289,262,93422,6,0,B|314:215|299:180|291:192|278:149|301:91,1,160,2|8,3:2|0:0,0:0:0:0:
374,153,93958,1,10,0:0:0:0:
449,86,94136,2,0,P|413:69|373:74,1,80,2|2,0:0|3:2,0:0:0:0:
462,168,94493,1,10,0:0:0:0:
462,168,94850,5,2,3:2:0:0:
433,248,95029,1,2,0:0:0:0:
451,363,95207,1,10,0:0:0:0:
512,231,95386,1,10,0:0:0:0:
512,312,95565,5,2,0:3:0:0:
433,248,95743,1,2,3:2:0:0:
335,284,95922,1,10,0:0:0:0:
231,236,96100,1,2,0:0:0:0:
151,363,96279,5,2,3:2:0:0:
105,286,96458,1,2,0:0:0:0:
126,193,96636,1,10,0:0:0:0:
65,90,96815,1,10,0:0:0:0:
222,109,96993,2,0,P|182:110|142:114,2,80,0|2|14,0:0|3:2|0:0,0:0:0:0:
222,109,97707,6,0,P|267:109|321:126,1,80,6|2,3:2|0:0,0:0:0:0:
381,156,98064,1,10,0:0:0:0:
486,98,98243,1,10,0:0:0:0:
483,199,98422,1,2,0:3:0:0:
511,307,98600,1,2,0:0:0:0:
417,361,98779,2,0,L|308:351,1,80,10|2,0:0|0:0,0:0:0:0:
227,289,99136,5,6,3:2:0:0:
177,365,99314,2,0,P|215:374|254:368,1,80,2|8,0:0|0:0,0:0:0:0:
101,382,99672,2,0,B|81:331|86:295|105:307|112:261|99:218,1,160,10|2,0:0|3:2,0:0:0:0:
70,137,100208,1,10,0:0:0:0:
70,137,100565,6,0,P|109:130|148:135,1,80,2|2,3:2|0:0,0:0:0:0:
211,191,100922,1,10,0:0:0:0:
352,143,101100,1,10,0:0:0:0:
285,295,101279,2,0,L|289:215,1,80,2|2,0:0|0:0,0:0:0:0:
365,299,101636,1,10,0:0:0:0:
365,299,101993,6,0,P|431:302|500:255,1,120,6|0,3:2|0:0,0:0:0:0:
505,252,102350,1,10,0:0:0:0:
472,175,102529,1,8,0:0:0:0:
501,92,102708,1,2,0:0:0:0:
430,9,102886,1,0,0:0:0:0:
320,91,103064,2,0,P|353:99|408:100,1,80,8|0,0:0|0:0,0:0:0:0:
262,21,103422,5,6,3:2:0:0:
212,87,103600,1,2,0:0:0:0:
245,185,103779,1,10,0:0:0:0:
161,292,103957,2,0,P|122:300|84:289,2,80,10|2|2,0:0|0:3|3:2,0:0:0:0:
119,141,104493,2,0,P|128:180|128:220,1,80,10|2,0:0|0:0,0:0:0:0:
39,367,104850,6,0,P|78:370|118:368,1,80,2|2,3:2|0:0,0:0:0:0:
191,303,105207,1,10,0:0:0:0:
346,373,105386,2,0,P|306:376|266:374,1,80,10|0,0:0|0:0,0:0:0:0:
277,255,105743,1,2,3:2:0:0:
387,301,105922,1,10,0:0:0:0:
387,301,106279,6,0,B|384:218|395:186|395:186|402:213|424:234,1,160,6|10,3:2|0:0,0:0:0:0:
463,93,106814,2,0,P|416:73|341:99,1,120,10|0,0:0|0:0,0:0:0:0:
328,120,107172,1,0,0:0:0:0:
226,196,107350,1,10,0:0:0:0:
226,196,107707,6,0,P|218:161|236:82,1,80,14|4,0:0|0:3,0:0:0:0:
93,202,108064,2,0,P|96:162|88:123,1,80,4|10,0:3|0:0,0:0:0:0:
154,26,108422,1,2,0:0:0:0:
262,58,108600,1,0,3:2:0:0:
370,16,108779,1,12,0:0:0:0:
370,16,109136,6,0,P|363:54|367:96,1,80,6|2,3:2|0:0,0:0:0:0:
434,172,109493,1,10,0:0:0:0:
423,280,109672,2,0,B|394:310|370:309|370:309|246:301,1,160,2|2,3:2|0:0,0:0:0:0:
330,210,110208,1,10,0:0:0:0:
196,250,110386,6,0,P|189:291|195:341,1,80,2|2,3:2|0:3,0:0:0:0:
76,384,110743,2,0,P|79:344|73:305,1,80,2|10,0:0|0:0,0:0:0:0:
0,176,111100,2,0,B|48:153|48:153|138:153,1,120,2|0,3:2|0:0,0:0:0:0:
146,157,111457,1,2,3:2:0:0:
220,112,111636,1,10,0:0:0:0:
310,162,111814,1,2,0:0:0:0:
427,109,111993,6,0,P|413:196|416:241,1,120,6|0,3:2|0:0,0:0:0:0:
420,257,112350,1,10,0:0:0:0:
378,367,112529,1,10,0:0:0:0:
378,367,112886,1,2,3:2:0:0:
290,316,113065,1,10,0:0:0:0:
186,384,113243,6,0,P|192:346|185:304,1,80,2|0,0:0|0:0,0:0:0:0:
119,232,113600,1,2,3:2:0:0:
43,384,113779,2,0,P|37:346|44:304,1,80,10|0,0:0|3:2,0:0:0:0:
208,212,114136,2,0,B|151:143|151:143|75:138,1,160,2|10,3:2|0:0,0:0:0:0:
0,194,114672,1,2,0:0:0:0:
37,54,114850,6,0,P|82:48|127:53,1,80,6|2,3:2|0:0,0:0:0:0:
214,100,115208,1,10,0:0:0:0:
323,48,115386,2,0,B|339:92|329:131|310:117|292:157|312:200,1,160,2|2,3:2|3:2,0:0:0:0:
390,286,115922,1,8,0:0:0:0:
489,222,116100,2,0,P|489:182|481:142,1,80,2|2,3:2|0:3,0:0:0:0:
424,22,116457,2,0,P|415:61|416:101,1,80,2|8,0:0|0:0,0:0:0:0:
323,48,116814,6,0,P|263:54|205:40,1,120,10|0,0:0|0:0,0:0:0:0:
184,33,117172,1,2,3:2:0:0:
74,27,117350,2,0,P|66:82|70:128,1,80,14|2,0:0|0:0,0:0:0:0:
203,188,117707,6,0,B|153:160|109:175|118:184|83:216|32:185,1,160,6|8,3:2|0:0,0:0:0:0:
149,252,118243,1,2,0:0:0:0:
225,298,118422,1,10,0:0:0:0:
320,236,118600,1,2,3:2:0:0:
437,303,118779,1,14,0:0:0:0:
512,182,118958,1,2,0:0:0:0:
399,111,119136,5,6,3:2:0:0:
278,126,119314,1,2,3:2:0:0:
278,126,119404,1,2,3:2:0:0:
278,126,119493,2,0,L|284:86,1,40,10|0,0:0|0:0,0:0:0:0:
186,21,119672,2,0,L|177:60,1,40,2|2,0:0|3:2,0:0:0:0:
142,161,119850,1,2,3:2:0:0:
49,42,120029,6,0,L|2:42,2,47.9999985351563,2|2|2,0:0|0:0|0:0,0:0:0:0:
49,42,120564,6,0,P|50:117|46:194,1,143.999995605469,6|0,3:2|0:0,0:0:0:0:
39,218,120922,1,8,0:0:0:0:
153,211,121100,1,8,0:0:0:0:
219,313,121279,2,0,P|173:326|126:320,1,95.9999970703126,2|2,0:3|3:2,0:0:0:0:
238,215,121636,2,0,P|283:201|330:207,1,95.9999970703126,10|2,0:0|0:0,0:0:0:0:
428,330,121993,6,0,B|415:255|415:255|423:227|428:162,1,143.999995605469,2|0,3:2|0:0,0:0:0:0:
429,158,122350,1,10,0:0:0:0:
372,95,122529,1,8,0:0:0:0:
289,127,122708,1,2,0:0:0:0:
324,21,122886,1,2,3:2:0:0:
352,189,123064,1,10,0:0:0:0:
440,33,123243,1,2,0:0:0:0:
501,193,123421,6,0,B|496:223|504:243|504:243|514:292|501:335,1,143.999995605469,2|0,3:2|0:0,0:0:0:0:
485,359,123778,1,8,0:0:0:0:
386,330,123957,1,8,0:0:0:0:
271,371,124136,2,0,P|278:318|271:249,1,95.9999970703126,2|2,0:3|3:2,0:0:0:0:
155,197,124493,2,0,P|153:244|159:292,1,95.9999970703126,10|2,0:0|0:0,0:0:0:0:
111,83,124850,6,0,B|148:85|201:83|201:83|216:92|234:125,1,143.999995605469,2|0,3:2|0:0,0:0:0:0:
244,165,125207,1,10,0:0:0:0:
343,129,125385,1,8,0:0:0:0:
463,178,125564,1,2,0:0:0:0:
460,64,125742,1,0,3:2:0:0:
297,8,125922,2,0,P|228:-12|158:1,1,143.999995605469,12|0,0:0|0:0,0:0:0:0:
116,25,126279,5,6,3:2:0:0:
35,192,126457,1,2,0:0:0:0:
206,107,126635,1,10,0:0:0:0:
27,76,126814,1,10,0:0:0:0:
148,209,126993,2,0,P|195:210|243:218,1,95.9999970703126,2|2,0:3|3:2,0:0:0:0:
264,322,127349,1,10,0:0:0:0:
316,148,127528,1,2,0:0:0:0:
429,288,127707,6,0,P|382:278|334:276,1,95.9999970703126,2|2,3:2|0:0,0:0:0:0:
316,148,128064,1,10,0:0:0:0:
453,11,128242,1,10,0:0:0:0:
417,198,128421,1,0,0:0:0:0:
338,31,128600,1,2,3:2:0:0:
497,128,128779,1,10,0:0:0:0:
497,128,129136,6,0,P|489:183|493:254,1,95.9999970703126,2|2,3:2|0:0,0:0:0:0:
512,350,129493,2,0,P|467:315|404:283,1,95.9999970703126,10|10,0:0|0:0,0:0:0:0:
302,256,129850,2,0,P|354:234|413:196,1,95.9999970703126,2|0,0:0|3:2,0:0:0:0:
348,341,130207,1,10,0:0:0:0:
222,284,130385,5,2,0:0:0:0:
222,284,130474,1,2,0:0:0:0:
222,284,130564,2,0,B|204:265|171:279|171:279|131:300|49:268,1,143.999995605469,2|0,3:2|0:0,0:0:0:0:
56,258,130921,1,14,0:0:0:0:
79,172,131099,1,2,3:2:0:0:
42,77,131278,1,2,3:2:0:0:
127,2,131457,1,2,0:0:0:0:
250,89,131636,2,0,L|131:106,1,95.9999970703126,14|2,0:0|3:2,0:0:0:0:
336,20,131993,5,6,3:2:0:0:
422,144,132172,1,2,0:0:0:0:
262,240,132350,5,10,0:0:0:0:
348,116,132529,1,10,0:0:0:0:
403,324,132707,5,2,0:3:0:0:
317,200,132886,1,2,3:2:0:0:
228,322,133064,2,0,P|287:327|350:316,1,95.9999970703126,10|2,0:0|0:0,0:0:0:0:
155,376,133422,6,0,B|140:328|140:328|146:304|150:283,1,95.9999970703126,2|2,3:2|0:0,0:0:0:0:
201,202,133778,1,10,0:0:0:0:
93,87,133957,1,10,0:0:0:0:
93,87,134314,5,2,3:2:0:0:
194,123,134493,1,10,0:0:0:0:
302,58,134671,1,2,0:0:0:0:
455,127,134850,6,0,B|441:162|454:200|469:185|481:223|464:266,1,143.999995605469,2|0,3:2|0:0,0:0:0:0:
467,287,135207,1,10,0:0:0:0:
340,240,135386,1,8,0:0:0:0:
232,314,135564,2,0,P|222:267|226:219,1,95.9999970703126,2|2,0:3|3:2,0:0:0:0:
107,112,135922,2,0,P|111:159|101:206,1,95.9999970703126,10|2,0:0|0:0,0:0:0:0:
170,40,136279,6,0,P|83:19|23:57,1,143.999995605469,2|0,3:2|0:0,0:0:0:0:
16,68,136636,1,10,0:0:0:0:
45,157,136814,1,8,0:0:0:0:
0,254,136993,1,2,0:0:0:0:
43,376,137172,1,0,3:2:0:0:
119,247,137350,2,0,B|202:226|202:226|255:250,1,143.999995605469,14|0,0:0|0:0,0:0:0:0:
283,267,137707,5,6,3:2:0:0:
427,162,137886,1,2,0:0:0:0:
371,329,138064,1,10,0:0:0:0:
316,164,138242,1,10,0:0:0:0:
484,284,138422,2,0,P|495:248|504:160,1,95.9999970703126,2|0,0:3|0:0,0:0:0:0:
505,68,138778,1,10,0:0:0:0:
427,162,138957,1,2,0:0:0:0:
307,56,139136,6,0,L|448:59,1,95.9999970703126,2|2,3:2|0:0,0:0:0:0:
337,163,139493,1,10,0:0:0:0:
227,94,139671,1,10,0:0:0:0:
105,151,139850,2,0,L|113:49,1,95.9999970703126,2|2,0:0|3:2,0:0:0:0:
191,207,140207,1,10,0:0:0:0:
191,207,140564,6,0,P|256:253|287:237,1,95.9999970703126,6|2,3:2|0:0,0:0:0:0:
395,133,140922,2,0,P|322:166|321:201,1,95.9999970703126,10|10,0:0|0:0,0:0:0:0:
370,351,141279,2,0,P|377:271|347:252,1,95.9999970703126,2|0,0:0|0:0,0:0:0:0:
271,350,141636,2,0,P|226:361|132:351,1,95.9999970703126,10|2,0:0|0:0,0:0:0:0:
54,375,141993,6,0,B|51:317|51:317|41:291|41:291|41:213,1,143.999995605469,2|0,3:2|0:0,0:0:0:0:
41,201,142350,1,10,0:0:0:0:
118,144,142528,1,10,0:0:0:0:
182,202,142707,5,2,0:0:0:0:
273,141,142886,1,2,0:0:0:0:
385,190,143064,1,2,3:2:0:0:
245,268,143243,5,10,0:0:0:0:
245,268,143332,1,2,3:2:0:0:
245,268,143422,2,0,P|288:274|339:267,1,80,6|2,3:2|0:0,0:0:0:0:
385,190,143779,1,2,3:2:0:0:
512,271,143957,2,0,P|469:277|418:270,1,80,2|2,0:0|3:2,0:0:0:0:
379,346,144314,1,2,0:0:0:0:
385,190,144493,1,2,3:3:0:0:
470,47,144672,6,0,P|463:100|478:157,1,80,2|2,0:0|3:2,0:0:0:0:
309,123,145029,2,0,P|312:83|305:44,1,80,2|2,0:0|3:2,0:0:0:0:
216,103,145386,2,0,B|177:80|124:92|150:105|112:119|61:97,1,160,2|2,0:0|3:2,0:0:0:0:
44,89,145832,1,2,3:2:0:0:
44,89,145922,1,2,3:3:0:0:
44,89,146279,6,0,P|40:125|40:192,1,80,14|2,0:0|0:0,0:0:0:0:
56,275,146636,1,2,0:0:0:0:
151,208,146814,1,10,0:0:0:0:
276,230,146993,1,0,3:2:0:0:
276,230,147082,1,0,3:2:0:0:
276,230,147172,1,2,3:2:0:0:
201,384,147350,2,0,P|208:345|210:305,1,80,10|2,0:0|3:2,0:0:0:0:
209,280,147618,1,0,3:2:0:0:
209,280,147707,1,2,3:2:0:0:
256,140,147886,5,0,3:2:0:0:
256,140,147975,1,0,3:2:0:0:
256,140,148064,2,0,L|311:149,1,40,0|0,3:2|3:2,0:0:0:0:
402,241,148243,2,0,L|363:248,1,40,4|4,0:3|0:3,0:0:0:0:
506,314,148422,5,2,3:2:0:0:
499,274,148511,1,2,3:2:0:0:
493,235,148600,1,4,0:3:0:0:
476,154,148779,5,0,3:2:0:0:
313,125,148957,5,0,3:2:0:0:
353,132,149046,1,0,3:2:0:0:
392,138,149135,1,6,3:2:0:0:
478,157,149493,5,0,0:0:0:0:
478,157,149850,5,0,0:0:0:0:
478,157,150207,6,0,P|461:106|428:65,1,90.0000034332277,2|0,0:0|0:0,0:0:0:0:
416,52,150564,2,0,P|348:24|218:80,1,210.000008010865,2|0,0:0|0:0,0:0:0:0:
214,98,151279,2,0,P|216:157|74:189,1,210.000008010865,2|0,0:0|0:0,0:0:0:0:
72,182,151993,2,0,P|91:293|202:317,1,240.000009155274,2|2,0:0|0:0,0:0:0:0:
303,91,153064,6,0,P|365:83|401:131,1,120.000004577637,2|2,0:0|0:0,0:0:0:0:
350,261,153779,2,0,P|288:269|252:221,1,120.000004577637,2|2,0:0|0:0,0:0:0:0:
326,175,154493,1,2,0:0:0:0:
399,19,154850,1,2,0:0:0:0:
228,34,155207,2,0,P|171:35|140:82,1,90.0000034332277,2|0,0:0|0:0,0:0:0:0:
136,86,155564,2,0,P|144:119|119:182,1,90.0000034332277,2|0,0:0|0:0,0:0:0:0:
111,194,155922,1,2,0:0:0:0:
135,327,156279,2,0,B|177:351|177:351|255:332,1,120.000004577637,2|2,0:0|0:0,0:0:0:0:
440,350,156993,6,0,B|431:285|446:175|446:175|430:204|414:236,1,240.000009155274,2|2,0:0|0:0,0:0:0:0:
72,54,158422,1,2,0:0:0:0:
72,54,158779,2,0,P|53:110|66:145,1,90.0000034332277,2|2,0:0|0:0,0:0:0:0:
78,159,159136,2,0,P|98:195|70:288,1,120.000004577637,2|2,0:0|0:0,0:0:0:0:
20,364,159850,1,2,0:0:0:0:
227,232,160207,1,2,0:0:0:0:
227,232,160564,5,6,3:2:0:0:
227,232,160922,2,0,P|291:223|352:241,1,120.000004577637,2|2,0:0|0:3,0:0:0:0:
437,310,161636,1,2,3:2:0:0:
437,310,161993,2,0,P|451:252|441:193,1,120.000004577637,2|2,3:2|3:2,0:0:0:0:
317,85,162707,2,0,B|272:85|272:136|202:136,2,120.000004577637,2|2|6,0:3|3:2|3:2,0:0:0:0:
184,39,163779,1,2,3:2:0:0:
141,29,164136,1,2,3:2:0:0:
100,48,164493,2,0,P|97:83|109:126,1,60.0000022888184,2|0,3:2|0:0,0:0:0:0:
131,181,164850,5,2,3:2:0:0:
107,217,165207,1,2,3:2:0:0:
106,262,165564,2,0,P|109:297|97:340,1,60.0000022888184,2|0,3:2|0:0,0:0:0:0:
67,379,165922,1,2,3:2:0:0:
295,175,166279,6,0,L|300:268,1,68.0000012969971,6|0,3:2|0:0,0:0:0:0:
305,322,166636,1,2,3:2:0:0:
305,322,166814,1,0,0:0:0:0:
377,359,166993,2,0,P|410:360|444:356,1,68.0000012969971,2|0,3:2|0:0,0:0:0:0:
444,254,167350,2,0,P|410:252|376:256,1,68.0000012969971,2|0,3:2|0:0,0:0:0:0:
510,301,167707,6,0,P|523:258|505:194,1,102.000001945496,2|0,3:2|0:0,0:0:0:0:
490,173,168064,1,2,3:2:0:0:
402,171,168243,1,10,0:0:0:0:
311,125,168422,1,10,0:0:0:0:
203,177,168600,1,10,0:0:0:0:
81,128,168779,1,10,0:0:0:0:
79,150,168868,1,10,0:0:0:0:
79,172,168957,1,2,3:2:0:0:
0,270,169136,5,6,3:2:0:0:
84,335,169314,1,2,3:2:0:0:
84,335,169404,1,0,3:2:0:0:
84,335,169493,1,0,3:2:0:0:
183,263,169672,1,10,0:0:0:0:
246,381,169850,2,0,P|199:372|166:354,1,75.9999979705811,0|0,3:2|3:2,0:0:0:0:
287,288,170207,2,0,P|324:294|357:312,1,75.9999979705811,10|0,0:0|3:2,0:0:0:0:
463,277,170475,1,0,3:2:0:0:
463,277,170564,6,0,P|459:302|450:325,2,50.6666653137207,10|10|0,0:0|0:0|0:0,0:0:0:0:
416,150,170922,5,0,0:0:0:0:
382,176,171041,5,6,0:0:0:0:
331,179,171160,5,6,0:0:0:0:
280,176,171279,6,0,P|265:210|263:263,2,75.9999979705811,2|0|2,3:2|0:0|3:2,0:0:0:0:
348,69,171755,5,0,0:0:0:0:
318,29,171874,5,0,0:0:0:0:
271,12,171993,5,6,3:2:0:0:
25,284,172350,5,2,0:0:0:0:
25,284,172707,2,0,P|71:265|149:277,1,120.000004577637,8|2,0:0|0:0,0:0:0:0:
230,357,173422,2,0,P|288:365|344:345,1,120.000004577637,2|2,0:0|0:0,0:0:0:0:
429,264,174136,1,8,0:0:0:0:
384,145,174493,1,2,0:0:0:0:
433,25,174850,6,0,B|394:10|394:10|305:27,1,120.000004577637,2|0,0:3|0:0,0:0:0:0:
207,91,175564,1,10,0:0:0:0:
98,59,175922,2,0,P|70:97|63:171,1,120.000004577637,2|2,0:0|0:0,0:0:0:0:
105,293,176636,1,2,0:0:0:0:
205,196,176993,2,0,P|261:176|335:198,1,120.000004577637,8|2,0:0|0:0,0:0:0:0:
441,275,177707,5,2,0:0:0:0:
341,358,178064,2,0,P|285:378|211:356,1,120.000004577637,2|8,0:0|0:0,0:0:0:0:
105,293,178779,1,2,0:0:0:0:
205,196,179136,2,0,P|213:124|216:68,1,120.000004577637,2|2,0:0|0:0,0:0:0:0:
115,126,179850,1,8,0:0:0:0:
307,152,180207,1,2,0:0:0:0:
465,57,180564,6,0,P|460:103|462:193,1,120.000004577637,2|2,0:0|0:0,0:0:0:0:
488,306,181279,1,8,0:0:0:0:
392,376,181636,2,0,P|323:384|258:370,1,120.000004577637,2|2,0:0|0:0,0:0:0:0:
180,293,182350,2,0,P|130:265|56:284,1,120.000004577637,2|8,0:0|0:0,0:0:0:0:
127,134,183064,1,2,0:0:0:0:
127,134,183422,6,0,P|168:133|215:139,1,80,2|2,0:0|0:0,0:0:0:0:
210,107,184136,2,0,P|170:102|130:103,1,80,10|2,0:0|0:0,0:0:0:0:
36,185,184850,1,2,0:0:0:0:
36,185,185207,2,0,P|56:198|87:203,1,40,2|0,0:0|0:0,0:0:0:0:
147,203,185564,1,8,0:0:0:0:
285,176,185922,1,2,0:0:0:0:
285,176,186279,6,0,P|286:215|282:255,1,80,2|2,0:0|0:0,0:0:0:0:
323,254,186993,2,0,P|327:214|325:174,1,80,8|2,0:0|0:0,0:0:0:0:
268,77,187707,2,0,P|309:70|353:84,1,80,2|2,0:0|0:0,0:0:0:0:
475,140,188422,1,8,0:0:0:0:
475,140,188779,1,2,0:0:0:0:
475,140,189136,6,0,P|479:179|476:219,1,80,2|2,0:0|0:0,0:0:0:0:
446,218,189850,2,0,P|448:178|444:138,1,80,8|2,0:0|0:0,0:0:0:0:
354,190,190564,1,2,0:0:0:0:
354,190,190922,2,0,L|346:238,1,40,2|0,0:0|0:0,0:0:0:0:
326,323,191279,1,10,0:0:0:0:
198,278,191636,1,2,0:0:0:0:
4,373,191993,6,0,L|2:363,1,10,14|0,0:0|0:0,0:0:0:0:
362,68,192707,5,0,0:0:0:0:
362,68,193064,5,0,0:0:0:0:
362,68,193422,6,0,L|273:71,2,80,2|2|2,0:3|0:3|0:3,0:0:0:0:
166,82,194314,1,2,3:2:0:0:
105,181,194493,1,14,0:0:0:0:
105,181,194850,6,0,P|158:192|220:182,1,80,6|2,3:2|0:0,0:0:0:0:
281,205,195207,1,10,0:0:0:0:
381,119,195386,2,0,P|391:197|377:276,1,160,2|2,3:2|3:2,0:0:0:0:
349,367,195922,1,10,0:0:0:0:
209,292,196100,2,0,P|248:290|288:294,1,80,2|2,3:3|0:3,0:0:0:0:
230,384,196457,2,0,P|190:385|150:381,1,80,2|8,0:0|0:0,0:0:0:0:
0,384,196814,6,0,B|1:329|27:292|27:292|32:249|17:218,1,160,10|2,0:0|3:2,0:0:0:0:
0,125,197350,1,10,0:0:0:0:
44,32,197528,1,2,0:3:0:0:
96,149,197707,6,0,P|158:166|241:155,1,120,6|0,3:2|0:0,0:0:0:0:
236,158,198064,1,10,0:0:0:0:
314,104,198243,1,10,0:0:0:0:
314,104,198600,1,2,3:2:0:0:
425,137,198779,1,10,0:0:0:0:
340,300,198957,6,0,P|345:254|340:208,1,80,2|0,0:0|0:0,0:0:0:0:
258,256,199314,1,2,3:2:0:0:
169,220,199493,2,0,P|167:260|172:300,1,80,10|10,0:0|0:0,0:0:0:0:
286,369,199850,2,0,P|395:367|437:320,1,160,2|10,3:2|0:0,0:0:0:0:
432,230,200386,1,4,0:3:0:0:
493,104,200564,6,0,P|456:89|400:89,1,80,6|2,3:2|0:0,0:0:0:0:
334,138,200922,1,10,0:0:0:0:
249,30,201100,2,0,B|216:54|206:83|206:83|199:201,1,160,2|2,3:2|3:2,0:0:0:0:
219,260,201636,1,8,0:0:0:0:
144,364,201814,2,0,P|183:360|223:365,1,80,2|2,3:2|0:3,0:0:0:0:
112,269,202172,2,0,P|72:272|32:267,1,80,2|8,0:0|0:0,0:0:0:0:
219,260,202529,6,0,P|278:253|366:284,1,120,10|0,0:0|0:0,0:0:0:0:
357,281,202886,1,2,3:2:0:0:
478,355,203064,2,0,P|469:316|476:241,1,80,14|2,0:0|0:0,0:0:0:0:
512,152,203422,2,0,P|454:138|390:150,1,120,6|0,3:2|0:0,0:0:0:0:
369,162,203779,5,10,0:0:0:0:
277,68,203957,1,2,0:0:0:0:
207,220,204136,5,10,0:0:0:0:
278,144,204314,1,2,3:2:0:0:
355,293,204493,5,10,0:0:0:0:
284,217,204671,1,2,3:2:0:0:
212,369,204850,5,10,0:0:0:0:
283,293,205028,1,2,3:2:0:0:
283,293,205118,1,2,3:2:0:0:
283,293,205207,1,10,0:0:0:0:
144,276,205386,2,0,L|95:273,1,40,2|2,0:0|3:2,0:0:0:0:
35,263,205564,1,10,0:0:0:0:
88,143,205743,6,0,L|71:195,2,47.9999985351563,2|2|2,0:0|0:0|0:0,0:0:0:0:
116,48,206279,1,2,0:0:0:0:
116,48,206993,1,2,0:0:0:0:
190,98,207172,1,2,0:0:0:0:
268,48,207350,2,0,L|340:49,1,60.0000022888184,2|2,0:0|0:0,0:0:0:0:
416,70,207707,1,2,0:0:0:0:
416,70,208600,5,2,0:0:0:0:
460,151,208779,2,0,L|452:216,1,60.0000022888184,2|2,0:0|0:0,0:0:0:0:
434,290,209136,1,2,0:0:0:0:
434,290,209850,5,2,0:0:0:0:
360,340,210029,1,2,0:0:0:0:
282,290,210207,2,0,L|210:291,1,60.0000022888184,2|2,0:0|0:0,0:0:0:0:
134,312,210564,1,2,0:0:0:0:
191,71,211993,6,0,L|277:76,2,60.0000022888184,2|2|2,0:0|0:0|0:0,0:0:0:0:
95,68,212529,1,2,0:0:0:0:
56,150,212707,1,2,0:0:0:0:
56,150,213064,2,0,P|63:185|54:219,1,60.0000022888184,2|2,0:0|0:0,0:0:0:0:
10,288,213422,2,0,P|39:287|69:290,2,60.0000022888184,2|2|2,0:0|0:0|0:0,0:0:0:0:
313,358,214850,6,0,L|326:273,1,60.0000022888184,2|2,0:0|0:0,0:0:0:0:
396,256,215207,2,0,L|383:171,1,60.0000022888184,2|2,0:0|0:0,0:0:0:0:
348,113,215564,1,2,0:0:0:0:
243,164,215743,1,2,0:0:0:0:
268,61,215922,2,0,P|288:40|314:26,2,60.0000022888184,2|2|2,0:0|0:0|0:0,0:0:0:0:
102,366,217172,6,0,L|41:365,2,47.9999985351563,2|2|2,0:0|0:0|0:0,0:0:0:0:
102,366,217707,6,0,B|91:317|76:288|76:288|98:273|122:232,1,143.999995605469,6|0,3:2|0:0,0:0:0:0:
128,216,218065,1,8,0:0:0:0:
0,314,218243,1,8,0:0:0:0:
171,309,218422,2,0,B|220:297|220:297|279:311,1,95.9999970703126,2|2,0:0|3:2,0:0:0:0:
390,373,218779,2,0,B|345:383|345:383|296:371,1,95.9999970703126,10|2,0:0|0:0,0:0:0:0:
512,384,219136,6,0,B|512:308|509:280|509:280|504:299|485:321,1,143.999995605469,2|0,3:2|0:0,0:0:0:0:
462,328,219493,1,10,0:0:0:0:
435,239,219672,1,8,0:0:0:0:
482,115,219851,1,2,0:0:0:0:
402,45,220029,5,2,3:2:0:0:
301,99,220208,1,10,0:0:0:0:
168,54,220386,1,2,0:0:0:0:
28,162,220564,6,0,B|74:148|115:170|115:170|154:173|181:153,1,143.999995605469,2|0,3:2|0:0,0:0:0:0:
196,143,220922,1,8,0:0:0:0:
66,248,221101,1,8,0:0:0:0:
183,315,221279,2,0,B|234:327|234:327|291:308,1,95.9999970703126,2|2,0:3|3:2,0:0:0:0:
376,196,221636,2,0,B|325:184|325:184|283:197,1,95.9999970703126,10|2,0:0|0:0,0:0:0:0:
333,56,221993,6,0,B|364:46|395:62|395:62|403:54|403:54|432:72|469:61,1,143.999995605469,6|0,3:2|0:0,0:0:0:0:
497,36,222351,1,10,0:0:0:0:
483,143,222529,1,8,0:0:0:0:
512,243,222708,1,2,0:0:0:0:
480,349,222886,1,0,3:2:0:0:
360,282,223064,2,0,B|290:278|290:278|261:293|261:293|202:288,1,143.999995605469,12|0,0:0|0:0,0:0:0:0:
191,278,223422,5,6,3:2:0:0:
19,195,223601,1,2,0:0:0:0:
186,168,223779,1,10,0:0:0:0:
83,305,223958,1,10,0:0:0:0:
101,103,224136,6,0,P|143:88|211:94,1,95.9999970703126,2|2,0:0|3:2,0:0:0:0:
320,139,224493,1,10,0:0:0:0:
186,168,224672,1,2,0:0:0:0:
305,315,224850,6,0,P|285:267|281:202,1,95.9999970703126,2|2,3:2|0:0,0:0:0:0:
198,321,225208,1,10,0:0:0:0:
271,384,225386,1,10,0:0:0:0:
385,336,225565,1,0,0:0:0:0:
501,371,225743,2,0,P|510:342|507:248,1,95.9999970703126,2|10,3:2|0:0,0:0:0:0:
512,276,226279,6,0,P|482:221|469:176,1,95.9999970703126,2|2,3:2|0:0,0:0:0:0:
278,161,226636,2,0,P|340:162|386:173,1,95.9999970703126,10|10,0:0|0:0,0:0:0:0:
492,11,226993,2,0,P|459:64|426:98,1,95.9999970703126,2|0,0:0|3:2,0:0:0:0:
248,57,227351,1,10,0:0:0:0:
78,92,227529,5,2,3:2:0:0:
78,92,227618,1,2,0:0:0:0:
78,92,227707,2,0,B|89:137|73:170|73:170|68:212|81:244,1,143.999995605469,2|0,3:2|0:0,0:0:0:0:
88,263,228064,1,14,0:0:0:0:
153,321,228243,1,2,3:2:0:0:
246,287,228422,1,2,3:2:0:0:
382,335,228601,1,2,0:0:0:0:
339,172,228779,2,0,L|327:273,1,95.9999970703126,14|2,0:0|3:2,0:0:0:0:
445,117,229136,6,0,P|391:83|301:76,1,143.999995605469,6|0,3:2|0:0,0:0:0:0:
287,79,229493,1,10,0:0:0:0:
100,103,229672,1,10,0:0:0:0:
180,1,229850,2,0,P|194:67|193:106,1,95.9999970703126,2|2,0:0|3:2,0:0:0:0:
113,197,230207,2,0,P|99:131|100:92,1,95.9999970703126,10|2,0:0|0:0,0:0:0:0:
35,243,230564,6,0,B|69:280|69:280|94:293|165:296,1,143.999995605469,2|0,3:2|0:0,0:0:0:0:
186,291,230922,1,10,0:0:0:0:
275,255,231101,1,10,0:0:0:0:
401,313,231280,1,2,0:0:0:0:
447,238,231458,5,2,3:2:0:0:
406,151,231637,1,10,0:0:0:0:
461,33,231815,1,2,0:0:0:0:
330,58,231994,6,0,B|295:44|257:57|272:72|234:84|191:67,1,143.999995605469,2|0,3:2|0:0,0:0:0:0:
165,60,232350,1,10,0:0:0:0:
288,138,232530,1,8,0:0:0:0:
200,226,232707,2,0,P|195:264|212:317,1,95.9999970703126,2|2,0:0|3:2,0:0:0:0:
343,317,233064,2,0,P|359:272|355:225,1,95.9999970703126,10|2,0:0|0:0,0:0:0:0:
285,370,233422,6,0,P|217:390|148:375,1,143.999995605469,2|0,3:2|0:0,0:0:0:0:
124,358,233779,1,10,0:0:0:0:
85,289,233958,1,10,0:0:0:0:
111,192,234136,1,2,0:0:0:0:
64,84,234315,1,2,3:2:0:0:
166,15,234493,2,0,B|212:-6|212:-6|255:-7|342:3,1,143.999995605469,14|0,0:0|0:0,0:0:0:0:
345,19,234851,5,6,3:2:0:0:
429,171,235029,1,2,0:0:0:0:
277,106,235208,1,10,0:0:0:0:
431,47,235386,1,10,0:0:0:0:
330,184,235564,2,0,P|323:235|328:291,1,95.9999970703126,2|0,0:0|0:0,0:0:0:0:
378,378,235922,1,10,0:0:0:0:
260,332,236101,1,2,0:0:0:0:
118,371,236279,6,0,L|115:275,1,95.9999970703126,2|2,3:2|0:0,0:0:0:0:
133,182,236637,1,10,0:0:0:0:
89,101,236815,1,2,0:0:0:0:
152,22,236994,1,2,0:0:0:0:
266,77,237172,2,0,P|316:78|382:66,1,95.9999970703126,2|10,3:2|0:0,0:0:0:0:
361,69,237707,6,0,P|379:165|373:181,1,95.9999970703126,6|2,3:2|0:0,0:0:0:0:
500,260,238064,2,0,P|407:227|397:214,1,95.9999970703126,10|10,0:0|0:0,0:0:0:0:
266,287,238422,2,0,P|340:223|356:220,1,95.9999970703126,2|0,0:0|0:0,0:0:0:0:
362,309,238780,1,10,0:0:0:0:
240,381,238957,5,2,0:0:0:0:
240,381,239047,1,0,0:0:0:0:
240,381,239136,2,0,B|189:348|153:365|165:382|128:386|103:383,1,143.999995605469,2|0,3:2|0:0,0:0:0:0:
76,362,239494,1,10,0:0:0:0:
102,275,239672,1,10,0:0:0:0:
51,163,239851,1,2,0:0:0:0:
96,56,240030,1,2,3:2:0:0:
201,110,240208,1,10,0:0:0:0:
374,35,240386,5,0,3:2:0:0:
374,35,240476,1,2,3:2:0:0:
374,35,240565,2,0,P|333:42|283:39,1,80,6|0,3:2|0:0,0:0:0:0:
186,10,240922,1,2,3:2:0:0:
201,110,241100,2,0,P|194:151|197:201,1,80,2|2,0:0|3:2,0:0:0:0:
298,245,241457,2,0,P|305:204|302:154,1,80,2|2,0:0|3:0,0:0:0:0:
217,289,241814,6,0,P|281:334|359:327,1,160,2|2,0:0|0:0,0:0:0:0:
444,299,242351,1,2,3:2:0:0:
481,205,242529,2,0,B|499:162|484:126|470:139|441:100|461:54,1,160,2|2,0:0|0:0,0:0:0:0:
397,168,243064,2,0,P|338:163|289:147,1,80,2|2,3:2|0:0,0:0:0:0:
181,27,243422,6,0,B|169:70|169:70|175:122,1,80,14|2,0:0|0:0,0:0:0:0:
178,130,243689,1,0,0:0:0:0:
178,130,243779,1,2,3:2:0:0:
330,246,243957,6,0,B|298:214|298:214|250:193,1,80,10|0,0:0|3:2,0:0:0:0:
242,191,244224,1,0,3:2:0:0:
242,191,244314,1,2,3:2:0:0:
63,273,244493,6,0,B|106:261|106:261|148:230,1,80,10|2,3:2|3:2,0:0:0:0:
154,224,244760,1,0,3:2:0:0:
154,224,244850,1,0,3:2:0:0:
234,311,245029,5,2,3:2:0:0:
234,311,245118,1,0,3:2:0:0:
234,311,245208,1,10,0:0:0:0:
369,261,245386,2,0,L|367:221,1,40,2|0,0:0|3:2,0:0:0:0:
365,114,245565,1,6,3:2:0:0:
71,362,246279,6,0,B|81:324|73:299|64:305|61:277|82:222,1,120,6|0,3:2|0:0,0:0:0:0:
85,214,246636,1,10,0:0:0:0:
60,108,246814,1,10,0:0:0:0:
158,16,246993,2,0,P|165:64|156:128,1,80,2|0,0:0|3:2,0:0:0:0:
266,172,247350,2,0,P|260:133|261:93,1,80,10|2,0:0|0:0,0:0:0:0:
207,244,247707,6,0,B|238:261|264:269|264:269|292:262|344:243,1,120,2|0,3:2|0:0,0:0:0:0:
341,237,248064,1,10,0:0:0:0:
420,182,248243,1,10,0:0:0:0:
512,258,248421,2,0,P|508:297|498:336,1,80,0|0,0:0|3:2,0:0:0:0:
384,369,248778,1,10,0:0:0:0:
384,369,249136,6,0,P|325:356|267:370,1,120,6|0,3:2|0:0,0:0:0:0:
224,384,249493,1,10,0:0:0:0:
152,321,249671,1,8,0:0:0:0:
38,355,249850,2,0,P|43:323|48:252,1,80,2|0,0:0|3:2,0:0:0:0:
133,141,250207,2,0,P|127:180|123:220,1,80,10|2,0:0|0:0,0:0:0:0:
225,149,250564,5,2,3:2:0:0:
270,11,250743,1,2,0:0:0:0:
317,152,250921,1,10,0:0:0:0:
197,62,251100,1,10,0:0:0:0:
347,71,251279,2,0,B|383:88|412:81|406:63|433:50|507:71,1,160,2|14,0:0|0:0,0:0:0:0:
501,69,251993,6,0,P|486:126|492:216,1,120,6|0,3:2|0:0,0:0:0:0:
483,211,252350,1,10,0:0:0:0:
478,343,252528,1,10,0:0:0:0:
335,270,252707,2,0,L|423:275,1,80,2|0,0:0|3:0,0:0:0:0:
348,362,253064,1,10,0:0:0:0:
240,282,253243,5,2,0:0:0:0:
240,282,253332,1,0,0:0:0:0:
240,282,253422,2,0,B|188:285|188:285|164:280|164:280|97:285,1,120,6|0,3:2|0:0,0:0:0:0:
95,286,253778,1,10,0:0:0:0:
38,206,253957,1,10,0:0:0:0:
137,89,254136,2,0,P|136:128|129:168,1,80,0|0,0:0|3:2,0:0:0:0:
201,24,254493,1,10,0:0:0:0:
300,32,254671,5,2,0:0:0:0:
309,39,254761,1,0,0:0:0:0:
319,44,254850,6,0,P|358:64|460:54,1,120,6|0,3:2|0:0,0:0:0:0:
409,98,255207,2,0,P|361:96|317:78,1,96,2|0,3:2|0:0,0:0:0:0:
320,111,255564,2,0,P|353:124|388:129,1,71.9999978027344,2|0,3:2|0:0,0:0:0:0:
372,159,255921,2,0,P|343:153|318:143,1,48,2|0,3:2|0:0,0:0:0:0:
334,222,256278,5,10,0:0:0:0:
237,283,256457,1,2,0:0:0:0:
237,283,256546,1,2,3:2:0:0:
237,283,256636,1,10,0:0:0:0:
315,342,256814,1,2,3:2:0:0:
423,294,256993,1,6,3:2:0:0:
