osu file format v14

[General]
AudioFilename: audio.mp3
AudioLeadIn: 0
PreviewTime: 45613
Countdown: 0
SampleSet: Soft
StackLeniency: 0.7
Mode: 0
LetterboxInBreaks: 0
WidescreenStoryboard: 0

[Editor]
DistanceSpacing: 1
BeatDivisor: 4
GridSize: 32
TimelineZoom: 1.9

[Metadata]
Title:Watashi no Tenshi feat. Narumi Sena (CV: Amamiya Sora) (Cut Ver.)
TitleUnicode:ワタシノテンシ feat. 成海聖奈(CV:雨宮天) (Cut Ver.)
Artist:HoneyWorks
ArtistUnicode:HoneyWorks
Creator:[Karcher]
Version:Imouto
Source:
Tags:japanese jpop pop j-pop short my little angel very cute sister imouto
BeatmapID:2826439
BeatmapSetID:1366605

[Difficulty]
HPDrainRate:6
CircleSize:4
OverallDifficulty:8
ApproachRate:9
SliderMultiplier:1.9
SliderTickRate:1

[Events]
//Background and Video events
0,0,"bg.png",0,0
//Break Periods
//Storyboard Layer 0 (Background)
//Storyboard Layer 1 (Fail)
//Storyboard Layer 2 (Pass)
//Storyboard Layer 3 (Foreground)
//Storyboard Layer 4 (Overlay)
//Storyboard Sound Samples

[TimingPoints]
524,357.142857142857,4,2,1,50,1,0
524,-111.111111111111,4,2,1,50,0,0
6238,-100,4,2,1,60,0,0
6506,-100,4,2,1,5,0,0
6595,-100,4,2,1,60,0,0
9363,-100,4,2,1,5,0,0
9452,-100,4,2,1,60,0,0
9720,-100,4,2,1,5,0,0
9809,-100,4,2,1,60,0,0
10077,-100,4,2,1,5,0,0
10166,-100,4,2,1,60,0,0
10434,-100,4,2,1,5,0,0
10523,-100,4,2,1,60,0,0
11238,-200,4,2,1,60,0,0
11595,-200,4,2,1,60,0,0
11952,-125,4,2,1,50,0,0
23381,-111.111111111111,4,2,1,55,0,0
25523,-222.222222222222,4,2,1,55,0,0
26238,-111.111111111111,4,2,1,55,0,0
27666,-83.3333333333333,4,2,1,55,0,0
27934,-83.3333333333333,4,2,1,5,0,0
28023,-83.3333333333333,4,2,1,55,0,0
28291,-83.3333333333333,4,2,1,5,0,0
28381,-83.3333333333333,4,2,1,55,0,0
28648,-83.3333333333333,4,2,1,5,0,0
28738,-83.3333333333333,4,2,1,55,0,0
29095,-111.111111111111,4,2,1,55,0,0
34452,-111.111111111111,4,2,1,60,0,0
43381,-111.111111111111,4,2,1,70,0,0
43648,-111.111111111111,4,2,1,5,0,0
43738,-111.111111111111,4,2,1,70,0,0
45702,-111.111111111111,4,2,1,50,0,0
46238,-83.3333333333333,4,2,1,70,0,1
46506,-83.3333333333333,4,2,1,5,0,1
46595,-83.3333333333333,4,2,1,70,0,1
46684,-83.3333333333333,4,2,1,5,0,1
46773,-83.3333333333333,4,2,1,70,0,1
46863,-83.3333333333333,4,2,1,5,0,1
46952,-83.3333333333333,4,2,1,70,0,1
48113,-83.3333333333333,4,2,1,5,0,1
48202,-83.3333333333333,4,2,1,70,0,1
48470,-83.3333333333333,4,2,1,5,0,1
48559,-83.3333333333333,4,2,1,70,0,1
49363,-83.3333333333333,4,2,1,5,0,1
49452,-83.3333333333333,4,2,1,70,0,1
49541,-83.3333333333333,4,2,1,5,0,1
49631,-83.3333333333333,4,2,1,70,0,1
49720,-83.3333333333333,4,2,1,5,0,1
49809,-83.3333333333333,4,2,1,70,0,1
50970,-83.3333333333333,4,2,1,5,0,1
51059,-83.3333333333333,4,2,1,70,0,1
51327,-83.3333333333333,4,2,1,5,0,1
51416,-83.3333333333333,4,2,1,70,0,1
53827,-83.3333333333333,4,2,1,5,0,1
53916,-83.3333333333333,4,2,1,70,0,1
57131,-83.3333333333333,4,2,1,60,0,1
57666,-83.3333333333333,4,2,1,70,0,1
57934,-83.3333333333333,4,2,1,5,0,1
58023,-83.3333333333333,4,2,1,70,0,1
58113,-83.3333333333333,4,2,1,5,0,1
58202,-83.3333333333333,4,2,1,70,0,1
58291,-83.3333333333333,4,2,1,5,0,1
58381,-83.3333333333333,4,2,1,70,0,1
59541,-83.3333333333333,4,2,1,5,0,1
59631,-83.3333333333333,4,2,1,70,0,1
59898,-83.3333333333333,4,2,1,5,0,1
59988,-83.3333333333333,4,2,1,70,0,1
60791,-83.3333333333333,4,2,1,5,0,1
60881,-83.3333333333333,4,2,1,70,0,1
60970,-83.3333333333333,4,2,1,5,0,1
61059,-83.3333333333333,4,2,1,70,0,1
61148,-83.3333333333333,4,2,1,5,0,1
61238,-83.3333333333333,4,2,1,70,0,1
62398,-83.3333333333333,4,2,1,5,0,1
62488,-83.3333333333333,4,2,1,70,0,1
62756,-83.3333333333333,4,2,1,5,0,1
62845,-83.3333333333333,4,2,1,70,0,1
65256,-83.3333333333333,4,2,1,5,0,1
65345,-83.3333333333333,4,2,1,70,0,1
69095,-111.111111111111,4,2,1,55,0,0
71952,-83.3333333333333,4,2,1,70,0,1
74095,-111.111111111111,4,2,1,70,0,0
74809,-111.111111111111,4,2,1,60,0,0
80791,-111.111111111111,4,2,1,5,0,0
80881,-111.111111111111,4,2,1,60,0,0
83381,-100,4,2,1,60,0,0
83648,-100,4,2,1,5,0,0
83738,-100,4,2,1,60,0,0
84006,-100,4,2,1,5,0,0
84095,-100,4,2,1,60,0,0
84363,-100,4,2,1,5,0,0
84452,-100,4,2,1,60,0,0
84720,-100,4,2,1,5,0,0
84809,-100,4,2,1,60,0,0

[Colours]
Combo1 : 230,89,114
Combo2 : 254,188,107

[HitObjects]
43,21,524,6,0,L|52:112,1,85.4999973907472,2|0,1:2|0:0,0:0:0:0:
196,199,881,2,0,P|165:164|117:157,1,85.4999973907472,2|0,1:2|0:0,0:0:0:0:
47,273,1238,2,0,P|92:263|122:225,1,85.4999973907472,2|0,1:2|0:0,0:0:0:0:
51,106,1595,2,0,P|36:150|54:195,1,85.4999973907472,2|0,1:2|0:0,0:0:0:0:
186,287,1952,6,0,L|288:292,1,85.4999973907472,2|0,1:2|0:0,0:0:0:0:
348,273,2309,1,2,1:2:0:0:
306,117,2488,2,0,B|265:92|265:92|289:218,1,170.999994781494,2|0,0:0|0:0,0:0:0:0:
406,330,3023,2,0,P|428:294|427:252,1,85.4999973907472,2|0,1:2|0:0,0:0:0:0:
287,377,3381,5,2,1:2:0:0:
287,377,3738,2,0,P|236:363|218:331,1,85.4999973907472,2|0,1:2|0:0,0:0:0:0:
289,222,4095,2,0,P|302:273|283:304,1,85.4999973907472,2|0,1:2|0:0,0:0:0:0:
150,295,4452,2,0,P|191:260|228:261,1,85.4999973907472,2|0,1:2|0:0,0:0:0:0:
375,208,4809,5,2,1:2:0:0:
220,160,4988,1,2,0:0:0:0:
319,291,5166,1,2,1:2:0:0:
315,128,5345,1,2,0:0:0:0:
221,260,5523,2,0,L|125:271,1,85.4999973907472,2|2,1:2|0:0,0:0:0:0:
26,249,5881,1,0,1:2:0:0:
26,249,6238,6,0,B|7:223|22:187|22:187|67:187|92:162,1,142.5,14|0,0:0|0:0,0:0:0:0:
92,161,6595,1,2,1:2:0:0:
45,5,6773,2,0,L|31:108,1,95,8|2,0:0|0:0,0:0:0:0:
148,224,7131,1,0,1:2:0:0:
110,75,7309,1,10,0:0:0:0:
21,207,7488,1,0,1:2:0:0:
21,207,7577,1,0,1:2:0:0:
21,207,7666,6,0,L|29:303,1,95,6|0,1:2|1:2,0:0:0:0:
121,355,8023,1,2,1:2:0:0:
230,326,8202,2,0,L|220:224,1,95,10|0,0:0|1:2,0:0:0:0:
311,173,8559,1,0,1:2:0:0:
311,173,8648,1,8,0:0:0:0:
311,173,8738,1,10,0:0:0:0:
376,349,8916,1,8,0:0:0:0:
376,349,9006,1,8,0:0:0:0:
376,349,9095,6,0,P|420:325|369:340,1,142.5,14|0,0:0|0:0,0:0:0:0:
393,329,9452,2,0,L|387:172,1,142.5,2|0,1:2|0:0,0:0:0:0:
269,117,9809,2,0,B|289:221|289:221|311:185,1,142.5,2|0,1:2|0:0,0:0:0:0:
465,159,10166,2,0,P|431:118|345:115,1,142.5,2|0,1:2|0:0,0:0:0:0:
308,189,10523,5,2,1:2:0:0:
157,131,10702,1,2,0:0:0:0:
119,154,10791,1,2,0:0:0:0:
103,195,10881,1,2,0:0:0:0:
131,303,11059,1,2,0:0:0:0:
233,201,11238,6,0,L|229:99,1,95,2|0,0:0|0:0,0:0:0:0:
438,27,11952,6,0,L|432:106,1,76,4|0,1:2|0:0,0:0:0:0:
323,186,12309,1,8,0:0:0:0:
351,104,12488,1,8,0:0:0:0:
477,184,12666,2,0,L|382:175,1,76,2|2,0:0|0:0,0:0:0:0:
274,118,13023,1,10,0:0:0:0:
164,299,13381,6,0,L|239:293,1,76,0|0,1:2|0:0,0:0:0:0:
323,186,13738,1,8,0:0:0:0:
247,213,13916,1,8,0:0:0:0:
319,342,14095,2,0,L|313:255,1,76,2|2,0:0|1:2,0:0:0:0:
260,136,14452,1,10,0:0:0:0:
65,358,14809,6,0,L|77:282,1,76,0|0,1:2|0:0,0:0:0:0:
142,152,15166,1,10,0:0:0:0:
149,230,15345,1,10,0:0:0:0:
156,308,15523,1,2,0:0:0:0:
62,189,15702,5,2,0:0:0:0:
69,111,15880,1,10,0:0:0:0:
76,33,16059,1,2,0:0:0:0:
217,144,16238,6,0,L|127:153,1,76,2|0,1:2|0:0,0:0:0:0:
238,58,16595,1,10,0:0:0:0:
230,228,16773,2,0,P|293:190|299:118,1,152,10|0,0:0|1:2,0:0:0:0:
238,58,17309,1,8,0:0:0:0:
428,342,17666,6,0,L|421:267,1,76,4|0,1:2|0:0,0:0:0:0:
381,133,18023,1,8,0:0:0:0:
360,209,18202,1,8,0:0:0:0:
512,198,18381,2,0,L|437:191,1,76,2|2,0:0|0:0,0:0:0:0:
305,149,18738,1,10,0:0:0:0:
163,5,19095,6,0,L|173:87,1,76,0|0,1:2|0:0,0:0:0:0:
82,224,19452,1,8,0:0:0:0:
131,162,19631,1,8,0:0:0:0:
238,247,19809,2,0,L|162:237,1,76,2|2,0:0|1:2,0:0:0:0:
51,151,20166,1,10,0:0:0:0:
288,174,20523,5,2,1:2:0:0:
326,243,20702,1,2,0:0:0:0:
311,320,20881,1,10,0:0:0:0:
288,174,21059,5,10,0:0:0:0:
328,106,21238,1,2,0:0:0:0:
402,81,21417,1,2,1:2:0:0:
288,174,21595,5,10,0:0:0:0:
209,173,21774,1,2,0:0:0:0:
150,121,21952,2,0,L|144:32,2,76,10|2|2,0:0|1:2|1:2,0:0:0:0:
97,266,22488,2,0,P|63:222|134:202,1,152,10|0,0:0|1:2,0:0:0:0:
175,264,23023,1,8,0:0:0:0:
175,264,23381,5,6,1:2:0:0:
262,218,23559,1,2,0:0:0:0:
345,270,23738,1,10,0:0:0:0:
341,367,23916,1,10,0:0:0:0:
175,264,24095,5,2,0:0:0:0:
169,184,24273,1,2,0:0:0:0:
162,104,24452,1,10,0:0:0:0:
157,24,24631,1,2,0:0:0:0:
95,154,24809,5,2,1:2:0:0:
319,39,24988,2,0,L|232:29,1,85.4999973907472,2|8,0:0|0:0,0:0:0:0:
157,24,25345,1,10,0:0:0:0:
95,154,25523,5,2,0:0:0:0:
279,118,25702,2,0,L|227:111,1,42.7499986953736,2|8,1:2|0:0,0:0:0:0:
162,104,26059,1,2,0:0:0:0:
84,243,26238,5,2,1:2:0:0:
138,323,26416,1,2,0:0:0:0:
234,337,26595,1,10,0:0:0:0:
319,290,26773,1,10,0:0:0:0:
415,91,26952,5,2,0:0:0:0:
408,170,27131,1,2,1:2:0:0:
403,249,27309,1,10,0:0:0:0:
398,328,27488,1,2,0:0:0:0:
318,137,27666,6,0,P|332:71|417:96,1,170.999994781494,2|0,1:2|0:0,0:0:0:0:
318,137,28023,2,0,L|131:127,1,170.999994781494,10|0,0:0|0:0,0:0:0:0:
50,79,28381,2,0,P|122:54|147:127,1,170.999994781494,2|0,0:0|0:0,0:0:0:0:
95,200,28738,1,8,0:0:0:0:
226,133,29095,5,6,1:2:0:0:
320,181,29273,1,2,0:0:0:0:
414,131,29452,1,10,0:0:0:0:
413,24,29631,1,10,0:0:0:0:
226,133,29809,5,2,0:0:0:0:
233,213,29988,1,2,1:2:0:0:
241,292,30166,1,10,0:0:0:0:
249,372,30345,1,2,0:0:0:0:
167,257,30523,5,2,1:2:0:0:
326,283,30702,2,0,L|230:293,1,85.4999973907472,2|8,0:0|0:0,0:0:0:0:
106,318,31059,2,0,P|83:264|171:269,1,170.999994781494,10|0,0:0|1:2,0:0:0:0:
249,372,31595,2,0,L|334:363,1,85.4999973907472,10|0,0:0|0:0,0:0:0:0:
468,278,31952,6,0,B|415:252|415:252|437:371,1,170.999994781494,2|10,1:2|0:0,0:0:0:0:
476,188,32488,2,0,P|420:163|324:223,1,170.999994781494,10|0,0:0|1:2,0:0:0:0:
228,289,33023,2,0,L|131:285,1,85.4999973907472,10|0,0:0|0:0,0:0:0:0:
40,154,33381,5,14,0:0:0:0:
168,133,33559,1,2,1:2:0:0:
40,154,33738,1,2,1:2:0:0:
168,133,33916,1,14,0:0:0:0:
44,239,34095,2,0,L|39:147,1,85.4999973907472,2|0,0:0|1:2,0:0:0:0:
74,39,34452,1,10,0:0:0:0:
310,77,34809,5,6,1:2:0:0:
397,146,34988,1,2,0:0:0:0:
505,121,35166,1,10,0:0:0:0:
310,77,35345,2,0,L|317:175,1,85.4999973907472,10|0,0:0|0:0,0:0:0:0:
363,310,35702,2,0,L|369:224,1,85.4999973907472,2|8,0:0|0:0,0:0:0:0:
230,134,36059,6,0,L|237:232,1,85.4999973907472,2|0,1:2|0:0,0:0:0:0:
453,357,36416,2,0,L|459:271,1,85.4999973907472,2|8,1:2|0:0,0:0:0:0:
505,121,36773,2,0,P|454:94|450:187,1,170.999994781494,2|2,1:2|1:2,0:0:0:0:
367,246,37309,1,10,0:0:0:0:
273,237,37488,1,2,0:0:0:0:
241,148,37666,6,0,P|172:119|93:190,1,170.999994781494,6|10,1:2|0:0,0:0:0:0:
185,293,38202,2,0,L|177:193,1,85.4999973907472,10|0,0:0|0:0,0:0:0:0:
106,84,38559,2,0,L|99:169,1,85.4999973907472,2|8,1:2|0:0,0:0:0:0:
74,341,38916,6,0,P|33:319|100:257,1,170.999994781494,2|2,1:2|1:2,0:0:0:0:
185,293,39452,1,10,0:0:0:0:
279,265,39631,1,8,0:0:0:0:
327,179,39809,2,0,B|316:140|316:140|328:95,1,85.4999973907472,2|0,1:2|0:0,0:0:0:0:
412,48,40166,2,0,B|423:87|423:87|411:132,1,85.4999973907472,8|2,0:0|0:0,0:0:0:0:
327,179,40523,5,6,1:2:0:0:
215,179,40702,1,2,0:0:0:0:
145,91,40881,1,10,0:0:0:0:
327,179,41059,2,0,L|314:271,1,85.4999973907472,10|0,0:0|0:0,0:0:0:0:
417,367,41416,2,0,L|405:282,1,85.4999973907472,2|8,0:0|0:0,0:0:0:0:
230,225,41773,6,0,L|217:317,1,85.4999973907472,2|0,1:2|0:0,0:0:0:0:
512,313,42131,2,0,L|500:228,1,85.4999973907472,2|8,1:2|0:0,0:0:0:0:
356,87,42488,2,0,B|298:71|298:71|330:193,1,170.999994781494,10|2,0:0|1:2,0:0:0:0:
317,280,43023,1,14,0:0:0:0:
239,347,43202,1,2,0:0:0:0:
136,349,43381,6,0,B|138:297|138:297|123:278|123:278|128:224,1,128.249996086121,6|0,1:2|0:0,0:0:0:0:
136,149,43738,1,10,0:0:0:0:
202,263,43916,1,2,1:2:0:0:
61,185,44095,5,10,0:0:0:0:
213,120,44273,1,2,1:2:0:0:
278,272,44452,1,10,0:0:0:0:
126,337,44631,1,2,1:2:0:0:
213,120,44809,6,0,L|308:136,1,85.4999973907472,10|10,0:0|0:0,0:0:0:0:
373,148,45077,1,10,0:0:0:0:
373,148,45166,1,10,0:0:0:0:
136,105,45345,2,0,L|87:96,1,42.7499986953736,10|8,0:0|0:0,0:0:0:0:
18,81,45523,1,10,0:0:0:0:
213,120,45702,5,2,0:0:0:0:
196,195,45881,1,2,0:0:0:0:
178,269,46059,1,2,0:0:0:0:
155,369,46238,6,0,B|188:317|188:317|300:349,1,170.999994781494,6|0,1:2|0:0,0:0:0:0:
368,372,46595,2,0,P|376:344|368:316,1,56.9999982604981,8|0,0:0|0:0,0:0:0:0:
306,218,46773,2,0,P|299:245|306:273,1,56.9999982604981,8|0,0:0|0:0,0:0:0:0:
446,299,46952,5,2,0:0:0:0:
234,177,47131,1,2,1:2:0:0:
381,242,47309,1,10,0:0:0:0:
226,309,47488,1,2,0:0:0:0:
311,104,47666,6,0,L|306:225,1,113.999996520996,2|0,1:2|0:0,0:0:0:0:
151,367,48023,2,0,L|146:297,1,56.9999982604981,10|0,0:0|0:0,0:0:0:0:
120,233,48202,2,0,P|59:217|75:298,1,170.999994781494,8|0,0:0|0:0,0:0:0:0:
146,310,48559,5,2,1:2:0:0:
224,297,48738,1,10,0:0:0:0:
302,284,48916,1,2,0:0:0:0:
402,306,49095,6,0,P|353:272|368:171,1,170.999994781494,2|0,1:2|0:0,0:0:0:0:
425,78,49452,2,0,L|363:83,1,56.9999982604981,8|0,0:0|0:0,0:0:0:0:
238,121,49631,2,0,L|300:126,1,56.9999982604981,8|0,0:0|0:0,0:0:0:0:
454,162,49809,5,2,0:0:0:0:
265,31,49988,1,2,1:2:0:0:
366,172,50166,1,10,0:0:0:0:
393,0,50345,1,2,0:0:0:0:
264,140,50523,6,0,L|278:259,1,113.999996520996,2|0,1:2|0:0,0:0:0:0:
442,357,50881,2,0,L|451:296,1,56.9999982604981,10|0,0:0|0:0,0:0:0:0:
512,247,51059,2,0,B|461:209|461:209|353:257,1,170.999994781494,8|0,0:0|0:0,0:0:0:0:
362,252,51416,1,0,1:2:0:0:
204,349,51595,2,0,L|324:330,1,113.999996520996,12|0,0:0|0:0,0:0:0:0:
354,153,51952,5,6,1:2:0:0:
444,309,52131,1,2,0:0:0:0:
470,117,52309,5,10,0:0:0:0:
324,256,52488,1,10,0:0:0:0:
337,40,52666,6,0,L|355:161,1,113.999996520996,2|0,0:0|1:2,0:0:0:0:
226,295,53023,2,0,L|242:182,1,113.999996520996,10|2,0:0|0:0,0:0:0:0:
83,68,53381,5,2,1:2:0:0:
101,253,53559,1,2,0:0:0:0:
214,109,53738,2,0,L|148:117,1,56.9999982604981,10|0,0:0|0:0,0:0:0:0:
79,158,53916,2,0,P|7:140|95:80,1,227.999993041992,8|0,0:0|1:2,0:0:0:0:
242,182,54452,2,0,L|226:295,1,113.999996520996,8|0,0:0|0:0,0:0:0:0:
153,203,54809,5,2,1:2:0:0:
314,102,54988,1,2,0:0:0:0:
309,287,55166,5,10,0:0:0:0:
172,122,55345,1,10,0:0:0:0:
387,48,55523,6,0,B|405:100|405:100|385:163,1,113.999996520996,2|0,0:0|1:2,0:0:0:0:
234,341,55881,2,0,B|216:288|216:288|237:226,1,113.999996520996,10|10,0:0|0:3,0:0:0:0:
387,48,56238,5,2,1:2:0:0:
309,29,56416,1,2,1:2:0:0:
266,97,56595,1,14,0:0:0:0:
317,158,56773,1,0,0:0:0:0:
392,128,56952,1,0,1:2:0:0:
474,174,57131,5,2,1:2:0:0:
477,253,57309,1,14,0:0:0:0:
481,332,57488,1,2,0:0:0:0:
474,174,57666,6,0,B|418:130|418:130|316:173,1,170.999994781494,6|0,1:2|0:0,0:0:0:0:
227,254,58023,2,0,L|238:188,1,56.9999982604981,8|0,0:0|0:0,0:0:0:0:
245,61,58202,2,0,L|254:117,1,56.9999982604981,8|0,0:0|0:0,0:0:0:0:
311,253,58381,5,2,0:0:0:0:
154,75,58559,1,2,1:2:0:0:
326,168,58738,1,10,0:0:0:0:
135,203,58916,1,2,0:0:0:0:
337,54,59095,6,0,L|325:171,1,113.999996520996,2|0,1:2|0:0,0:0:0:0:
393,375,59452,2,0,L|403:310,1,56.9999982604981,10|0,0:0|0:0,0:0:0:0:
440,241,59631,2,0,B|324:219|388:281|256:239,1,170.999994781494,8|0,0:0|0:0,0:0:0:0:
196,196,59988,5,2,1:2:0:0:
189,275,60166,1,10,0:0:0:0:
182,354,60345,1,2,0:0:0:0:
196,196,60523,6,0,P|216:128|313:117,1,170.999994781494,2|0,1:2|0:0,0:0:0:0:
394,199,60881,2,0,L|383:132,1,56.9999982604981,8|0,0:0|0:0,0:0:0:0:
377,6,61059,2,0,L|367:62,1,56.9999982604981,8|0,0:0|0:0,0:0:0:0:
310,191,61238,5,2,0:0:0:0:
500,37,61416,1,2,1:2:0:0:
470,209,61595,1,10,0:0:0:0:
367,62,61773,1,2,0:0:0:0:
470,209,61952,6,0,L|457:330,1,113.999996520996,2|0,1:2|0:0,0:0:0:0:
224,370,62309,2,0,L|285:355,1,56.9999982604981,10|0,0:0|0:0,0:0:0:0:
365,339,62488,2,0,P|339:287|228:283,1,170.999994781494,8|0,0:0|0:0,0:0:0:0:
235,277,62845,1,0,1:2:0:0:
110,379,63023,2,0,L|232:369,1,113.999996520996,12|0,0:0|0:0,0:0:0:0:
92,187,63381,5,6,1:2:0:0:
0,373,63559,1,2,0:0:0:0:
0,170,63738,5,10,0:0:0:0:
147,303,63916,1,10,0:0:0:0:
180,85,64095,6,0,L|168:208,1,113.999996520996,2|0,0:0|1:2,0:0:0:0:
296,374,64452,2,0,L|284:260,1,113.999996520996,10|2,0:0|0:0,0:0:0:0:
354,63,64809,5,2,1:2:0:0:
417,236,64988,1,2,0:0:0:0:
292,168,65166,2,0,L|359:167,1,56.9999982604981,10|0,0:0|0:0,0:0:0:0:
430,153,65345,2,0,P|487:159|406:219,1,227.999993041992,8|0,0:0|1:2,0:0:0:0:
258,82,65881,2,0,L|136:72,1,113.999996520996,8|0,0:0|0:0,0:0:0:0:
20,47,66238,5,6,1:2:0:0:
180,150,66416,1,2,0:0:0:0:
11,208,66595,5,10,0:0:0:0:
144,72,66773,1,10,0:0:0:0:
167,264,66952,6,0,L|154:383,1,113.999996520996,2|0,0:0|1:2,0:0:0:0:
106,196,67309,1,10,0:0:0:0:
265,306,67488,1,2,0:0:0:0:
81,281,67666,5,2,1:2:0:0:
256,184,67845,1,2,0:0:0:0:
53,132,68023,1,10,0:0:0:0:
167,264,68202,1,10,0:0:0:0:
102,50,68381,1,2,0:0:0:0:
0,249,68559,1,0,1:2:0:0:
200,128,68738,1,10,0:0:0:0:
0,12,68916,1,8,0:0:0:0:
0,12,69006,1,8,0:0:0:0:
0,12,69095,6,0,L|9:105,1,85.4999973907472,6|2,1:2|0:0,0:0:0:0:
93,171,69452,1,2,1:2:0:0:
93,171,69631,2,0,L|84:256,1,85.4999973907472,2|0,0:0|1:2,0:0:0:0:
6,372,69988,1,2,0:0:0:0:
18,296,70166,1,2,1:2:0:0:
169,338,70345,6,0,L|71:349,1,85.4999973907472,2|0,0:0|1:2,0:0:0:0:
218,269,70702,1,2,0:0:0:0:
253,344,70881,1,2,1:2:0:0:
333,230,71059,2,0,P|271:199|220:280,1,170.999994781494,2|0,0:0|0:0,0:0:0:0:
389,384,71595,2,0,L|397:291,1,85.4999973907472,0|0,1:2|0:0,0:0:0:0:
381,123,71952,5,14,0:0:0:0:
496,254,72131,1,2,1:2:0:0:
496,254,72220,1,0,1:2:0:0:
496,254,72309,1,2,1:2:0:0:
310,179,72488,5,14,0:0:0:0:
512,74,72666,1,0,1:2:0:0:
508,118,72756,1,8,0:0:0:0:
504,164,72846,1,2,1:2:0:0:
305,259,73023,5,14,0:0:0:0:
420,111,73203,1,2,1:2:0:0:
418,133,73292,1,0,1:2:0:0:
416,156,73382,1,0,1:2:0:0:
276,50,73559,2,0,L|205:44,2,56.9999982604981,6|0|10,1:2|1:2|0:0,0:0:0:0:
504,164,73916,1,8,0:0:0:0:
500,208,74006,1,8,0:0:0:0:
496,254,74096,5,6,1:2:0:0:
184,152,74809,6,0,L|177:246,1,85.4999973907472,6|0,1:2|0:0,0:0:0:0:
65,330,75166,1,10,0:0:0:0:
98,257,75345,1,8,0:0:0:0:
147,319,75523,2,0,L|245:328,1,85.4999973907472,2|0,0:0|1:2,0:0:0:0:
350,241,75881,2,0,L|252:250,1,85.4999973907472,10|0,0:0|0:0,0:0:0:0:
98,257,76238,6,0,P|52:215|145:186,1,170.999994781494,2|10,1:2|0:0,0:0:0:0:
222,149,76773,2,0,B|323:116|276:178|391:139,1,170.999994781494,10|0,0:0|1:2,0:0:0:0:
493,53,77309,2,0,L|482:154,1,85.4999973907472,10|0,0:0|0:0,0:0:0:0:
477,216,77666,1,6,1:2:0:0:
477,216,78023,6,0,L|466:317,1,85.4999973907472,10|8,0:0|0:0,0:0:0:0:
348,384,78381,1,2,0:0:0:0:
323,308,78559,1,0,1:2:0:0:
272,369,78738,2,0,L|169:371,1,85.4999973907472,10|0,0:0|0:0,0:0:0:0:
59,230,79095,5,2,1:2:0:0:
214,182,79274,1,2,0:0:0:0:
115,313,79452,1,10,0:0:0:0:
119,150,79631,1,10,0:0:0:0:
213,282,79809,2,0,L|309:293,1,85.4999973907472,6|2,0:0|1:2,0:0:0:0:
399,303,80166,1,12,0:0:0:0:
399,303,80523,6,0,L|392:169,1,128.249996086121,2|0,1:2|0:0,0:0:0:0:
386,98,80881,1,10,0:0:0:0:
499,231,81059,1,8,0:0:0:0:
317,146,81238,2,0,P|304:104|313:59,1,85.4999973907472,2|0,0:0|1:2,0:0:0:0:
456,51,81595,2,0,P|469:93|460:138,1,85.4999973907472,10|0,0:0|0:0,0:0:0:0:
319,223,81952,6,0,L|224:236,1,85.4999973907472,2|0,1:2|0:0,0:0:0:0:
74,285,82309,1,10,0:0:0:0:
185,148,82488,2,0,B|222:114|222:114|234:234,1,170.999994781494,10|0,0:0|1:2,0:0:0:0:
159,346,83023,2,0,L|153:246,1,85.4999973907472,10|0,0:0|0:0,0:0:0:0:
138,79,83381,6,0,P|81:87|108:150,1,142.5,6|0,1:2|0:0,0:0:0:0:
185,148,83738,2,0,L|331:161,1,142.5,2|0,1:2|0:0,0:0:0:0:
438,147,84095,2,0,B|396:126|396:126|423:228,1,142.5,2|0,1:2|0:0,0:0:0:0:
490,350,84452,2,0,P|444:367|445:295,1,142.5,2|0,1:2|0:0,0:0:0:0:
497,239,84809,5,10,0:0:0:0:
341,318,84988,1,2,1:2:0:0:
297,312,85077,1,2,1:2:0:0:
258,289,85166,1,10,0:0:0:0:
225,147,85345,1,2,1:2:0:0:
327,231,85523,1,6,1:2:0:0:
