osu file format v14

[General]
AudioFilename: audio.mp3
AudioLeadIn: 0
PreviewTime: 45613
Countdown: 0
SampleSet: Soft
StackLeniency: 0.4
Mode: 0
LetterboxInBreaks: 0
WidescreenStoryboard: 1

[Editor]
DistanceSpacing: 1.3
BeatDivisor: 4
GridSize: 32
TimelineZoom: 1.9

[Metadata]
Title:Watashi no Tenshi feat. Narumi Sena (CV: Amamiya Sora) (Cut Ver.)
TitleUnicode:ワタシノテンシ feat. 成海聖奈(CV:雨宮天) (Cut Ver.)
Artist:HoneyWorks
ArtistUnicode:HoneyWorks
Creator:[Karcher]
Version:Hard
Source:
Tags:japanese jpop pop j-pop short my little angel very cute sister imouto
BeatmapID:2826438
BeatmapSetID:1366605

[Difficulty]
HPDrainRate:5
CircleSize:4
OverallDifficulty:6.5
ApproachRate:7.5
SliderMultiplier:1.5
SliderTickRate:1

[Events]
//Background and Video events
0,0,"bg.png",0,0
//Break Periods
//Storyboard Layer 0 (Background)
//Storyboard Layer 1 (Fail)
//Storyboard Layer 2 (Pass)
//Storyboard Layer 3 (Foreground)
//Storyboard Layer 4 (Overlay)
//Storyboard Sound Samples

[TimingPoints]
524,357.142857142857,4,2,1,50,1,0
524,-111.111111111111,4,2,1,50,0,0
6238,-111.111111111111,4,2,1,60,0,0
11952,-111.111111111111,4,2,1,50,0,0
23381,-111.111111111111,4,2,1,55,0,0
34452,-111.111111111111,4,2,1,60,0,0
34631,-100,4,2,1,60,0,0
34809,-100,4,2,1,60,0,0
43381,-100,4,2,1,70,0,0
45702,-100,4,2,1,50,0,0
46238,-90.9090909090909,4,2,1,70,0,1
57131,-90.9090909090909,4,2,1,60,0,1
57666,-90.9090909090909,4,2,1,70,0,1
69095,-111.111111111111,4,2,1,55,0,0
71952,-90.9090909090909,4,2,1,70,0,1
74095,-111.111111111111,4,2,1,70,0,0
74809,-111.111111111111,4,2,1,60,0,0

[Colours]
Combo1 : 230,89,114
Combo2 : 254,188,107

[HitObjects]
38,39,524,6,0,L|116:48,1,67.4999979400635,2|0,1:2|0:0,0:0:0:0:
192,48,881,2,0,P|150:56|135:152,1,134.999995880127,2|2,1:2|1:2,0:0:0:0:
144,220,1416,1,0,0:0:0:0:
144,220,1595,2,0,L|135:303,1,67.4999979400635,2|0,1:2|0:0,0:0:0:0:
86,359,1952,6,0,P|36:358|58:290,1,134.999995880127,2|2,1:2|1:2,0:0:0:0:
136,287,2488,2,0,L|282:300,1,134.999995880127,2|0,0:0|0:0,0:0:0:0:
347,340,3023,2,0,L|425:332,1,67.4999979400635,2|0,1:2|0:0,0:0:0:0:
494,297,3381,1,2,1:2:0:0:
494,297,3738,6,0,L|491:219,1,67.4999979400635,2|0,1:2|0:0,0:0:0:0:
491,141,4095,2,0,B|450:116|450:116|360:148,1,134.999995880127,2|2,1:2|1:2,0:0:0:0:
194,169,4809,6,0,P|196:132|214:103,1,67.4999979400635,2|2,1:2|0:0,0:0:0:0:
285,152,5166,2,0,P|283:189|265:218,1,67.4999979400635,2|2,1:2|0:0,0:0:0:0:
192,260,5523,2,0,L|40:281,1,134.999995880127,2|0,1:2|1:2,0:0:0:0:
220,347,6238,6,0,P|261:320|276:235,1,134.999995880127,14|2,0:0|1:2,0:0:0:0:
278,152,6773,2,0,P|284:86|335:44,1,134.999995880127,8|0,0:0|1:2,0:0:0:0:
423,37,7309,1,10,0:0:0:0:
492,90,7488,1,0,1:2:0:0:
492,90,7577,1,0,1:2:0:0:
492,90,7666,6,0,B|510:154|510:154|489:222,1,134.999995880127,6|2,1:2|1:2,0:0:0:0:
439,291,8202,2,0,L|350:299,1,67.4999979400635,10|0,0:0|1:2,0:0:0:0:
284,291,8559,2,0,L|261:329,2,33.7499989700318,0|8|10,1:2|0:0|0:0,0:0:0:0:
239,215,8916,1,8,0:0:0:0:
239,215,9006,1,8,0:0:0:0:
239,215,9095,5,14,0:0:0:0:
65,186,9452,1,2,1:2:0:0:
94,12,9809,1,2,1:2:0:0:
268,41,10166,1,2,1:2:0:0:
239,215,10523,5,2,1:2:0:0:
151,202,10702,1,2,0:0:0:0:
151,202,10791,1,2,0:0:0:0:
151,202,10881,1,2,0:0:0:0:
164,114,11059,1,2,0:0:0:0:
252,127,11238,1,2,0:0:0:0:
252,127,11952,6,0,L|344:112,1,67.4999979400635,4|0,1:2|0:0,0:0:0:0:
405,102,12309,1,8,0:0:0:0:
405,102,12488,1,8,0:0:0:0:
489,123,12666,2,0,L|483:207,2,67.4999979400635,2|2|10,0:0|0:0|0:0,0:0:0:0:
341,27,13381,6,0,L|274:37,1,67.4999979400635,0|0,1:2|0:0,0:0:0:0:
191,67,13738,1,8,0:0:0:0:
191,67,13916,1,8,0:0:0:0:
103,71,14095,2,0,L|99:1,2,67.4999979400635,2|2|10,0:0|1:2|0:0,0:0:0:0:
91,248,14809,6,0,P|86:207|170:165,1,134.999995880127,0|10,1:2|0:0,0:0:0:0:
234,200,15345,1,10,0:0:0:0:
258,283,15523,2,0,L|252:363,1,67.4999979400635,2|2,0:0|0:0,0:0:0:0:
340,347,15881,2,0,L|345:279,1,67.4999979400635,10|2,0:0|0:0,0:0:0:0:
407,217,16238,6,0,P|469:211|495:282,1,134.999995880127,2|10,1:2|0:0,0:0:0:0:
502,356,16773,1,10,0:0:0:0:
345,280,17131,1,0,1:2:0:0:
268,236,17309,2,0,L|184:235,1,67.4999979400635,8|0,0:0|0:0,0:0:0:0:
114,252,17666,6,0,P|162:207|146:143,1,134.999995880127,4|8,1:2|0:0,0:0:0:0:
83,85,18202,1,8,0:0:0:0:
165,55,18381,2,0,L|241:67,2,67.4999979400635,2|2|10,0:0|0:0|0:0,0:0:0:0:
50,188,19095,6,0,P|22:251|48:312,1,134.999995880127,0|8,1:2|0:0,0:0:0:0:
125,344,19631,1,8,0:0:0:0:
194,290,19809,2,0,L|188:214,2,67.4999979400635,2|2|10,0:0|1:2|0:0,0:0:0:0:
279,137,20523,6,0,P|247:112|214:107,2,67.4999979400635,2|2|10,1:2|0:0|0:0,0:0:0:0:
362,164,21059,2,0,P|367:123|355:92,2,67.4999979400635,10|2|2,0:0|0:0|1:2,0:0:0:0:
380,249,21595,2,0,P|417:233|438:207,1,67.4999979400635,10|2,0:0|0:0,0:0:0:0:
497,275,21952,5,10,0:0:0:0:
430,333,22131,1,2,1:2:0:0:
343,342,22309,1,2,1:2:0:0:
262,307,22488,2,0,B|219:279|219:279|128:315,1,134.999995880127,10|0,0:0|1:2,0:0:0:0:
61,344,23023,1,8,0:0:0:0:
61,344,23381,6,0,L|56:268,1,67.4999979400635,6|2,1:2|0:0,0:0:0:0:
41,189,23738,1,10,0:0:0:0:
68,105,23916,1,10,0:0:0:0:
147,66,24095,2,0,L|231:71,1,67.4999979400635,2|2,0:0|0:0,0:0:0:0:
265,141,24452,2,0,L|332:134,1,67.4999979400635,10|2,0:0|0:0,0:0:0:0:
417,112,24809,5,2,1:2:0:0:
481,52,24988,2,0,P|422:49|420:116,1,134.999995880127,2|10,0:0|0:0,0:0:0:0:
466,183,25523,1,2,0:0:0:0:
472,270,25702,2,0,B|482:341|482:341|402:356,1,134.999995880127,2|2,1:2|0:0,0:0:0:0:
339,316,26238,6,0,L|267:327,1,67.4999979400635,2|2,1:2|0:0,0:0:0:0:
199,276,26595,1,10,0:0:0:0:
180,190,26773,1,10,0:0:0:0:
236,122,26952,2,0,L|221:50,1,67.4999979400635,2|2,0:0|1:2,0:0:0:0:
139,24,27309,2,0,L|67:39,1,67.4999979400635,10|2,0:0|0:0,0:0:0:0:
15,104,27666,6,0,L|28:170,1,67.4999979400635,2|0,1:2|0:0,0:0:0:0:
16,257,28023,2,0,L|12:326,1,67.4999979400635,10|8,0:0|0:0,0:0:0:0:
76,384,28381,2,0,B|129:374|129:374|124:275,1,134.999995880127,2|8,0:0|0:0,0:0:0:0:
287,238,29095,6,0,L|355:247,1,67.4999979400635,6|2,1:2|0:0,0:0:0:0:
392,325,29452,1,10,0:0:0:0:
479,316,29631,1,10,0:0:0:0:
511,235,29809,2,0,L|504:164,1,67.4999979400635,2|2,0:0|1:2,0:0:0:0:
416,172,30166,2,0,L|423:101,1,67.4999979400635,10|2,0:0|0:0,0:0:0:0:
485,43,30523,5,2,1:2:0:0:
400,17,30702,2,0,B|305:-3|357:52|250:20,1,134.999995880127,2|10,0:0|0:0,0:0:0:0:
181,18,31238,2,0,P|129:20|140:89,1,134.999995880127,0|10,0:0|0:0,0:0:0:0:
297,155,31952,6,0,L|272:304,1,134.999995880127,2|10,1:2|0:0,0:0:0:0:
224,360,32488,2,0,B|190:328|190:328|92:360,1,134.999995880127,10|0,0:0|1:2,0:0:0:0:
22,381,33023,2,0,L|20:303,1,67.4999979400635,10|0,0:0|0:0,0:0:0:0:
16,225,33381,5,14,0:0:0:0:
29,137,33559,1,2,1:2:0:0:
115,122,33738,1,2,1:2:0:0:
156,200,33916,1,14,0:0:0:0:
95,263,34095,1,2,0:0:0:0:
50,3,34631,5,2,0:0:0:0:
130,42,34809,2,0,L|214:48,2,75,6|2|10,1:2|0:0|0:0,0:0:0:0:
58,96,35345,2,0,B|29:169|29:169|53:242,1,150,10|2,0:0|0:0,0:0:0:0:
121,293,35881,1,8,0:0:0:0:
121,293,36059,6,0,P|169:252|221:309,1,150,2|2,1:2|1:2,0:0:0:0:
388,369,36773,2,0,B|354:321|354:321|387:230,1,150,2|2,1:2|1:2,0:0:0:0:
461,187,37309,2,0,L|471:102,1,75,10|2,0:0|0:0,0:0:0:0:
414,41,37666,6,0,P|369:29|343:112,1,150,6|10,1:2|0:0,0:0:0:0:
313,195,38202,2,0,B|210:166|262:230|149:190,1,150,10|2,0:0|1:2,0:0:0:0:
91,147,38738,1,8,0:0:0:0:
91,147,38916,6,0,B|33:140|33:140|25:234,1,150,2|2,1:2|1:2,0:0:0:0:
60,314,39452,2,0,L|140:302,1,75,10|8,0:0|0:0,0:0:0:0:
219,272,39809,1,2,1:2:0:0:
249,94,40166,5,8,0:0:0:0:
249,94,40345,1,2,0:0:0:0:
332,125,40523,2,0,L|417:112,2,75,6|2|10,1:2|0:0|0:0,0:0:0:0:
259,179,41059,2,0,P|221:215|249:305,1,150,10|2,0:0|0:0,0:0:0:0:
415,353,41773,6,0,B|404:248|404:248|373:286,1,150,2|2,1:2|1:2,0:0:0:0:
324,356,42309,1,8,0:0:0:0:
324,356,42488,2,0,B|253:380|253:380|167:368,1,150,10|2,0:0|1:2,0:0:0:0:
100,326,43023,2,0,L|99:239,1,75,14|2,0:0|0:0,0:0:0:0:
93,160,43381,1,6,1:2:0:0:
93,160,43738,6,0,L|179:172,1,75,10|2,0:0|1:2,0:0:0:0:
248,210,44095,2,0,L|322:199,1,75,10|2,0:0|1:2,0:0:0:0:
418,224,44452,1,10,0:0:0:0:
457,142,44631,1,2,1:2:0:0:
398,74,44809,5,10,0:0:0:0:
315,107,44988,2,0,L|274:87,2,37.5,10|10|10,0:0|0:0|0:0,0:0:0:0:
322,198,45345,1,10,0:0:0:0:
322,198,45434,1,8,0:0:0:0:
322,198,45523,1,10,0:0:0:0:
322,198,46238,6,0,P|249:181|192:252,1,165.000005035401,6|8,1:2|0:0,0:0:0:0:
143,320,46773,1,8,0:0:0:0:
143,320,46952,2,0,L|56:309,1,82.5000025177003,2|2,0:0|1:2,0:0:0:0:
15,229,47309,1,10,0:0:0:0:
106,212,47488,1,2,0:0:0:0:
193,241,47666,6,0,B|237:202|237:202|351:253,1,165.000005035401,2|10,1:2|0:0,0:0:0:0:
413,293,48202,2,0,P|381:256|410:152,1,165.000005035401,8|2,0:0|1:2,0:0:0:0:
487,102,48738,1,10,0:0:0:0:
434,25,48916,1,2,0:0:0:0:
355,75,49095,6,0,B|309:114|309:114|200:79,1,165.000005035401,2|8,1:2|0:0,0:0:0:0:
123,44,49631,1,8,0:0:0:0:
123,44,49809,2,0,L|132:134,1,82.5000025177003,2|2,0:0|1:2,0:0:0:0:
198,188,50166,1,10,0:0:0:0:
195,280,50345,1,2,0:0:0:0:
119,332,50523,6,0,P|65:307|122:241,1,165.000005035401,2|10,1:2|0:0,0:0:0:0:
195,280,51059,2,0,L|367:301,1,165.000005035401,8|0,0:0|1:2,0:0:0:0:
442,340,51595,1,12,0:0:0:0:
442,340,51952,6,0,L|447:252,1,82.5000025177003,6|2,1:2|0:0,0:0:0:0:
374,204,52309,2,0,L|369:121,1,82.5000025177003,10|10,0:0|0:0,0:0:0:0:
439,61,52666,2,0,P|497:73|453:143,1,165.000005035401,2|10,0:0|0:0,0:0:0:0:
369,121,53202,1,2,0:0:0:0:
369,121,53381,6,0,L|274:104,1,82.5000025177003,2|2,1:2|0:0,0:0:0:0:
197,83,53738,1,10,0:0:0:0:
113,123,53916,2,0,B|75:201|75:201|107:280,1,165.000005035401,8|0,0:0|1:2,0:0:0:0:
153,353,54452,1,8,0:0:0:0:
252,195,54809,6,0,L|162:207,1,82.5000025177003,2|2,1:2|0:0,0:0:0:0:
104,273,55166,2,0,L|22:262,1,82.5000025177003,10|10,0:0|0:0,0:0:0:0:
17,168,55523,2,0,B|1:87|1:87|84:73,1,165.000005035401,2|10,0:0|0:0,0:0:0:0:
175,72,56059,1,10,0:3:0:0:
175,72,56148,1,8,0:3:0:0:
175,72,56238,6,0,L|165:163,2,82.5000025177003,2|2|14,1:2|1:2|0:0,0:0:0:0:
261,38,56773,2,0,L|275:135,1,82.5000025177003,0|0,0:0|1:2,0:0:0:0:
296,210,57131,5,2,1:2:0:0:
387,226,57309,1,14,0:0:0:0:
441,150,57487,1,2,0:0:0:0:
396,66,57666,6,0,P|327:52|273:136,1,165.000005035401,6|8,1:2|0:0,0:0:0:0:
192,167,58202,1,8,0:0:0:0:
192,167,58381,2,0,L|98:157,1,82.5000025177003,2|2,0:0|1:2,0:0:0:0:
72,243,58738,1,10,0:0:0:0:
161,264,58916,1,2,0:0:0:0:
253,249,59095,6,0,B|299:206|299:206|394:251,1,165.000005035401,2|10,1:2|0:0,0:0:0:0:
455,317,59631,2,0,P|482:273|430:167,1,165.000005035401,8|2,0:0|1:2,0:0:0:0:
359,136,60166,1,10,0:0:0:0:
269,110,60345,1,2,0:0:0:0:
181,78,60523,6,0,P|131:73|114:178,1,165.000005035401,2|8,1:2|0:0,0:0:0:0:
132,254,61059,1,8,0:0:0:0:
132,254,61238,2,0,L|41:268,1,82.5000025177003,2|2,0:0|1:2,0:0:0:0:
35,357,61595,1,10,0:0:0:0:
126,364,61773,1,2,0:0:0:0:
208,322,61952,6,0,P|231:268|177:168,1,165.000005035401,2|10,1:2|0:0,0:0:0:0:
97,162,62488,2,0,P|56:92|79:16,1,165.000005035401,8|0,0:0|1:2,0:0:0:0:
171,3,63023,1,12,0:0:0:0:
171,3,63381,6,0,L|263:11,1,82.5000025177003,6|2,1:2|0:0,0:0:0:0:
268,102,63738,2,0,L|350:94,1,82.5000025177003,10|10,0:0|0:0,0:0:0:0:
432,51,64095,2,0,P|469:34|481:126,1,165.000005035401,2|10,0:0|0:0,0:0:0:0:
430,193,64631,1,2,0:0:0:0:
430,193,64809,6,0,L|446:281,1,82.5000025177003,2|2,1:2|0:0,0:0:0:0:
465,365,65166,1,10,0:0:0:0:
378,329,65345,2,0,B|319:301|319:301|217:348,1,165.000005035401,8|0,0:0|1:2,0:0:0:0:
132,379,65881,1,8,0:0:0:0:
132,379,66238,6,0,L|121:298,1,82.5000025177003,6|2,1:2|0:0,0:0:0:0:
30,317,66595,2,0,L|40:236,1,82.5000025177003,10|10,0:0|0:0,0:0:0:0:
129,208,66952,2,0,B|233:202|233:202|239:277,1,165.000005035401,2|10,0:0|0:0,0:0:0:0:
234,355,67488,1,2,0:0:0:0:
316,314,67666,6,0,L|402:321,2,82.5000025177003,2|2|10,1:2|0:0|0:0,0:0:0:0:
237,262,68202,1,10,0:0:0:0:
272,177,68381,2,0,P|319:217|315:315,1,165.000005035401,2|10,0:0|0:0,0:0:0:0:
234,355,68916,1,8,0:0:0:0:
234,355,69006,1,8,0:0:0:0:
234,355,69095,6,0,L|158:347,2,67.4999979400635,6|2|2,1:2|0:0|1:2,0:0:0:0:
315,313,69631,2,0,B|379:328|379:328|441:299,1,134.999995880127,2|2,0:0|0:0,0:0:0:0:
480,220,70166,1,2,1:2:0:0:
461,134,70345,6,0,B|422:109|422:109|335:137,1,134.999995880127,2|2,0:0|0:0,0:0:0:0:
263,182,70881,1,2,1:2:0:0:
175,181,71059,2,0,P|193:125|273:99,1,134.999995880127,2|0,0:0|0:0,0:0:0:0:
337,136,71595,1,0,1:2:0:0:
337,136,71952,6,0,P|372:182|344:245,1,123.75000377655,14|0,0:0|1:2,0:0:0:0:
351,239,72309,1,2,1:2:0:0:
320,313,72488,2,0,B|269:276|269:276|163:312,1,165.000005035401,14|2,0:0|1:2,0:0:0:0:
113,383,73023,1,14,0:0:0:0:
83,292,73202,1,2,1:2:0:0:
83,292,73291,1,0,1:2:0:0:
83,292,73381,6,0,L|94:205,1,82.5000025177003,0|6,1:2|1:2,0:0:0:0:
179,168,73738,2,0,L|173:85,1,82.5000025177003,10|8,0:0|0:0,0:0:0:0:
133,7,74095,1,6,1:2:0:0:
133,7,74809,6,0,L|130:81,1,67.4999979400635,6|0,1:2|0:0,0:0:0:0:
89,152,75166,2,0,P|133:120|198:155,1,134.999995880127,10|2,0:0|0:0,0:0:0:0:
215,240,75702,1,0,1:2:0:0:
215,240,75881,2,0,L|204:325,1,67.4999979400635,10|0,0:0|0:0,0:0:0:0:
272,364,76238,6,0,B|309:328|309:328|388:356,1,134.999995880127,2|10,1:2|0:0,0:0:0:0:
472,375,76773,2,0,L|483:241,1,134.999995880127,10|0,0:0|1:2,0:0:0:0:
485,152,77309,2,0,L|479:74,1,67.4999979400635,10|0,0:0|0:0,0:0:0:0:
449,2,77666,1,6,1:2:0:0:
449,2,78023,6,0,L|367:18,1,67.4999979400635,10|8,0:0|0:0,0:0:0:0:
298,40,78381,2,0,P|256:77|273:155,1,134.999995880127,2|10,0:0|0:0,0:0:0:0:
376,286,79095,6,0,P|386:325|369:366,1,67.4999979400635,2|2,1:2|0:0,0:0:0:0:
298,384,79452,2,0,P|287:344|304:303,1,67.4999979400635,10|10,0:0|0:0,0:0:0:0:
297,231,79809,2,0,P|246:228|162:278,1,134.999995880127,6|12,0:0|0:0,0:0:0:0:
25,360,80523,6,0,L|33:283,1,67.4999979400635,2|0,1:2|0:0,0:0:0:0:
34,204,80881,2,0,P|69:260|134:254,1,134.999995880127,10|2,0:0|0:0,0:0:0:0:
183,185,81416,1,0,1:2:0:0:
183,185,81595,2,0,L|173:112,1,67.4999979400635,10|0,0:0|0:0,0:0:0:0:
107,60,81952,6,0,B|139:20|139:20|224:44,1,134.999995880127,2|10,1:2|0:0,0:0:0:0:
264,118,82488,2,0,L|401:131,1,134.999995880127,10|0,0:0|1:2,0:0:0:0:
472,177,83023,2,0,P|485:139|481:104,1,67.4999979400635,10|0,0:0|0:0,0:0:0:0:
422,47,83381,5,6,1:2:0:0:
248,72,83738,1,2,1:2:0:0:
273,246,84095,1,2,1:2:0:0:
447,221,84452,1,2,1:2:0:0:
422,47,84809,5,10,0:0:0:0:
335,60,84988,1,2,1:2:0:0:
335,60,85077,1,2,1:2:0:0:
335,60,85166,1,10,0:0:0:0:
348,147,85345,1,2,1:2:0:0:
435,134,85523,1,6,1:2:0:0:
