osu file format v14

[General]
AudioFilename: audio.mp3
AudioLeadIn: 0
PreviewTime: 45613
Countdown: 0
SampleSet: Soft
StackLeniency: 0.7
Mode: 0
LetterboxInBreaks: 0
WidescreenStoryboard: 1

[Editor]
Bookmarks: 524,11952,23381,34809,46238,57666,69095,74809,85523
DistanceSpacing: 1.13
BeatDivisor: 4
GridSize: 16
TimelineZoom: 1.7

[Metadata]
Title:Watashi no Tenshi feat. Narumi Sena (CV: Amamiya Sora)
TitleUnicode:ワタシノテンシ feat. 成海聖奈(CV:雨宮天)
Artist:HoneyWorks
ArtistUnicode:HoneyWorks
Creator:C O N N E R
Version:Xenon's Insane
Source:
Tags:short ver my little angel very very cute sister imouto mona gom [_lost_] conner c_o_n_n_e_r frozz FzL_17 Hikan Xen Xenon- Xehn Serizawa Haruki J_a_c_k Jack japanese jpop pop j-pop
BeatmapID:2283859
BeatmapSetID:1086772

[Difficulty]
HPDrainRate:5
CircleSize:4
OverallDifficulty:7.5
ApproachRate:8.5
SliderMultiplier:0.999999999999999
SliderTickRate:1

[Events]
//Background and Video events
0,0,"BG.jpg",0,0
//Break Periods
//Storyboard Layer 0 (Background)
//Storyboard Layer 1 (Fail)
//Storyboard Layer 2 (Pass)
//Storyboard Layer 3 (Foreground)
//Storyboard Layer 4 (Overlay)
//Storyboard Sound Samples

[TimingPoints]
524,357.142857142857,4,2,1,50,1,0
524,-71.4285714285714,4,2,1,50,0,0
6238,-60.6060606060606,4,2,1,70,0,0
9363,-60.6060606060606,4,2,1,5,0,0
9452,-60.6060606060606,4,2,1,70,0,0
9720,-60.6060606060606,4,2,1,5,0,0
9809,-60.6060606060606,4,2,1,70,0,0
10077,-60.6060606060606,4,2,1,5,0,0
10166,-60.6060606060606,4,2,1,70,0,0
10434,-60.6060606060606,4,2,1,5,0,0
10523,-60.6060606060606,4,2,1,70,0,0
10702,-71.4285714285714,4,2,1,70,0,0
11952,-71.4285714285714,4,2,1,55,0,0
23381,-71.4285714285714,4,2,1,60,0,0
27934,-71.4285714285714,4,2,1,5,0,0
28023,-71.4285714285714,4,2,1,60,0,0
32220,-71.4285714285714,4,2,1,5,0,0
32309,-71.4285714285714,4,2,1,60,0,0
34809,-62.5,4,2,1,65,0,0
35613,-62.5,4,2,1,5,0,0
35702,-62.5,4,2,1,65,0,0
37934,-62.5,4,2,1,5,0,0
38023,-62.5,4,2,1,65,0,0
41327,-62.5,4,2,1,5,0,0
41416,-62.5,4,2,1,65,0,0
43648,-62.5,4,2,1,5,0,0
43738,-62.5,4,2,1,65,0,0
45523,-71.4285714285714,4,2,1,65,0,0
46238,-50,4,2,1,80,0,1
47934,-50,4,2,1,5,0,1
48023,-50,4,2,1,80,0,1
50791,-50,4,2,1,5,0,1
50881,-50,4,2,1,80,0,1
52934,-50,4,2,1,5,0,1
53023,-50,4,2,1,80,0,1
55791,-50,4,2,1,5,0,1
55881,-50,4,2,1,80,0,1
59363,-50,4,2,1,5,0,1
59452,-50,4,2,1,80,0,1
62220,-50,4,2,1,5,0,1
62309,-50,4,2,1,80,0,1
64363,-50,4,2,1,5,0,1
64452,-50,4,2,1,80,0,1
67220,-50,4,2,1,5,0,1
67309,-50,4,2,1,80,0,1
67934,-50,4,2,1,5,0,1
68023,-50,4,2,1,80,0,1
69095,-62.5,4,2,1,60,0,0
71952,-50,4,2,1,80,0,1
74095,-100,4,2,1,80,0,0
74809,-71.4285714285714,4,2,1,70,0,0
80523,-60.6060606060606,4,2,1,70,0,0
80791,-60.6060606060606,4,2,1,5,0,0
80881,-60.6060606060606,4,2,1,70,0,0
82220,-60.6060606060606,4,2,1,5,0,0
82309,-60.6060606060606,4,2,1,70,0,0
83648,-60.6060606060606,4,2,1,5,0,0
83738,-60.6060606060606,4,2,1,70,0,0
84006,-60.6060606060606,4,2,1,5,0,0
84095,-60.6060606060606,4,2,1,70,0,0
84363,-60.6060606060606,4,2,1,5,0,0
84452,-60.6060606060606,4,2,1,70,0,0
84720,-60.6060606060606,4,2,1,5,0,0
84809,-60.6060606060606,4,2,1,70,0,0
84987,-71.4285714285714,4,2,1,70,0,0
85881,-71.4285714285714,4,2,1,5,0,0

[Colours]
Combo1 : 160,254,228
Combo2 : 0,128,255
Combo3 : 255,128,128
Combo4 : 151,196,251
Combo5 : 233,179,251
Combo6 : 250,205,69

[HitObjects]
54,139,524,6,0,B|75:95|75:95|168:107,1,139.999995727539,2|2,1:2|1:2,0:0:0:0:
232,64,1059,1,0,0:0:0:0:
332,140,1238,2,0,P|362:123|395:132,1,69.9999978637695,2|0,1:2|0:0,0:0:0:0:
404,210,1595,2,0,P|373:226|340:217,1,69.9999978637695,2|0,1:2|0:0,0:0:0:0:
300,347,1952,5,2,1:0:0:0:
279,270,2131,1,0,0:0:0:0:
203,291,2309,1,2,1:2:0:0:
69,255,2488,2,0,B|142:246|120:308|193:299,1,139.999995727539,2|0,0:0|0:0,0:0:0:0:
238,182,3024,2,0,P|206:191|188:221,1,69.9999978637695,0|0,1:2|0:0,0:0:0:0:
100,42,3381,6,0,L|119:200,1,139.999995727539,2|2,1:0|1:2,0:0:0:0:
69,243,3917,1,0,0:0:0:0:
181,348,4095,2,0,P|207:326|242:329,1,69.9999978637695,2|0,1:2|0:0,0:0:0:0:
297,207,4452,2,0,L|306:286,1,69.9999978637695,2|0,1:2|0:0,0:0:0:0:
223,248,4809,5,2,1:0:0:0:
173,186,4988,1,2,0:0:0:0:
113,111,5167,5,2,1:2:0:0:
63,49,5345,1,2,0:0:0:0:
0,210,5524,5,2,1:0:0:0:
73,179,5702,2,0,B|146:170|124:232|197:223,1,139.999995727539,0|0,0:0|0:0,0:0:0:0:
299,314,6238,6,0,P|249:285|215:331,1,123.750001180172,14|0,1:0|1:2,0:0:0:0:
208,340,6595,1,2,1:2:0:0:
275,211,6774,1,8,0:0:0:0:
226,148,6952,2,0,L|215:66,1,82.5000007867812,2|0,0:0|1:2,0:0:0:0:
333,0,7309,1,10,0:0:0:0:
392,53,7488,1,8,0:0:0:0:
388,71,7577,1,8,0:0:0:0:
394,88,7667,6,0,B|459:79|439:135|504:127,1,123.750001180172,10|0,0:1|1:2,0:0:0:0:
512,117,8024,1,2,1:2:0:0:
423,192,8202,2,0,P|381:189|355:160,1,82.5000007867812,10|2,0:0|1:0,0:0:0:0:
314,274,8559,1,0,1:2:0:0:
310,256,8649,1,0,1:2:0:0:
316,239,8738,1,10,0:0:0:0:
212,141,8917,5,8,0:0:0:0:
233,108,9006,1,8,0:0:0:0:
222,71,9095,2,0,B|156:62|176:118|111:110,1,123.750001180172,10|0,0:1|0:0,0:0:0:0:
99,104,9452,2,0,L|114:231,1,123.750001180172,2|0,1:2|0:0,0:0:0:0:
122,237,9809,2,0,P|87:191|38:219,1,123.750001180172,2|0,1:2|0:0,0:0:0:0:
27,225,10167,2,0,L|11:352,1,123.750001180172,2|0,1:2|0:0,0:0:0:0:
22,355,10524,5,2,1:2:0:0:
126,313,10702,2,0,L|91:317,2,34.9999989318848,2|2|2,0:0|0:0|0:2,0:0:0:0:
196,352,11059,1,2,0:0:0:0:
258,300,11238,2,0,B|331:291|309:353|382:344,1,139.999995727539,2|0,0:1|0:0,0:0:0:0:
107,198,11952,6,0,L|127:31,1,139.999995727539,6|8,1:2|0:0,0:0:0:0:
254,0,12488,1,8,0:0:0:0:
317,47,12667,2,0,B|264:92|264:92|202:59,1,139.999995727539,2|10,0:0|0:0,0:0:0:0:
212,289,13381,6,0,L|194:150,1,139.999995727539,0|8,1:2|0:0,0:0:0:0:
125,112,13917,1,8,0:0:0:0:
58,155,14095,5,2,0:0:0:0:
130,101,14274,1,0,1:2:0:0:
194,150,14452,1,10,0:0:0:0:
189,161,14809,6,0,B|251:131|251:131|303:179,1,139.999995727539,0|10,1:2|0:0,0:0:0:0:
238,222,15345,1,10,0:0:0:0:
175,315,15524,5,2,0:0:0:0:
130,380,15702,1,2,0:0:0:0:
46,321,15881,2,0,L|38:251,1,69.9999978637695,10|2,0:0|0:0,0:0:0:0:
169,307,16238,6,0,L|308:323,1,139.999995727539,2|10,1:2|0:0,0:0:0:0:
387,230,16774,2,0,B|325:197|325:197|272:242,1,139.999995727539,10|0,0:0|1:2,0:0:0:0:
317,120,17309,1,8,0:0:0:0:
304,42,17488,1,0,0:0:0:0:
174,16,17667,6,0,L|313:34,1,139.999995727539,6|8,1:2|0:0,0:0:0:0:
384,0,18202,1,8,0:0:0:0:
500,58,18381,2,0,L|430:66,1,69.9999978637695,2|2,0:0|0:0,0:0:0:0:
376,8,18738,1,10,0:0:0:0:
335,222,19095,6,0,L|353:83,1,139.999995727539,0|8,1:2|0:0,0:0:0:0:
422,45,19631,1,8,0:0:0:0:
489,88,19809,5,2,0:0:0:0:
417,34,19988,1,2,1:2:0:0:
353,83,20167,1,10,0:0:0:0:
132,222,20524,5,2,1:2:0:0:
60,187,20702,1,2,0:0:0:0:
136,210,20881,1,10,0:0:0:0:
230,303,21059,5,10,0:0:0:0:
302,268,21238,1,2,0:0:0:0:
226,291,21417,1,2,1:2:0:0:
96,328,21595,2,0,L|26:320,1,69.9999978637695,10|2,0:0|0:0,0:0:0:0:
171,349,21952,5,10,0:0:0:0:
151,272,22131,1,2,1:2:0:0:
131,195,22309,1,2,1:2:0:0:
182,31,22488,2,0,B|155:11|155:11|119:20,1,69.9999978637695,10|0,0:0|1:2,0:0:0:0:
203,116,22845,5,0,1:2:0:0:
187,107,22934,1,0,1:0:0:0:
168,107,23024,2,0,B|133:117|133:117|106:97,1,69.9999978637695,8|0,0:0|0:0,0:0:0:0:
131,195,23381,6,0,L|149:345,1,139.999995727539,6|10,1:2|0:0,0:0:0:0:
287,367,23917,1,10,0:0:0:0:
225,316,24095,5,2,0:0:0:0:
300,287,24274,1,2,0:0:0:0:
414,241,24452,2,0,L|509:252,1,69.9999978637695,10|2,0:0|0:0,0:0:0:0:
340,221,24809,5,2,1:2:0:0:
387,135,24988,2,0,B|352:145|352:145|325:125,1,69.9999978637695,2|8,0:0|0:0,0:0:0:0:
367,58,25345,1,10,0:0:0:0:
251,147,25524,5,0,0:0:0:0:
184,103,25702,2,0,L|172:7,2,69.9999978637695,0|8|0,1:2|0:0|0:0,0:0:0:0:
102,206,26238,6,0,P|151:175|184:243,1,139.999995727539,2|10,1:2|0:0,0:0:0:0:
106,104,26774,1,10,0:0:0:0:
63,37,26952,5,2,0:0:0:0:
115,95,27131,1,2,0:0:0:0:
234,24,27309,2,0,L|329:35,1,69.9999978637695,10|2,0:0|0:0,0:0:0:0:
384,121,27667,6,0,B|331:106|331:106|291:136,1,104.999996795654,2|0,1:2|0:0,0:0:0:0:
290,148,28024,2,0,B|263:128|263:128|228:138,1,69.9999978637695,10|8,0:0|0:0,0:0:0:0:
248,215,28381,5,2,0:0:0:0:
267,291,28559,1,0,1:2:0:0:
292,384,28738,1,8,0:0:0:0:
415,104,29095,6,0,B|340:94|362:156|289:147,1,139.999995727539,6|10,1:2|0:0,0:0:0:0:
174,244,29631,1,10,0:0:0:0:
248,215,29809,5,2,0:0:0:0:
236,293,29988,1,2,0:0:0:0:
108,376,30167,2,0,L|38:384,1,69.9999978637695,10|2,0:0|0:0,0:0:0:0:
162,318,30524,5,2,1:2:0:0:
221,370,30702,1,2,0:0:0:0:
331,313,30881,1,8,0:0:0:0:
402,275,31059,6,0,L|419:136,1,139.999995727539,10|0,0:0|1:2,0:0:0:0:
309,85,31595,2,0,B|336:65|336:65|371:75,1,69.9999978637695,10|0,0:0|0:0,0:0:0:0:
333,191,31952,6,0,B|292:161|292:161|240:176,1,104.999996795654,2|0,1:2|0:0,0:0:0:0:
232,186,32309,1,10,0:0:0:0:
278,250,32488,1,10,0:0:0:0:
235,382,32667,6,0,L|226:312,1,69.9999978637695,0|0,0:0|0:0,0:0:0:0:
90,349,33024,2,0,B|125:339|125:339|152:359,1,69.9999978637695,10|0,0:0|0:0,0:0:0:0:
161,268,33381,5,10,0:0:0:0:
305,299,33559,1,2,0:0:0:0:
354,236,33738,5,2,1:2:0:0:
226,312,33917,1,10,0:0:0:0:
310,309,34095,5,2,0:0:0:0:
186,245,34274,1,0,1:2:0:0:
179,227,34363,1,0,1:0:0:0:
183,208,34452,1,8,0:0:0:0:
455,346,34809,6,0,L|375:356,1,79.9999999999999,6|2,1:2|0:0,0:0:0:0:
310,309,35167,1,10,0:0:0:0:
153,346,35345,6,0,B|207:320|207:320|250:361,1,120,10|0,0:0|0:0,0:0:0:0:
261,365,35702,1,2,0:0:0:0:
222,245,35881,1,8,0:0:0:0:
246,168,36059,6,0,B|205:156|205:156|174:179,1,79.9999999999999,2|0,1:2|0:0,0:0:0:0:
197,79,36417,1,2,1:2:0:0:
222,245,36595,1,8,0:0:0:0:
138,315,36774,6,0,L|297:335,1,160,10|2,0:0|1:2,0:0:0:0:
381,240,37309,1,10,0:0:0:0:
302,256,37488,1,2,0:0:0:0:
193,190,37667,6,0,L|179:71,1,120,6|0,1:2|0:0,0:0:0:0:
183,61,38024,1,10,0:0:0:0:
317,0,38202,6,0,B|402:-11|376:60|460:50,1,160,10|2,0:0|0:0,0:0:0:0:
331,79,38738,1,8,0:0:0:0:
268,128,38917,6,0,L|245:310,1,160,2|2,1:2|1:2,0:0:0:0:
355,384,39452,1,10,0:0:0:0:
323,310,39631,1,8,0:0:0:0:
175,239,39809,5,2,0:0:0:0:
98,262,39988,1,0,1:2:0:0:
75,185,40167,1,8,0:0:0:0:
152,162,40345,1,2,0:0:0:0:
190,91,40524,6,0,L|199:11,1,79.9999999999999,2|2,1:2|0:0,0:0:0:0:
272,44,40881,1,10,0:0:0:0:
374,130,41059,6,0,P|328:103|298:167,1,120,10|0,0:0|0:0,0:0:0:0:
286,156,41417,1,2,0:0:0:0:
166,243,41595,1,8,0:0:0:0:
142,166,41774,6,0,B|182:154|182:154|213:177,1,79.9999999999999,2|0,1:2|0:0,0:0:0:0:
191,77,42131,1,2,1:2:0:0:
166,243,42309,1,8,0:0:0:0:
263,346,42488,6,0,B|347:356|321:283|406:295,1,160,10|2,0:0|1:2,0:0:0:0:
512,191,43024,1,14,0:0:0:0:
442,226,43202,1,2,0:0:0:0:
318,150,43381,6,0,L|332:31,1,120,6|0,1:2|0:0,0:0:0:0:
341,24,43738,5,10,0:0:0:0:
413,57,43917,1,2,0:0:0:0:
457,161,44095,5,10,0:0:0:0:
385,194,44274,1,2,1:2:0:0:
331,288,44452,5,10,0:0:0:0:
436,326,44631,1,2,1:2:0:0:
315,282,44809,5,10,0:0:0:0:
239,306,44988,1,8,0:0:0:0:
228,269,45077,1,8,0:0:0:0:
249,236,45167,1,8,0:0:0:0:
321,145,45345,5,8,0:0:0:0:
342,112,45434,1,8,0:0:0:0:
331,75,45524,2,0,B|258:84|280:22|205:31,1,139.999995727539,8|2,0:0|0:0,0:0:0:0:
512,215,46238,6,0,B|405:201|436:290|332:277,1,200,6|8,1:2|0:0,0:0:0:0:
284,340,46774,1,8,0:0:0:0:
140,266,46952,5,2,0:0:0:0:
70,306,47131,1,2,1:2:0:0:
215,381,47309,1,10,0:0:0:0:
214,301,47488,1,2,0:0:0:0:
127,186,47667,6,0,B|73:135|73:135|4:168,1,150,2|0,1:0|0:0,0:0:0:0:
0,178,48024,1,10,0:0:0:0:
85,59,48202,1,8,0:0:0:0:
79,49,48559,5,2,1:2:0:0:
154,20,48738,1,10,0:0:0:0:
216,70,48917,1,2,0:0:0:0:
366,59,49095,6,0,P|291:49|241:165,1,200,2|8,1:0|0:0,0:0:0:0:
308,176,49631,1,8,0:0:0:0:
238,294,49809,5,2,0:0:0:0:
308,254,49988,1,2,1:2:0:0:
163,179,50167,1,10,0:0:0:0:
164,259,50345,1,2,0:0:0:0:
307,332,50524,6,0,L|457:350,1,150,2|0,1:0|0:0,0:0:0:0:
461,359,50881,1,10,0:0:0:0:
406,196,51059,1,8,0:0:0:0:
346,249,51238,6,0,L|246:261,1,99.9999999999999,2|0,0:1|1:2,0:0:0:0:
157,170,51595,2,0,B|206:155|206:155|244:183,1,99.9999999999999,12|0,0:0|0:0,0:0:0:0:
186,4,51952,5,6,1:0:0:0:
217,78,52131,1,2,0:0:0:0:
319,163,52309,5,10,0:0:0:0:
289,319,52488,1,10,0:0:0:0:
335,384,52667,6,0,B|388:333|388:333|457:366,1,150,2|0,0:0|0:0,0:0:0:0:
462,376,53024,1,10,0:0:0:0:
510,312,53202,1,2,0:0:0:0:
375,257,53381,5,2,1:0:0:0:
385,177,53559,1,2,0:0:0:0:
288,114,53738,1,10,0:0:0:0:
218,275,53917,6,0,B|325:261|294:350|398:337,1,200,8|0,0:0|1:2,0:0:0:0:
487,144,54452,2,0,B|438:129|438:129|400:157,1,99.9999999999999,8|0,0:0|0:0,0:0:0:0:
453,216,54809,5,2,1:0:0:0:
466,295,54988,1,2,0:0:0:0:
309,208,55167,5,10,0:0:0:0:
328,56,55345,1,10,0:0:0:0:
271,0,55524,6,0,L|121:18,1,150,2|0,0:0|0:0,0:0:0:0:
117,27,55881,1,10,0:0:0:0:
50,71,56059,1,0,1:0:0:0:
31,64,56149,1,0,1:0:0:0:
12,68,56238,5,2,1:0:0:0:
27,146,56417,1,2,1:2:0:0:
151,205,56595,5,14,0:0:0:0:
136,283,56774,1,0,1:2:0:0:
116,384,56952,1,2,1:0:0:0:
259,335,57131,5,2,1:2:0:0:
334,364,57309,1,14,0:0:0:0:
396,314,57488,1,10,0:0:0:0:
213,273,57667,6,0,B|97:287|97:287|59:255|79:209,1,200,6|8,1:0|0:0,0:0:0:0:
0,270,58202,1,8,0:0:0:0:
130,156,58381,5,2,0:0:0:0:
116,77,58559,1,2,1:2:0:0:
245,57,58738,1,10,0:0:0:0:
259,136,58917,1,2,0:0:0:0:
301,263,59095,6,0,B|247:212|247:212|178:245,1,150,2|0,1:0|0:0,0:0:0:0:
174,255,59452,1,10,0:0:0:0:
259,136,59631,1,8,0:0:0:0:
250,142,59988,5,2,1:2:0:0:
175,113,60167,1,10,0:0:0:0:
113,163,60345,1,2,0:0:0:0:
44,281,60524,6,0,B|151:295|120:206|224:219,1,200,2|8,1:0|0:0,0:0:0:0:
287,268,61059,1,8,0:0:0:0:
222,139,61238,5,2,0:0:0:0:
236,60,61417,1,2,1:2:0:0:
365,80,61595,1,10,0:0:0:0:
351,159,61774,1,2,0:0:0:0:
470,257,61952,6,0,P|435:215|386:284,1,150,2|0,1:0|0:0,0:0:0:0:
373,279,62309,1,10,0:0:0:0:
248,371,62488,1,8,0:0:0:0:
214,298,62667,6,0,B|263:283|263:283|301:311,1,99.9999999999999,2|0,0:1|1:2,0:0:0:0:
296,118,63024,2,0,L|308:218,1,99.9999999999999,8|0,0:0|0:0,0:0:0:0:
440,137,63381,5,6,1:0:0:0:
372,93,63559,1,2,0:0:0:0:
216,112,63738,5,10,0:0:0:0:
76,184,63917,1,10,0:0:0:0:
22,123,64095,6,0,B|87:89|87:89|143:141,1,150,2|0,0:0|0:0,0:0:0:0:
145,152,64452,1,10,0:0:0:0:
76,184,64631,1,2,0:0:0:0:
189,76,64809,5,2,1:0:0:0:
268,87,64988,1,2,0:0:0:0:
251,212,65167,1,10,0:0:0:0:
124,303,65345,6,0,B|240:289|240:289|278:321|258:367,1,200,8|0,0:0|1:2,0:0:0:0:
319,257,65881,2,0,L|332:145,1,99.9999999999999,8|0,0:0|0:0,0:0:0:0:
343,332,66238,5,6,1:0:0:0:
422,319,66417,1,2,0:0:0:0:
244,212,66595,5,10,0:0:0:0:
105,181,66774,1,10,0:0:0:0:
74,254,66952,6,0,L|56:104,1,150,2|0,0:0|0:0,0:0:0:0:
47,100,67309,1,10,0:0:0:0:
103,42,67488,1,0,0:0:0:0:
235,142,67667,6,0,P|216:90|146:138,1,150,2|0,1:0|0:0,0:0:0:0:
136,129,68024,1,14,0:0:0:0:
265,214,68202,5,2,1:2:0:0:
388,178,68381,1,2,1:0:0:0:
466,158,68559,1,0,1:2:0:0:
341,241,68738,5,14,0:0:0:0:
296,307,68917,1,8,0:0:0:0:
329,325,69006,1,8,0:0:0:0:
366,317,69095,6,0,B|281:306|307:377|223:367,1,160,6|2,1:0|1:2,0:0:0:0:
258,214,69631,2,0,P|316:175|340:240,1,160,2|2,0:0|0:0,0:0:0:0:
235,291,70167,1,2,1:2:0:0:
180,232,70345,6,0,L|84:243,1,79.9999999999999,2|0,0:0|1:2,0:0:0:0:
0,138,70702,1,2,0:0:0:0:
74,168,70881,1,2,1:2:0:0:
175,88,71059,6,0,B|259:98|233:27|318:38,1,160,2|0,0:0|0:0,0:0:0:0:
376,135,71595,2,0,P|337:140|305:117,1,79.9999999999999,0|0,1:2|0:0,0:0:0:0:
202,231,71952,5,14,0:0:0:0:
240,161,72131,1,2,1:2:0:0:
185,11,72309,1,10,1:2:0:0:
0,35,72488,6,0,L|111:48,1,99.9999999999999,10|0,0:0|1:2,0:0:0:0:
114,43,72756,1,8,1:2:0:0:
114,43,72845,1,10,1:2:0:0:
204,170,73024,5,10,0:0:0:0:
216,92,73202,1,10,0:0:0:0:
191,87,73292,1,8,0:0:0:0:
167,99,73381,1,0,1:2:0:0:
284,53,73559,6,0,L|276:-10,1,50,2|0,1:2|1:2,0:0:0:0:
357,18,73738,1,10,0:0:0:0:
442,127,73917,5,8,0:0:0:0:
475,145,74006,1,8,0:0:0:0:
512,137,74095,1,10,0:0:0:0:
257,265,74809,6,0,B|176:255|176:255|149:280|157:310,1,139.999995727539,6|10,1:2|0:0,0:0:0:0:
95,357,75345,1,8,0:0:0:0:
16,242,75524,2,0,P|-1:212|8:179,1,69.9999978637695,2|0,0:0|1:2,0:0:0:0:
86,170,75881,2,0,P|102:201|93:234,1,69.9999978637695,10|0,0:0|0:0,0:0:0:0:
110,93,76238,5,2,1:0:0:0:
156,27,76417,1,0,0:0:0:0:
220,73,76595,1,10,0:0:0:0:
295,192,76774,2,0,B|222:201|244:139|171:148,1,139.999995727539,10|0,0:0|1:2,0:0:0:0:
126,265,77309,2,0,P|158:256|176:226,1,69.9999978637695,8|0,0:0|0:0,0:0:0:0:
289,113,77667,6,0,L|427:95,1,139.999995727539,6|10,1:0|0:0,0:0:0:0:
484,151,78202,1,8,0:0:0:0:
487,299,78381,2,0,L|495:230,1,69.9999978637695,2|0,0:0|1:2,0:0:0:0:
359,182,78738,2,0,P|393:179|420:202,1,69.9999978637695,10|0,0:0|0:0,0:0:0:0:
303,127,79095,5,2,1:0:0:0:
224,139,79274,1,2,0:0:0:0:
129,153,79452,5,10,0:0:0:0:
50,166,79631,1,10,0:0:0:0:
0,277,79809,5,6,0:1:0:0:
72,309,79988,2,0,B|145:318|123:256|196:265,1,139.999995727539,0|0,1:2|0:0,0:0:0:0:
299,356,80524,6,0,P|249:327|215:373,1,123.750001180172,6|0,1:0|0:0,0:0:0:0:
208,382,80881,1,10,0:0:0:0:
275,253,81059,1,8,0:0:0:0:
226,190,81238,2,0,L|215:108,1,82.5000007867812,2|0,0:0|1:2,0:0:0:0:
358,19,81595,1,10,0:0:0:0:
295,69,81774,1,0,1:0:0:0:
291,87,81863,1,0,1:0:0:0:
297,104,81952,6,0,B|362:95|342:151|407:143,1,123.750001180172,2|0,1:0|0:0,0:0:0:0:
415,133,82309,1,10,0:0:0:0:
326,208,82488,2,0,P|284:205|258:176,1,82.5000007867812,10|2,0:0|0:1,0:0:0:0:
240,13,82845,1,0,1:2:0:0:
246,30,82934,1,0,1:0:0:0:
242,48,83024,1,10,0:0:0:0:
181,181,83202,5,8,0:0:0:0:
160,214,83292,1,8,0:0:0:0:
171,251,83381,2,0,B|105:260|125:204|60:212,1,123.750001180172,14|0,0:1|0:0,0:0:0:0:
51,221,83738,2,0,L|36:94,1,123.750001180172,2|0,1:2|0:0,0:0:0:0:
28,88,84095,2,0,P|63:134|112:106,1,123.750001180172,2|0,1:2|0:0,0:0:0:0:
114,94,84452,2,0,B|179:86|159:142|225:133,1,123.750001180172,2|0,1:2|0:0,0:0:0:0:
281,191,84809,5,2,1:2:0:0:
228,284,84988,2,0,L|224:249,2,34.9999989318848,2|2|2,0:0|0:0|0:0,0:0:0:0:
293,330,85345,1,2,0:0:0:0:
358,283,85524,2,0,B|431:292|409:230|482:239,1,139.999995727539,2|0,0:1|0:0,0:0:0:0:
