osu file format v14

[General]
AudioFilename: audio.mp3
AudioLeadIn: 0
PreviewTime: 45613
Countdown: 0
SampleSet: Soft
StackLeniency: 0.4
Mode: 0
LetterboxInBreaks: 0
WidescreenStoryboard: 0

[Editor]
Bookmarks: 524,6238,11952,23381,34809,46238,69095,74809,85523
DistanceSpacing: 1
BeatDivisor: 2
GridSize: 4
TimelineZoom: 1.5

[Metadata]
Title:Watashi no Tenshi feat. Narumi Sena (CV: Amamiya Sora)
TitleUnicode:ワタシノテンシ feat. 成海聖奈(CV:雨宮天)
Artist:HoneyWorks
ArtistUnicode:HoneyWorks
Creator:C O N N E R
Version:Haruki's Normal
Source:
Tags:short ver my little angel very very cute sister imouto mona gom [_lost_] conner c_o_n_n_e_r frozz FzL_17 Hikan Xen Xenon- Xehn Serizawa Haruki J_a_c_k Jack japanese jpop pop j-pop
BeatmapID:2276559
BeatmapSetID:1086772

[Difficulty]
HPDrainRate:3
CircleSize:3
OverallDifficulty:4
ApproachRate:5
SliderMultiplier:1
SliderTickRate:1

[Events]
//Background and Video events
0,0,"BG.jpg",0,0
//Break Periods
//Storyboard Layer 0 (Background)
//Storyboard Layer 1 (Fail)
//Storyboard Layer 2 (Pass)
//Storyboard Layer 3 (Foreground)
//Storyboard Layer 4 (Overlay)
//Storyboard Sound Samples

[TimingPoints]
524,357.142857142857,4,2,1,50,1,0
6238,-100,4,2,1,70,0,0
11952,-100,4,2,1,55,0,0
23381,-100,4,2,1,60,0,0
34809,-100,4,2,1,65,0,0
46238,-100,4,2,1,80,0,1
69095,-100,4,2,1,60,0,0
71952,-100,4,2,1,80,0,0
74809,-100,4,2,1,70,0,0

[Colours]
Combo1 : 160,254,228
Combo2 : 0,128,255
Combo3 : 255,128,128
Combo4 : 151,196,251
Combo5 : 233,179,251
Combo6 : 250,205,69

[HitObjects]
420,355,524,5,2,1:2:0:0:
378,264,881,2,0,L|328:259,1,50,2|0,1:2|0:0,0:0:0:0:
278,255,1238,1,2,1:2:0:0:
221,337,1595,1,2,1:2:0:0:
140,280,1952,2,0,P|92:268|44:280,1,100,2|2,1:0|1:2,0:0:0:0:
2,304,2488,1,2,0:0:0:0:
2,304,2666,2,0,L|10:204,1,100,2|0,1:0|1:2,0:0:0:0:
18,105,3381,5,2,1:0:0:0:
75,23,3738,2,0,L|124:27,1,50,2|0,1:2|0:0,0:0:0:0:
175,32,4095,1,2,1:2:0:0:
217,123,4452,1,2,1:2:0:0:
317,114,4809,2,0,L|366:109,1,50,2|2,1:0|0:0,0:0:0:0:
407,140,5166,2,0,L|456:144,1,50,2|2,1:2|0:0,0:0:0:0:
507,148,5523,2,0,P|482:191|482:240,1,100,2|0,1:0|1:2,0:0:0:0:
512,336,6238,5,14,1:0:0:0:
413,345,6595,2,0,L|363:349,1,50,2|8,1:2|0:0,0:0:0:0:
313,353,6952,1,2,0:0:0:0:
255,271,7309,1,10,0:0:0:0:
297,180,7666,2,0,P|309:132|297:84,1,100,10|2,0:1|1:2,0:0:0:0:
274,46,8202,1,10,0:0:0:0:
274,46,8381,1,2,1:0:0:0:
174,55,8738,2,0,L|124:59,1,50,10|8,0:0|0:0,0:0:0:0:
74,63,9095,5,10,0:1:0:0:
52,160,9452,1,2,1:2:0:0:
138,212,9809,1,2,1:2:0:0:
213,146,10166,1,2,1:2:0:0:
174,55,10523,2,0,L|74:63,2,100,2|2|2,1:2|0:2|0:1,0:0:0:0:
273,46,11595,1,0,0:0:0:0:
372,37,11952,6,0,B|359:85|359:85|372:133,1,100,6|8,1:2|0:0,0:0:0:0:
395,184,12488,1,8,0:0:0:0:
395,184,12666,2,0,P|407:232|395:279,1,100,2|10,0:0|0:0,0:0:0:0:
335,360,13381,2,0,L|235:351,1,100,0|8,1:2|0:0,0:0:0:0:
205,319,13916,1,8,0:0:0:0:
205,319,14095,2,0,L|155:323,2,50,2|0|10,0:0|1:2|0:0,0:0:0:0:
260,235,14809,6,0,P|272:187|260:140,1,100,0|10,1:2|0:0,0:0:0:0:
229,107,15345,1,10,0:0:0:0:
229,107,15523,2,0,B|181:94|181:94|133:107,1,100,2|10,0:0|0:0,0:0:0:0:
35,132,16238,2,0,L|43:231,1,100,2|10,1:2|0:0,0:0:0:0:
79,274,16773,1,10,0:0:0:0:
79,274,16952,2,0,L|74:323,2,50,0|0|8,0:0|1:2|0:0,0:0:0:0:
166,225,17666,6,0,P|214:213|261:225,1,100,6|8,1:2|0:0,0:0:0:0:
308,257,18202,1,8,0:0:0:0:
308,257,18381,2,0,L|299:356,1,100,2|10,0:0|0:0,0:0:0:0:
402,362,19095,2,0,L|410:262,1,100,0|8,1:2|0:0,0:0:0:0:
449,230,19631,1,8,0:0:0:0:
449,230,19809,2,0,L|444:180,2,50,2|2|10,0:0|1:2|0:0,0:0:0:0:
355,195,20523,6,0,P|307:183|260:195,1,100,2|10,1:2|0:0,0:0:0:0:
219,224,21059,1,10,0:0:0:0:
219,224,21238,2,0,L|214:273,2,50,2|2|10,0:0|1:2|0:0,0:0:0:0:
137,166,21952,2,0,L|132:116,2,50,10|2|2,0:0|1:2|1:2,0:0:0:0:
109,208,22487,1,10,0:0:0:0:
109,208,22666,2,0,L|104:257,2,50,0|0|8,1:2|1:2|0:0,0:0:0:0:
24,155,23381,6,0,P|0:111|0:63,1,100,6|10,1:2|0:0,0:0:0:0:
22,20,23916,1,10,0:0:0:0:
22,20,24095,2,0,L|71:15,1,50,2|2,0:0|0:0,0:0:0:0:
121,11,24452,1,10,0:0:0:0:
183,97,24809,1,2,1:2:0:0:
183,97,24988,2,0,L|232:101,1,50,2|8,0:0|0:0,0:0:0:0:
282,106,25345,2,0,B|330:93|330:93|378:106,1,100,10|0,0:0|1:2,0:0:0:0:
427,119,25881,1,8,0:0:0:0:
435,219,26238,6,0,P|434:268|410:310,1,100,2|10,1:2|0:0,0:0:0:0:
373,344,26773,1,10,0:0:0:0:
373,344,26952,2,0,L|323:339,1,50,2|2,0:0|0:0,0:0:0:0:
273,335,27309,1,10,0:0:0:0:
231,244,27666,1,2,1:2:0:0:
288,162,28023,2,0,L|292:112,1,50,10|8,0:0|0:0,0:0:0:0:
261,73,28381,2,0,L|256:23,2,50,2|0|8,0:0|1:2|0:0,0:0:0:0:
164,98,29095,6,0,B|116:111|116:111|68:98,1,100,6|10,1:2|0:0,0:0:0:0:
23,89,29630,1,10,0:0:0:0:
23,89,29809,2,0,L|18:138,1,50,2|2,0:0|0:0,0:0:0:0:
14,188,30166,1,10,0:0:0:0:
100,250,30523,1,2,1:2:0:0:
100,250,30702,2,0,L|104:299,1,50,2|8,0:0|0:0,0:0:0:0:
109,350,31059,2,0,P|152:325|200:325,1,100,10|0,0:0|1:2,0:0:0:0:
250,339,31595,1,10,0:0:0:0:
344,370,31952,6,0,P|393:369|435:345,1,100,2|10,1:2|0:0,0:0:0:0:
478,316,32488,1,10,0:0:0:0:
478,316,32666,1,0,0:0:0:0:
420,234,33023,1,10,0:0:0:0:
462,143,33381,2,0,L|511:138,2,50,10|2|2,0:0|0:0|1:2,0:0:0:0:
429,114,33916,1,10,0:0:0:0:
429,114,34095,2,0,L|379:109,2,50,2|0|8,0:0|1:2|0:0,0:0:0:0:
438,15,34809,6,0,L|338:6,1,100,6|10,1:2|0:0,0:0:0:0:
288,1,35345,1,10,0:0:0:0:
231,83,35702,2,0,L|181:87,1,50,2|8,0:0|0:0,0:0:0:0:
131,91,36059,1,2,1:2:0:0:
31,100,36416,2,0,L|26:149,1,50,2|8,1:2|0:0,0:0:0:0:
22,199,36773,2,0,P|70:187|117:199,1,100,10|2,0:0|1:2,0:0:0:0:
161,225,37309,1,10,0:0:0:0:
242,167,37666,6,0,L|233:67,1,100,6|10,1:2|0:0,0:0:0:0:
228,17,38202,1,10,0:0:0:0:
328,8,38559,2,0,L|332:57,1,50,2|8,0:0|0:0,0:0:0:0:
337,108,38916,2,0,B|385:95|385:95|433:108,1,100,2|2,1:2|1:2,0:0:0:0:
482,120,39452,2,0,L|477:169,1,50,10|8,0:0|0:0,0:0:0:0:
473,219,39809,1,2,0:0:0:0:
383,262,40166,2,0,L|387:311,1,50,8|2,0:0|0:0,0:0:0:0:
391,362,40523,6,0,P|343:374|296:362,1,100,2|10,1:2|0:0,0:0:0:0:
252,335,41059,1,10,0:0:0:0:
170,278,41416,2,0,L|174:228,1,50,2|8,0:0|0:0,0:0:0:0:
178,178,41773,1,2,1:2:0:0:
269,136,42131,2,0,L|264:86,1,50,2|8,1:2|0:0,0:0:0:0:
261,36,42488,2,0,B|213:49|213:49|165:36,1,100,10|2,0:0|1:2,0:0:0:0:
116,22,43023,1,14,0:0:0:0:
34,80,43381,5,6,1:2:0:0:
43,179,43738,2,0,L|47:228,1,50,10|2,0:0|0:0,0:0:0:0:
51,277,44095,2,0,L|100:281,1,50,10|2,0:0|1:2,0:0:0:0:
138,248,44452,2,0,L|187:243,1,50,10|2,0:0|1:2,0:0:0:0:
229,272,44809,2,0,P|277:284|324:272,2,100,10|8|8,0:0|0:0|0:0,0:0:0:0:
229,272,46238,6,0,L|237:172,1,100,6|8,1:2|0:0,0:0:0:0:
279,143,46773,1,8,0:0:0:0:
279,143,46952,2,0,L|274:93,1,50,2|2,0:0|1:2,0:0:0:0:
270,43,47309,1,10,0:0:0:0:
360,0,47666,2,0,P|408:-12|455:0,1,100,2|10,1:0|0:0,0:0:0:0:
499,25,48202,1,8,0:0:0:0:
494,128,48559,1,2,1:2:0:0:
494,128,48738,1,10,0:0:0:0:
485,228,49095,6,0,B|437:215|437:215|389:228,1,100,2|8,1:0|0:0,0:0:0:0:
344,244,49631,1,8,0:0:0:0:
344,244,49809,2,0,L|294:239,1,50,2|2,0:0|1:2,0:0:0:0:
244,235,50166,1,10,0:0:0:0:
156,187,50523,2,0,P|144:235|156:282,1,100,2|10,1:0|0:0,0:0:0:0:
188,322,51059,1,8,0:0:0:0:
111,384,51416,1,0,1:2:0:0:
111,384,51595,1,12,0:0:0:0:
16,337,51952,6,0,L|11:287,1,50,6|2,1:0|0:0,0:0:0:0:
40,247,52309,2,0,L|44:197,1,50,10|10,0:0|0:0,0:0:0:0:
48,147,52666,1,2,0:0:0:0:
139,105,53023,1,10,0:0:0:0:
221,163,53381,2,0,L|216:212,2,50,2|2|10,1:0|0:0|0:0,0:0:0:0:
269,150,53916,2,0,B|317:137|317:137|365:150,1,100,8|0,0:0|1:2,0:0:0:0:
414,163,54452,1,8,0:0:0:0:
510,188,54809,6,0,L|505:138,1,50,2|2,1:0|0:0,0:0:0:0:
473,100,55166,2,0,L|477:50,1,50,10|10,0:0|0:0,0:0:0:0:
481,0,55523,1,2,0:0:0:0:
381,9,55881,1,10,0:0:0:0:
339,100,56238,2,0,L|289:104,1,50,2|2,1:0|1:2,0:0:0:0:
239,108,56595,2,0,P|195:83|147:83,1,100,14|2,0:0|1:0,0:0:0:0:
51,113,57309,2,0,L|46:162,1,50,14|10,0:0|0:0,0:0:0:0:
70,207,57666,6,0,P|82:255|70:302,1,100,6|8,1:0|0:0,0:0:0:0:
42,346,58202,1,8,0:0:0:0:
42,346,58381,2,0,L|91:341,1,50,2|2,0:0|1:2,0:0:0:0:
141,337,58738,1,10,0:0:0:0:
240,328,59095,2,0,B|227:280|227:280|240:232,1,100,2|10,1:0|0:0,0:0:0:0:
252,183,59631,1,8,0:0:0:0:
174,129,59988,1,2,1:2:0:0:
174,129,60166,1,10,0:0:0:0:
240,54,60523,6,0,P|283:29|331:29,1,100,2|8,1:0|0:0,0:0:0:0:
385,46,61059,1,8,0:0:0:0:
385,46,61238,2,0,L|389:95,1,50,2|2,0:0|1:2,0:0:0:0:
393,145,61595,1,10,0:0:0:0:
484,188,61952,2,0,L|475:287,1,100,2|10,1:0|0:0,0:0:0:0:
470,337,62488,1,8,0:0:0:0:
384,384,62845,1,0,1:2:0:0:
384,384,63023,1,8,0:0:0:0:
302,326,63381,6,0,L|252:321,1,50,6|2,1:0|0:0,0:0:0:0:
218,358,63738,2,0,L|168:362,1,50,10|10,0:0|0:0,0:0:0:0:
118,366,64095,1,2,0:0:0:0:
60,284,64452,1,10,0:0:0:0:
102,193,64809,2,0,L|151:188,2,50,2|2|10,1:0|0:0|0:0,0:0:0:0:
89,145,65345,2,0,B|76:97|76:97|89:49,1,100,8|0,0:0|1:2,0:0:0:0:
102,0,65881,1,8,0:0:0:0:
202,9,66238,6,0,L|251:13,1,50,6|2,1:0|0:0,0:0:0:0:
287,50,66595,2,0,L|336:45,1,50,10|10,0:0|0:0,0:0:0:0:
386,41,66952,1,2,0:0:0:0:
444,123,67309,1,10,0:0:0:0:
402,214,67666,1,2,1:0:0:0:
303,223,68023,2,0,L|253:227,1,50,14|2,0:0|1:2,0:0:0:0:
203,231,68381,2,0,P|159:206|111:206,1,100,2|14,1:0|0:0,0:0:0:0:
133,303,69095,6,0,L|83:307,2,50,6|0|2,1:0|0:0|1:2,0:0:0:0:
167,340,69631,2,0,L|266:348,1,100,2|2,0:0|0:0,0:0:0:0:
320,357,70166,1,2,1:2:0:0:
320,357,70345,1,2,0:0:0:0:
377,275,70702,2,0,L|372:225,1,50,2|2,0:0|1:2,0:0:0:0:
400,183,71059,2,0,P|412:135|400:88,1,100,2|0,0:0|0:0,0:0:0:0:
371,46,71595,1,0,1:2:0:0:
271,37,71952,6,0,L|266:86,2,50,14|2|10,0:0|1:2|1:2,0:0:0:0:
223,50,72488,2,0,B|175:63|175:63|127:50,1,100,10|10,0:0|1:2,0:0:0:0:
82,41,73023,1,10,0:0:0:0:
82,41,73202,2,0,L|90:140,1,100,10|2,0:0|1:2,0:0:0:0:
95,190,73738,1,10,0:0:0:0:
186,233,74095,1,10,0:0:0:0:
186,233,74809,5,6,1:2:0:0:
243,151,75166,2,0,L|292:155,1,50,10|8,0:0|0:0,0:0:0:0:
343,159,75523,1,2,0:0:0:0:
385,251,75881,1,10,0:0:0:0:
301,305,76238,2,0,P|253:317|206:305,1,100,2|10,1:0|0:0,0:0:0:0:
161,280,76773,2,0,P|113:268|66:280,1,100,10|0,0:0|1:2,0:0:0:0:
21,305,77309,1,8,0:0:0:0:
11,206,77666,5,6,1:0:0:0:
94,148,78023,2,0,L|98:98,1,50,10|8,0:0|0:0,0:0:0:0:
102,48,78381,1,2,0:0:0:0:
193,6,78738,1,10,0:0:0:0:
275,64,79095,2,0,L|270:113,1,50,2|2,1:0|0:0,0:0:0:0:
235,149,79452,2,0,L|239:198,1,50,10|10,0:0|0:0,0:0:0:0:
244,249,79809,2,0,P|292:261|340:249,1,100,6|14,0:1|0:0,0:0:0:0:
427,199,80523,5,6,1:0:0:0:
508,143,80881,2,0,L|503:93,1,50,10|8,0:0|0:0,0:0:0:0:
499,43,81238,1,2,0:0:0:0:
409,0,81595,1,10,0:0:0:0:
327,60,81952,2,0,P|279:72|231:60,1,100,2|10,1:0|0:0,0:0:0:0:
185,40,82488,2,0,L|176:139,1,100,10|0,0:0|1:2,0:0:0:0:
172,189,83023,1,10,0:0:0:0:
163,288,83381,5,14,0:1:0:0:
256,328,83738,1,2,1:2:0:0:
321,252,84095,1,2,1:2:0:0:
270,166,84452,1,2,1:2:0:0:
172,189,84809,2,0,P|122:188|79:164,1,100,2|2,1:2|0:0,0:0:0:0:
49,132,85345,1,2,0:0:0:0:
49,132,85523,1,2,0:1:0:0:
