osu file format v14

[General]
AudioFilename: audio.mp3
AudioLeadIn: 0
PreviewTime: 45613
Countdown: 0
SampleSet: Soft
StackLeniency: 0.7
Mode: 0
LetterboxInBreaks: 0
WidescreenStoryboard: 0

[Editor]
DistanceSpacing: 1.2
BeatDivisor: 4
GridSize: 32
TimelineZoom: 1.7

[Metadata]
Title:Watashi no Tenshi feat. Narumi Sena (CV: Amamiya Sora)
TitleUnicode:ワタシノテンシ feat. 成海聖奈(CV:雨宮天)
Artist:HoneyWorks
ArtistUnicode:HoneyWorks
Creator:C O N N E R
Version:Angel
Source:
Tags:short ver my little angel very very cute sister imouto mona gom [_lost_] conner c_o_n_n_e_r frozz FzL_17 Hikan Xen Xenon- Xehn Serizawa Haruki J_a_c_k Jack japanese jpop pop j-pop
BeatmapID:2272608
BeatmapSetID:1086772

[Difficulty]
HPDrainRate:5.7
CircleSize:4
OverallDifficulty:8
ApproachRate:9.1
SliderMultiplier:1.89
SliderTickRate:1

[Events]
//Background and Video events
0,0,"BG.jpg",0,0
//Break Periods
//Storyboard Layer 0 (Background)
//Storyboard Layer 1 (Fail)
//Storyboard Layer 2 (Pass)
//Storyboard Layer 3 (Foreground)
//Storyboard Layer 4 (Overlay)
//Storyboard Sound Samples

[TimingPoints]
524,357.142857142857,4,2,1,50,1,0
524,-100,4,2,1,50,0,0
5881,-166.666666666667,4,2,1,50,0,0
6148,-166.666666666667,4,2,1,5,0,0
6238,-90.9090909090909,4,2,1,70,0,0
11238,-250,4,2,1,70,0,0
11952,-111.111111111111,4,2,1,55,0,0
12220,-111.111111111111,4,2,1,5,0,0
12309,-111.111111111111,4,2,1,55,0,0
13648,-111.111111111111,4,2,1,5,0,0
13738,-111.111111111111,4,2,1,55,0,0
14720,-111.111111111111,4,2,1,5,0,0
14809,-111.111111111111,4,2,1,55,0,0
15077,-111.111111111111,4,2,1,5,0,0
15166,-111.111111111111,4,2,1,55,0,0
16506,-111.111111111111,4,2,1,5,0,0
16595,-111.111111111111,4,2,1,55,0,0
17577,-111.111111111111,4,2,1,5,0,0
17666,-111.111111111111,4,2,1,55,0,0
17934,-111.111111111111,4,2,1,5,0,0
18023,-111.111111111111,4,2,1,55,0,0
19363,-111.111111111111,4,2,1,5,0,0
19452,-111.111111111111,4,2,1,55,0,0
21952,-90.9090909090908,4,2,1,55,0,0
23023,-166.666666666666,4,2,1,55,0,0
23291,-166.666666666666,4,2,1,5,0,0
23381,-111.111111111111,4,2,1,60,0,0
25613,-111.111111111111,4,2,1,5,0,0
25702,-111.111111111111,4,2,1,60,0,0
29006,-111.111111111111,4,2,1,5,0,0
29095,-111.111111111111,4,2,1,60,0,0
31327,-111.111111111111,4,2,1,5,0,0
31416,-111.111111111111,4,2,1,60,0,0
31863,-111.111111111111,4,2,1,5,0,0
31952,-111.111111111111,4,2,1,60,0,0
32220,-111.111111111111,4,2,1,5,0,0
32309,-111.111111111111,4,2,1,60,0,0
34809,-100,4,2,1,65,0,0
35613,-100,4,2,1,5,0,0
35702,-100,4,2,1,65,0,0
36327,-100,4,2,1,5,0,0
36416,-100,4,2,1,65,0,0
37041,-100,4,2,1,5,0,0
37131,-100,4,2,1,65,0,0
39184,-100,4,2,1,5,0,0
39273,-100,4,2,1,65,0,0
41327,-100,4,2,1,5,0,0
41416,-100,4,2,1,65,0,0
42041,-100,4,2,1,5,0,0
42131,-100,4,2,1,65,0,0
42756,-100,4,2,1,5,0,0
42845,-100,4,2,1,65,0,0
43381,-90.9090909090909,4,2,1,65,0,0
43648,-90.9090909090909,4,2,1,5,0,0
43738,-90.9090909090909,4,2,1,65,0,0
46238,-83.3333333333333,4,2,1,80,0,1
46506,-83.3333333333333,4,2,1,5,0,1
46595,-83.3333333333333,4,2,1,80,0,1
49363,-83.3333333333333,4,2,1,5,0,1
49452,-83.3333333333333,4,2,1,80,0,1
50791,-83.3333333333333,4,2,1,5,0,1
50881,-83.3333333333333,4,2,1,80,0,1
51863,-83.3333333333333,4,2,1,5,0,1
51952,-83.3333333333333,4,2,1,80,0,1
54720,-83.3333333333333,4,2,1,5,0,1
54809,-83.3333333333333,4,2,1,80,0,1
57577,-83.3333333333333,4,2,1,80,0,0
57666,-83.3333333333333,4,2,1,80,0,1
57934,-83.3333333333333,4,2,1,5,0,1
58023,-83.3333333333333,4,2,1,80,0,1
60791,-83.3333333333333,4,2,1,5,0,1
60881,-83.3333333333333,4,2,1,80,0,1
62220,-83.3333333333333,4,2,1,5,0,1
62309,-83.3333333333333,4,2,1,80,0,1
63291,-83.3333333333333,4,2,1,5,0,1
63381,-83.3333333333333,4,2,1,80,0,1
66148,-83.3333333333333,4,2,1,5,0,1
66238,-83.3333333333333,4,2,1,80,0,1
69095,-125,4,2,1,60,0,0
71863,-83.3333333333333,4,2,1,5,0,1
71952,-83.3333333333333,4,2,1,80,0,1
74095,-83.3333333333333,4,2,1,80,0,0
74809,-90.9090909090909,4,2,1,70,0,1
74898,-90.9090909090909,4,2,1,70,0,0
75077,-90.9090909090909,4,2,1,5,0,0
75166,-90.9090909090909,4,2,1,70,0,0
76148,-90.9090909090909,4,2,1,5,0,0
76238,-90.9090909090909,4,2,1,70,0,0
77577,-90.9090909090909,4,2,1,5,0,0
77666,-90.9090909090909,4,2,1,70,0,0
77934,-90.9090909090909,4,2,1,5,0,0
78023,-90.9090909090909,4,2,1,70,0,0
79006,-90.9090909090909,4,2,1,5,0,0
79095,-90.9090909090909,4,2,1,70,0,0
80434,-90.9090909090909,4,2,1,5,0,0
80523,-90.9090909090909,4,2,1,70,0,0
80791,-90.9090909090909,4,2,1,5,0,0
80881,-90.9090909090909,4,2,1,70,0,0
81863,-90.9090909090909,4,2,1,5,0,0
81952,-90.9090909090909,4,2,1,70,0,0
83291,-90.9090909090909,4,2,1,5,0,0
83381,-90.9090909090909,4,2,1,70,0,0

[Colours]
Combo1 : 160,254,228
Combo2 : 0,128,255
Combo3 : 255,128,128
Combo4 : 151,196,251
Combo5 : 233,179,251
Combo6 : 250,205,69

[HitObjects]
41,153,524,6,0,B|90:175|136:140|115:115|167:86|214:117,1,189,2|2,1:2|1:2,0:0:0:0:
296,188,1059,1,0,0:0:0:0:
371,92,1238,2,0,P|318:86|284:117,1,94.5,2|0,1:2|0:0,0:0:0:0:
213,196,1595,1,2,1:2:0:0:
378,272,1773,1,0,0:0:0:0:
378,272,1863,1,0,0:0:0:0:
378,272,1952,6,0,P|393:221|372:175,1,94.5,2|0,1:0|0:0,0:0:0:0:
347,348,2309,2,0,P|401:355|437:327,1,94.5,2|2,1:2|0:0,0:0:0:0:
289,269,2666,2,0,B|240:247|194:282|215:307|163:336|116:305,1,189,2|0,1:0|1:2,0:0:0:0:
32,233,3202,1,0,0:0:0:0:
63,123,3381,6,0,P|93:65|195:109,1,189,2|2,1:0|1:2,0:0:0:0:
280,169,3916,1,0,0:0:0:0:
377,110,4095,2,0,P|390:48|371:17,1,94.5,2|0,1:2|0:0,0:0:0:0:
280,169,4452,2,0,P|267:231|286:262,1,94.5,2|0,1:2|0:0,0:0:0:0:
383,208,4809,5,2,1:0:0:0:
294,86,4988,1,2,0:0:0:0:
383,208,5166,1,2,1:2:0:0:
260,173,5345,1,2,0:0:0:0:
395,104,5523,2,0,P|452:110|476:151,1,94.5,2|0,1:0|0:0,0:0:0:0:
390,286,5881,6,0,P|372:240|393:196,1,85.0499974044801,0|0,1:2|0:0,0:0:0:0:
392,193,6238,5,14,1:0:0:0:
305,304,6416,1,0,1:2:0:0:
305,304,6506,1,0,1:2:0:0:
305,304,6595,1,2,1:2:0:0:
459,240,6773,1,8,0:0:0:0:
325,137,6952,2,0,P|274:138|237:184,1,103.950003172302,2|0,0:0|1:2,0:0:0:0:
203,342,7309,2,0,P|221:287|199:244,1,103.950003172302,10|8,0:0|0:0,0:0:0:0:
187,229,7577,1,8,0:0:0:0:
170,213,7666,5,10,0:1:0:0:
305,304,7845,1,0,1:2:0:0:
305,304,7934,1,0,1:2:0:0:
305,304,8023,1,2,1:2:0:0:
128,293,8202,1,10,0:0:0:0:
309,213,8381,1,2,1:0:0:0:
193,363,8559,1,0,1:2:0:0:
193,363,8648,1,0,1:2:0:0:
193,363,8738,1,10,0:0:0:0:
103,177,8916,1,8,0:0:0:0:
111,156,9006,1,8,0:0:0:0:
120,136,9095,6,0,P|167:122|216:151,1,103.950003172302,10|0,0:1|0:0,0:0:0:0:
25,148,9452,2,0,P|4:89|29:52,1,103.950003172302,2|0,1:2|0:0,0:0:0:0:
161,222,9809,2,0,L|160:338,1,103.950003172302,2|0,1:2|0:0,0:0:0:0:
3,289,10166,2,0,P|34:244|90:249,1,103.950003172302,2|0,1:2|0:0,0:0:0:0:
160,338,10523,5,2,1:2:0:0:
263,213,10702,1,2,0:0:0:0:
263,213,10791,1,2,0:0:0:0:
263,213,10881,1,2,0:2:0:0:
120,136,11059,1,2,0:0:0:0:
253,302,11238,6,0,P|297:295|339:292,1,75.6,2|0,0:1|0:0,0:0:0:0:
348,289,11952,6,0,B|315:281|283:295|296:318|263:336|230:327,1,127.57499610672,6|0,1:2|0:0,0:0:0:0:
219,318,12309,1,8,0:0:0:0:
269,228,12488,1,8,0:0:0:0:
341,366,12666,2,0,P|399:358|516:350,1,170.09999480896,2|10,0:0|0:0,0:0:0:0:
510,350,13381,6,0,P|483:308|507:228,1,127.57499610672,0|0,1:2|0:0,0:0:0:0:
509,222,13738,1,8,0:0:0:0:
447,140,13916,2,0,P|396:148|383:186,1,85.0499974044801,8|2,0:0|0:0,0:0:0:0:
509,222,14273,1,0,1:2:0:0:
500,48,14452,2,0,P|459:82|383:57,1,127.57499610672,10|0,0:0|0:0,0:0:0:0:
376,47,14809,6,0,P|381:110|383:189,1,127.57499610672,0|0,1:2|0:0,0:0:0:0:
374,192,15166,1,10,0:0:0:0:
296,124,15345,1,10,0:0:0:0:
374,192,15523,1,2,0:0:0:0:
252,202,15702,1,2,0:0:0:0:
371,277,15881,1,10,0:0:0:0:
296,124,16059,1,2,0:0:0:0:
172,260,16238,6,0,P|226:255|304:253,1,127.57499610672,2|0,1:2|0:0,0:0:0:0:
306,249,16595,1,10,0:0:0:0:
209,126,16773,2,0,P|161:134|141:174,1,85.0499974044801,10|0,0:0|0:0,0:0:0:0:
172,260,17131,1,0,1:2:0:0:
61,111,17309,2,0,P|64:168|66:255,1,127.57499610672,8|0,0:0|0:0,0:0:0:0:
62,261,17666,6,0,P|93:223|169:262,1,127.57499610672,6|0,1:2|0:0,0:0:0:0:
172,260,18023,1,8,0:0:0:0:
124,350,18202,1,8,0:0:0:0:
316,376,18381,2,0,P|305:327|203:355,1,170.09999480896,2|10,0:0|0:0,0:0:0:0:
207,339,19095,6,0,P|181:308|200:226,1,127.57499610672,0|0,1:2|0:0,0:0:0:0:
209,214,19452,1,8,0:0:0:0:
296,155,19631,1,8,0:0:0:0:
191,114,19809,2,0,P|204:167|205:205,1,85.0499974044801,2|2,0:0|1:2,0:0:0:0:
297,133,20166,2,0,P|300:90|311:49,1,85.0499974044801,10|0,0:0|0:0,0:0:0:0:
297,225,20523,5,2,1:2:0:0:
191,114,20702,1,2,0:0:0:0:
297,225,20881,1,10,0:0:0:0:
135,178,21059,1,10,0:0:0:0:
297,133,21238,1,2,0:0:0:0:
135,178,21416,1,2,1:2:0:0:
230,38,21595,1,10,0:0:0:0:
210,235,21773,1,2,0:0:0:0:
51,125,21952,6,0,P|91:86|152:88,1,103.950003172302,10|2,0:0|1:2,0:0:0:0:
169,100,22220,1,0,1:0:0:0:
169,100,22309,1,2,1:2:0:0:
50,218,22488,1,10,0:0:0:0:
235,233,22666,2,0,P|200:186|145:194,1,103.950003172302,0|0,1:2|1:2,0:0:0:0:
129,202,22934,1,0,1:0:0:0:
129,202,23023,6,0,L|134:299,1,85.0499974044801,8|0,0:0|0:0,0:0:0:0:
128,298,23381,5,6,1:2:0:0:
235,233,23559,1,2,0:0:0:0:
202,351,23738,1,10,0:0:0:0:
129,202,23916,1,10,0:0:0:0:
282,305,24095,1,2,0:0:0:0:
128,298,24273,1,2,0:0:0:0:
230,148,24452,2,0,L|235:237,1,85.0499974044801,10|2,0:0|0:0,0:0:0:0:
339,142,24809,6,0,P|353:95|337:64,1,85.0499974044801,2|2,1:2|0:0,0:0:0:0:
331,223,25166,1,8,0:0:0:0:
258,70,25345,2,0,P|208:57|153:106,1,127.57499610672,10|0,0:0|0:0,0:0:0:0:
145,119,25702,1,0,1:2:0:0:
18,28,25881,1,8,0:0:0:0:
18,28,26238,5,2,1:2:0:0:
145,119,26416,1,2,0:0:0:0:
5,125,26595,1,10,0:0:0:0:
117,29,26773,1,10,0:0:0:0:
157,201,26952,2,0,P|102:195|65:195,1,85.0499974044801,2|2,0:0|0:0,0:0:0:0:
218,87,27309,2,0,P|268:81|297:109,1,85.0499974044801,10|2,0:0|0:0,0:0:0:0:
260,255,27666,6,0,P|241:210|261:172,1,85.0499974044801,2|0,1:2|0:0,0:0:0:0:
334,293,28023,2,0,P|304:331|261:333,1,85.0499974044801,10|8,0:0|0:0,0:0:0:0:
332,204,28381,1,2,0:0:0:0:
419,314,28559,1,0,1:2:0:0:
505,181,28738,2,0,P|454:171|415:238,1,127.57499610672,8|0,0:0|0:0,0:0:0:0:
413,226,29095,5,6,1:2:0:0:
376,114,29273,1,2,0:0:0:0:
488,260,29452,1,10,0:0:0:0:
332,204,29631,1,10,0:0:0:0:
498,88,29809,1,2,0:0:0:0:
413,226,29988,1,2,0:0:0:0:
355,31,30166,2,0,P|410:32|428:55,1,85.0499974044801,10|2,0:0|0:0,0:0:0:0:
360,130,30523,5,2,1:2:0:0:
233,114,30702,2,0,P|240:76|289:59,1,85.0499974044801,2|8,0:0|0:0,0:0:0:0:
159,193,31059,2,0,L|157:58,1,127.57499610672,10|0,0:0|0:0,0:0:0:0:
153,40,31416,1,0,1:2:0:0:
258,116,31595,2,0,P|318:130|365:90,1,127.57499610672,10|0,0:0|0:0,0:0:0:0:
364,90,31952,6,0,P|356:151|356:228,1,127.57499610672,2|0,1:2|0:0,0:0:0:0:
375,242,32309,1,10,0:0:0:0:
509,226,32488,2,0,P|482:191|439:194,1,85.0499974044801,10|0,0:0|0:0,0:0:0:0:
310,282,32845,1,0,0:0:0:0:
449,359,33023,2,0,P|462:319|441:274,1,85.0499974044801,10|0,0:0|0:0,0:0:0:0:
299,197,33381,5,10,0:0:0:0:
374,336,33559,1,2,0:0:0:0:
229,282,33738,1,2,1:2:0:0:
375,242,33916,1,10,0:0:0:0:
275,373,34095,1,2,0:0:0:0:
143,225,34273,1,0,1:2:0:0:
143,225,34363,1,0,1:0:0:0:
143,225,34452,2,0,P|172:192|230:198,1,85.0499974044801,8|2,0:0|0:0,0:0:0:0:
161,340,34809,6,0,P|98:335|61:335,1,94.5,6|2,1:2|0:0,0:0:0:0:
229,282,35166,1,10,0:0:0:0:
64,253,35345,2,0,P|24:211|75:128,1,141.75,10|0,0:0|0:0,0:0:0:0:
65,122,35702,1,2,0:0:0:0:
16,19,35881,1,8,0:0:0:0:
146,147,36059,6,0,P|206:145|297:126,1,141.75,2|0,1:2|0:0,0:0:0:0:
300,113,36416,1,2,1:2:0:0:
214,38,36595,1,8,0:0:0:0:
402,29,36773,2,0,P|391:90|386:179,1,141.75,10|0,0:0|0:0,0:0:0:0:
392,188,37131,1,2,1:2:0:0:
300,113,37309,1,10,0:0:0:0:
470,163,37488,1,2,0:0:0:0:
328,283,37666,6,0,P|335:231|441:257,1,189,6|10,1:2|0:0,0:0:0:0:
415,361,38202,2,0,P|341:353|218:354,1,189,10|2,0:0|0:0,0:0:0:0:
163,258,38738,1,8,0:0:0:0:
79,333,38916,6,0,P|26:300|41:212,1,141.75,2|0,1:2|0:0,0:0:0:0:
45,202,39273,1,2,1:2:0:0:
163,258,39452,1,10,0:0:0:0:
79,333,39631,1,8,0:0:0:0:
140,171,39809,2,0,P|189:166|225:197,1,94.5,2|0,0:0|1:2,0:0:0:0:
37,123,40166,2,0,P|18:77|41:36,1,94.5,8|2,0:0|0:0,0:0:0:0:
192,87,40523,6,0,P|134:88|96:84,1,94.5,2|2,1:2|0:0,0:0:0:0:
182,7,40881,1,10,0:0:0:0:
265,120,41059,2,0,B|297:135|339:113|317:90|357:75|395:93,1,141.75,10|0,0:0|0:0,0:0:0:0:
406,104,41416,1,2,0:0:0:0:
499,39,41595,1,8,0:0:0:0:
406,104,41773,6,0,P|404:168|405:254,1,141.75,2|0,1:2|0:0,0:0:0:0:
418,261,42131,1,2,1:2:0:0:
309,198,42309,1,8,0:0:0:0:
491,332,42488,2,0,P|490:261|493:191,1,141.75,10|0,0:0|0:0,0:0:0:0:
502,169,42845,1,2,1:2:0:0:
414,283,43023,6,0,P|364:293|317:255,1,94.5,14|2,0:0|0:0,0:0:0:0:
240,182,43381,6,0,P|282:221|248:311,1,155.925004758454,6|0,1:2|0:0,0:0:0:0:
237,320,43738,5,10,0:0:0:0:
152,228,43916,1,2,0:0:0:0:
238,301,44095,5,10,0:0:0:0:
75,252,44273,1,2,1:2:0:0:
238,283,44452,5,10,0:0:0:0:
41,326,44631,1,2,1:2:0:0:
240,182,44809,5,10,0:0:0:0:
185,373,44988,1,8,0:0:0:0:
185,373,45077,1,8,0:0:0:0:
185,373,45166,1,8,0:0:0:0:
75,113,45345,1,8,0:0:0:0:
75,113,45434,1,8,0:0:0:0:
75,113,45523,1,8,0:0:0:0:
151,142,45702,5,2,0:0:0:0:
214,98,45881,1,2,0:0:0:0:
140,62,46059,1,2,0:0:0:0:
108,215,46238,6,0,P|208:210|301:206,1,170.09999480896,6|0,1:2|0:0,0:0:0:0:
298,216,46595,1,8,0:0:0:0:
214,98,46773,1,8,0:0:0:0:
278,294,46952,2,0,P|341:291|374:245,1,113.399996539307,2|2,0:0|1:2,0:0:0:0:
380,94,47309,2,0,P|317:97|284:143,1,113.399996539307,10|2,0:0|0:0,0:0:0:0:
205,242,47666,5,2,1:0:0:0:
132,76,47845,1,0,1:0:0:0:
132,76,47934,1,0,1:0:0:0:
132,76,48023,1,10,0:0:0:0:
298,216,48202,1,8,0:0:0:0:
70,214,48381,2,0,P|107:165|166:171,1,113.399996539307,2|2,0:1|1:2,0:0:0:0:
167,342,48738,2,0,P|102:339|44:339,1,113.399996539307,10|2,0:0|0:0,0:0:0:0:
205,242,49095,6,0,B|247:219|298:243|263:274|322:297|366:278,1,170.09999480896,2|0,1:0|0:0,0:0:0:0:
380,262,49452,1,8,0:0:0:0:
460,152,49631,1,8,0:0:0:0:
357,63,49809,2,0,P|336:122|370:171,1,113.399996539307,2|2,0:0|1:2,0:0:0:0:
446,28,50166,1,10,0:0:0:0:
358,163,50345,1,2,0:0:0:0:
223,44,50523,6,0,P|296:10|357:63,1,170.09999480896,2|0,1:0|0:0,0:0:0:0:
362,75,50881,1,10,0:0:0:0:
263,164,51059,1,8,0:0:0:0:
435,110,51238,1,2,0:1:0:0:
223,44,51416,1,0,1:2:0:0:
208,52,51506,1,0,1:0:0:0:
195,59,51595,2,0,L|199:231,1,170.09999480896,12|0,0:0|0:0,0:0:0:0:
217,244,51952,5,6,1:0:0:0:
339,161,52131,1,2,0:0:0:0:
122,221,52309,1,10,0:0:0:0:
314,293,52488,1,10,0:0:0:0:
119,107,52666,2,0,L|121:220,1,113.399996539307,2|0,0:0|1:2,0:0:0:0:
339,161,53023,5,10,0:0:0:0:
227,99,53202,1,2,0:0:0:0:
264,254,53381,1,2,1:0:0:0:
325,60,53559,1,2,0:0:0:0:
179,184,53738,5,10,0:0:0:0:
50,40,53916,2,0,P|115:33|154:79,1,113.399996539307,8|2,0:0|0:1,0:0:0:0:
179,184,54273,1,0,1:2:0:0:
47,262,54452,2,0,P|-4:222|44:116,1,170.09999480896,8|0,0:0|0:0,0:0:0:0:
35,120,54809,5,2,1:0:0:0:
179,184,54988,1,2,0:0:0:0:
47,262,55166,1,10,0:0:0:0:
148,63,55345,1,10,0:0:0:0:
271,206,55523,2,0,P|201:202|147:203,1,113.399996539307,2|0,0:0|1:2,0:0:0:0:
261,90,55881,2,0,P|319:58|364:92,1,113.399996539307,10|0,0:0|1:0,0:0:0:0:
408,129,56148,1,0,1:0:0:0:
418,142,56238,2,0,L|415:274,1,113.399996539307,2|2,1:0|1:2,0:0:0:0:
320,352,56595,5,14,0:0:0:0:
486,306,56773,1,0,1:2:0:0:
288,214,56952,1,2,1:0:0:0:
421,380,57131,1,2,1:2:0:0:
421,380,57220,1,0,1:0:0:0:
421,380,57309,1,14,0:0:0:0:
207,302,57488,1,10,0:0:0:0:
215,285,57577,1,10,0:0:0:0:
222,269,57666,6,0,B|274:244|316:277|287:302|345:326|377:302,1,170.09999480896,6|0,1:0|0:0,0:0:0:0:
392,282,58023,1,8,0:0:0:0:
290,190,58202,1,8,0:0:0:0:
239,344,58381,2,0,P|192:371|125:352,1,113.399996539307,2|2,0:0|1:2,0:0:0:0:
55,211,58738,2,0,P|109:200|149:248,1,113.399996539307,10|2,0:0|0:0,0:0:0:0:
8,348,59095,5,2,1:0:0:0:
146,238,59273,1,0,1:0:0:0:
146,238,59363,1,0,1:0:0:0:
146,238,59452,1,10,0:0:0:0:
10,131,59631,1,8,0:0:0:0:
222,269,59809,2,0,P|239:212|218:159,1,113.399996539307,2|2,0:1|1:2,0:0:0:0:
73,228,60166,2,0,L|81:349,1,113.399996539307,10|2,0:0|0:0,0:0:0:0:
239,344,60523,6,0,B|291:368|333:335|304:310|362:286|394:310,1,170.09999480896,2|0,1:0|0:0,0:0:0:0:
409,331,60881,1,8,0:0:0:0:
338,214,61059,1,8,0:0:0:0:
486,266,61238,2,0,B|503:208|503:208|481:151,1,113.399996539307,2|2,0:0|1:2,0:0:0:0:
353,127,61595,1,10,0:0:0:0:
486,266,61773,1,2,0:0:0:0:
481,75,61952,6,0,P|419:57|352:142,1,170.09999480896,2|0,1:0|0:0,0:0:0:0:
338,214,62309,1,10,0:0:0:0:
286,87,62488,1,8,0:0:0:0:
417,184,62666,1,2,0:1:0:0:
221,144,62845,1,0,1:2:0:0:
342,18,63023,2,0,P|338:92|338:203,1,170.09999480896,8|0,0:0|0:0,0:0:0:0:
379,267,63381,5,6,1:0:0:0:
235,220,63559,1,2,0:0:0:0:
417,184,63738,1,10,0:0:0:0:
300,335,63916,1,10,0:0:0:0:
166,161,64095,2,0,P|213:122|272:135,1,113.399996539307,2|0,0:0|1:2,0:0:0:0:
177,295,64452,5,10,0:0:0:0:
77,178,64631,1,2,0:0:0:0:
235,220,64809,1,2,1:0:0:0:
114,362,64988,1,2,0:0:0:0:
300,335,65166,5,10,0:0:0:0:
156,172,65345,2,0,P|139:231|167:284,1,113.399996539307,8|2,0:0|0:1,0:0:0:0:
261,128,65702,1,0,1:2:0:0:
12,89,65881,2,0,P|16:168|19:269,1,170.09999480896,8|0,0:0|0:0,0:0:0:0:
19,259,66238,5,6,1:0:0:0:
140,139,66416,1,2,0:0:0:0:
12,89,66595,1,10,0:0:0:0:
147,273,66773,1,10,0:0:0:0:
248,100,66952,2,0,P|182:86|147:127,1,113.399996539307,2|0,0:0|1:2,0:0:0:0:
297,214,67309,1,10,0:0:0:0:
408,135,67488,1,0,0:0:0:0:
212,173,67666,5,2,1:0:0:0:
383,267,67845,1,0,1:2:0:0:
398,53,68023,2,0,P|344:70|325:129,1,113.399996539307,14|2,0:0|1:2,0:0:0:0:
450,215,68381,1,2,1:0:0:0:
297,214,68559,1,0,1:2:0:0:
492,140,68738,1,14,0:0:0:0:
465,352,68916,1,8,0:0:0:0:
465,352,69006,1,8,0:0:0:0:
465,352,69095,5,6,1:0:0:0:
379,247,69273,1,0,0:0:0:0:
465,352,69452,1,2,1:2:0:0:
315,309,69631,1,2,0:0:0:0:
460,194,69809,2,0,L|459:282,1,75.6,0|2,1:2|0:0,0:0:0:0:
297,214,70166,2,0,P|283:164|303:132,1,75.6,2|2,1:2|0:0,0:0:0:0:
379,247,70523,5,0,1:2:0:0:
294,135,70702,1,2,0:0:0:0:
211,242,70881,2,0,P|255:235|302:233,1,75.6,2|2,1:2|0:0,0:0:0:0:
203,127,71238,2,0,P|156:137|150:176,1,75.6,0|0,1:2|0:0,0:0:0:0:
112,348,71595,2,0,P|135:318|83:246,1,113.4,0|0,1:2|0:0,0:0:0:0:
86,230,71952,6,0,L|210:228,1,113.399996539307,14|2,0:0|1:2,1:2:0:0:
212,207,72220,1,0,1:2:0:0:
212,207,72309,1,10,1:2:0:0:
43,299,72488,5,10,0:0:0:0:
212,207,72666,1,0,1:2:0:0:
212,207,72756,1,8,1:2:0:0:
212,207,72845,1,10,1:2:0:0:
29,151,73023,5,10,0:0:0:0:
164,318,73202,1,10,0:0:0:0:
193,315,73291,1,8,0:0:0:0:
223,311,73381,1,0,1:2:0:0:
117,83,73559,2,0,L|114:149,1,56.6999982696534,2|0,1:2|1:2,0:0:0:0:
86,230,73738,1,10,0:0:0:0:
270,110,73916,1,8,0:0:0:0:
241,113,74006,1,8,0:0:0:0:
211,117,74095,5,10,0:0:0:0:
86,230,74809,6,0,P|161:207|197:275,1,155.925004758454,6|0,1:2|0:0,0:0:0:0:
194,282,75166,1,10,0:0:0:0:
245,168,75345,1,8,0:0:0:0:
380,257,75523,2,0,P|315:253|267:256,1,103.950003172302,2|0,0:0|1:2,0:0:0:0:
311,104,75881,2,0,P|372:92|417:174,1,155.925004758454,10|0,0:0|0:0,0:0:0:0:
419,181,76238,5,2,1:0:0:0:
491,79,76416,1,0,0:0:0:0:
340,176,76595,1,10,0:0:0:0:
495,232,76773,1,10,0:0:0:0:
397,53,76952,2,0,P|332:60|310:91,1,103.950003172302,2|0,0:1|1:2,0:0:0:0:
249,196,77309,2,0,P|286:134|237:57,1,155.925004758454,8|0,0:0|0:0,0:0:0:0:
228,49,77666,6,0,B|190:35|144:55|169:90|121:115|83:102,1,155.925004758454,6|0,1:0|0:0,0:0:0:0:
67,94,78023,1,10,0:0:0:0:
161,175,78202,1,8,0:0:0:0:
70,277,78381,2,0,P|46:228|65:180,1,103.950003172302,2|0,0:0|1:2,0:0:0:0:
199,360,78738,2,0,P|135:354|39:357,1,155.925004758454,10|0,0:0|0:0,0:0:0:0:
15,365,79095,5,2,1:0:0:0:
161,278,79273,1,2,0:0:0:0:
0,131,79452,1,10,0:0:0:0:
70,277,79631,1,10,0:0:0:0:
220,157,79809,2,0,P|162:157|132:193,1,103.950003172302,6|0,0:1|1:2,0:0:0:0:
250,284,80166,2,0,P|310:276|409:269,1,155.925004758454,14|0,0:0|0:0,0:0:0:0:
421,278,80523,6,0,P|453:205|419:128,1,155.925004758454,6|0,1:0|0:0,0:0:0:0:
409,117,80881,1,10,0:0:0:0:
308,190,81059,1,8,0:0:0:0:
379,37,81238,2,0,P|440:34|470:70,1,103.950003172302,2|0,0:0|1:2,0:0:0:0:
308,190,81595,2,0,P|282:105|306:33,1,155.925004758454,10|0,0:0|0:0,0:0:0:0:
310,17,81952,5,2,1:0:0:0:
201,109,82131,1,0,0:0:0:0:
366,120,82309,1,10,0:0:0:0:
205,11,82488,1,10,0:0:0:0:
204,198,82666,2,0,P|271:190|315:190,1,103.950003172302,2|0,0:1|1:2,0:0:0:0:
126,62,83023,2,0,P|48:50|12:115,1,155.925004758454,10|0,0:0|0:0,0:0:0:0:
11,107,83381,6,0,P|22:46|5:0,1,103.950003172302,14|0,0:1|0:0,0:0:0:0:
115,154,83738,2,0,P|104:215|121:261,1,103.950003172302,2|0,1:2|0:0,0:0:0:0:
217,78,84095,2,0,P|177:50|120:66,1,103.950003172302,2|0,1:2|0:0,0:0:0:0:
204,198,84452,2,0,P|271:190|315:190,1,103.950003172302,2|0,1:2|0:0,0:0:0:0:
411,259,84809,5,2,1:2:0:0:
443,117,84988,1,2,0:0:0:0:
436,92,85077,1,2,0:0:0:0:
428,67,85166,1,2,0:0:0:0:
319,265,85345,1,2,0:0:0:0:
512,193,85523,5,2,0:1:0:0:
