osu file format v14

[General]
AudioFilename: audio.mp3
AudioLeadIn: 0
PreviewTime: -1
Countdown: 1
SampleSet: Normal
StackLeniency: 0.7
Mode: 0
LetterboxInBreaks: 0
WidescreenStoryboard: 1

[Editor]
Bookmarks: 4788
DistanceSpacing: 0.8
BeatDivisor: 4
GridSize: 32
TimelineZoom: 1.6

[Metadata]
Title:Tsuki no hime(Short Ver.)
TitleUnicode:月の姫 (Short Ver.)
Artist:HoneyWorks
ArtistUnicode:HoneyWorks
Creator:NekotaChin000
Version:Hard
Source:Japanese Novelity
Tags:HoneyWorks Japanese GUMI Vocaloid
BeatmapID:1490171
BeatmapSetID:704431

[Difficulty]
HPDrainRate:7
CircleSize:5
OverallDifficulty:8
ApproachRate:8
SliderMultiplier:2.00000000596047
SliderTickRate:4

[Events]
//Background and Video events
0,0,"maxresdefault.jpg",0,0
//Break Periods
//Storyboard Layer 0 (Background)
//Storyboard Layer 1 (Fail)
//Storyboard Layer 2 (Pass)
//Storyboard Layer 3 (Foreground)
//Storyboard Sound Samples

[TimingPoints]
0,456.045454545455,4,1,0,100,1,0

[Colours]
Combo1 : 157,0,79
Combo2 : 251,98,98
Combo3 : 118,118,237
Combo4 : 242,24,57

[HitObjects]
192,160,798,5,0,0:0:0:0:
160,224,1026,1,0,0:0:0:0:
224,288,1254,1,0,0:0:0:0:
288,224,1482,1,0,0:0:0:0:
256,160,1710,1,0,0:0:0:0:
283,102,1824,6,0,L|241:72,1,50.0000001490116
160,64,2052,2,0,P|64:96|64:160,2,150.000000447035
192,128,2850,1,0,0:0:0:0:
224,192,3192,2,0,B|358:226|369:224|369:224,1,100.000000298023
384,192,3762,1,0,0:0:0:0:
416,128,3990,1,0,0:0:0:0:
384,64,4104,1,0,0:0:0:0:
306,56,4788,5,0,0:0:0:0:
224,64,5016,1,0,0:0:0:0:
160,128,5244,1,0,0:0:0:0:
160,128,5472,2,0,L|282:145,1,100.000000298023
320,128,6270,1,0,0:0:0:0:
356,174,6612,5,0,0:0:0:0:
398,94,6840,1,0,0:0:0:0:
324,53,7068,1,0,0:0:0:0:
227,90,7296,1,0,0:0:0:0:
244,175,7410,2,0,L|190:201,1,50.0000001490116
128,256,7866,5,0,0:0:0:0:
224,288,7980,1,0,0:0:0:0:
224,288,8208,1,0,0:0:0:0:
256,192,8436,1,0,0:0:0:0:
192,160,8664,1,0,0:0:0:0:
121,113,8778,6,0,L|209:62,1,100.000000298023
256,64,9120,2,0,L|320:96,2,50.0000001490117
288,224,10717,1,0,0:0:0:0:
233,271,10945,1,0,0:0:0:0:
175,232,11059,2,0,P|120:183|120:183,2,50.0000001490117
128,128,11401,1,0,0:0:0:0:
192,96,11629,1,0,0:0:0:0:
256,96,11857,1,0,0:0:0:0:
288,160,12085,2,0,P|320:193|323:214,2,50.0000001490116
272,265,12883,5,0,0:0:0:0:
196,318,13111,1,0,0:0:0:0:
229,189,13225,1,0,0:0:0:0:
141,247,13453,1,0,0:0:0:0:
148,148,13681,2,0,P|167:81|167:81,1,50.0000001490116
256,96,14023,6,0,B|249:111|275:49,1,50.0000001490116
288,160,14365,1,0,0:0:0:0:
320,224,14821,2,0,B|407:240|412:157|412:157,2,100.000000298023
243,188,15847,1,0,0:0:0:0:
217,115,16075,2,0,P|243:76|315:67,1,100.000000298023
370,92,16417,1,0,0:0:0:0:
352,160,16873,5,0,0:0:0:0:
236,142,16987,1,0,0:0:0:0:
172,213,17215,1,0,0:0:0:0:
265,230,17443,1,0,0:0:0:0:
197,292,17671,2,0,L|132:276,2,50.0000001490116
288,320,18241,5,0,0:0:0:0:
366,345,18469,1,0,0:0:0:0:
419,299,18697,1,0,0:0:0:0:
448,224,18811,1,0,0:0:0:0:
444,182,19153,1,0,0:0:0:0:
443,173,19381,2,0,L|392:125,1,50.0000001490116
192,96,20750,5,0,0:0:0:0:
128,128,20978,1,0,0:0:0:0:
224,160,21206,1,0,0:0:0:0:
160,192,21434,1,0,0:0:0:0:
192,256,21776,2,0,L|241:299,1,50.0000001490116
288,320,22118,5,0,0:0:0:0:
320,256,22346,1,0,0:0:0:0:
352,192,22574,2,0,L|224:128,2,100.000000298023
192,160,23600,5,0,0:0:0:0:
160,224,23828,2,0,P|208:261|267:220,1,100.000000298023
320,224,24170,1,0,0:0:0:0:
320,224,24512,1,0,0:0:0:0:
405,288,24968,1,0,0:0:0:0:
405,288,25196,6,0,L|470:237,1,50.0000001490116
416,173,25766,2,0,L|363:134,2,50.0000001490116
351,208,26336,1,0,0:0:0:0:
299,223,26564,1,0,0:0:0:0:
224,251,26792,6,0,L|154:205,1,50.0000001490116
224,251,26792,1,0,0:0:0:0:
150,165,27248,2,0,B|154:129|212:99|256:120|256:120,1,100.000000298023
218,182,28160,1,0,0:0:0:0:
128,128,28274,1,0,0:0:0:0:
128,224,28616,5,0,0:0:0:0:
128,224,28844,1,0,0:0:0:0:
192,288,28958,2,0,L|293:300,2,100.000000298023
249,239,30897,1,0,0:0:0:0:
288,320,31239,1,0,0:0:0:0:
360,260,31467,2,0,B|411:192|412:178|412:178,1,50.0000001490117
418,158,31809,1,0,0:0:0:0:
366,97,31923,1,0,0:0:0:0:
241,117,32151,1,0,0:0:0:0:
306,165,32379,1,0,0:0:0:0:
306,165,32607,6,0,P|279:198|266:227,1,50.0000001490116
256,290,33405,1,0,0:0:0:0:
181,248,33633,1,0,0:0:0:0:
181,248,33861,1,0,0:0:0:0:
150,169,33975,1,0,0:0:0:0:
211,105,34203,6,0,L|290:83,1,50.0000001490116
296,158,34545,2,0,L|371:140,1,50.0000001490116
320,224,34773,1,0,0:0:0:0:
320,224,34887,1,0,0:0:0:0:
256,256,35001,2,0,B|197:237|226:197|226:197,2,50.0000001490116
192,192,35799,5,0,0:0:0:0:
96,160,36027,2,0,P|83:119|117:49,2,100.000000298023
192,192,37053,1,0,0:0:0:0:
256,128,37281,2,0,P|323:115|323:115,1,50.0000001490116
288,192,37623,2,0,B|265:195|337:183,1,50.0000001490116
294,285,37965,6,0,B|388:292|472:237|471:154|410:99|410:99,2,250.000000745058
224,256,39219,2,0,P|145:211|176:156,1,150.000000447035
256,160,39789,1,0,0:0:0:0:
