osu file format v14

[General]
AudioFilename: audio.mp3
AudioLeadIn: 0
PreviewTime: -1
Countdown: 1
SampleSet: Normal
StackLeniency: 0.7
Mode: 0
LetterboxInBreaks: 0
WidescreenStoryboard: 1

[Editor]
Bookmarks: 4788
DistanceSpacing: 0.8
BeatDivisor: 4
GridSize: 32
TimelineZoom: 1.4

[Metadata]
Title:Tsuki no hime (Short Ver.)
TitleUnicode:月の姫 (Short Ver.)
Artist:HoneyWorks
ArtistUnicode:HoneyWorks
Creator:NekotaChin000
Version:Normal
Source:Novelity Japanese
Tags:HoneyWorks Japanese GUMI Vocaloid
BeatmapID:1490173
BeatmapSetID:704431

[Difficulty]
HPDrainRate:7
CircleSize:5
OverallDifficulty:8
ApproachRate:8
SliderMultiplier:1.2
SliderTickRate:2

[Events]
//Background and Video events
0,0,"maxresdefault.jpg",0,0
//Break Periods
//Storyboard Layer 0 (Background)
//Storyboard Layer 1 (Fail)
//Storyboard Layer 2 (Pass)
//Storyboard Layer 3 (Foreground)
//Storyboard Sound Samples

[TimingPoints]
0,456.045454545455,4,1,0,100,1,0

[Colours]
Combo1 : 157,0,79
Combo2 : 251,98,98
Combo3 : 118,118,237
Combo4 : 242,24,57

[HitObjects]
96,256,684,5,0,0:0:0:0:
96,256,912,2,0,B|96:160|96:128|96:128,2,120
96,256,1938,2,0,L|160:288,1,60
128,320,2280,2,0,L|224:352,1,90
320,320,2850,1,0,0:0:0:0:
416,288,3078,5,0,0:0:0:0:
416,288,3306,1,0,0:0:0:0:
448,224,3534,2,0,P|416:160|352:128,2,120
352,288,4788,2,0,B|288:320|160:320|32:256|288:96|256:160,1,360
320,128,6384,2,0,P|352:64|352:64,1,60
288,32,6726,6,0,L|160:32,1,120
128,64,7296,2,0,L|96:160,1,90
128,224,7980,1,0,0:0:0:0:
192,288,8094,1,0,0:0:0:0:
256,320,8208,6,0,P|320:352|416:288,2,180
192,256,10489,1,0,0:0:0:0:
192,192,10603,2,0,L|256:96,1,90
310,115,11173,2,0,L|374:147,1,60
352,192,11515,6,0,B|352:384|128:320|128:320,1,300
64,288,12769,2,0,B|32:224|0:192|64:96|128:64,1,240
181,62,13909,1,0,0:0:0:0:
224,64,14023,2,0,L|384:64,1,150
480,96,14707,1,0,0:0:0:0:
480,160,14821,6,0,P|448:256|384:320,1,180
288,320,15733,2,0,L|288:256,2,60
160,288,16417,2,0,B|64:288|0:224|32:160,1,210
32,128,17329,1,0,0:0:0:0:
64,96,17443,1,0,0:0:0:0:
96,64,17671,6,0,B|128:0|160:32|192:64|224:32|256:0,1,180
320,64,18583,2,0,L|256:192,1,120
224,224,19495,1,0,0:0:0:0:
224,224,19723,1,0,0:0:0:0:
160,256,20750,2,0,L|64:192,2,90
160,160,21548,6,0,P|32:64|32:64,1,150
96,32,22232,2,0,P|192:96|192:96,1,90
224,128,22688,1,0,0:0:0:0:
256,224,23372,2,0,P|256:288|320:320,1,120
384,288,23942,2,0,P|416:256|416:192,1,90
416,128,24512,5,0,0:0:0:0:
320,64,24626,2,0,B|224:-32|192:96|192:96,1,150
96,128,25880,2,0,P|96:64|32:32,2,120
160,192,27020,1,0,0:0:0:0:
128,256,27248,2,0,P|192:320|288:288,1,180
320,256,28160,6,0,L|320:192,1,60
288,128,28616,2,0,L|224:96,1,60
192,96,28958,2,0,P|128:96|96:160,1,120
64,224,29528,2,0,L|64:288,2,60
192,256,30555,2,0,L|192:352,2,90
288,224,31353,6,0,B|320:160|384:160|352:96,1,150
320,32,32151,2,0,L|224:32,2,90
160,128,33633,2,0,P|256:96|256:96,1,90
320,64,34203,2,0,L|416:96,1,90
288,160,34773,6,0,L|412:202,2,120
224,128,35799,2,0,B|211:198|140:185|128:95|121:50|38:108|51:198|102:236,1,300
128,288,36939,1,0,0:0:0:0:
192,320,37053,2,0,L|288:352,1,90
352,288,37851,1,0,0:0:0:0:
352,288,38079,6,0,P|384:224|256:160,1,240
192,224,39219,5,0,0:0:0:0:
192,224,39447,2,0,L|288:320,2,120
