osu file format v14

[General]
AudioFilename: audio.mp3
AudioLeadIn: 0
PreviewTime: 60517
Countdown: 0
SampleSet: Soft
StackLeniency: 0.4
Mode: 0
LetterboxInBreaks: 0
WidescreenStoryboard: 1

[Editor]
DistanceSpacing: 1.6
BeatDivisor: 4
GridSize: 32
TimelineZoom: 1.2

[Metadata]
Title:Suiyoubi no Yakusoku -another story- feat. Narumi Sena (CV: Amamiya Sora)
TitleUnicode:水曜日の約束 -another story- feat. 成海聖奈 (CV: 雨宮天)
Artist:HoneyWorks
ArtistUnicode:HoneyWorks
Creator:sanairrt
Version:Lovely Insane
Source:
Tags:japanese pop jpop j-pop ハニワークスプレミアムライブ ハニプレ HaniPure HoneyPre Premium Live
BeatmapID:4064903
BeatmapSetID:1960860

[Difficulty]
HPDrainRate:5
CircleSize:3.8
OverallDifficulty:7.5
ApproachRate:9
SliderMultiplier:1.6
SliderTickRate:1

[Events]
//Background and Video events
0,0,"NlcsBahZ_4x.jpg",0,0
Video,-550,"awdawdawdawdawd.mp4"
//Break Periods
2,182413,192149
//Storyboard Layer 0 (Background)
//Storyboard Layer 1 (Fail)
//Storyboard Layer 2 (Pass)
//Storyboard Layer 3 (Foreground)
//Storyboard Layer 4 (Overlay)
//Storyboard Sound Samples

[TimingPoints]
785,357.142857142857,4,2,1,65,1,0
785,-111.111111111111,4,2,1,65,0,0
12213,-100,4,2,1,75,0,0
23642,-125,4,2,1,60,0,0
29356,-125,4,2,1,60,0,0
35070,-111.111111111111,4,2,1,70,0,0
46499,-125,4,2,1,60,0,0
55070,-100,4,2,1,75,0,0
60606,-90.9090909090909,4,2,1,85,0,0
82927,-166.666666666667,4,2,1,60,0,0
83642,-100,4,2,1,75,0,0
95070,-125,4,2,1,60,0,0
99356,-166.666666666667,4,2,1,55,0,0
100784,-125,4,2,1,60,0,0
106499,-111.111111111111,4,2,1,70,0,0
117927,-125,4,2,1,60,0,0
126499,-100,4,2,1,75,0,0
132213,-90.9090909090909,4,2,1,85,0,0
166499,-125,4,2,1,65,0,0
179356,-166.666666666667,4,2,1,55,0,0
192213,-100,4,2,1,75,0,0
193642,-90.909090909091,4,2,1,85,0,0
204356,-166.666666666667,4,2,1,60,0,0
205070,-100,4,2,1,75,0,0
215070,-100,4,2,1,50,0,0
216141,-100,4,2,1,75,0,0
216677,-100,4,2,1,10,0,0

[Colours]
Combo1 : 128,128,255
Combo2 : 255,255,119
Combo3 : 0,128,255

[HitObjects]
193,343,785,6,0,B|211:283|230:226|230:226|176:197|178:127,1,215.999993408203,6|0,1:2|0:0,0:0:0:0:
109,87,1499,2,0,B|59:136|59:136|124:123|219:106,1,215.999993408203,4|0,1:2|0:0,0:0:0:0:
337,59,2213,2,0,P|255:52|301:134,1,215.999993408203,6|0,1:2|0:0,0:0:0:0:
431,199,2927,2,0,B|383:175|310:194|347:224|276:263|206:212,1,215.999993408203,4|8,1:2|0:0,0:0:0:0:
218,223,3552,1,8,0:0:0:0:
206,219,3642,6,0,B|217:284|232:363|232:363|198:330|145:328,1,215.999993408203,6|0,1:2|0:0,0:0:0:0:
110,207,4356,2,0,P|150:139|277:150,1,215.999993408203,4|0,1:2|0:0,0:0:0:0:
450,198,5070,2,0,B|431:242|369:254|321:225|321:225|365:198|361:149,1,215.999993408203,6|0,1:2|0:0,0:0:0:0:
261,18,5784,2,0,B|274:34|295:59|295:59|286:94|268:169,1,143.999995605469,4|0,1:2|1:2,0:0:0:0:
189,204,6320,1,4,0:3:0:0:
189,204,6409,1,4,0:3:0:0:
189,204,6499,6,0,P|180:164|167:107,1,71.9999978027344,6|2,1:2|0:0,0:0:0:0:
273,147,6856,1,2,1:2:0:0:
92,218,7034,2,0,P|56:207|8:195,1,71.9999978027344,2|4,0:0|1:2,0:0:0:0:
77,326,7392,2,0,P|112:315|161:303,1,71.9999978027344,2|0,0:0|1:2,0:0:0:0:
260,284,7749,1,8,0:0:0:0:
260,284,7838,1,8,0:0:0:0:
260,284,7927,6,0,P|251:322|238:375,2,71.9999978027344,2|2|2,1:2|0:0|1:2,0:0:0:0:
189,204,8463,1,2,0:0:0:0:
355,255,8642,2,0,P|394:245|443:234,1,71.9999978027344,8|2,0:0|0:0,0:0:0:0:
433,242,8909,1,8,0:0:0:0:
439,246,8999,1,2,1:2:0:0:
504,145,9177,1,8,0:0:0:0:
504,145,9267,1,8,0:0:0:0:
504,145,9356,6,0,P|434:132|349:118,1,143.999995605469,6|10,1:2|0:0,0:0:0:0:
288,182,9892,1,10,0:0:0:0:
162,60,10070,1,8,0:0:0:0:
162,60,10249,1,10,0:0:0:0:
261,20,10427,2,0,P|253:57|240:120,1,71.9999978027344,10|10,0:0|0:3,0:0:0:0:
240,100,10695,1,0,1:2:0:0:
234,108,10784,1,10,0:0:0:0:
44,220,12213,6,0,B|88:183|88:183|139:193|197:205,1,160,6|2,1:2|1:2,0:0:0:0:
302,252,12749,2,0,P|294:216|281:159,1,80,2|0,0:0|1:2,0:0:0:0:
217,38,13106,2,0,P|209:73|198:125,1,80,2|0,0:0|0:0,0:0:0:0:
298,85,13463,1,2,0:0:0:0:
116,84,13642,6,0,P|74:75|23:65,2,80,2|2|2,1:2|0:0|1:2,0:0:0:0:
32,239,14177,2,0,P|108:220|214:197,1,160,2|2,0:0|0:0,0:0:0:0:
298,85,14713,1,0,1:2:0:0:
376,166,14892,1,2,0:0:0:0:
376,166,14981,1,2,0:0:0:0:
376,166,15070,6,0,B|407:210|407:210|397:240|374:318,1,160,4|2,1:2|1:2,0:0:0:0:
267,269,15606,2,0,P|275:307|289:371,1,80,2|0,0:0|1:2,0:0:0:0:
167,291,15963,2,0,P|175:252|184:213,1,80,2|0,0:0|1:2,0:0:0:0:
267,269,16320,1,2,0:0:0:0:
113,144,16499,5,2,1:2:0:0:
203,77,16677,1,10,0:0:0:0:
203,77,16767,1,8,0:0:0:0:
203,77,16856,2,0,P|229:83|279:96,1,40,8|0,1:2|0:0,0:0:0:0:
113,144,17034,2,0,P|74:152|31:164,1,80,10|0,0:0|1:2,0:0:0:0:
184,212,17392,1,0,1:2:0:0:
184,212,17481,1,0,1:2:0:0:
184,212,17570,1,4,0:3:0:0:
118,278,17749,1,8,0:3:0:0:
118,278,17838,1,8,0:3:0:0:
118,278,17927,6,0,B|158:249|158:249|202:257|273:270,1,160,4|10,1:2|0:0,0:0:0:0:
361,339,18463,1,10,0:0:0:0:
361,339,18552,1,8,0:0:0:0:
361,339,18642,2,0,P|369:290|377:243,1,80,8|10,1:2|0:0,0:0:0:0:
380,252,18909,1,8,0:0:0:0:
387,246,18999,2,0,P|414:249|457:255,3,40,8|8|10|8,1:2|0:0|0:0|0:0,0:0:0:0:
356,148,19356,6,0,P|293:194|216:181,1,160,6|8,1:2|1:2,0:0:0:0:
147,126,19892,1,10,0:0:0:0:
147,126,19981,1,8,0:0:0:0:
147,126,20070,1,8,0:0:0:0:
85,201,20249,1,10,0:0:0:0:
85,201,20338,1,8,0:0:0:0:
85,201,20427,2,0,P|91:227|101:264,3,40,8|8|10|8,1:2|0:0|0:0|0:0,0:0:0:0:
2,161,20784,6,0,P|19:82|32:29,1,120,14|8,1:2|0:0,0:0:0:0:
39,36,21142,2,0,L|102:50,3,40,10|8|10|8,1:2|0:0|0:0|0:0,0:0:0:0:
142,106,21499,2,0,L|181:97,3,40,8|8|8|8,0:0|0:0|0:3|0:3,0:0:0:0:
252,42,21856,1,0,1:2:0:0:
252,42,21945,1,0,1:2:0:0:
252,42,22034,1,4,0:3:0:0:
252,42,22124,1,4,0:3:0:0:
252,42,22213,5,14,1:2:0:0:
343,77,22392,2,0,L|332:130,2,40,10|8|8,0:0|0:0|0:2,0:0:0:0:
409,0,22749,2,0,P|450:8|506:18,1,80,10|0,0:0|0:0,0:0:0:0:
416,155,23106,2,0,P|345:137|270:200,1,160,14|8,0:0|0:0,0:0:0:0:
274,193,23552,1,8,0:0:0:0:
271,204,23642,6,0,P|278:237|288:289,2,64,2|0|2,1:2|0:0|1:2,0:0:0:0:
172,194,24177,2,0,B|186:149|196:117|196:117|161:62,1,128,2|2,0:0|0:0,0:0:0:0:
101,135,24713,1,2,1:2:0:0:
101,135,24892,1,2,0:0:0:0:
10,18,25070,6,0,P|41:11|72:4,1,64,2|2,1:2|0:0,0:0:0:0:
7,113,25427,1,2,1:2:0:0:
170,16,25606,2,0,P|157:78|144:141,1,128,2|2,0:0|0:0,0:0:0:0:
71,268,26142,2,0,P|62:225|53:182,1,64,0|2,1:2|0:0,0:0:0:0:
155,323,26499,6,0,P|201:288|283:308,1,128,2|2,1:2|1:2,0:0:0:0:
351,364,27034,2,0,B|376:323|376:323|358:226,1,128,2|2,0:0|0:0,0:0:0:0:
267,296,27570,1,2,1:2:0:0:
267,296,27749,1,2,0:0:0:0:
349,142,27927,5,2,1:2:0:0:
349,142,28106,2,0,P|390:150|440:161,1,64,2|2,0:0|1:2,0:0:0:0:
360,243,28463,1,2,0:0:0:0:
360,243,28552,1,2,0:0:0:0:
360,243,28642,1,2,1:2:0:0:
269,80,28820,1,10,0:0:0:0:
171,197,28999,2,0,P|162:154|153:111,1,64,10|2,0:0|0:0,0:0:0:0:
283,17,29356,6,0,P|271:69|263:106,2,64,6|0|2,1:2|0:0|1:2,0:0:0:0:
157,134,29892,2,0,P|101:124|11:110,1,128,2|2,0:0|0:0,0:0:0:0:
29,253,30427,2,0,P|66:244|121:231,1,64,2|2,1:2|0:0,0:0:0:0:
157,134,30785,5,2,1:2:0:0:
157,134,30963,1,2,0:0:0:0:
293,250,31142,1,2,1:2:0:0:
245,96,31320,2,0,P|230:158|216:220,1,128,2|2,0:0|0:0,0:0:0:0:
143,337,31856,2,0,P|134:300|121:245,1,64,0|2,1:2|0:0,0:0:0:0:
236,375,32213,6,0,B|278:348|278:348|320:355|366:363,1,128,2|2,1:2|1:2,0:0:0:0:
416,237,32749,2,0,B|374:264|374:264|332:257|286:249,1,128,2|2,0:0|0:0,0:0:0:0:
232,168,33284,1,2,1:2:0:0:
232,168,33463,1,2,0:0:0:0:
331,63,33642,5,4,1:2:0:0:
331,63,33820,2,0,P|325:91|312:149,1,64,2|10,1:2|0:0,0:0:0:0:
208,269,34177,2,0,P|195:201|179:120,1,128,12|8,0:3|0:3,0:0:0:0:
177,138,34624,1,8,0:0:0:0:
169,133,34713,2,0,P|141:138|108:147,2,32,0|0|8,1:2|1:2|0:3,0:0:0:0:
331,63,35070,6,0,P|291:55|232:44,1,71.9999978027344,6|2,1:2|0:0,0:0:0:0:
299,155,35427,1,10,0:0:0:0:
418,3,35606,2,0,P|426:48|447:155,1,143.999995605469,2|0,0:0|0:0,0:0:0:0:
327,241,36142,2,0,P|333:205|340:170,1,71.9999978027344,8|0,0:0|0:0,0:0:0:0:
381,322,36499,5,2,1:2:0:0:
242,226,36677,1,2,0:0:0:0:
421,177,36856,1,10,0:0:0:0:
421,177,37034,1,2,0:0:0:0:
280,327,37213,2,0,P|246:319|189:309,1,71.9999978027344,0|0,1:2|0:0,0:0:0:0:
144,216,37570,2,0,P|177:208|235:198,1,71.9999978027344,8|2,0:0|0:0,0:0:0:0:
87,298,37927,6,0,P|51:251|70:157,1,143.999995605469,2|10,1:2|0:0,0:0:0:0:
210,112,38463,1,2,0:0:0:0:
133,17,38642,2,0,P|125:46|111:106,1,71.9999978027344,0|2,1:2|0:0,0:0:0:0:
227,181,38999,2,0,P|218:146|209:111,1,71.9999978027344,10|2,0:0|0:0,0:0:0:0:
128,226,39356,6,0,P|82:216|36:206,2,71.9999978027344,2|2|10,1:2|0:0|0:0,0:0:0:0:
227,181,39892,1,2,0:0:0:0:
112,327,40070,1,0,1:2:0:0:
294,260,40249,1,8,0:0:0:0:
294,260,40427,2,0,P|301:293|314:348,1,71.9999978027344,8|0,0:0|0:0,0:0:0:0:
227,181,40784,6,0,P|237:135|246:98,1,71.9999978027344,4|0,1:2|0:0,0:0:0:0:
294,260,41142,1,10,0:0:0:0:
127,193,41320,2,0,P|91:201|54:211,1,71.9999978027344,2|0,0:0|1:2,0:0:0:0:
172,93,41677,2,0,P|207:101|245:111,1,71.9999978027344,2|8,0:0|0:0,0:0:0:0:
127,193,42034,1,2,0:0:0:0:
279,275,42213,5,2,1:2:0:0:
107,337,42392,1,2,0:0:0:0:
221,200,42570,1,10,0:0:0:0:
221,200,42749,1,2,0:0:0:0:
281,374,42927,2,0,P|240:364|190:354,1,71.9999978027344,0|0,1:2|0:0,0:0:0:0:
278,274,43284,2,0,P|313:265|349:258,1,71.9999978027344,8|10,0:0|0:0,0:0:0:0:
356,262,43552,1,8,0:0:0:0:
364,265,43642,6,0,B|398:225|398:225|389:190|373:133,1,143.999995605469,2|10,1:2|0:0,0:0:0:0:
221,200,44177,1,2,0:0:0:0:
297,41,44356,2,0,P|288:77|274:135,1,71.9999978027344,0|0,1:2|0:0,0:0:0:0:
173,9,44713,1,10,0:0:0:0:
173,9,44892,1,2,0:0:0:0:
87,125,45070,6,0,P|124:115|185:100,1,71.9999978027344,2|2,1:2|0:0,0:0:0:0:
85,236,45427,2,0,P|47:226|-13:211,1,71.9999978027344,10|2,0:0|0:0,0:0:0:0:
154,305,45784,6,0,P|147:326|137:367,2,47.9999985351563,0|0|0,1:2|1:2|1:2,0:0:0:0:
241,268,46142,2,0,P|234:244|227:222,2,47.9999985351563,0|0|0,1:2|1:2|1:2,0:0:0:0:
257,369,46499,6,0,P|304:332|382:353,1,128,6|2,1:2|0:0,0:0:0:0:
427,269,47034,1,10,0:0:0:0:
501,378,47213,1,0,0:0:0:0:
501,378,47392,2,0,P|510:327|519:288,2,64,2|10|0,1:2|0:0|0:0,0:0:0:0:
470,189,47927,5,2,1:2:0:0:
470,189,48106,2,0,P|423:226|345:205,1,128,2|10,1:2|0:0,0:0:0:0:
348,51,48642,1,2,0:0:0:0:
348,51,48820,1,2,1:2:0:0:
237,154,48999,2,0,P|272:145|324:133,1,64,10|2,0:0|0:0,0:0:0:0:
275,267,49356,6,0,P|212:253|137:238,1,128,2|2,1:2|0:0,0:0:0:0:
237,154,49892,1,10,0:0:0:0:
65,212,50070,2,0,P|57:174|47:130,1,64,0|2,0:0|1:2,0:0:0:0:
156,33,50427,2,0,P|149:64|142:95,1,64,10|0,0:0|0:0,0:0:0:0:
237,154,50784,5,2,1:2:0:0:
237,154,50963,2,0,P|272:144|321:134,1,64,2|0,1:2|0:0,0:0:0:0:
391,56,51320,2,0,P|333:46|246:32,1,128,10|0,0:0|1:2,0:0:0:0:
397,159,51856,2,0,P|389:188|381:221,1,64,10|0,0:0|0:0,0:0:0:0:
301,295,52213,6,0,P|285:232|269:170,1,128,4|2,1:2|0:0,0:0:0:0:
200,110,52749,1,10,0:0:0:0:
111,190,52927,1,2,0:0:0:0:
111,190,53106,2,0,P|76:183|20:175,2,64,0|10|2,1:2|0:0|0:0,0:0:0:0:
79,320,53642,5,2,1:2:0:0:
79,320,53820,2,0,P|124:282|196:291,1,128,2|10,1:2|0:0,0:0:0:0:
269,353,54356,2,0,P|279:302|290:254,1,96,2|8,1:2|0:0,0:0:0:0:
285,251,54713,1,2,1:2:0:0:
373,366,54892,1,10,0:3:0:0:
489,259,55070,6,0,P|450:250|387:237,1,80,6|0,1:2|0:0,0:0:0:0:
298,140,55427,2,0,P|337:131|376:123,1,80,10|0,0:0|0:0,0:0:0:0:
285,251,55784,1,2,1:2:0:0:
198,99,55963,1,0,1:2:0:0:
87,195,56142,2,0,B|96:222|108:261|108:261|75:326,1,120,10|0,0:0|0:0,0:0:0:0:
77,316,56499,5,2,1:2:0:0:
212,195,56677,1,0,1:2:0:0:
207,381,56856,2,0,P|196:337|183:285,1,80,10|0,0:0|0:0,0:0:0:0:
330,132,57213,2,0,P|321:165|310:209,1,80,10|8,0:0|0:0,0:0:0:0:
314,220,57481,1,8,0:0:0:0:
319,231,57570,1,0,1:2:0:0:
377,355,57749,1,0,1:2:0:0:
377,355,57838,1,0,1:2:0:0:
377,355,57927,5,2,1:2:0:0:
226,283,58106,1,2,1:2:0:0:
422,177,58284,2,0,P|431:210|443:255,1,80,14|0,0:0|0:0,0:0:0:0:
381,61,58642,5,2,1:2:0:0:
319,231,58820,1,2,1:2:0:0:
172,125,58999,2,0,P|213:115|280:100,1,80,14|0,0:0|0:0,0:0:0:0:
81,82,59356,5,10,1:2:0:0:
81,82,59534,1,10,0:0:0:0:
165,231,59713,1,10,0:0:0:0:
234,14,59892,1,10,0:0:0:0:
457,111,60606,5,2,0:0:0:0:
457,111,60695,1,2,0:0:0:0:
457,111,60784,2,0,B|412:140|412:140|381:133|332:122,1,132.00000402832,6|0,1:2|0:0,0:0:0:0:
322,116,61142,2,0,P|294:155|304:215,1,88.000002685547,10|2,0:0|0:0,0:0:0:0:
299,203,61409,1,8,0:0:0:0:
305,211,61499,1,0,1:2:0:0:
438,284,61677,1,2,0:0:0:0:
281,326,61856,1,10,0:0:0:0:
398,196,62034,1,2,0:0:0:0:
491,382,62213,6,0,P|406:364|305:344,1,176.000005371094,2|10,1:2|0:0,0:0:0:0:
234,237,62749,1,2,0:0:0:0:
179,380,62927,1,0,1:2:0:0:
179,380,63017,1,8,0:0:0:0:
179,380,63106,1,2,0:0:0:0:
318,172,63284,2,0,P|325:211|337:277,1,88.000002685547,10|2,0:0|0:0,0:0:0:0:
225,133,63642,6,0,P|253:95|394:104,1,176.000005371094,2|10,1:2|0:0,0:0:0:0:
234,237,64177,1,2,0:0:0:0:
234,237,64267,1,8,0:0:0:0:
234,237,64356,2,0,P|185:225|162:220,2,44.0000013427735,0|8|2,1:2|0:0|0:0,0:0:0:0:
62,111,64713,2,0,P|103:101|168:88,1,88.000002685547,10|2,0:0|0:0,0:0:0:0:
1,212,65070,6,0,B|38:258|38:258|24:301|1:377,1,176.000005371094,2|10,1:2|0:0,0:0:0:0:
118,334,65606,1,2,0:0:0:0:
118,334,65695,1,8,0:0:0:0:
118,334,65784,2,0,P|147:326|221:306,1,88.000002685547,2|2,1:2|0:0,0:0:0:0:
287,219,66142,2,0,P|258:211|180:190,1,88.000002685547,10|2,0:0|0:0,0:0:0:0:
308,329,66499,5,6,1:2:0:0:
308,329,66677,1,2,0:0:0:0:
397,165,66856,2,0,P|404:197|420:268,1,88.000002685547,10|2,0:0|0:0,0:0:0:0:
413,261,67124,1,8,0:0:0:0:
409,272,67213,1,0,1:2:0:0:
287,219,67392,1,2,0:0:0:0:
457,87,67570,2,0,P|418:79|343:65,1,88.000002685547,10|2,0:0|0:0,0:0:0:0:
191,0,67927,6,0,B|214:20|238:44|238:44|206:162,1,176.000005371094,2|10,1:2|0:0,0:0:0:0:
287,219,68463,1,2,0:0:0:0:
164,301,68642,1,0,1:2:0:0:
164,301,68731,1,8,0:0:0:0:
164,301,68820,1,2,0:0:0:0:
252,357,68999,2,0,P|295:345|355:332,1,88.000002685547,10|2,0:0|0:0,0:0:0:0:
460,248,69356,6,0,P|381:234|268:216,1,176.000005371094,2|10,1:2|0:0,0:0:0:0:
183,157,69892,1,2,0:0:0:0:
183,157,69981,1,8,0:0:0:0:
183,157,70070,2,0,P|188:180|197:214,2,44.0000013427735,0|8|2,1:2|0:0|0:0,0:0:0:0:
70,285,70427,2,0,P|79:243|89:199,1,88.000002685547,10|2,0:0|0:0,0:0:0:0:
146,372,70784,6,0,P|194:328|277:355,1,132.00000402832,6|2,1:2|0:0,0:0:0:0:
270,342,71142,2,0,P|274:320|279:296,3,44.0000013427735,0|0|8|8,1:2|1:2|0:0|0:0,0:0:0:0:
351,384,71499,1,8,1:2:0:0:
489,247,71677,1,8,0:0:0:0:
489,247,71767,1,8,0:0:0:0:
489,247,71856,1,8,0:0:0:0:
489,247,71945,1,8,0:0:0:0:
489,247,72034,1,10,0:0:0:0:
489,247,72124,1,8,0:0:0:0:
489,247,72213,6,0,B|452:279|452:279|416:273|353:262,1,132.00000402832,6|0,1:2|0:0,0:0:0:0:
362,259,72570,1,10,0:0:0:0:
288,146,72749,1,2,0:0:0:0:
288,146,72838,1,8,0:0:0:0:
288,146,72927,1,2,1:2:0:0:
225,310,73106,1,2,1:2:0:0:
111,215,73284,2,0,P|155:205|222:192,1,88.000002685547,10|2,0:0|0:0,0:0:0:0:
390,119,73642,6,0,P|316:107|205:91,1,176.000005371094,2|10,1:2|0:0,0:0:0:0:
111,215,74177,1,2,0:0:0:0:
64,90,74356,1,2,1:2:0:0:
64,90,74445,1,8,0:0:0:0:
64,90,74534,1,2,1:2:0:0:
218,184,74713,2,0,P|209:218|192:289,1,88.000002685547,10|0,0:0|0:0,0:0:0:0:
100,380,75070,6,0,P|87:292|73:206,1,176.000005371094,2|10,1:2|0:0,0:0:0:0:
196,269,75606,1,2,0:0:0:0:
196,269,75695,1,8,0:0:0:0:
196,269,75784,2,0,P|225:260|255:252,2,44.0000013427735,0|8|2,1:2|0:0|1:2,0:0:0:0:
290,177,76142,1,10,0:0:0:0:
376,341,76320,1,2,0:0:0:0:
376,341,76409,1,2,0:0:0:0:
376,341,76499,6,0,P|386:284|394:242,1,88.000002685547,6|2,1:2|1:2,0:0:0:0:
386,248,76767,1,0,1:2:0:0:
379,240,76856,1,2,1:2:0:0:
261,37,77034,2,0,P|271:92|288:175,1,132.00000402832,10|8,0:0|0:0,0:0:0:0:
290,177,77392,2,0,P|313:170|366:158,1,44.0000013427735,10|8,0:0|0:0,0:0:0:0:
238,256,77570,2,0,L|183:243,3,44.0000013427735,2|0|2|0,1:2|1:2|1:2|1:2,0:0:0:0:
188,341,77927,6,0,P|223:306|318:326,1,132.00000402832,6|0,1:2|0:0,0:0:0:0:
312,319,78284,2,0,P|358:306|417:294,1,88.000002685547,10|2,0:0|0:0,0:0:0:0:
406,302,78552,1,8,0:0:0:0:
413,307,78642,1,0,1:2:0:0:
293,172,78820,1,2,0:0:0:0:
475,216,78999,1,10,0:0:0:0:
312,319,79177,1,2,0:0:0:0:
396,117,79356,6,0,B|445:130|493:143|493:143|525:114|509:60,1,176.000005371094,2|10,1:2|0:0,0:0:0:0:
293,172,79892,1,2,0:0:0:0:
378,17,80070,1,0,1:2:0:0:
378,17,80159,1,8,0:0:0:0:
378,17,80249,1,2,0:0:0:0:
192,127,80427,2,0,P|182:76|171:21,1,88.000002685547,10|0,0:0|0:0,0:0:0:0:
293,172,80784,6,0,P|280:239|259:347,1,176.000005371094,2|10,1:2|0:0,0:0:0:0:
192,127,81320,1,2,0:0:0:0:
192,127,81409,1,8,0:0:0:0:
192,127,81498,2,0,P|138:138|69:162,1,88.000002685547,0|2,1:2|0:0,0:0:0:0:
293,172,81856,2,0,P|347:183|410:196,1,88.000002685547,10|2,0:0|0:0,0:0:0:0:
220,348,82213,5,6,1:2:0:0:
220,348,82302,1,0,1:2:0:0:
220,348,82392,2,0,L|204:285,1,44.0000013427735,10|8,0:0|0:0,0:0:0:0:
121,260,82570,1,8,0:0:0:0:
121,260,82659,1,8,0:3:0:0:
121,260,82749,2,0,L|105:323,1,44.0000013427735,4|8,0:3|1:3,0:0:0:0:
303,318,82927,6,0,B|349:291|349:291|393:300|441:311,1,143.999995605469,2|0,1:2|0:0,0:0:0:0:
512,122,83642,6,0,P|470:171|368:138,1,160,6|2,1:2|1:2,0:0:0:0:
308,48,84177,2,0,P|301:79|286:155,1,80,2|0,0:0|1:2,0:0:0:0:
211,188,84534,2,0,P|202:148|192:109,1,80,2|0,0:0|0:0,0:0:0:0:
292,126,84892,1,2,0:0:0:0:
116,204,85070,6,0,P|73:194|19:183,2,80,2|2|2,1:2|0:0|1:2,0:0:0:0:
81,346,85606,2,0,P|124:297|233:318,1,160,2|2,0:0|0:0,0:0:0:0:
298,364,86142,1,0,1:2:0:0:
371,291,86320,1,2,0:0:0:0:
371,291,86409,1,2,0:0:0:0:
371,291,86499,6,0,B|401:237|401:237|386:192|367:132,1,160,4|2,1:2|1:2,0:0:0:0:
302,76,87034,2,0,P|276:117|281:175,1,80,2|0,0:0|1:2,0:0:0:0:
182,267,87392,2,0,P|171:219|160:169,1,80,2|0,0:0|1:2,0:0:0:0:
276,239,87749,1,2,0:0:0:0:
140,374,87927,5,2,1:2:0:0:
297,343,88106,1,10,0:0:0:0:
297,343,88195,1,8,0:0:0:0:
297,343,88284,2,0,P|255:334|228:329,1,40,8|0,1:2|0:0,0:0:0:0:
103,283,88463,2,0,P|149:273|205:262,1,80,10|0,0:0|1:2,0:0:0:0:
279,187,88820,2,0,P|255:181|209:171,1,40,8|8,0:3|0:3,0:0:0:0:
127,96,88999,1,2,1:2:0:0:
127,96,89088,1,8,0:3:0:0:
127,96,89177,1,0,1:2:0:0:
127,96,89267,1,0,1:2:0:0:
127,96,89356,6,0,B|172:72|172:72|158:115|136:192,1,160,4|10,1:2|0:0,0:0:0:0:
48,236,89892,1,10,0:0:0:0:
48,236,89981,1,8,0:0:0:0:
48,236,90070,2,0,P|54:267|65:323,1,80,8|10,1:2|0:0,0:0:0:0:
63,326,90338,1,8,0:0:0:0:
57,333,90427,2,0,P|15:326|-13:322,3,40,8|8|10|8,1:2|0:0|0:0|0:0,0:0:0:0:
148,278,90784,6,0,B|195:311|195:311|239:298|307:281,1,160,6|8,1:2|1:2,0:0:0:0:
438,197,91320,2,0,P|396:189|304:174,1,120,10|8,0:0|0:0,0:0:0:0:
311,183,91677,1,10,0:0:0:0:
396,292,91856,1,8,1:2:0:0:
223,142,92034,1,10,0:0:0:0:
223,142,92124,1,8,0:0:0:0:
223,142,92213,6,0,P|214:176|190:275,1,120,12|8,1:2|0:0,0:0:0:0:
187,269,92570,2,0,L|203:337,3,40,10|8|10|8,1:2|0:0|0:0|0:0,0:0:0:0:
100,364,92927,2,0,L|109:325,3,40,8|8|8|8,0:0|0:0|0:0|0:0,0:0:0:0:
31,288,93284,1,8,1:2:0:0:
31,288,93374,1,8,0:0:0:0:
31,288,93463,1,8,0:0:0:0:
31,288,93552,1,8,0:0:0:0:
31,288,93642,6,0,B|18:230|14:214|14:214|59:162,1,120,14|0,1:2|0:0,0:0:0:0:
54,170,93999,2,0,L|-11:152,2,53.3333333333333,8|8|8,1:2|0:0|0:0,0:0:0:0:
94,85,94355,2,0,P|124:80|184:72,1,80,2|6,1:2|0:3,0:0:0:0:
181,79,94623,1,8,0:3:0:0:
187,87,94713,1,2,1:2:0:0:
259,169,94891,1,8,0:0:0:0:
331,53,95070,6,0,P|342:104|350:144,2,64,2|2|2,1:2|0:0|0:0,0:0:0:0:
433,169,95606,2,0,P|447:93|462:17,1,128,10|2,0:0|1:2,0:0:0:0:
344,115,96142,1,8,0:0:0:0:
344,115,96320,1,2,0:0:0:0:
422,261,96499,6,0,P|460:252|506:243,1,64,2|2,1:2|2:3,0:0:0:0:
433,169,96856,1,2,0:0:0:0:
451,346,97034,2,0,P|402:301|340:311,1,128,10|0,0:0|1:2,0:0:0:0:
255,379,97570,2,0,P|246:339|237:296,1,64,8|2,0:0|0:0,0:0:0:0:
157,242,97927,6,0,P|146:292|127:386,1,128,2|2,1:2|0:0,0:0:0:0:
64,192,98463,2,0,B|100:218|100:218|128:211|209:192,1,128,10|0,0:0|1:2,0:0:0:0:
230,119,98999,1,10,0:0:0:0:
230,119,99177,1,2,1:2:0:0:
302,207,99356,6,0,L|290:270,2,47.9999985351563,10|2|2,0:0|0:0|0:0,0:0:0:0:
230,119,99892,1,2,0:0:0:0:
230,119,100249,2,0,P|282:110|346:101,1,95.9999970703126,2|0,0:0|0:0,0:0:0:0:
442,242,100784,6,0,P|452:193|461:154,2,64,6|0|2,1:2|0:0|0:0,0:0:0:0:
487,323,101320,2,0,P|458:289|370:299,1,128,10|2,0:0|1:2,0:0:0:0:
273,221,101856,2,0,P|307:214|364:203,1,64,8|2,0:0|0:0,0:0:0:0:
266,325,102213,5,2,1:2:0:0:
266,325,102392,1,2,1:2:0:0:
183,192,102570,1,2,0:0:0:0:
95,273,102749,2,0,B|54:260|13:247|13:247|41:291,1,128,10|8,0:0|0:0,0:0:0:0:
36,292,103195,1,8,0:0:0:0:
37,303,103284,1,8,0:0:0:0:
183,192,103463,1,10,0:0:0:0:
183,192,103552,1,8,0:0:0:0:
183,192,103642,6,0,P|172:136|166:111,1,64,4|2,1:2|0:0,0:0:0:0:
100,79,103999,1,2,0:0:0:0:
283,139,104177,2,0,P|275:180|255:275,1,128,10|2,0:0|1:2,0:0:0:0:
183,192,104713,1,10,0:0:0:0:
183,192,104892,1,2,1:2:0:0:
337,276,105070,5,10,0:0:0:0:
151,309,105249,1,10,0:0:0:0:
274,191,105427,1,2,1:2:0:0:
292,379,105606,2,0,P|355:363|437:345,1,128,10|8,0:0|0:3,0:0:0:0:
424,343,106052,1,8,0:0:0:0:
434,338,106142,2,0,L|444:385,2,32,0|0|0,1:2|1:2|1:2,0:0:0:0:
354,249,106499,6,0,P|363:199|372:160,1,71.9999978027344,6|2,1:2|0:0,0:0:0:0:
433,113,106856,1,10,0:0:0:0:
274,191,107034,1,2,0:0:0:0:
274,191,107213,2,0,P|226:178|178:167,1,71.9999978027344,0|0,1:2|0:0,0:0:0:0:
138,83,107570,2,0,P|186:70|234:59,1,71.9999978027344,8|0,0:0|0:0,0:0:0:0:
33,147,107927,6,0,P|23:107|13:63,2,71.9999978027344,2|2|10,1:2|0:0|0:0,0:0:0:0:
170,191,108463,1,2,0:0:0:0:
70,267,108642,2,0,P|32:256|-12:246,1,71.9999978027344,0|0,1:2|0:0,0:0:0:0:
161,353,108999,2,0,P|125:361|91:371,1,71.9999978027344,8|2,0:0|0:0,0:0:0:0:
248,272,109356,6,0,P|295:314|383:290,1,143.999995605469,2|10,1:2|0:0,0:0:0:0:
355,211,109892,1,2,0:0:0:0:
461,332,110070,2,0,P|468:288|478:246,1,71.9999978027344,0|2,1:2|0:0,0:0:0:0:
355,211,110427,1,10,0:0:0:0:
355,211,110606,1,2,0:0:0:0:
425,129,110784,6,0,P|465:138|525:152,2,71.9999978027344,2|2|10,1:2|0:0|0:0,0:0:0:0:
355,211,111320,1,2,0:0:0:0:
285,71,111499,1,0,1:2:0:0:
193,176,111677,1,8,0:0:0:0:
193,176,111856,2,0,P|200:210|211:266,1,71.9999978027344,8|0,0:0|0:0,0:0:0:0:
277,362,112213,6,0,P|284:326|291:291,1,71.9999978027344,4|0,1:2|0:0,0:0:0:0:
207,246,112570,1,10,0:0:0:0:
375,341,112749,2,0,P|413:329|454:319,1,71.9999978027344,2|0,0:0|1:2,0:0:0:0:
505,217,113106,2,0,P|466:205|426:195,1,71.9999978027344,2|8,0:0|0:0,0:0:0:0:
332,233,113463,1,2,0:0:0:0:
426,100,113642,5,2,1:2:0:0:
332,233,113820,1,2,0:0:0:0:
276,50,113999,1,10,0:0:0:0:
276,50,114177,1,2,0:0:0:0:
200,165,114356,2,0,P|237:155|293:142,1,71.9999978027344,0|2,1:2|0:0,0:0:0:0:
209,274,114713,2,0,P|172:264|116:251,1,71.9999978027344,8|2,0:0|0:0,0:0:0:0:
38,72,115070,6,0,B|78:105|78:105|67:141|46:207,1,143.999995605469,2|10,1:2|0:0,0:0:0:0:
38,284,115606,1,2,1:2:0:0:
38,284,115695,1,0,1:2:0:0:
38,284,115784,2,0,P|10:278|-7:275,3,35.9999989013672,0|0|2|0,1:2|1:2|1:2|1:2,0:0:0:0:
106,360,116142,1,2,1:2:0:0:
106,360,116231,1,0,1:2:0:0:
106,360,116320,1,2,1:2:0:0:
106,360,116409,1,0,1:2:0:0:
106,360,116499,6,0,P|148:329|205:338,1,107.999996704102,4|0,1:2|0:0,0:0:0:0:
216,342,116856,2,0,L|233:284,2,47.9999985351563,10|0|0,1:2|1:2|1:2,0:0:0:0:
303,243,117213,2,0,L|316:289,2,47.9999985351563,0|0|0,1:2|1:2|1:2,0:0:0:0:
389,356,117570,2,0,L|402:309,2,47.9999985351563,0|0|0,1:2|1:2|1:2,0:0:0:0:
487,263,117927,6,0,B|498:222|506:192|506:192|462:138,1,128,6|2,1:2|0:0,0:0:0:0:
403,71,118463,1,10,0:0:0:0:
403,71,118642,2,0,L|474:57,2,64,0|2|10,0:0|1:2|0:0,0:0:0:0:
362,156,119177,1,0,0:0:0:0:
280,29,119356,5,2,1:2:0:0:
280,29,119534,2,0,P|272:74|258:163,1,128,2|10,1:2|0:0,0:0:0:0:
189,221,120070,1,2,0:0:0:0:
189,221,120249,1,2,1:2:0:0:
297,283,120427,2,0,P|332:273|381:263,1,64,10|2,0:0|0:0,0:0:0:0:
337,369,120784,6,0,P|303:329|219:343,1,128,2|2,1:2|0:0,0:0:0:0:
148,305,121320,1,10,0:0:0:0:
56,380,121499,2,0,P|48:344|37:303,1,64,0|2,0:0|1:2,0:0:0:0:
162,242,121856,2,0,P|153:272|147:304,1,64,10|0,0:0|0:0,0:0:0:0:
120,96,122213,5,2,1:2:0:0:
15,198,122392,2,0,P|48:190|88:181,1,64,2|0,1:2|0:0,0:0:0:0:
263,112,122749,2,0,P|204:100|123:86,1,128,10|0,0:0|1:2,0:0:0:0:
322,196,123284,2,0,P|288:203|241:218,1,64,2|0,1:2|0:0,0:0:0:0:
387,115,123642,6,0,B|363:147|363:147|368:172|382:241,1,128,4|2,1:2|0:0,0:0:0:0:
475,262,124177,1,10,0:0:0:0:
392,360,124356,1,2,0:0:0:0:
392,360,124534,2,0,P|427:367|476:379,2,64,0|10|2,1:2|0:0|0:0,0:0:0:0:
295,294,125070,5,2,1:2:0:0:
295,294,125249,2,0,P|233:305|160:319,1,128,2|10,1:2|0:0,0:0:0:0:
163,326,125695,1,8,0:3:0:0:
158,335,125784,1,0,1:2:0:0:
260,187,125963,1,2,1:2:0:0:
78,281,126142,2,0,P|69:238|60:194,1,64,10|2,1:2|0:0,0:0:0:0:
180,107,126499,6,0,P|172:138|156:200,1,80,6|0,1:2|0:0,0:0:0:0:
374,228,126856,2,0,P|362:181|351:140,1,80,10|0,0:0|0:0,0:0:0:0:
303,312,127213,1,2,1:2:0:0:
472,189,127392,1,0,1:2:0:0:
256,175,127570,1,10,0:0:0:0:
422,318,127749,1,0,1:2:0:0:
204,277,127927,6,0,P|165:286|115:300,1,80,2|0,1:2|1:2,0:0:0:0:
303,312,128284,1,10,0:0:0:0:
158,184,128463,1,0,1:2:0:0:
374,228,128642,1,10,0:0:0:0:
226,380,128820,1,8,0:0:0:0:
226,380,128909,1,8,0:0:0:0:
226,380,128999,1,0,1:2:0:0:
226,380,129088,1,0,1:2:0:0:
226,380,129177,1,8,0:3:0:0:
226,380,129267,1,8,0:3:0:0:
226,380,129356,5,2,1:2:0:0:
278,209,129534,1,2,1:2:0:0:
99,332,129713,2,0,P|88:285|79:241,1,80,14|0,0:0|0:0,0:0:0:0:
239,81,130070,5,2,1:2:0:0:
184,269,130249,1,2,1:2:0:0:
17,176,130427,2,0,P|60:165|122:149,1,80,14|0,0:0|0:0,0:0:0:0:
278,209,130784,5,10,1:2:0:0:
278,209,130963,1,10,0:0:0:0:
145,42,131142,1,10,0:0:0:0:
339,108,131320,1,10,0:0:0:0:
168,210,132034,5,2,0:0:0:0:
168,210,132124,1,2,0:0:0:0:
168,210,132213,2,0,P|180:261|198:342,1,132.00000402832,6|0,1:2|0:0,0:0:0:0:
207,349,132570,2,0,P|251:335|303:321,1,88.000002685547,10|2,0:0|0:0,0:0:0:0:
300,319,132838,1,8,0:0:0:0:
306,313,132927,1,0,1:2:0:0:
418,207,133106,1,2,0:0:0:0:
440,360,133284,1,10,0:0:0:0:
323,220,133463,1,2,0:0:0:0:
502,276,133642,6,0,B|527:177|527:177|500:149|469:118,1,176.000005371094,2|10,1:2|0:0,0:0:0:0:
392,63,134177,1,2,0:0:0:0:
323,220,134356,1,0,1:2:0:0:
323,220,134445,1,8,0:0:0:0:
323,220,134534,1,2,0:0:0:0:
219,137,134713,2,0,P|257:128|317:118,1,88.000002685547,10|0,0:0|0:0,0:0:0:0:
214,288,135070,6,0,P|178:236|70:255,1,176.000005371094,2|10,1:2|0:0,0:0:0:0:
4,176,135606,1,2,0:0:0:0:
4,176,135695,1,8,0:0:0:0:
4,176,135784,2,0,L|26:108,2,44.0000013427735,0|8|2,1:2|0:0|0:0,0:0:0:0:
105,0,136142,2,0,P|111:35|125:105,1,88.000002685547,10|2,0:0|0:0,0:0:0:0:
229,166,136499,6,0,B|252:97|252:97|243:78|237:63|237:63|258:-3,1,176.000005371094,2|10,1:2|0:0,0:0:0:0:
418,73,137034,1,2,0:0:0:0:
418,73,137124,1,8,0:0:0:0:
418,73,137213,2,0,P|376:49|310:62,1,88.000002685547,2|2,1:2|0:0,0:0:0:0:
417,202,137570,2,0,P|468:190|534:178,1,88.000002685547,10|2,0:0|0:0,0:0:0:0:
336,156,137927,5,6,1:2:0:0:
336,156,138106,1,2,0:0:0:0:
405,331,138284,2,0,P|354:319|288:307,1,88.000002685547,10|2,0:0|0:0,0:0:0:0:
311,317,138552,1,8,0:0:0:0:
303,325,138642,1,0,1:2:0:0:
417,202,138820,1,2,0:0:0:0:
209,268,138999,2,0,P|202:224|194:181,1,88.000002685547,10|2,0:0|0:0,0:0:0:0:
286,34,139356,6,0,B|326:82|326:82|313:129|292:209,1,176.000005371094,2|10,1:2|0:0,0:0:0:0:
209,268,139892,1,2,0:0:0:0:
117,122,140070,1,0,1:2:0:0:
117,122,140159,1,8,0:0:0:0:
117,122,140249,1,2,0:0:0:0:
35,250,140427,2,0,P|80:234|146:214,1,88.000002685547,10|0,0:0|0:0,0:0:0:0:
345,316,140784,6,0,P|304:258|199:276,1,176.000005371094,2|10,1:2|0:0,0:0:0:0:
130,365,141320,1,2,0:0:0:0:
130,365,141409,1,8,0:0:0:0:
130,365,141499,2,0,L|109:299,2,44.0000013427735,0|8|2,1:2|0:0|0:0,0:0:0:0:
56,164,141856,2,0,P|47:201|28:274,1,88.000002685547,10|2,0:0|0:0,0:0:0:0:
150,68,142213,6,0,P|159:105|178:178,1,88.000002685547,6|8,1:2|0:0,0:0:0:0:
169,164,142481,1,8,0:0:0:0:
166,173,142570,1,8,1:2:0:0:
248,255,142749,1,8,0:0:0:0:
248,255,142838,1,8,0:0:0:0:
248,255,142927,2,0,P|257:218|262:202,1,44.0000013427735,8|8,1:2|0:0,0:0:0:0:
351,170,143106,1,8,0:0:0:0:
351,170,143195,1,8,0:0:0:0:
351,170,143284,1,8,1:2:0:0:
351,170,143374,1,8,0:0:0:0:
351,170,143463,1,10,0:0:0:0:
351,170,143552,1,8,0:0:0:0:
351,170,143642,6,0,B|386:195|386:195|427:187|484:178,1,132.00000402832,6|0,1:2|0:0,0:0:0:0:
488,186,143999,2,0,P|477:226|464:292,1,88.000002685547,10|2,0:0|0:0,0:0:0:0:
361,280,144356,1,2,1:2:0:0:
490,376,144534,1,2,1:2:0:0:
305,374,144713,1,10,0:0:0:0:
467,271,144892,1,2,0:0:0:0:
330,174,145070,6,0,B|282:189|232:208|232:208|212:170|170:160,1,176.000005371094,2|10,1:2|0:0,0:0:0:0:
150,251,145606,1,2,0:0:0:0:
46,142,145784,1,2,1:2:0:0:
46,142,145963,1,2,1:2:0:0:
60,284,146142,2,0,P|49:321|33:380,1,88.000002685547,10|0,0:0|0:0,0:0:0:0:
207,335,146499,6,0,P|191:239|175:154,1,176.000005371094,2|10,1:2|0:0,0:0:0:0:
85,69,147034,1,2,0:0:0:0:
85,69,147124,1,8,0:0:0:0:
85,69,147213,2,0,L|68:124,2,44.0000013427735,0|8|2,1:2|0:0|1:2,0:0:0:0:
176,161,147570,1,10,0:0:0:0:
261,29,147749,1,2,0:0:0:0:
261,29,147838,1,2,0:0:0:0:
261,29,147927,6,0,P|311:38|376:50,1,88.000002685547,6|2,1:2|1:2,0:0:0:0:
354,54,148195,1,0,1:2:0:0:
360,62,148284,1,2,1:2:0:0:
472,147,148463,2,0,P|406:157|330:171,1,132.00000402832,10|0,0:0|0:0,0:0:0:0:
329,169,148820,2,0,P|333:193|341:237,1,44.0000013427735,10|8,0:0|0:0,0:0:0:0:
417,292,148999,2,0,P|420:270|424:248,3,44.0000013427735,2|0|2|0,1:2|1:2|1:2|1:2,0:0:0:0:
464,369,149356,6,0,P|426:333|334:351,1,132.00000402832,6|0,1:2|0:0,0:0:0:0:
340,346,149713,2,0,P|295:337|228:323,1,88.000002685547,10|2,0:0|0:0,0:0:0:0:
248,323,149981,1,8,0:0:0:0:
243,317,150070,1,0,1:2:0:0:
139,184,150249,1,2,0:0:0:0:
292,221,150427,1,10,0:0:0:0:
144,340,150606,1,2,0:0:0:0:
238,145,150784,6,0,P|321:133|381:194,1,176.000005371094,2|10,1:2|0:0,0:0:0:0:
242,314,151320,1,2,0:0:0:0:
139,184,151499,1,0,1:2:0:0:
139,184,151588,1,8,0:0:0:0:
139,184,151677,1,2,0:0:0:0:
56,309,151856,2,0,P|101:296|159:281,1,88.000002685547,10|0,0:0|0:0,0:0:0:0:
349,352,152213,6,0,B|304:335|241:314|241:314|273:345|281:370,1,176.000005371094,2|10,1:2|0:0,0:0:0:0:
404,248,152749,1,2,0:0:0:0:
495,368,152927,1,0,1:2:0:0:
495,368,153017,1,8,0:0:0:0:
495,368,153106,1,10,0:0:0:0:
495,368,153195,1,8,0:0:0:0:
495,368,153284,1,10,0:0:0:0:
512,241,153463,1,10,0:0:0:0:
512,241,153552,1,8,0:0:0:0:
512,241,153642,6,0,P|499:198|494:182,1,44.0000013427735,6|0,1:2|1:2,0:0:0:0:
425,150,153820,2,0,P|418:171|412:192,1,44.0000013427735,10|8,0:0|0:0,0:0:0:0:
325,282,153999,2,0,P|347:276|382:266,1,44.0000013427735,8|0,0:0|0:0,0:0:0:0:
292,199,154177,2,0,P|270:193|235:183,1,44.0000013427735,2|0,1:2|1:2,0:0:0:0:
151,311,154356,5,2,1:2:0:0:
151,311,154713,2,0,L|141:267,3,44.0000013427735,10|8|8|8,0:0|0:0|0:0|0:0,0:0:0:0:
43,269,155070,6,0,P|51:225|60:182,1,88.000002685547,6|2,1:2|0:0,0:0:0:0:
57,174,155338,1,2,0:0:0:0:
52,166,155427,2,0,B|115:148|115:148|158:162|158:162|239:138,1,176.000005371094,10|0,1:2|1:2,0:0:0:0:
281,56,155963,1,2,0:0:0:0:
369,191,156142,1,10,0:0:0:0:
220,143,156320,1,2,0:0:0:0:
386,11,156499,5,2,1:2:0:0:
386,11,156677,2,0,P|378:45|366:107,1,88.000002685547,2|10,0:0|0:0,0:0:0:0:
484,186,157034,1,2,0:0:0:0:
484,186,157124,1,8,0:0:0:0:
484,186,157213,2,0,P|471:136|468:123,2,44.0000013427735,0|8|2,1:2|0:0|0:0,0:0:0:0:
385,280,157570,2,0,P|435:292|503:309,1,88.000002685547,10|0,0:0|0:0,0:0:0:0:
201,214,157927,6,0,P|243:203|286:193,1,88.000002685547,2|2,1:2|0:0,0:0:0:0:
294,200,158195,1,2,0:0:0:0:
301,207,158284,1,8,0:0:0:0:
195,319,158463,1,2,0:0:0:0:
81,164,158642,2,0,P|72:198|56:265,1,88.000002685547,2|2,1:2|0:0,0:0:0:0:
172,94,158999,2,0,P|181:129|197:195,1,88.000002685547,10|2,0:0|0:0,0:0:0:0:
372,121,159356,6,0,P|329:112|282:103,2,88.000002685547,2|2|8,1:2|0:0|0:0,0:0:0:0:
322,235,159892,1,2,0:0:0:0:
484,125,160070,1,0,1:2:0:0:
484,125,160159,1,8,0:0:0:0:
484,125,160249,2,0,P|476:154|467:188,1,44.0000013427735,2|2,0:0|0:0,0:0:0:0:
441,327,160427,1,10,0:0:0:0:
441,327,160517,1,2,0:0:0:0:
441,327,160606,1,2,0:0:0:0:
441,327,160695,1,2,0:0:0:0:
441,327,160784,6,0,P|420:257|413:234,1,88.000002685547,6|0,1:2|0:0,0:0:0:0:
314,140,161142,2,0,P|301:182|288:224,1,88.000002685547,10|2,0:0|0:0,0:0:0:0:
291,234,161409,1,8,0:0:0:0:
292,245,161499,2,0,B|182:221|182:221|220:247|222:299,1,176.000005371094,0|10,1:2|0:0,0:0:0:0:
126,297,162034,1,2,0:0:0:0:
92,127,162213,5,2,1:2:0:0:
217,271,162392,1,2,0:0:0:0:
10,239,162570,2,0,P|60:224|120:208,1,88.000002685547,10|0,0:0|0:0,0:0:0:0:
195,32,162927,1,2,1:2:0:0:
195,32,163106,1,2,0:0:0:0:
214,130,163284,2,0,P|164:115|104:99,1,88.000002685547,10|2,0:0|0:0,0:0:0:0:
217,271,163642,6,0,P|249:237|351:255,1,132.00000402832,6|0,1:2|0:0,0:0:0:0:
340,244,163999,2,0,P|330:282|316:350,1,88.000002685547,10|2,0:0|0:0,0:0:0:0:
314,338,164267,1,8,0:0:0:0:
309,346,164356,1,2,1:2:0:0:
441,216,164534,1,2,0:0:0:0:
509,344,164713,2,0,P|468:332|412:318,1,88.000002685547,10|2,0:0|0:0,0:0:0:0:
340,244,165070,5,4,1:2:0:0:
452,173,165249,2,0,P|447:190|436:239,1,44.0000013427735,10|10,0:0|0:0,0:0:0:0:
377,88,165427,1,10,0:0:0:0:
377,88,165517,1,0,1:2:0:0:
377,88,165606,1,2,1:2:0:0:
377,88,165695,1,0,1:2:0:0:
377,88,165784,2,0,P|406:81|443:73,2,58.6666684570313,10|8|8,1:2|1:2|1:2,0:0:0:0:
308,151,166142,2,0,P|278:144|242:136,2,58.6666684570313,0|0|0,1:2|1:2|1:2,0:0:0:0:
200,45,166499,6,0,B|224:85|224:85|193:183,1,128,6|2,1:2|0:0,0:0:0:0:
112,222,167034,1,2,1:2:0:0:
187,285,167213,2,0,P|226:273|272:260,1,64,10|0,0:0|0:0,0:0:0:0:
119,369,167570,2,0,P|80:357|34:344,1,64,2|8,0:0|0:0,0:0:0:0:
50,355,167838,1,8,0:0:0:0:
41,358,167927,5,2,1:2:0:0:
86,250,168106,2,0,P|73:178|59:103,1,128,10|2,0:0|1:2,0:0:0:0:
210,159,168642,2,0,P|198:221|186:284,1,128,10|2,1:2|0:0,0:0:0:0:
272,369,169177,1,8,0:0:0:0:
272,369,169267,1,8,0:0:0:0:
272,369,169356,6,0,P|316:328|393:352,1,128,0|2,1:2|0:0,0:0:0:0:
368,236,169892,1,2,1:2:0:0:
473,375,170070,2,0,P|485:297|498:227,1,128,10|2,0:0|0:0,0:0:0:0:
424,157,170606,1,10,0:0:0:0:
424,157,170695,1,8,0:0:0:0:
424,157,170784,6,0,B|388:190|388:190|296:174,1,128,0|2,1:2|0:0,0:0:0:0:
259,101,171320,1,2,1:2:0:0:
200,180,171499,1,10,0:0:0:0:
200,180,171677,1,8,0:0:0:0:
121,124,171856,2,0,P|129:77|137:39,1,64,0|0,1:2|1:2,0:0:0:0:
18,114,172213,6,0,P|29:165|48:259,1,128,6|2,1:2|0:0,0:0:0:0:
134,274,172749,1,2,1:2:0:0:
65,353,172927,2,0,P|22:342|-14:333,1,64,10|0,0:0|0:0,0:0:0:0:
134,274,173284,2,0,P|176:263|213:254,1,64,2|8,0:0|0:0,0:0:0:0:
203,265,173552,1,8,0:0:0:0:
211,271,173642,5,2,1:2:0:0:
279,349,173820,2,0,P|309:299|291:215,1,128,10|2,0:0|1:2,0:0:0:0:
377,112,174356,2,0,B|341:142|341:142|311:137|244:127,1,128,10|2,1:2|0:0,0:0:0:0:
176,26,174892,1,8,0:0:0:0:
176,26,174981,1,8,0:0:0:0:
176,26,175070,6,0,B|162:72|162:72|170:98|170:98|147:164,1,128,0|2,1:2|0:0,0:0:0:0:
14,177,175606,1,2,1:2:0:0:
107,273,175784,2,0,P|96:234|87:194,1,64,10|0,0:0|0:0,0:0:0:0:
198,337,176142,2,0,P|207:297|218:258,1,64,2|10,0:0|0:0,0:0:0:0:
303,208,176499,6,0,P|352:243|434:214,1,128,4|2,1:2|0:0,0:0:0:0:
487,158,177034,1,2,1:2:0:0:
487,158,177213,2,0,P|494:194|505:243,1,64,10|0,0:0|0:0,0:0:0:0:
414,67,177570,1,8,0:0:0:0:
414,67,177749,1,8,0:0:0:0:
333,118,177927,5,2,1:2:0:0:
333,118,178106,2,0,P|259:104|200:94,1,128,10|2,0:0|0:0,0:0:0:0:
199,100,178552,1,8,0:0:0:0:
192,106,178642,2,0,P|170:150|186:210,1,96,2|8,1:2|0:0,0:0:0:0:
184,208,178999,1,2,1:2:0:0:
263,267,179177,1,8,0:0:0:0:
181,362,179356,6,0,B|145:352|121:322|121:322|82:345|41:341|41:341|12:240|85:258|98:198|58:126,2,383.99998828125,6|2|0,1:2|0:0|0:0,0:0:0:0:
295,247,192749,6,0,P|300:218|307:188,1,40,0|0,1:2|1:2,0:0:0:0:
383,127,192927,2,0,L|398:197,3,40,8|8|8|8,0:0|0:0|0:0|0:0,0:0:0:0:
304,83,193284,1,8,1:2:0:0:
304,83,193374,1,8,0:0:0:0:
304,83,193463,1,8,0:0:0:0:
304,83,193552,1,8,0:0:0:0:
304,83,193642,6,0,P|252:119|169:96,1,132.00000402832,6|0,1:2|0:0,0:0:0:0:
175,104,193999,2,0,P|144:141|147:202,1,88.000002685547,10|2,0:0|0:0,0:0:0:0:
145,189,194267,1,8,0:0:0:0:
151,196,194356,1,2,1:2:0:0:
292,278,194534,1,2,1:2:0:0:
129,337,194713,1,10,0:0:0:0:
244,200,194892,1,2,0:0:0:0:
366,345,195070,6,0,B|418:325|474:305|474:305|428:378,1,176.000005371094,2|10,1:2|0:0,0:0:0:0:
292,278,195606,1,2,0:0:0:0:
424,187,195784,1,2,1:2:0:0:
424,187,195874,1,0,1:2:0:0:
424,187,195963,1,0,1:2:0:0:
366,345,196142,2,0,P|353:295|338:239,1,88.000002685547,10|0,0:0|0:0,0:0:0:0:
232,125,196499,6,0,P|220:179|196:300,1,176.000005371094,2|10,1:2|0:0,0:0:0:0:
99,377,197034,1,2,0:0:0:0:
99,377,197124,1,8,0:0:0:0:
99,377,197213,2,0,L|85:307,2,44.0000013427735,0|0|2,1:2|0:0|1:2,0:0:0:0:
5,245,197570,2,0,P|49:234|108:221,1,88.000002685547,10|2,0:0|0:0,0:0:0:0:
99,229,197838,1,2,0:0:0:0:
107,234,197927,5,6,1:2:0:0:
205,133,198106,1,2,1:2:0:0:
205,133,198195,1,0,1:2:0:0:
205,133,198284,2,0,P|163:125|137:120,1,44.0000013427735,2|0,1:2|1:2,0:0:0:0:
246,221,198463,2,0,P|287:213|314:208,1,44.0000013427735,10|8,0:0|0:0,0:0:0:0:
381,105,198642,2,0,P|376:83|372:61,3,44.0000013427735,0|8|10|8,1:2|0:0|0:0|0:0,0:0:0:0:
467,184,198999,1,2,1:2:0:0:
467,184,199088,1,8,0:0:0:0:
467,184,199177,1,10,0:0:0:0:
467,184,199267,1,8,0:0:0:0:
467,184,199356,6,0,P|456:234|437:327,1,132.00000402832,6|0,1:2|0:0,0:0:0:0:
433,323,199713,2,0,P|396:302|346:311,1,88.000002685547,10|2,0:0|0:0,0:0:0:0:
347,318,199981,1,8,0:0:0:0:
342,326,200070,1,0,1:2:0:0:
189,208,200249,1,2,0:0:0:0:
232,383,200427,1,10,0:0:0:0:
298,208,200606,1,2,0:0:0:0:
143,308,200784,6,0,B|93:298|30:286|30:286|99:347,1,176.000005371094,2|10,1:2|0:0,0:0:0:0:
232,383,201320,1,2,0:0:0:0:
189,208,201499,1,0,1:2:0:0:
189,208,201588,1,8,0:0:0:0:
189,208,201677,1,2,0:0:0:0:
325,319,201856,2,0,P|337:259|350:196,1,88.000002685547,10|2,0:0|0:0,0:0:0:0:
128,132,202213,6,0,B|168:172|168:172|229:159|307:142,1,176.000005371094,2|10,1:2|0:0,0:0:0:0:
366,54,202749,1,2,0:0:0:0:
366,54,202838,1,8,0:0:0:0:
366,54,202927,2,0,P|326:46|261:34,1,88.000002685547,0|10,1:2|0:3,0:0:0:0:
271,43,203195,1,8,0:0:0:0:
262,49,203284,2,0,P|251:10|249:0,3,44.0000013427735,2|8|4|8,1:2|0:3|0:3|0:3,0:0:0:0:
366,54,203642,5,14,1:2:0:0:
212,170,203820,1,8,0:0:0:0:
428,211,203999,1,8,0:0:0:0:
261,74,204177,1,8,0:0:0:0:
317,283,204356,6,0,P|334:202|352:130,1,143.999995605469,10|0,0:0|0:0,0:0:0:0:
212,170,205070,6,0,B|175:130|175:130|131:141|70:158,1,160,6|2,1:2|1:2,0:0:0:0:
8,258,205606,2,0,P|-3:209|-17:164,1,80,2|0,0:0|1:2,0:0:0:0:
101,269,205963,2,0,P|90:307|80:346,1,80,2|0,0:0|0:0,0:0:0:0:
8,258,206320,1,2,0:0:0:0:
176,320,206499,6,0,P|214:309|266:298,2,80,2|2|2,1:2|0:0|1:2,0:0:0:0:
342,216,207034,2,0,P|271:204|171:189,1,160,2|2,0:0|0:0,0:0:0:0:
101,269,207570,1,0,1:2:0:0:
35,200,207749,1,2,0:0:0:0:
35,200,207838,1,2,0:0:0:0:
35,200,207927,6,0,B|9:156|9:156|31:98|52:46,1,160,4|2,1:2|1:2,0:0:0:0:
143,0,208463,2,0,P|148:33|158:99,1,80,2|0,0:0|1:2,0:0:0:0:
236,177,208820,2,0,P|246:134|258:89,1,80,2|0,0:0|1:2,0:0:0:0:
331,35,209177,1,2,0:0:0:0:
426,193,209356,5,2,1:2:0:0:
488,105,209534,1,10,0:0:0:0:
488,105,209624,1,8,0:0:0:0:
488,105,209713,2,0,P|441:96|421:92,1,40,8|0,1:2|0:0,0:0:0:0:
347,208,209892,2,0,P|380:201|438:190,1,80,10|0,0:0|1:2,0:0:0:0:
259,166,210248,1,0,1:2:0:0:
259,166,210338,1,0,1:2:0:0:
259,166,210427,1,0,1:2:0:0:
182,241,210605,1,0,1:2:0:0:
182,241,210695,1,0,1:2:0:0:
182,241,210784,6,0,P|161:141|145:74,1,160,4|10,1:2|0:0,0:0:0:0:
35,43,211320,1,10,0:0:0:0:
35,43,211409,1,8,0:0:0:0:
35,43,211499,2,0,P|26:79|12:140,1,80,8|10,1:2|0:0,0:0:0:0:
19,131,211767,1,8,0:0:0:0:
24,140,211856,2,0,P|58:131|76:126,3,40,8|8|10|8,1:2|0:0|0:0|0:0,0:0:0:0:
180,28,212213,6,0,B|141:60|141:60|148:104|160:172,1,160,6|8,1:2|1:2,0:0:0:0:
248,241,212749,2,0,P|263:164|275:112,1,120,10|0,0:0|0:0,0:0:0:0:
268,112,213106,1,10,0:0:0:0:
368,234,213284,1,8,1:2:0:0:
449,165,213463,1,10,0:0:0:0:
449,165,213552,1,8,0:0:0:0:
449,165,213642,6,0,B|480:125|480:125|468:79|452:30,1,120,14|8,1:2|0:0,0:0:0:0:
452,49,213999,2,0,L|387:39,3,40,10|8|10|8,1:2|0:0|0:0|0:0,0:0:0:0:
310,123,214356,2,0,L|349:116,3,40,8|8|8|8,0:0|0:0|0:3|0:3,0:0:0:0:
449,165,214713,1,0,1:2:0:0:
449,165,214802,1,0,1:2:0:0:
449,165,214892,1,0,1:2:0:0:
449,165,214981,1,0,1:2:0:0:
449,165,215070,5,14,1:2:0:0:
380,233,215249,1,2,0:0:0:0:
311,165,215427,1,2,0:0:0:0:
242,233,215606,1,2,0:0:0:0:
185,35,215963,5,8,1:2:0:0:
185,35,216052,1,8,1:2:0:0:
185,35,216142,2,0,B|188:68|165:91|165:91|166:128|181:155|181:155|132:197|149:262,1,240,14|0,0:0|0:0,0:0:0:0:
