osu file format v14

[General]
AudioFilename: audio.mp3
AudioLeadIn: 0
PreviewTime: 73262
Countdown: 0
SampleSet: Soft
StackLeniency: 0.7
Mode: 3
LetterboxInBreaks: 0
SpecialStyle: 0
WidescreenStoryboard: 1

[Editor]
DistanceSpacing: 1.2
BeatDivisor: 4
GridSize: 4
TimelineZoom: 1.9

[Metadata]
Title:Romantic Wedding feat. Tomatsu Haruka, Asumi Kana, Toyosaki Aki (Cut Ver.)
TitleUnicode:ロマンチックウェディング feat. 戸松遥・阿澄佳奈・豊崎愛生 (Cut Ver.)
Artist:HoneyWorks
ArtistUnicode:HoneyWorks
Creator:ML-ysg
Version:Normal
Source:HoneyWorks Premium Live
Tags:japanese j-pop pop jpop cut ver 榎本夏樹 早坂あかり 合田美桜 Natsuki Enomoto Akari Hayasaka Mio Aida 告白実行委員会 -FLYING SONGS- 愛してる Confession Executive Committee I love you Kokuhaku Jikko Iinkai Aishiteru shito Gom 宇都圭輝 Uto keiki 中西 Nakanishi Tsutomu 小林修己 Naoki Kobayashi 裕木レオン Yuki Leon Leon_drum ヤマコ yamako Shimakage Ruia ハニプレ 島陰涙亜 Akatsuki Inc. INCS toenter Co. ltd. MusicRay'n
BeatmapID:3158551
BeatmapSetID:1545283

[Difficulty]
HPDrainRate:7
CircleSize:4
OverallDifficulty:7
ApproachRate:5
SliderMultiplier:1.4
SliderTickRate:1

[Events]
//Background and Video events
0,0,"Wedding2.jpg",0,0
//Break Periods
//Storyboard Layer 0 (Background)
//Storyboard Layer 1 (Fail)
//Storyboard Layer 2 (Pass)
//Storyboard Layer 3 (Foreground)
//Storyboard Layer 4 (Overlay)
//Storyboard Sound Samples
Sample,22262,0,"Tom3.wav",50
Sample,22578,0,"Tom3.wav",50
Sample,22893,0,"Tom3.wav",50
Sample,23683,0,"Hat Open.wav",60
Sample,24315,0,"Hat Open.wav",60
Sample,24946,0,"Hat Open.wav",60
Sample,25578,0,"Hat Open.wav",60
Sample,25893,0,"Hat Open.wav",60
Sample,26209,0,"Hat Open.wav",60
Sample,26841,0,"Hat Open.wav",60
Sample,27157,0,"Hat Open.wav",60
Sample,27472,0,"Hat Open.wav",60
Sample,28578,0,"Hat Open.wav",60
Sample,31104,0,"Hat Open.wav",60
Sample,43893,0,"Hat Close.wav",30
Sample,44525,0,"Hat Close.wav",30
Sample,45157,0,"Hat Close.wav",30
Sample,45788,0,"Hat Close.wav",30
Sample,46420,0,"Hat Close.wav",30
Sample,47051,0,"Hat Close.wav",30
Sample,47683,0,"Hat Close.wav",30
Sample,48315,0,"Hat Open.wav",50
Sample,48630,0,"Hat Close.wav",30
Sample,48946,0,"Hat Close.wav",30
Sample,49578,0,"Hat Close.wav",30
Sample,50209,0,"Hat Close.wav",30
Sample,51472,0,"Hat Open.wav",50
Sample,53209,0,"Tom2.wav",50
Sample,54946,0,"Ride.wav",30
Sample,56525,0,"Ride.wav",30
Sample,59999,0,"Ride.wav",30
Sample,61262,0,"Ride.wav",30
Sample,65051,0,"Ride.wav",30
Sample,65999,0,"Ride.wav",30
Sample,69157,0,"Hat Open.wav",50
Sample,70420,0,"Hat Open.wav",50
Sample,74209,0,"Hat Open.wav",50
Sample,74841,0,"Hat Open.wav",50
Sample,75472,0,"Hat Open.wav",50
Sample,76104,0,"Hat Open.wav",50
Sample,76420,0,"Hat Open.wav",50
Sample,76736,0,"Hat Open.wav",50
Sample,77367,0,"Hat Open.wav",50
Sample,77999,0,"Hat Open.wav",50
Sample,79262,0,"Hat Open.wav",50
Sample,79893,0,"Hat Open.wav",50
Sample,80525,0,"Hat Open.wav",50
Sample,81157,0,"Hat Open.wav",50
Sample,81472,0,"Hat Open.wav",50
Sample,81788,0,"Hat Open.wav",50
Sample,85578,0,"Hat Open.wav",50
Sample,86841,0,"Hat Open.wav",50
Sample,87472,0,"Hat Open.wav",50
Sample,88104,0,"Hat Open.wav",50
Sample,89525,0,"Tom3.wav",50
Sample,89683,0,"Tom3.wav",50
Sample,90630,0,"Hat Open.wav",50
Sample,91893,0,"Hat Open.wav",50

[TimingPoints]
315,315.789473684211,4,2,1,60,1,0
73578,-100.0,4,2,1,60,0,1
103262,-100.0,4,2,1,60,0,0

[HitObjects]
64,192,315,1,0,0:0:0:0:
448,192,315,1,0,0:0:0:0:
320,192,472,1,0,0:0:0:0:
192,192,630,1,0,0:0:0:0:
64,192,788,128,0,1104:0:0:0:0:
448,192,1104,1,0,0:0:0:0:
320,192,1262,1,0,0:0:0:0:
192,192,1420,1,0,0:0:0:0:
320,192,1578,1,0,0:0:0:0:
448,192,1736,128,0,2209:0:0:0:0:
192,192,2209,128,0,2525:0:0:0:0:
320,192,2525,128,0,2841:0:0:0:0:
64,192,2841,128,0,3315:0:0:0:0:
448,192,2841,1,0,0:0:0:0:
192,192,3315,128,0,3788:0:0:0:0:
320,192,3788,128,0,4262:0:0:0:0:
448,192,3788,1,0,0:0:0:0:
64,192,4262,1,0,0:0:0:0:
448,192,4420,1,0,0:0:0:0:
320,192,4578,1,0,0:0:0:0:
192,192,4716,1,0,0:0:0:0:
64,192,5051,1,0,0:0:0:0:
192,192,5209,1,0,0:0:0:0:
320,192,5367,1,0,0:0:0:30:Ride.wav
448,192,5367,1,0,0:0:0:0:
192,192,5525,1,0,0:0:0:0:
64,192,5683,1,0,0:0:0:0:
448,192,5841,128,0,6315:0:0:0:0:
192,192,6315,1,0,0:0:0:30:Ride.wav
320,192,6472,1,0,0:0:0:30:Ride.wav
448,192,6630,1,0,0:0:0:30:Ride.wav
64,192,6788,128,0,7104:0:0:0:0:
448,192,7104,1,0,0:0:0:30:Ride.wav
192,192,7262,128,0,7578:0:0:0:0:
320,192,7578,128,0,7893:0:0:0:30:Ride.wav
64,192,7893,1,0,0:0:0:30:Ride.wav
448,192,7893,128,0,8367:0:0:0:0:
192,192,8367,128,0,8841:0:0:0:30:Ride.wav
64,192,8841,1,0,0:0:0:30:Ride.wav
320,192,8841,128,0,10420:0:0:0:0:
64,192,10420,128,0,12788:0:0:0:30:Ride.wav
448,192,12788,1,0,0:0:0:50:Tom3.wav
192,192,12946,1,4,0:0:0:0:
320,192,12946,128,2,13604:0:0:0:0:
192,192,13604,128,0,14209:0:0:0:0:
64,192,14209,128,4,14867:0:0:0:0:
448,192,14209,1,2,0:0:0:0:
192,192,14867,128,0,15472:0:0:0:0:
64,192,15472,1,4,0:0:0:0:
448,192,15472,128,2,16393:0:0:0:0:
64,192,16104,1,0,0:0:0:50:Tom3.wav
192,192,16393,1,8,0:0:0:0:
320,192,16393,1,0,0:0:0:0:
64,192,16736,1,8,0:0:0:0:
448,192,16736,1,0,0:0:0:0:
320,192,16867,1,0,0:0:0:50:Tom1.wav
192,192,17209,1,0,0:0:0:50:Tom2.wav
64,192,17367,1,0,0:0:0:50:Tom2.wav
448,192,17367,1,0,0:0:0:0:
320,192,17604,1,0,0:0:0:50:Tom3.wav
192,192,17841,1,0,0:0:0:50:Tom3.wav
64,192,17999,128,4,18630:0:0:0:0:
448,192,17999,1,2,0:0:0:0:
192,192,18630,128,0,19262:0:0:0:0:
64,192,19262,1,4,0:0:0:0:
320,192,19262,128,2,19893:0:0:0:0:
448,192,19893,128,0,20525:0:0:0:0:
64,192,20209,1,0,0:0:0:50:Tom3.wav
192,192,20525,128,4,21630:0:0:0:0:
320,192,20525,1,2,0:0:0:0:
448,192,21630,1,8,0:0:0:0:
64,192,21788,1,2,0:0:0:0:
320,192,21788,1,0,0:0:0:0:
192,192,21946,1,8,0:0:0:30:soft-hitclap.wav
320,192,22104,1,10,0:0:0:0:
448,192,22104,1,0,0:0:0:50:Tom3.wav
192,192,22262,1,8,0:0:0:0:
64,192,22420,1,10,0:0:0:0:
448,192,22420,1,0,0:0:0:50:Tom3.wav
320,192,22578,1,8,0:0:0:0:
64,192,22736,1,10,0:0:0:0:
192,192,22736,1,0,0:0:0:50:Tom3.wav
320,192,22893,1,8,0:0:0:0:
64,192,23051,1,4,0:0:0:0:
448,192,23051,128,2,23367:0:0:0:0:
64,192,23367,1,8,0:0:0:0:
192,192,23367,1,0,0:0:0:60:Hat Open.wav
320,192,23683,1,2,0:0:0:0:
192,192,23841,1,2,0:0:0:0:
64,192,23999,1,8,0:0:0:0:
448,192,23999,1,0,0:0:0:60:Hat Open.wav
64,192,24315,128,2,24630:0:0:0:0:
320,192,24630,1,8,0:0:0:0:
448,192,24630,1,0,0:0:0:60:Hat Open.wav
192,192,24946,1,2,0:0:0:0:
320,192,25104,1,2,0:0:0:0:
64,192,25262,1,8,0:0:0:0:
448,192,25262,1,0,0:0:0:60:Hat Open.wav
192,192,25578,128,2,26209:0:0:0:0:
448,192,25893,1,8,0:0:0:0:
320,192,26209,1,2,0:0:0:0:
64,192,26367,1,2,0:0:0:0:
192,192,26525,1,8,0:0:0:0:
448,192,26525,128,0,26841:0:0:0:60:Hat Open.wav
64,192,26841,128,2,27472:0:0:0:0:
320,192,27157,1,8,0:0:0:0:
192,192,27472,1,2,0:0:0:0:
448,192,27630,1,2,0:0:0:0:
64,192,27788,1,8,0:0:0:0:
320,192,27788,1,0,0:0:0:60:Hat Open.wav
192,192,28104,1,2,0:0:0:0:
448,192,28104,1,4,0:0:0:0:
320,192,28262,1,2,0:0:0:0:
64,192,28420,1,8,0:0:0:0:
192,192,28420,1,0,0:0:0:0:
448,192,28578,128,2,28736:0:0:0:0:
192,192,28893,1,2,0:0:0:0:
64,192,29051,1,8,0:0:0:0:
320,192,29051,128,4,29525:0:0:0:0:
64,192,29525,1,2,0:0:0:0:
192,192,29683,1,8,0:0:0:0:
448,192,29683,1,0,0:0:0:60:Hat Open.wav
320,192,29999,1,0,0:0:0:60:Hat Open.wav
192,192,30157,1,2,0:0:0:0:
64,192,30315,1,8,0:0:0:0:
448,192,30315,128,0,30630:0:0:0:60:Hat Open.wav
64,192,30630,1,2,0:0:0:0:
192,192,30630,1,4,0:0:0:0:
320,192,30788,1,8,0:0:0:0:
192,192,30946,1,8,0:0:0:0:
448,192,30946,1,0,0:0:0:0:
64,192,31104,128,2,31262:0:0:0:0:
320,192,31420,1,2,0:0:0:0:
192,192,31578,128,8,32051:0:0:0:0:
448,192,31578,1,4,0:0:0:0:
320,192,32051,1,2,0:0:0:0:
64,192,32209,1,8,0:0:0:0:
448,192,32209,1,0,0:0:0:60:Hat Open.wav
320,192,32525,1,2,0:0:0:0:
448,192,32525,1,0,0:0:0:0:
192,192,32683,1,8,0:0:0:0:
64,192,32841,1,2,0:0:0:0:
448,192,32841,1,0,0:0:0:0:
320,192,32999,1,0,0:0:0:50:Tom3.wav
64,192,33157,1,4,0:0:0:0:
192,192,33157,1,2,0:0:0:0:
320,192,33472,128,2,33788:0:0:0:0:
448,192,33472,1,0,0:0:0:30:Hat Close.wav
64,192,33788,128,2,34104:0:0:0:0:
192,192,33788,1,0,0:0:0:30:Hat Close.wav
320,192,34104,128,2,34420:0:0:0:0:
448,192,34104,1,0,0:0:0:30:Hat Close.wav
64,192,34420,1,2,0:0:0:0:
192,192,34420,128,0,34736:0:0:0:30:Hat Close.wav
320,192,34736,1,2,0:0:0:0:
448,192,34736,1,0,0:0:0:30:Hat Close.wav
192,192,35051,128,2,35367:0:0:0:0:
320,192,35051,1,0,0:0:0:30:Hat Close.wav
64,192,35367,1,2,0:0:0:0:
448,192,35367,128,0,35683:0:0:0:30:Hat Close.wav
64,192,35683,128,2,35999:0:0:0:0:
320,192,35683,1,0,0:0:0:30:Hat Close.wav
192,192,35999,128,2,36315:0:0:0:0:
448,192,35999,1,0,0:0:0:30:Hat Close.wav
64,192,36315,1,2,0:0:0:0:
320,192,36315,128,0,36630:0:0:0:30:Hat Close.wav
192,192,36630,1,2,0:0:0:0:
448,192,36630,128,0,36946:0:0:0:30:Hat Close.wav
64,192,36946,1,2,0:0:0:0:
192,192,36946,128,0,37262:0:0:0:30:Hat Close.wav
320,192,37262,1,2,0:0:0:0:
448,192,37262,1,0,0:0:0:30:Hat Close.wav
64,192,37578,128,2,37893:0:0:0:0:
320,192,37578,1,0,0:0:0:30:Hat Close.wav
192,192,37893,1,2,0:0:0:0:
448,192,37893,128,0,38209:0:0:0:30:Hat Close.wav
64,192,38209,1,2,0:0:0:0:
192,192,38209,128,0,38841:0:0:0:60:Hat Open.wav
320,192,38525,1,2,0:0:0:0:
64,192,38841,1,2,0:0:0:0:
448,192,38841,1,0,0:0:0:0:
192,192,39157,1,2,0:0:0:0:
320,192,39157,128,0,39472:0:0:0:0:
64,192,39472,1,2,0:0:0:0:
448,192,39472,128,0,39788:0:0:0:40:Hat Close.wav
64,192,39788,1,2,0:0:0:0:
192,192,39788,1,0,0:0:0:60:Hat Open.wav
320,192,40104,128,2,40420:0:0:0:0:
448,192,40104,1,0,0:0:0:0:
64,192,40420,1,2,0:0:0:0:
192,192,40420,1,0,0:0:0:0:
448,192,40578,1,0,0:0:0:30:Hat Close.wav
64,192,40736,128,2,41051:0:0:0:0:
320,192,40736,1,4,0:0:0:0:
192,192,41051,1,2,0:0:0:0:
448,192,41051,1,0,0:0:0:0:
64,192,41367,1,2,0:0:0:0:
192,192,41367,128,0,41683:0:0:0:0:
320,192,41683,1,2,0:0:0:0:
448,192,41683,1,0,0:0:0:60:Hat Open.wav
192,192,41999,1,2,0:0:0:0:
320,192,41999,128,0,42315:0:0:0:60:Hat Open.wav
64,192,42315,1,2,0:0:0:0:
448,192,42315,1,0,0:0:0:60:Hat Open.wav
192,192,42472,1,0,0:0:0:0:
320,192,42630,1,2,0:0:0:0:
448,192,42630,1,0,0:0:0:50:Tom3.wav
192,192,42788,1,8,0:0:0:0:
64,192,42946,1,8,0:0:0:0:
448,192,42946,1,2,0:0:0:0:
320,192,43104,1,0,0:0:0:50:Tom3.wav
64,192,43262,1,4,0:0:0:0:
192,192,43262,1,2,0:0:0:0:
192,192,43578,1,10,0:0:0:0:
448,192,43578,128,0,43893:0:0:0:30:Hat Close.wav
320,192,43736,1,0,0:0:0:0:
64,192,43893,128,2,44209:0:0:0:0:
192,192,44051,1,0,0:0:0:0:
320,192,44209,1,10,0:0:0:0:
448,192,44209,128,0,44525:0:0:0:30:Hat Close.wav
192,192,44525,128,2,44841:0:0:0:0:
64,192,44841,1,10,0:0:0:0:
448,192,44841,1,0,0:0:0:30:Hat Close.wav
320,192,44999,1,0,0:0:0:0:
192,192,45157,128,2,45472:0:0:0:0:
64,192,45315,1,0,0:0:0:0:
320,192,45472,1,10,0:0:0:0:
448,192,45472,128,0,45788:0:0:0:30:Hat Close.wav
64,192,45788,128,2,46104:0:0:0:0:
192,192,46104,128,10,46420:0:0:0:0:
448,192,46104,1,0,0:0:0:30:Hat Close.wav
64,192,46262,1,0,0:0:0:0:
320,192,46420,128,2,46736:0:0:0:0:
192,192,46578,1,0,0:0:0:0:
64,192,46736,1,10,0:0:0:0:
448,192,46736,128,0,47051:0:0:0:30:Hat Close.wav
192,192,47051,128,2,47367:0:0:0:0:
320,192,47367,1,10,0:0:0:0:
448,192,47367,1,0,0:0:0:30:Hat Close.wav
192,192,47525,1,0,0:0:0:0:
64,192,47683,128,2,47999:0:0:0:0:
320,192,47841,1,0,0:0:0:0:
192,192,47999,1,10,0:0:0:0:
448,192,47999,128,0,48315:0:0:0:30:Hat Close.wav
320,192,48315,128,2,48946:0:0:0:0:
64,192,48630,1,10,0:0:0:0:
448,192,48788,1,0,0:0:0:0:
192,192,48946,1,2,0:0:0:0:
320,192,49104,1,0,0:0:0:0:
64,192,49262,128,10,49578:0:0:0:0:
448,192,49262,1,0,0:0:0:30:Hat Close.wav
320,192,49578,128,2,49893:0:0:0:0:
64,192,49893,1,10,0:0:0:0:
192,192,49893,128,0,50209:0:0:0:30:Hat Close.wav
320,192,50051,1,0,0:0:0:0:
448,192,50209,128,2,50525:0:0:0:0:
320,192,50367,1,0,0:0:0:0:
64,192,50525,128,10,50841:0:0:0:0:
192,192,50525,1,0,0:0:0:50:Hat Open.wav
320,192,50841,128,2,51157:0:0:0:0:
448,192,50841,1,4,0:0:0:0:
192,192,51157,128,10,51472:0:0:0:0:
448,192,51157,1,0,0:0:0:50:Hat Open.wav
64,192,51472,128,2,51788:0:0:0:0:
320,192,51788,1,8,0:0:0:0:
448,192,51788,1,0,0:0:0:50:Hat Open.wav
192,192,51946,1,2,0:0:0:0:
64,192,52104,1,8,0:0:0:0:
320,192,52104,1,4,0:0:0:0:
448,192,52262,1,2,0:0:0:0:
64,192,52420,1,8,0:0:0:0:
192,192,52420,1,0,0:0:0:50:Hat Open.wav
320,192,52578,1,8,0:0:0:0:
192,192,52736,1,8,0:0:0:0:
448,192,52736,1,2,0:0:0:0:
64,192,52893,1,8,0:0:0:0:
320,192,53051,1,2,0:0:0:0:
448,192,53051,1,0,0:0:0:0:
192,192,53209,1,8,0:0:0:0:
64,192,53367,1,2,0:0:0:0:
320,192,53367,1,4,0:0:0:0:
192,192,53683,128,0,53999:0:0:0:30:Ride.wav
64,192,53999,1,8,0:0:0:0:
448,192,53999,128,0,54315:0:0:0:30:Ride.wav
192,192,54315,1,0,0:0:0:30:Ride.wav
320,192,54472,128,2,54788:0:0:0:0:
64,192,54788,1,8,0:0:0:0:
448,192,54788,1,0,0:0:0:0:
192,192,54946,1,2,0:0:0:0:
448,192,55104,1,0,0:0:0:0:
64,192,55262,1,8,0:0:0:0:
320,192,55262,1,0,0:0:0:30:Ride.wav
192,192,55420,1,2,0:0:0:0:
448,192,55578,1,0,0:0:0:30:Ride.wav
320,192,55736,1,0,0:0:0:30:Ride.wav
64,192,55893,128,2,56209:0:0:0:0:
448,192,56209,1,0,0:0:0:30:Ride.wav
192,192,56367,128,2,56683:0:0:0:0:
320,192,56525,1,8,0:0:0:0:
448,192,56683,1,0,0:0:0:30:Ride.wav
64,192,56841,1,0,0:0:0:30:Ride.wav
320,192,56999,128,2,57315:0:0:0:0:
64,192,57315,1,8,0:0:0:0:
192,192,57315,1,0,0:0:0:0:
448,192,57472,128,2,57788:0:0:0:0:
64,192,57788,1,0,0:0:0:50:Tom2.wav
320,192,57946,1,2,0:0:0:0:
192,192,58104,1,0,0:0:0:50:Tom3.wav
448,192,58262,1,2,0:0:0:0:
64,192,58420,1,2,0:0:0:0:
320,192,58420,1,4,0:0:0:0:
192,192,58736,128,0,59051:0:0:0:30:Ride.wav
64,192,59051,1,8,0:0:0:0:
448,192,59051,128,0,59367:0:0:0:30:Ride.wav
192,192,59367,1,0,0:0:0:30:Ride.wav
320,192,59525,128,2,59841:0:0:0:0:
64,192,59841,1,0,0:0:0:0:
192,192,59999,128,2,60315:0:0:0:0:
64,192,60315,1,8,0:0:0:0:
448,192,60315,1,0,0:0:0:30:Ride.wav
320,192,60472,1,2,0:0:0:0:
64,192,60630,1,0,0:0:0:30:Ride.wav
192,192,60788,1,2,0:0:0:0:
320,192,60946,1,4,0:0:0:0:
448,192,60946,128,8,61262:0:0:0:0:
192,192,61262,1,2,0:0:0:0:
64,192,61420,1,8,0:0:0:0:
320,192,61420,1,0,0:0:0:0:
448,192,61578,1,0,0:0:0:30:Ride.wav
192,192,61736,1,2,0:0:0:0:
64,192,61893,128,8,62367:0:0:0:0:
320,192,61893,1,4,0:0:0:0:
448,192,62367,1,0,0:0:0:50:Tom1.wav
320,192,62525,128,0,62683:0:0:0:30:Ride.wav
64,192,62683,1,8,0:0:0:0:
448,192,62841,128,2,62999:0:0:0:0:
192,192,62999,1,0,0:0:0:50:Tom1.wav
64,192,63157,128,0,63315:0:0:0:50:Tom2.wav
320,192,63315,1,0,0:0:0:50:Tom3.wav
192,192,63472,1,4,0:0:0:0:
448,192,63472,1,2,0:0:0:0:
320,192,63788,128,0,64104:0:0:0:30:Ride.wav
64,192,64104,1,8,0:0:0:0:
192,192,64104,128,0,64420:0:0:0:30:Ride.wav
448,192,64420,1,0,0:0:0:30:Ride.wav
64,192,64578,128,2,64893:0:0:0:0:
192,192,64893,1,8,0:0:0:0:
320,192,64893,1,0,0:0:0:0:
448,192,65051,128,2,65367:0:0:0:0:
64,192,65367,1,8,0:0:0:0:
192,192,65367,128,0,65683:0:0:0:30:Ride.wav
320,192,65683,128,0,65999:0:0:0:0:
64,192,65999,1,2,0:0:0:0:
192,192,66157,1,8,0:0:0:0:
448,192,66157,1,0,0:0:0:0:
320,192,66315,1,0,0:0:0:30:Ride.wav
64,192,66472,1,8,0:0:0:0:
192,192,66472,1,0,0:0:0:0:
448,192,66630,1,2,0:0:0:0:
320,192,66788,1,0,0:0:0:50:Tom2.wav
192,192,66946,1,0,0:0:0:50:Tom3.wav
320,192,67104,1,4,0:0:0:0:
448,192,67104,128,2,67420:0:0:0:0:
64,192,67420,1,8,0:0:0:0:
192,192,67420,1,0,0:0:0:0:
320,192,67578,1,0,0:0:0:50:Hat Open.wav
192,192,67736,1,2,0:0:0:0:
64,192,67893,1,8,0:0:0:0:
448,192,67893,128,0,68209:0:0:0:50:Hat Open.wav
64,192,68209,1,8,0:0:0:0:
192,192,68209,128,4,68525:0:0:0:0:
320,192,68525,128,4,68841:0:0:0:0:
448,192,68525,1,2,0:0:0:0:
64,192,68841,1,8,0:0:0:0:
192,192,68841,1,0,0:0:0:50:Hat Open.wav
448,192,68999,1,0,0:0:0:0:
64,192,69157,1,2,0:0:0:0:
320,192,69315,1,2,0:0:0:0:
64,192,69472,1,8,0:0:0:0:
192,192,69472,1,0,0:0:0:50:Hat Open.wav
448,192,69630,128,2,69946:0:0:0:0:
64,192,69946,1,2,0:0:0:0:
192,192,70104,1,8,0:0:0:0:
320,192,70104,1,0,0:0:0:50:Hat Open.wav
448,192,70262,1,0,0:0:0:0:
64,192,70420,128,2,70736:0:0:0:0:
320,192,70736,1,8,0:0:0:0:
448,192,70736,128,0,71051:0:0:0:50:Hat Open.wav
64,192,71051,1,8,0:0:0:0:
192,192,71051,128,4,71367:0:0:0:0:
320,192,71367,1,8,0:0:0:0:
64,192,71525,1,8,0:0:0:0:
448,192,71683,1,2,0:0:0:0:
320,192,71841,1,0,0:0:0:0:
64,192,71999,1,8,0:0:0:0:
192,192,71999,1,0,0:0:0:0:
320,192,72157,1,4,0:0:0:0:
448,192,72157,128,2,72472:0:0:0:0:
64,192,72472,1,8,0:0:0:0:
192,192,72472,1,0,0:0:0:50:Tom3.wav
64,192,72630,1,8,0:0:0:0:
192,192,72630,1,0,0:0:0:50:Tom3.wav
320,192,73420,1,0,0:0:0:50:Tom3.wav
64,192,73578,128,4,73893:0:0:0:0:
448,192,73578,1,2,0:0:0:0:
192,192,73893,1,8,0:0:0:0:
320,192,73893,128,0,74209:0:0:0:50:Hat Open.wav
64,192,74209,128,2,74525:0:0:0:0:
320,192,74525,1,8,0:0:0:0:
448,192,74525,128,0,74841:0:0:0:50:Hat Open.wav
192,192,74841,128,2,75157:0:0:0:0:
64,192,75157,1,8,0:0:0:0:
320,192,75157,128,0,75472:0:0:0:50:Hat Open.wav
64,192,75472,128,2,75788:0:0:0:0:
192,192,75788,1,8,0:0:0:0:
448,192,75788,128,0,76104:0:0:0:50:Hat Open.wav
64,192,76104,128,2,77051:0:0:0:0:
320,192,76420,1,8,0:0:0:0:
448,192,76736,1,2,0:0:0:0:
192,192,77051,1,8,0:0:0:0:
320,192,77051,128,0,77367:0:0:0:50:Hat Open.wav
192,192,77367,128,2,77683:0:0:0:0:
64,192,77683,1,8,0:0:0:0:
448,192,77683,1,0,0:0:0:50:Hat Open.wav
320,192,77841,1,0,0:0:0:0:
64,192,77999,128,2,78315:0:0:0:0:
192,192,78315,1,8,0:0:0:0:
448,192,78315,1,0,0:0:0:50:Hat Open.wav
64,192,78630,1,2,0:0:0:0:
320,192,78630,128,4,78946:0:0:0:0:
192,192,78946,128,8,79262:0:0:0:0:
448,192,78946,1,0,0:0:0:50:Hat Open.wav
320,192,79262,128,2,79578:0:0:0:0:
64,192,79578,128,8,79893:0:0:0:0:
448,192,79578,1,0,0:0:0:50:Hat Open.wav
320,192,79893,128,2,80209:0:0:0:0:
64,192,80209,1,8,0:0:0:0:
192,192,80209,128,0,80525:0:0:0:50:Hat Open.wav
448,192,80525,128,2,80841:0:0:0:0:
64,192,80841,128,8,81157:0:0:0:0:
320,192,80841,1,0,0:0:0:50:Hat Open.wav
192,192,81157,128,2,81788:0:0:0:0:
448,192,81472,1,8,0:0:0:0:
320,192,81788,1,2,0:0:0:0:
192,192,81946,1,2,0:0:0:0:
64,192,82104,1,8,0:0:0:0:
448,192,82104,1,0,0:0:0:50:Hat Open.wav
320,192,82262,1,2,0:0:0:0:
64,192,82420,1,8,0:0:0:0:
192,192,82420,1,4,0:0:0:0:
320,192,82578,1,2,0:0:0:0:
192,192,82736,128,8,83051:0:0:0:0:
448,192,82736,1,4,0:0:0:0:
320,192,83051,1,2,0:0:0:0:
64,192,83209,1,8,0:0:0:0:
320,192,83367,1,8,0:0:0:0:
448,192,83367,1,2,0:0:0:0:
192,192,83525,1,0,0:0:0:50:Tom3.wav
64,192,83683,1,4,0:0:0:0:
320,192,83683,1,2,0:0:0:0:
448,192,83841,1,2,0:0:0:0:
64,192,83999,1,8,0:0:0:0:
192,192,83999,1,0,0:0:0:0:
320,192,84157,1,2,0:0:0:0:
192,192,84315,1,8,0:0:0:0:
448,192,84315,1,0,0:0:0:50:Tom2.wav
64,192,84472,1,2,0:0:0:0:
320,192,84630,1,0,0:0:0:50:Tom3.wav
192,192,84788,1,2,0:0:0:0:
448,192,84788,128,4,85104:0:0:0:0:
64,192,85104,1,2,0:0:0:0:
192,192,85262,1,8,0:0:0:0:
320,192,85262,1,0,0:0:0:50:Hat Open.wav
448,192,85578,1,2,0:0:0:0:
320,192,85736,1,2,0:0:0:0:
64,192,85893,1,8,0:0:0:0:
192,192,85893,1,0,0:0:0:50:Hat Open.wav
320,192,86051,1,8,0:0:0:0:
64,192,86209,128,4,86525:0:0:0:0:
448,192,86209,1,2,0:0:0:0:
192,192,86525,1,8,0:0:0:0:
320,192,86525,128,0,86841:0:0:0:50:Hat Open.wav
64,192,86841,128,2,87157:0:0:0:0:
320,192,87157,1,8,0:0:0:0:
448,192,87157,128,0,87472:0:0:0:50:Hat Open.wav
192,192,87472,128,2,87788:0:0:0:0:
64,192,87788,1,8,0:0:0:0:
448,192,87788,128,0,88104:0:0:0:50:Hat Open.wav
64,192,88104,128,2,88420:0:0:0:0:
192,192,88420,1,8,0:0:0:0:
320,192,88420,128,4,88736:0:0:0:0:
64,192,88736,1,2,0:0:0:0:
448,192,88736,1,0,0:0:0:50:Tom3.wav
192,192,88893,1,8,0:0:0:0:
320,192,89051,1,8,0:0:0:0:
448,192,89051,1,0,0:0:0:0:
192,192,89209,1,0,0:0:0:50:Tom3.wav
64,192,89367,1,8,0:0:0:0:
448,192,89367,1,0,0:0:0:50:Tom3.wav
320,192,89525,1,8,0:0:0:0:
192,192,89683,1,8,0:0:0:0:
64,192,89841,1,4,0:0:0:0:
448,192,89841,128,2,90157:0:0:0:0:
192,192,90157,1,2,0:0:0:0:
64,192,90315,1,8,0:0:0:0:
320,192,90315,1,0,0:0:0:50:Hat Open.wav
448,192,90630,1,2,0:0:0:0:
320,192,90788,1,2,0:0:0:0:
64,192,90946,1,8,0:0:0:0:
192,192,90946,1,0,0:0:0:50:Hat Open.wav
320,192,91104,1,8,0:0:0:0:
64,192,91262,128,4,91578:0:0:0:0:
448,192,91262,1,2,0:0:0:0:
320,192,91578,128,8,91893:0:0:0:0:
448,192,91578,1,0,0:0:0:50:Hat Open.wav
192,192,91893,128,2,92209:0:0:0:0:
64,192,92209,1,8,0:0:0:0:
448,192,92209,128,0,92525:0:0:0:50:Hat Open.wav
192,192,92525,1,8,0:0:0:0:
320,192,92525,1,0,0:0:0:50:Hat Open.wav
64,192,92683,1,2,0:0:0:0:
320,192,92841,1,8,0:0:0:0:
448,192,92841,1,4,0:0:0:0:
192,192,92999,1,8,0:0:0:0:
64,192,93157,1,2,0:0:0:0:
448,192,93157,1,0,0:0:0:50:Tom3.wav
320,192,93315,1,8,0:0:0:0:
64,192,93472,1,8,0:0:0:0:
192,192,93472,1,2,0:0:0:0:
320,192,93630,1,0,0:0:0:50:Tom2.wav
192,192,93788,128,4,94104:0:0:0:0:
448,192,93788,1,2,0:0:0:0:
64,192,94104,1,8,0:0:0:0:
320,192,94104,1,0,0:0:0:0:
192,192,94262,1,2,0:0:0:0:
448,192,94262,128,4,94578:0:0:0:0:
320,192,94578,1,0,0:0:0:50:Tom3.wav
64,192,94736,128,4,95051:0:0:0:0:
192,192,94736,1,2,0:0:0:0:
320,192,95051,1,8,0:0:0:0:
448,192,95051,1,0,0:0:0:0:
64,192,95209,1,2,0:0:0:0:
192,192,95209,128,4,95525:0:0:0:0:
448,192,95525,1,2,0:0:0:0:
64,192,95683,1,8,0:0:0:0:
320,192,95683,1,4,0:0:0:0:
192,192,95841,1,2,0:0:0:0:
64,192,95999,1,8,0:0:0:0:
448,192,95999,1,4,0:0:0:0:
320,192,96157,1,2,0:0:0:0:
192,192,96315,1,8,0:0:0:0:
448,192,96315,128,0,96630:0:0:0:0:
64,192,96630,1,8,0:0:0:0:
320,192,96630,1,0,0:0:0:0:
192,192,96788,128,2,97104:0:0:0:0:
448,192,96788,1,4,0:0:0:0:
64,192,97104,1,0,0:0:0:50:Tom3.wav
320,192,97262,128,4,97578:0:0:0:0:
448,192,97262,1,2,0:0:0:0:
192,192,97578,1,8,0:0:0:0:
448,192,97578,1,0,0:0:0:0:
64,192,97736,128,2,98051:0:0:0:0:
320,192,97736,1,4,0:0:0:0:
192,192,98051,1,2,0:0:0:0:
320,192,98209,1,8,0:0:0:0:
448,192,98209,1,0,0:0:0:50:Tom3.wav
192,192,98367,1,0,0:0:0:50:Tom3.wav
64,192,98525,1,2,0:0:0:0:
448,192,98525,128,0,98683:0:0:0:0:
320,192,98683,128,8,98841:0:0:0:0:
64,192,98841,1,4,0:0:0:0:
192,192,98841,128,2,99157:0:0:0:0:
320,192,99157,1,8,0:0:0:0:
448,192,99157,1,0,0:0:0:50:Hat Open.wav
64,192,99315,1,2,0:0:0:0:
192,192,99472,1,8,0:0:0:0:
448,192,99472,1,0,0:0:0:50:Hat Open.wav
320,192,99630,1,2,0:0:0:0:
64,192,99788,1,8,0:0:0:0:
448,192,99788,128,4,100104:0:0:0:0:
192,192,100104,1,8,0:0:0:0:
320,192,100104,1,0,0:0:0:50:Hat Open.wav
64,192,100262,1,2,0:0:0:0:
320,192,100420,1,8,0:0:0:0:
448,192,100420,1,0,0:0:0:50:Hat Open.wav
192,192,100578,1,2,0:0:0:0:
64,192,100736,1,8,0:0:0:0:
448,192,100736,1,4,0:0:0:0:
320,192,100893,1,8,0:0:0:0:
64,192,101051,1,2,0:0:0:0:
192,192,101051,1,0,0:0:0:0:
320,192,101209,1,0,0:0:0:50:Tom3.wav
64,192,101367,1,8,0:0:0:0:
448,192,101367,1,4,0:0:0:0:
192,192,101525,1,2,0:0:0:0:
320,192,101683,1,2,0:0:0:0:
64,192,101841,128,8,102157:0:0:0:0:
448,192,101841,1,4,0:0:0:0:
320,192,102157,1,2,0:0:0:0:
192,192,102315,1,8,0:0:0:0:
448,192,102315,128,4,102630:0:0:0:0:
64,192,102630,1,2,0:0:0:0:
192,192,102788,128,8,103104:0:0:0:0:
320,192,102788,1,4,0:0:0:0:
448,192,103104,1,0,0:0:0:50:Tom3.wav
64,192,103262,128,8,103578:0:0:0:0:
320,192,103262,128,0,103578:0:0:0:0:
