osu file format v14

[General]
AudioFilename: audio.ogg
AudioLeadIn: 0
PreviewTime: 142251
Countdown: 0
SampleSet: Soft
StackLeniency: 0.5
Mode: 0
LetterboxInBreaks: 0
WidescreenStoryboard: 0

[Editor]
Bookmarks: 14929,25093,30719,48403,68613,88824,111561,131771,143771,164613,175034,187350
DistanceSpacing: 0.6
BeatDivisor: 16
GridSize: 8
TimelineZoom: 2

[Metadata]
Title:Re: Hatsukoi no Ehon feat. Aida Miou (CV: Toyosaki Aki)
TitleUnicode:Re:初恋の絵本 feat. 合田美桜(CV:豊崎愛生)
Artist:HoneyWorks
ArtistUnicode:HoneyWorks
Creator:Setu
Version:Yoroshiku ne
Source:いつだって僕らの恋は10センチだった。
Tags:We have always been 10 cm apart. 告白実行委員会 Kokuhaku Jikkou Iinkai japanese pop anime shiratamamywife dahkjdas coloured_glazee coloured glazee narcissu strengemistake itsudatte bokura no koi wa datta. centi 好きすぎてやばい。 ~告白実行委員会キャラクターソング集~ 東京ウインターセッション Sukisugiteyabai Kokuhakujikkouiinkai Character Song Shu Tokyo Winter Session
BeatmapID:3550923
BeatmapSetID:1688656

[Difficulty]
HPDrainRate:4
CircleSize:4
OverallDifficulty:9.2
ApproachRate:9.3
SliderMultiplier:2
SliderTickRate:1

[Events]
//Background and Video events
0,0,"bg_top.png",0,0
//Break Periods
2,126977,128749
2,139609,142251
//Storyboard Layer 0 (Background)
//Storyboard Layer 1 (Fail)
//Storyboard Layer 2 (Pass)
//Storyboard Layer 3 (Foreground)
//Storyboard Layer 4 (Overlay)
//Storyboard Sound Samples

[TimingPoints]
411,472.44094488189,4,2,1,35,1,0
411,-238.095238095238,4,2,1,35,0,0
1357,431.654676258993,4,2,1,35,1,0
1357,-238.095238095238,4,2,1,35,0,0
1410,-238.095238095238,4,2,1,5,0,0
2225,413.793103448276,4,2,1,35,1,0
3053,422.535211267606,4,2,1,35,1,0
3053,-238.095238095238,4,2,1,35,0,0
3105,-238.095238095238,4,2,1,5,0,0
3845,-238.095238095238,4,2,1,35,0,0
4750,422.535211267606,4,2,1,35,1,0
4750,-238.095238095238,4,2,1,35,0,0
6440,421.792618629174,4,2,1,35,1,0
6440,-238.095238095238,4,2,1,35,0,0
8130,419.58041958042,4,2,1,35,1,0
8130,-238.095238095238,4,2,1,35,0,0
8182,-238.095238095238,4,2,1,5,0,0
8973,431.654676258993,4,2,1,35,1,0
9841,495.867768595041,4,2,1,35,1,0
9841,-238.095238095238,4,2,1,35,0,0
9901,-238.095238095238,4,2,1,5,0,0
11761,-238.095238095238,4,2,1,35,0,0
12327,405.405405405406,4,2,1,35,1,0
14357,315.789473684211,4,2,1,35,1,0
14988,-188.679245283019,4,2,1,35,0,0
15620,315.789473684211,4,2,1,50,1,0
15620,-119.047619047619,4,2,1,50,0,0
24146,-119.047619047619,4,2,1,60,0,0
25804,-119.047619047619,4,2,1,5,0,0
28093,-119.047619047619,4,2,1,30,0,0
28409,-133.333333333333,4,2,1,30,0,0
28725,-100,4,2,1,40,0,0
29041,-83.3333333333333,4,2,1,50,0,0
29357,-83.3333333333333,4,2,1,60,0,0
30777,-133.333333333333,4,2,1,40,0,0
39620,-133.333333333333,4,2,1,50,0,0
40883,-153.846153846153,4,2,1,30,0,0
45935,-133.333333333333,4,2,1,50,0,0
46883,-133.333333333333,4,2,1,60,0,0
48146,-133.333333333333,4,2,1,40,0,0
48462,-111.111111111111,4,2,1,50,0,0
63620,-166.666666666666,4,2,1,40,0,0
66146,-166.666666666666,4,2,1,50,0,0
66778,-166.666666666666,4,2,1,60,0,0
68672,-83.3333333333333,4,2,1,70,0,0
77514,-83.3333333333333,4,2,1,50,0,0
78146,-83.3333333333333,4,2,1,65,0,0
78778,-83.3333333333333,4,2,1,70,0,0
80041,-100,4,2,1,70,0,0
80672,-83.3333333333333,4,2,1,70,0,0
85093,-153.846153846153,4,2,1,50,0,0
86041,-222.22222222222,4,2,1,50,0,0
86120,-222.22222222222,4,2,1,5,0,0
87619,-222.22222222222,4,2,1,35,0,0
88251,-153.846153846153,4,2,1,50,0,0
89830,-153.846153846153,4,2,1,60,0,0
91409,-100,4,2,1,60,0,0
111620,631.578947368421,4,2,1,30,1,0
121725,315.789473684211,4,2,1,40,1,0
121725,-166.666666666667,4,2,1,40,0,0
129303,-166.666666666667,4,2,1,50,0,0
129935,-166.666666666667,4,2,1,60,0,0
131356,-100,4,2,1,60,0,0
131830,-100,4,2,1,30,0,0
134356,-100,4,2,1,40,0,0
134514,-166.666666666667,4,2,1,40,0,0
134988,-166.666666666667,4,2,1,50,0,0
136882,-117.647058823529,4,2,1,50,0,0
138146,-117.647058823529,4,2,1,60,0,0
138777,-117.647058823529,4,2,1,70,0,0
139409,-117.647058823529,4,2,1,30,0,0
143830,-117.647058823529,4,2,1,60,0,0
144461,315.789473684211,4,2,1,70,1,0
144461,-100,4,2,1,70,0,0
145092,-83.3333333333333,4,2,1,70,0,0
150776,-100,4,2,1,70,0,0
153303,-100,4,2,1,50,0,0
153855,-100,4,2,1,65,0,0
154566,-83.3333333333333,4,2,1,70,0,0
162145,-100,4,2,1,70,0,0
164355,-166.666666666667,4,2,1,70,0,0
164671,-125,4,2,1,50,0,0
172250,-100,4,2,1,50,0,0
172882,-83.3333333333333,4,2,1,60,0,0
173514,-83.3333333333333,4,2,1,70,0,0
181093,-83.3333333333333,4,2,1,50,0,0
182039,-1000,4,2,1,50,0,0
182119,-1000,4,2,1,5,0,0
184725,-1000,4,2,1,50,0,0
187409,419.58041958042,4,2,1,30,1,0
187409,-166.666666666667,4,2,1,30,0,0
187828,370.37037037037,4,2,1,30,1,0
188198,379.746835443038,4,2,1,30,1,0
188198,-166.666666666667,4,2,1,30,0,0
189052,-166.666666666667,4,2,1,5,0,0
189622,-166.666666666667,4,2,1,30,0,0
190096,425.531914893617,4,2,1,30,1,0
190521,-200,4,2,1,30,0,0
190947,372.670807453416,4,2,1,30,1,0
191319,419.58041958042,4,2,1,30,1,0
191319,-200,4,2,1,30,0,0
191738,441.176470588235,4,2,1,30,1,0
192179,-250,4,2,1,30,0,0
193061,550.45871559633,4,2,1,30,1,0
193061,-285.714285714286,4,2,1,30,0,0
193611,769.230769230769,4,2,1,30,1,0
194380,560.747663551402,4,2,1,30,1,0
194660,631.578947368421,4,2,1,30,1,0
195923,789.473684210526,4,2,1,30,1,0
196317,845.070422535211,4,2,1,30,1,0
196528,1153.84615384615,4,2,1,30,1,0
197104,1176.47058823529,4,2,1,30,1,0

[Colours]
Combo1 : 255,128,192
Combo2 : 255,128,0
Combo3 : 255,128,128
Combo4 : 128,255,255

[HitObjects]
93,345,411,6,0,B|78:296|78:296|86:258,1,84,2|2,2:0|2:0,2:0:0:0:
228,221,1357,2,0,P|246:252|153:286,1,168.972994873047,2|2,2:0|2:0,2:0:0:0:
157,292,3053,2,0,B|190:262|235:278|235:278|269:321|322:297,1,168,2|2,2:0|2:0,2:0:0:0:
374,257,4320,1,2,2:0:0:0:
374,257,4750,6,0,P|392:213|368:168,1,84,2|2,2:0|2:0,2:0:0:0:
246,169,5595,2,0,P|275:206|326:208,1,84,2|2,2:0|2:0,2:0:0:0:
429,102,6440,2,0,L|330:91,1,84,2|2,2:0|2:0,2:0:0:0:
225,222,7283,2,0,L|324:211,1,84,2|2,2:0|2:0,2:0:0:0:
219,110,8130,6,0,B|186:80|141:96|141:96|107:139|54:115,1,168.800794873047,2|2,2:0|2:0,2:0:0:0:
32,240,9841,6,0,B|90:186|170:228|163:300|163:300|184:250|225:247|225:247|248:271|283:260,1,336,2|2,2:0|2:0,2:0:0:0:
256,192,12327,12,0,14354,2:0:0:0:
103,323,14830,5,2,2:3:0:0:
103,323,14909,1,2,2:3:0:0:
103,323,14988,2,0,P|191:305|177:244,1,159,8|2,2:0|2:3,2:0:0:0:
70,167,15620,6,0,L|264:184,1,168,4|0,1:0|2:0,2:0:0:0:
287,323,16093,1,2,2:3:0:0:
287,323,16172,1,2,2:3:0:0:
287,323,16251,1,2,2:3:0:0:
343,97,16409,1,8,2:0:0:0:
494,289,16567,2,0,L|375:278,1,84,0|0,2:0|2:0,2:0:0:0:
265,111,16883,6,0,P|328:176|410:140,1,168,4|0,1:0|2:0,2:0:0:0:
486,45,17356,2,0,L|390:38,1,84,2|0,2:3|2:3,2:0:0:0:
340,250,17672,1,0,2:3:0:0:
482,157,17830,1,8,2:0:0:0:
299,29,17988,1,8,2:0:0:0:
299,29,18067,1,8,2:0:0:0:
299,29,18146,6,0,B|257:2|214:23|214:23|179:66|123:35,1,168,4|8,1:0|2:0,2:0:0:0:
1,156,18620,1,2,2:3:0:0:
31,149,18698,1,2,2:3:0:0:
61,156,18777,1,2,2:3:0:0:
86,176,18856,1,2,2:3:0:0:
100,204,18935,1,2,2:3:0:0:
265,111,19093,1,8,2:0:0:0:
76,12,19251,1,0,2:0:0:0:
65,293,19409,6,0,L|166:281,1,84,4|0,1:0|2:0,2:0:0:0:
298,360,19725,1,2,2:3:0:0:
187,142,19883,2,0,L|196:197,1,42,8|2,2:0|2:3,2:0:0:0:
297,276,20041,1,2,2:3:0:0:
337,284,20120,1,2,2:3:0:0:
377,271,20198,1,2,2:3:0:0:
406,242,20277,1,2,2:3:0:0:
417,202,20356,1,8,2:0:0:0:
412,160,20435,1,8,2:0:0:0:
407,118,20514,1,8,2:0:0:0:
403,76,20593,1,8,2:0:0:0:
398,34,20672,6,0,B|332:26|332:26|300:48|300:48|230:37,2,168,4|8|2,1:0|2:0|2:3,2:0:0:0:
270,194,21462,1,8,2:0:0:0:
473,330,21620,2,0,L|485:232,1,84,0|0,2:0|2:0,2:0:0:0:
407,118,21935,6,0,P|363:145|314:137,1,84,4|0,1:0|2:0,2:0:0:0:
270,194,22172,1,8,2:0:0:0:
240,164,22251,1,8,2:0:0:0:
200,154,22330,1,8,2:0:0:0:
160,165,22409,1,8,2:0:0:0:
344,62,22567,1,8,2:0:0:0:
201,243,22725,1,8,2:0:0:0:
201,243,22804,1,10,2:0:0:0:
201,243,22883,2,0,L|191:331,1,84,8|8,2:0|2:0,2:0:0:0:
339,297,23198,6,0,P|384:321|466:249,1,168,4|2,1:0|2:3,2:0:0:0:
332,144,23672,1,2,2:3:0:0:
478,73,23830,1,2,2:3:0:0:
478,73,23988,1,2,2:3:0:0:
393,251,24146,1,2,2:3:0:0:
393,251,24304,1,2,2:3:0:0:
344,62,24462,5,8,2:0:0:0:
482,334,24620,1,8,2:0:0:0:
236,221,24777,1,8,2:0:0:0:
478,73,24935,1,8,2:0:0:0:
221,32,25093,5,4,1:0:0:0:
188,45,25172,1,8,2:0:0:0:
166,72,25251,1,8,2:0:0:0:
160,106,25330,1,8,2:0:0:0:
173,142,25409,1,10,2:0:0:0:
206,180,25488,1,10,2:0:0:0:
236,221,25567,1,10,2:0:0:0:
236,272,25646,1,10,2:0:0:0:
207,310,25725,5,10,2:0:0:0:
256,192,25804,12,0,27777,2:0:0:0:
47,194,28093,5,2,2:0:0:0:
47,194,28172,1,2,2:0:0:0:
47,194,28251,5,10,2:0:0:0:
84,194,28330,1,2,2:0:0:0:
116,177,28409,2,0,L|127:129,1,37.5000000000001,8|8,2:0|2:0,2:0:0:0:
140,251,28567,5,8,2:0:0:0:
177,251,28646,1,2,2:0:0:0:
209,268,28725,2,0,L|220:316,1,50,8|8,2:0|2:0,2:0:0:0:
239,193,28883,5,8,2:0:0:0:
278,193,28962,1,2,2:0:0:0:
313,174,29041,2,0,L|325:115,1,60,8|8,2:0|2:0,2:0:0:0:
343,248,29198,5,8,2:0:0:0:
372,244,29277,1,2,2:0:0:0:
400,253,29356,1,8,2:0:0:0:
422,274,29435,1,8,2:0:0:0:
433,301,29514,1,8,2:0:0:0:
433,301,30777,6,0,P|393:313|372:339,1,75.0000000000002,6|0,2:3|2:0,2:0:0:0:
329,251,31093,2,0,P|299:281|295:314,1,75.0000000000002,2|0,2:3|2:0,2:0:0:0:
206,284,31409,2,0,P|208:325|227:351,2,75.0000000000002,2|0|2,2:3|2:0|2:3,2:0:0:0:
105,290,31883,1,0,2:0:0:0:
105,290,32041,6,0,P|71:265|58:236,1,75.0000000000002,2|0,2:3|2:0,2:0:0:0:
142,210,32356,2,0,P|135:167|146:138,1,75.0000000000002,2|0,2:3|2:0,2:0:0:0:
226,186,32672,2,0,P|250:152|279:139,2,75.0000000000002,2|0|2,2:3|2:0|2:3,2:0:0:0:
329,251,33146,1,0,2:0:0:0:
329,251,33304,6,0,L|403:240,1,75.0000000000002,2|0,2:3|2:0,2:0:0:0:
479,292,33620,2,0,L|496:198,1,75.0000000000002,2|0,2:3|2:0,2:0:0:0:
460,93,33935,2,0,P|432:142|334:133,1,150,2|2,2:3|2:3,2:0:0:0:
256,89,34409,1,0,2:3:0:0:
398,6,34567,6,0,L|387:88,1,75.0000000000002,2|0,2:3|2:0,2:0:0:0:
270,190,34883,2,0,L|259:108,1,75.0000000000002,2|0,2:3|2:0,2:0:0:0:
256,89,35120,1,0,2:3:0:0:
256,89,35198,1,2,2:3:0:0:
345,143,35356,1,0,2:0:0:0:
297,277,35514,2,0,L|196:263,1,75.0000000000002,2|0,2:3|2:0,2:0:0:0:
18,228,35830,6,0,L|30:313,1,75.0000000000002,2|0,2:3|2:0,2:0:0:0:
114,325,36146,2,0,L|103:250,1,75.0000000000002,2|0,2:3|2:0,2:0:0:0:
181,208,36462,2,0,L|193:293,1,75.0000000000002,2|0,2:3|2:0,2:0:0:0:
277,303,36777,2,0,L|266:228,1,75.0000000000002,2|0,2:3|2:0,2:0:0:0:
354,269,37093,6,0,L|435:281,1,75.0000000000002,2|0,2:3|2:0,2:0:0:0:
496,136,37409,2,0,L|421:125,1,75.0000000000002,2|0,2:3|2:0,2:0:0:0:
367,195,37725,2,0,L|441:205,1,75.0000000000002,2|0,2:3|2:0,2:0:0:0:
512,64,38041,2,0,L|437:53,1,75.0000000000002,2|0,2:3|2:0,2:0:0:0:
191,74,38356,6,0,P|208:115|244:134,1,75.0000000000002,2|0,2:3|2:0,2:0:0:0:
340,52,38672,2,0,P|295:46|261:67,1,75.0000000000002,2|0,2:3|2:0,2:0:0:0:
287,192,38988,2,0,P|314:156|312:116,1,75.0000000000002,2|0,2:3|2:0,2:0:0:0:
107,42,39304,2,0,L|118:129,1,75.0000000000002,2|0,2:3|2:0,2:0:0:0:
138,285,39620,5,8,1:0:0:0:
232,130,39777,1,2,1:2:0:0:
56,209,39935,1,8,2:0:0:0:
234,289,40093,1,0,1:3:0:0:
25,313,40251,5,8,1:0:0:0:
287,192,40409,1,10,2:3:0:0:
23,110,40567,1,6,2:3:0:0:
249,303,40725,1,6,2:3:0:0:
215,10,40883,6,0,B|200:34|183:47|183:47|203:138,1,130.000000000001,6|0,1:0|2:0,2:0:0:0:
287,192,41356,1,0,2:0:0:0:
287,192,41514,2,0,L|297:126,1,65.0000000000004,2|0,2:0|2:0,2:0:0:0:
377,71,41830,2,0,L|387:137,1,65.0000000000004,0|0,2:0|2:0,2:0:0:0:
504,199,42146,6,0,P|464:191|402:257,1,130.000000000001,0|0,1:0|2:0,2:0:0:0:
303,319,42620,1,0,2:0:0:0:
303,319,42777,2,0,B|354:311|354:311|386:331|386:331|449:323,1,130.000000000001,2|0,2:0|2:0,2:0:0:0:
165,281,43409,6,0,L|99:274,2,65.0000000000004,0|0|0,1:0|2:0|2:0,2:0:0:0:
238,322,43883,1,2,2:0:0:0:
238,322,44356,2,0,P|272:319|310:318,1,65.0000000000004,0|0,2:0|2:0,2:0:0:0:
251,210,44672,6,0,P|195:213|147:138,1,130.000000000001,0|0,1:2|2:0,2:0:0:0:
213,13,45146,2,0,B|225:40|245:55|245:55|223:148,1,130.000000000001,2|0,2:0|2:0,2:0:0:0:
95,86,45620,2,0,L|172:79,1,65.0000000000004,2|0,2:0|2:0,2:0:0:0:
445,257,45935,6,0,P|392:234|333:240,1,112.5,12|0,1:2|2:0,2:0:0:0:
325,244,46251,1,2,2:3:0:0:
410,149,46409,1,2,2:3:0:0:
375,326,46567,1,2,2:3:0:0:
251,210,46725,1,2,2:3:0:0:
382,334,46883,1,8,2:0:0:0:
314,81,47041,1,8,2:0:0:0:
164,320,47198,5,8,2:0:0:0:
335,243,47356,1,8,2:0:0:0:
113,175,47514,1,8,2:0:0:0:
260,353,47672,1,8,2:0:0:0:
241,76,47830,5,8,2:0:0:0:
159,330,47988,1,8,2:0:0:0:
0,183,48146,2,0,L|121:174,1,112.5,12|0,1:2|2:0,2:0:0:0:
135,198,48462,102,0,P|222:169|213:91,1,180,4|8,1:0|2:1,2:0:0:0:
100,6,48935,1,0,2:0:0:0:
100,6,49093,2,0,L|117:105,1,90.0000000000001,6|0,1:0|2:0,2:0:0:0:
152,298,49409,1,8,2:0:0:0:
215,94,49567,1,0,2:0:0:0:
308,207,49725,6,0,B|238:193|238:193|196:214|196:214|105:192,2,180,4|14|4,1:0|2:1|1:0,2:0:0:0:
471,275,50514,1,8,2:0:0:0:
471,275,50672,2,0,L|462:171,1,90.0000000000001,8|0,2:0|2:0,2:0:0:0:
383,45,50988,5,4,1:0:0:0:
225,118,51146,1,0,2:0:0:0:
292,32,51304,1,8,2:0:0:0:
292,32,51462,1,0,2:0:0:0:
382,220,51620,5,4,1:0:0:0:
213,113,51777,1,0,2:0:0:0:
402,39,51935,2,0,L|392:149,1,90.0000000000001,8|0,2:0|2:0,2:0:0:0:
260,304,52251,6,0,B|327:291|327:291|368:309|368:309|461:292,2,180,4|12|4,1:0|2:1|1:0,2:0:0:0:
165,381,53041,1,8,2:0:0:0:
18,216,53198,2,0,P|66:221|118:219,1,90.0000000000001,8|0,2:0|2:0,2:0:0:0:
171,158,53435,1,8,2:0:0:0:
171,158,53514,6,0,P|183:194|238:209,1,90.0000000000001,4|0,1:0|2:0,2:0:0:0:
323,96,53830,2,0,P|285:88|245:128,1,90.0000000000001,8|0,2:0|2:0,2:0:0:0:
301,268,54146,2,0,L|309:173,1,90.0000000000001,4|0,1:0|2:0,2:0:0:0:
329,13,54462,1,8,2:0:0:0:
418,207,54620,1,0,2:0:0:0:
512,54,54777,6,0,L|418:44,1,90.0000000000001,4|0,1:0|2:0,2:0:0:0:
233,105,55093,2,0,L|327:95,1,90.0000000000001,8|0,2:0|2:0,2:0:0:0:
343,109,55330,1,8,2:0:0:0:
343,109,55409,1,4,1:0:0:0:
458,296,55567,1,0,2:0:0:0:
458,296,55725,2,0,L|364:286,1,90.0000000000001,12|0,1:0|2:0,2:0:0:0:
108,237,56041,6,0,P|130:275|185:284,1,90.0000000000001,4|0,1:0|2:0,2:0:0:0:
271,145,56356,2,0,P|227:145|191:188,1,90.0000000000001,8|0,2:0|2:0,2:0:0:0:
282,343,56672,2,0,L|268:255,1,90.0000000000001,4|0,1:0|2:0,2:0:0:0:
430,126,56988,1,8,2:0:0:0:
368,286,57146,1,0,2:0:0:0:
238,83,57304,6,0,P|300:101|354:23,1,135,4|0,1:0|2:0,2:0:0:0:
353,52,57620,2,0,L|363:98,2,45,12|0|0,2:1|2:0|2:0,2:0:0:0:
192,167,57935,1,4,1:0:0:0:
368,286,58093,1,8,2:0:0:0:
368,286,58172,1,8,2:0:0:0:
368,286,58251,1,12,2:0:0:0:
284,29,58409,1,0,2:0:0:0:
195,299,58567,5,0,1:0:0:0:
463,183,58725,1,8,2:0:0:0:
470,190,59041,5,2,2:3:0:0:
470,190,59120,1,2,2:3:0:0:
470,190,59198,2,0,B|334:241|368:115|208:156,1,270,12|0,2:0|2:0,2:0:0:0:
117,80,59830,5,8,2:0:0:0:
27,350,59988,1,8,2:0:0:0:
34,357,60304,5,2,2:3:0:0:
34,357,60383,1,2,2:3:0:0:
34,357,60462,2,0,B|170:408|136:282|296:323,1,270,12|0,2:0|2:0,2:0:0:0:
476,290,61093,6,0,P|406:290|369:183,1,180,2|0,1:0|2:0,2:0:0:0:
429,55,61567,1,2,2:3:0:0:
429,55,61646,1,2,2:3:0:0:
429,55,61725,2,0,B|443:80|472:95|472:95|443:216,1,180,12|2,2:0|2:3,2:0:0:0:
289,114,62198,1,2,2:3:0:0:
289,114,62277,1,2,2:3:0:0:
289,114,62356,5,0,1:0:0:0:
144,212,62514,1,8,2:0:0:0:
374,155,62672,1,2,2:3:0:0:
211,53,62830,1,2,2:3:0:0:
211,53,62909,1,2,2:3:0:0:
211,53,62988,2,0,P|192:98|206:154,1,90.0000000000001,8|0,2:0|2:0,2:0:0:0:
303,287,63304,2,0,L|294:185,1,90.0000000000001,8|0,2:0|2:0,2:0:0:0:
117,328,63620,6,0,B|253:282|222:410|362:354,1,240.000000000001,4|0,1:2|2:0,2:0:0:0:
449,376,64409,2,0,P|445:329|446:295,2,60.0000000000002,0|0|0,2:0|2:0|2:0,2:0:0:0:
510,243,64883,5,2,2:0:0:0:
510,243,65198,2,0,P|461:240|408:173,2,120,0|0|0,2:0|2:0|2:0,2:0:0:0:
426,95,66146,101,8,2:0:0:0:
299,278,66304,1,8,2:0:0:0:
305,73,66462,1,8,2:0:0:0:
422,241,66620,1,8,2:0:0:0:
182,111,66777,5,8,2:0:0:0:
512,157,66935,1,8,2:0:0:0:
239,334,67093,1,8,2:0:0:0:
381,24,67251,1,8,2:0:0:0:
113,324,68356,5,8,2:0:0:0:
71,334,68435,1,8,2:0:0:0:
34,313,68514,1,8,2:0:0:0:
23,272,68593,1,8,2:0:0:0:
46,237,68672,6,0,B|182:191|151:319|291:263,1,240,6|8,1:0|2:0,2:0:0:0:
134,139,69146,1,0,2:0:0:0:
188,363,69304,1,4,1:0:0:0:
333,192,69462,1,0,2:0:0:0:
142,282,69620,2,0,P|81:277|17:271,1,120,8|0,2:0|2:0,2:0:0:0:
298,110,69935,6,0,B|420:96|361:169|483:145,1,180,4|0,1:0|2:0,2:0:0:0:
485,136,70251,1,8,2:0:0:0:
234,46,70409,1,8,2:0:0:0:
234,46,70488,1,8,2:0:0:0:
234,46,70567,2,0,B|217:68|199:78|199:78|219:149,1,120,4|0,1:0|2:0,2:0:0:0:
405,354,70883,2,0,P|417:291|424:232,1,120,12|0,1:0|2:0,2:0:0:0:
298,110,71198,5,6,1:0:0:0:
298,110,71356,1,0,2:0:0:0:
136,193,71514,1,8,2:0:0:0:
136,193,71672,1,0,2:0:0:0:
276,255,71830,5,12,1:0:0:0:
35,90,71988,1,0,2:0:0:0:
353,33,72146,1,8,1:0:0:0:
166,293,72304,1,0,2:0:0:0:
199,31,72462,6,0,L|214:157,1,120,4|0,1:0|2:0,2:0:0:0:
64,362,72777,2,0,L|49:242,1,120,12|0,2:1|2:0,2:0:0:0:
292,177,73093,1,4,1:0:0:0:
172,351,73251,1,0,2:0:0:0:
116,154,73409,1,8,2:0:0:0:
116,154,73488,1,8,2:0:0:0:
116,154,73567,1,8,2:0:0:0:
279,258,73725,6,0,B|415:212|384:340|524:284,1,240,6|8,1:0|2:0,2:0:0:0:
291,103,74198,1,0,2:0:0:0:
437,6,74356,2,0,B|457:33|490:47|490:47|459:235,1,240,4|8,1:0|2:0,2:0:0:0:
298,110,74830,1,8,2:0:0:0:
298,110,74909,1,8,2:0:0:0:
298,110,74988,6,0,L|177:97,1,120,4|0,1:0|2:0,2:0:0:0:
66,222,75304,2,0,P|122:235|179:178,1,120,12|0,2:1|2:0,2:0:0:0:
298,110,75620,1,4,1:0:0:0:
123,38,75777,1,8,2:0:0:0:
123,38,75856,1,8,2:0:0:0:
123,38,75935,2,0,B|108:63|87:75|87:75|109:166,1,120,8|0,2:0|2:0,2:0:0:0:
314,248,76251,101,4,1:0:0:0:
107,159,76409,1,0,2:0:0:0:
195,359,76567,1,12,1:0:0:0:
251,112,76725,1,0,2:0:0:0:
60,284,76883,5,4,1:0:0:0:
349,159,77041,1,0,2:0:0:0:
50,61,77198,1,12,1:0:0:0:
202,332,77356,1,0,2:0:0:0:
303,7,77514,5,4,1:0:0:0:
303,7,77593,1,10,2:3:0:0:
303,7,77672,2,0,L|224:20,1,60,10|2,2:3|2:3,2:0:0:0:
53,220,77830,5,10,2:3:0:0:
53,220,77909,1,10,2:3:0:0:
53,220,77988,2,0,L|132:233,1,60,10|2,2:3|2:3,2:0:0:0:
279,371,78146,5,2,2:3:0:0:
312,358,78225,1,2,2:3:0:0:
334,331,78304,1,2,2:3:0:0:
340,297,78383,1,2,2:3:0:0:
327,261,78462,1,10,2:0:0:0:
294,223,78541,1,10,2:0:0:0:
264,182,78620,1,10,2:0:0:0:
264,131,78698,1,10,2:0:0:0:
295,91,78777,6,0,P|373:74|450:154,1,180,6|0,1:0|2:0,2:0:0:0:
445,149,79093,2,0,P|434:228|424:301,1,120,8|0,2:0|2:0,2:0:0:0:
149,290,79409,1,4,1:0:0:0:
353,160,79567,1,0,2:0:0:0:
130,70,79725,1,8,1:0:0:0:
264,182,79883,1,0,2:0:0:0:
6,203,80041,6,0,P|54:205|100:253,1,100,4|0,1:0|2:0,2:0:0:0:
206,94,80356,2,0,P|255:92|286:54,1,100,8|0,2:0|2:0,2:0:0:0:
37,7,80672,2,0,P|48:67|56:130,1,120,4|0,1:0|2:0,2:0:0:0:
167,366,80988,2,0,P|178:306|186:243,1,120,12|0,1:0|2:0,2:0:0:0:
290,59,81304,5,4,1:0:0:0:
290,59,81462,1,0,2:0:0:0:
511,176,81620,1,8,2:0:0:0:
511,176,81777,1,0,2:0:0:0:
305,261,81935,5,4,1:0:0:0:
428,88,82093,1,0,2:0:0:0:
438,317,82251,1,8,2:0:0:0:
297,137,82409,1,0,2:0:0:0:
97,338,82567,6,0,P|160:351|212:250,1,180,4|0,1:0|2:0,2:0:0:0:
155,117,82883,2,0,B|135:151|105:169|105:169|138:270,1,180,12|0,1:0|2:0,2:0:0:0:
386,193,83198,2,0,B|316:179|316:179|267:195|267:195|184:181,1,180,4|0,1:0|2:0,2:0:0:0:
85,51,83514,2,0,B|155:37|155:37|204:53|204:53|287:39,1,180,12|0,1:0|2:0,2:0:0:0:
495,15,83830,6,0,P|439:110|336:71,1,240,4|8,1:0|2:0,2:0:0:0:
155,17,84304,1,0,2:0:0:0:
242,236,84462,1,4,1:0:0:0:
343,78,84620,1,8,2:0:0:0:
343,78,84698,1,8,2:0:0:0:
343,78,84777,1,8,2:0:0:0:
136,130,84935,1,0,2:0:0:0:
293,293,85093,6,0,P|247:258|170:270,1,130.000000000001,0|2,1:2|2:0,2:0:0:0:
85,366,85725,1,2,2:0:0:0:
85,366,86041,2,0,B|49:383|5:362|3:325|0:291|44:253|90:274|90:274|124:288|178:277|198:219|162:179|162:179|133:152|100:158|77:180,1,450.000000000004,2|0,2:0|2:0,2:0:0:0:
92,168,88251,6,0,P|90:133|83:99,2,65.0000000000004,0|0|0,2:0|2:0|2:0,2:0:0:0:
222,276,88725,1,2,2:3:0:0:
222,276,88804,1,2,2:3:0:0:
222,276,88883,1,4,1:2:0:0:
350,232,89198,5,2,2:3:0:0:
106,253,89356,1,2,2:3:0:0:
278,128,89514,1,2,2:3:0:0:
266,350,89672,1,2,2:3:0:0:
141,47,89830,5,8,2:0:0:0:
466,186,89988,1,8,2:0:0:0:
131,369,90146,5,8,2:0:0:0:
324,16,90304,1,8,2:0:0:0:
324,16,90383,1,8,2:0:0:0:
324,16,90462,1,8,2:0:0:0:
385,383,90620,1,8,2:0:0:0:
94,118,90777,1,8,2:0:0:0:
94,118,90856,1,8,2:0:0:0:
94,118,90935,1,8,2:0:0:0:
442,187,91093,5,2,2:0:0:0:
402,207,91172,1,2,2:0:0:0:
357,202,91251,1,10,2:0:0:0:
322,173,91330,1,10,2:0:0:0:
310,128,91409,6,0,P|321:244|309:340,1,200,12|8,1:2|2:0,2:0:0:0:
81,376,91883,2,0,P|73:326|73:263,1,100,0|2,2:0|2:3,2:0:0:0:
230,181,92198,1,0,2:0:0:0:
169,324,92356,1,8,2:0:0:0:
31,186,92514,6,0,L|157:201,1,100,0|0,2:0|1:0,2:0:0:0:
311,326,92830,1,0,2:0:0:0:
396,131,92988,1,8,2:0:0:0:
396,131,93146,1,0,2:0:0:0:
169,324,93304,5,2,2:3:0:0:
444,251,93462,1,0,2:0:0:0:
201,59,93620,1,10,2:0:0:0:
311,326,93777,1,0,2:0:0:0:
453,74,93935,6,0,P|399:49|318:133,1,150,0|0,1:0|2:0,2:0:0:0:
319,111,94251,1,8,2:0:0:0:
444,251,94409,1,8,2:0:0:0:
444,251,94488,1,8,2:0:0:0:
444,251,94567,1,8,2:0:0:0:
236,368,94725,1,0,2:0:0:0:
337,211,94883,1,0,1:2:0:0:
102,50,95041,6,0,B|78:84|51:100|51:100|82:225,1,200,4|0,2:1|2:0,2:0:0:0:
260,144,95514,2,0,L|116:127,1,100,8|0,2:0|2:0,2:0:0:0:
42,318,95830,2,0,L|186:301,1,100,10|0,2:3|2:0,2:0:0:0:
352,112,96146,2,0,P|341:160|336:210,1,100,8|8,2:0|2:0,2:0:0:0:
301,291,96383,1,8,2:0:0:0:
301,291,96462,6,0,P|361:299|422:192,1,200,2|0,1:0|2:0,2:0:0:0:
242,228,96935,2,0,B|228:250|209:260|209:260|229:342,1,100,8|0,2:0|2:3,2:0:0:0:
386,382,97251,1,8,2:0:0:0:
386,382,97330,1,8,2:0:0:0:
386,382,97409,2,0,L|398:280,1,100,8|8,2:0|2:0,2:0:0:0:
168,190,97725,5,2,1:0:0:0:
352,112,97883,1,0,2:0:0:0:
133,26,98041,1,8,2:0:0:0:
351,226,98198,2,0,L|231:205,1,100,8|0,2:0|2:3,2:0:0:0:
63,227,98514,2,0,P|112:301|225:290,1,200,10|8,2:0|2:0,2:0:0:0:
199,68,98988,6,0,B|179:92|149:103|149:103|168:192,1,150,2|0,1:0|2:0,2:0:0:0:
172,209,99304,1,4,2:0:0:0:
419,106,99462,1,8,2:0:0:0:
419,106,99541,1,8,2:0:0:0:
419,106,99620,1,10,2:0:0:0:
300,336,99777,1,0,2:0:0:0:
199,68,99935,1,8,2:0:0:0:
436,239,100093,1,0,2:0:0:0:
214,297,100251,5,12,2:0:0:0:
214,297,100330,1,8,2:0:0:0:
214,297,100409,2,0,L|222:232,1,50,8|8,2:0|2:0,2:0:0:0:
419,105,100567,5,8,2:0:0:0:
419,105,100646,1,8,2:0:0:0:
419,105,100725,2,0,L|427:170,1,50,8|8,2:0|2:0,2:0:0:0:
239,372,100883,5,14,2:0:0:0:
198,374,100962,1,2,2:0:0:0:
162,357,101041,1,2,2:0:0:0:
138,325,101120,1,2,2:0:0:0:
131,285,101198,1,10,2:0:0:0:
153,238,101277,1,2,2:0:0:0:
182,196,101356,1,2,2:0:0:0:
173,144,101435,1,2,2:0:0:0:
133,111,101514,6,0,B|71:147|15:119|15:119|71:146|64:197,2,200,4|8|2,1:2|2:0|2:3,2:0:0:0:
6,244,102304,1,0,2:3:0:0:
129,33,102462,2,0,P|162:33|208:92,1,100,8|0,2:0|2:0,2:0:0:0:
291,278,102777,6,0,P|134:259|86:255,2,200,4|8|2,1:2|2:0|2:3,2:0:0:0:
419,374,103567,1,0,2:3:0:0:
502,108,103725,2,0,P|463:149|396:141,1,100,8|0,2:0|2:0,2:0:0:0:
276,24,104041,6,0,B|254:61|222:71|222:71|254:208,1,200,4|8,1:2|2:0,2:0:0:0:
456,278,104514,1,0,2:0:0:0:
367,86,104672,1,2,2:3:0:0:
294,322,104830,1,8,2:0:0:0:
294,322,104909,1,8,2:0:0:0:
294,322,104988,2,0,L|187:306,1,100,8|0,2:0|2:0,2:0:0:0:
7,277,105304,5,4,1:2:0:0:
216,136,105462,1,0,2:0:0:0:
125,370,105620,2,0,L|112:265,1,100,8|0,2:0|2:0,2:0:0:0:
280,84,105935,2,0,P|299:129|270:196,1,100,2|0,2:3|2:0,2:0:0:0:
218,223,106172,1,2,2:3:0:0:
218,223,106251,2,0,L|159:217,1,50,12|0,2:0|2:0,2:0:0:0:
96,103,106409,2,0,L|155:97,1,50,2|0,2:3|2:0,2:0:0:0:
287,177,106567,6,0,P|342:195|395:78,1,200,4|8,1:2|2:0,2:0:0:0:
69,26,107041,2,0,B|28:36|11:68|11:68|43:208,1,200,2|0,2:3|2:0,2:0:0:0:
60,323,107514,1,8,2:0:0:0:
175,107,107672,1,8,2:0:0:0:
175,107,107751,1,8,2:0:0:0:
175,107,107830,6,0,B|295:64|270:165|389:110,1,200,4|8,1:2|2:0,2:0:0:0:
230,184,108304,1,8,2:0:0:0:
405,33,108462,2,0,B|427:60|462:59|462:59|432:194,1,200,4|8,1:2|2:0,2:0:0:0:
250,305,108935,1,8,2:0:0:0:
250,305,109014,1,8,2:0:0:0:
250,305,109093,5,12,2:0:0:0:
117,154,109251,1,8,2:0:0:0:
361,234,109409,1,12,2:0:0:0:
124,316,109567,1,8,2:0:0:0:
357,55,109725,101,12,2:0:0:0:
295,384,109883,1,8,2:0:0:0:
131,74,110041,1,12,2:0:0:0:
456,225,110198,1,8,2:0:0:0:
41,321,110356,5,12,1:2:0:0:
272,12,110514,1,8,2:0:0:0:
272,12,110593,1,8,2:0:0:0:
272,12,110672,1,12,2:0:0:0:
300,369,110830,1,8,2:0:0:0:
32,128,110988,101,12,2:0:0:0:
32,128,111067,1,8,2:0:0:0:
32,128,111146,2,0,L|87:146,1,50,8|8,2:0|2:0,2:0:0:0:
361,234,111304,5,12,2:0:0:0:
361,234,111383,1,8,2:0:0:0:
361,234,111462,2,0,L|306:252,1,50,8|8,2:0|2:0,2:0:0:0:
161,364,111620,5,4,3:0:0:0:
180,351,112883,1,4,3:0:0:0:
204,343,114146,1,8,3:0:0:0:
228,345,115409,1,8,3:0:0:0:
457,162,116672,5,8,3:0:0:0:
419,162,117935,1,8,3:0:0:0:
387,144,119198,1,8,3:0:0:0:
367,113,120462,1,8,3:0:0:0:
212,72,121725,6,0,L|202:-7,1,59.9999999999999,0|0,1:0|2:0,2:0:0:0:
304,121,122040,2,0,L|314:42,1,59.9999999999999,0|0,1:0|2:0,2:0:0:0:
139,211,122356,2,0,L|121:75,1,120,8|0,2:0|2:0,2:0:0:0:
378,216,122988,6,0,L|388:137,1,59.9999999999999,0|0,1:0|2:0,2:0:0:0:
286,265,123303,2,0,L|276:186,1,59.9999999999999,0|0,1:0|2:0,2:0:0:0:
448,355,123619,2,0,L|465:219,1,120,8|0,2:0|2:0,2:0:0:0:
217,341,124251,6,0,L|148:329,1,59.9999999999999,0|0,1:0|2:0,2:0:0:0:
286,265,124567,2,0,L|355:253,1,59.9999999999999,0|0,1:0|2:0,2:0:0:0:
233,176,124882,2,0,P|206:217|124:214,1,120,8|0,2:0|2:0,2:0:0:0:
317,165,125514,6,0,L|386:153,1,59.9999999999999,0|0,1:0|2:0,2:0:0:0:
248,89,125830,2,0,L|179:77,1,59.9999999999999,0|0,1:0|2:0,2:0:0:0:
301,0,126146,2,0,P|328:41|410:38,1,120,8|8,2:0|2:0,2:0:0:0:
394,47,126777,5,6,2:0:0:0:
311,141,129303,101,10,2:0:0:0:
130,218,129461,1,8,2:0:0:0:
245,49,129619,1,10,2:0:0:0:
289,270,129777,1,8,2:0:0:0:
159,25,129935,5,10,2:0:0:0:
363,219,130093,1,8,2:0:0:0:
80,272,130251,1,10,2:0:0:0:
335,55,130409,1,8,2:0:0:0:
335,55,130488,1,8,2:0:0:0:
335,55,130567,5,14,1:2:0:0:
269,355,130725,1,10,2:0:0:0:
102,70,130882,1,10,2:0:0:0:
436,183,131040,1,10,2:0:0:0:
100,351,131198,5,8,2:0:0:0:
100,351,131277,1,8,2:0:0:0:
100,351,131356,2,0,L|114:285,1,50,8|0,2:0|2:0,2:0:0:0:
208,123,131514,5,8,2:0:0:0:
208,123,131593,1,8,2:0:0:0:
208,123,131672,2,0,L|222:189,1,50,8|0,2:0|2:0,2:0:0:0:
273,364,131830,5,6,2:0:0:0:
356,68,133093,1,2,2:0:0:0:
113,283,134356,5,2,2:0:0:0:
113,283,134514,2,0,L|39:272,2,59.9999999999999,0|0|0,2:0|2:0|2:0,2:0:0:0:
181,208,134988,1,2,2:0:0:0:
181,208,135146,2,0,L|255:197,2,59.9999999999999,0|0|0,2:0|2:0|2:0,2:0:0:0:
98,158,135619,6,0,L|91:88,1,59.9999999999999,2|0,2:0|2:0,2:0:0:0:
94,89,135856,1,0,0:0:0:0:
94,89,135935,1,0,2:0:0:0:
182,46,136093,2,0,L|187:105,1,59.9999999999999,0|0,2:0|2:0,2:0:0:0:
255,164,136409,5,2,2:3:0:0:
332,152,136567,1,2,2:3:0:0:
409,139,136725,1,2,2:3:0:0:
504,277,136882,6,0,P|467:345|382:332,1,170.000000000001,14|2,2:0|2:3,2:0:0:0:
343,268,137356,1,2,2:3:0:0:
136,179,137514,1,2,2:3:0:0:
224,379,137672,1,2,2:3:0:0:
280,132,137830,1,2,2:3:0:0:
89,304,137988,1,8,2:0:0:0:
89,304,138067,1,8,2:0:0:0:
89,304,138146,5,10,2:0:0:0:
370,180,138303,1,8,2:0:0:0:
99,86,138461,1,8,2:0:0:0:
246,357,138619,1,8,2:0:0:0:
363,14,138777,101,8,2:0:0:0:
12,240,138935,1,8,2:0:0:0:
415,350,139093,1,8,2:0:0:0:
186,7,139251,1,8,2:0:0:0:
229,224,139409,5,6,2:0:0:0:
450,40,143830,5,8,2:0:0:0:
416,23,143909,1,8,2:0:0:0:
377,22,143988,1,8,2:0:0:0:
342,38,144067,1,8,2:0:0:0:
318,68,144146,1,10,2:0:0:0:
289,111,144225,1,10,2:0:0:0:
241,129,144303,1,10,2:0:0:0:
192,112,144382,1,8,2:0:0:0:
162,72,144461,102,0,P|69:65|14:159,1,200,6|8,1:0|2:0,2:0:0:0:
173,308,144934,1,8,2:0:0:0:
173,308,145013,1,8,2:0:0:0:
173,308,145092,2,0,P|181:237|190:185,1,120,4|0,1:0|2:0,2:0:0:0:
242,56,145408,1,8,2:0:0:0:
107,142,145566,1,0,2:0:0:0:
300,258,145724,6,0,P|358:263|397:212,1,120,4|0,1:0|2:0,2:0:0:0:
186,0,146039,2,0,P|161:53|186:115,1,120,8|0,2:0|2:0,2:0:0:0:
439,62,146355,2,0,B|401:32|401:32|311:46,1,120,4|0,1:0|2:0,2:0:0:0:
234,291,146671,2,0,L|357:268,1,120,4|0,1:0|2:0,2:0:0:0:
40,216,146987,5,4,1:0:0:0:
40,216,147145,1,0,2:0:0:0:
281,40,147303,5,8,2:0:0:0:
281,40,147461,1,0,2:0:0:0:
234,291,147618,5,4,1:0:0:0:
91,62,147776,1,0,2:0:0:0:
92,369,147934,1,8,2:0:0:0:
222,138,148092,1,0,2:0:0:0:
306,322,148250,6,0,P|267:363|187:353,1,120,4|0,1:0|2:0,2:0:0:0:
40,216,148566,2,0,P|87:223|173:232,1,120,8|0,2:0|2:0,2:0:0:0:
456,127,148882,1,4,1:0:0:0:
234,291,149039,1,0,2:0:0:0:
250,22,149197,1,12,1:0:0:0:
250,22,149276,1,8,2:0:0:0:
250,22,149355,1,8,2:0:0:0:
512,316,149513,6,0,B|376:270|407:398|267:342,1,240,4|8,1:0|2:0,2:0:0:0:
378,192,149987,1,0,2:0:0:0:
242,14,150145,2,0,B|192:24|180:65|180:65|221:230,1,240,4|8,1:0|2:0,2:0:0:0:
385,199,150618,1,8,2:0:0:0:
385,199,150697,1,10,2:0:0:0:
385,199,150776,6,0,L|483:214,1,100,4|0,1:0|2:0,2:0:0:0:
309,317,151092,1,8,2:0:0:0:
366,79,151250,1,0,2:0:0:0:
461,303,151408,1,4,1:0:0:0:
254,187,151566,1,0,2:0:0:0:
480,25,151724,2,0,L|465:132,1,100,12|0,1:0|2:0,2:0:0:0:
324,336,152039,101,4,1:0:0:0:
312,21,152197,1,0,2:0:0:0:
134,273,152355,1,8,2:0:0:0:
453,206,152513,1,0,2:0:0:0:
83,43,152671,5,4,1:0:0:0:
239,362,152829,1,0,2:0:0:0:
319,28,152987,1,12,1:0:0:0:
317,27,153066,1,8,2:0:0:0:
317,27,153145,1,10,2:0:0:0:
32,244,153303,5,12,1:0:0:0:
32,244,153382,1,8,2:0:0:0:
32,244,153461,2,0,L|87:226,1,50,8|8,2:1|2:0,2:0:0:0:
304,133,153618,5,8,2:0:0:0:
304,133,153697,1,8,2:0:0:0:
304,133,153776,2,0,L|249:115,1,50,8|8,2:0|2:0,2:0:0:0:
148,20,153934,5,8,2:0:0:0:
115,33,154013,1,8,2:0:0:0:
93,60,154092,1,8,2:0:0:0:
87,94,154171,1,8,2:0:0:0:
100,130,154250,1,10,2:0:0:0:
133,168,154329,1,10,2:0:0:0:
163,209,154408,1,10,2:0:0:0:
163,260,154487,1,10,2:0:0:0:
148,305,154566,6,0,P|74:319|33:236,1,180,6|0,1:0|2:0,2:0:0:0:
32,236,154882,2,0,P|29:296|34:364,1,120,8|0,2:0|2:0,2:0:0:0:
294,306,155197,1,4,1:0:0:0:
103,151,155355,1,0,2:0:0:0:
324,105,155513,1,8,2:0:0:0:
104,252,155671,1,0,2:0:0:0:
365,346,155829,6,0,P|414:335|488:328,1,120,4|0,1:0|2:0,2:0:0:0:
290,231,156145,2,0,P|235:257|220:326,1,120,8|0,2:0|2:0,2:0:0:0:
390,253,156461,2,0,P|401:178|414:115,1,120,4|0,1:0|2:0,2:0:0:0:
215,11,156776,2,0,P|226:86|239:149,1,120,12|0,1:0|2:0,2:0:0:0:
368,42,157092,5,4,1:0:0:0:
368,42,157250,1,0,2:0:0:0:
183,199,157408,1,8,2:0:0:0:
183,199,157566,1,0,2:0:0:0:
401,258,157724,5,4,1:0:0:0:
278,85,157882,1,0,2:0:0:0:
268,314,158039,1,8,1:0:0:0:
409,134,158197,1,0,2:0:0:0:
137,112,158355,6,0,B|117:146|87:164|87:164|120:265,1,180,4|0,1:0|2:0,2:0:0:0:
216,118,158671,2,0,P|178:43|85:53,1,180,12|0,1:0|2:0,2:0:0:0:
3,346,158987,2,0,B|73:332|73:332|122:348|122:348|205:334,1,180,4|0,1:0|2:0,2:0:0:0:
358,206,159303,2,0,B|288:192|288:192|239:208|239:208|156:194,1,180,12|0,1:0|2:0,2:0:0:0:
344,103,159618,6,0,B|350:-2|450:14|450:14|476:67|436:99,1,240,4|8,1:0|2:0,2:0:0:0:
287,277,160092,1,0,2:0:0:0:
461,354,160250,2,0,L|479:225,1,120,4|0,1:0|2:0,2:0:0:0:
257,66,160566,2,0,L|273:184,1,120,8|0,2:0|2:0,2:0:0:0:
125,348,160882,6,0,P|63:348|30:284,1,120,4|0,1:0|2:0,2:0:0:0:
192,141,161197,1,12,1:0:0:0:
192,141,161355,1,0,2:0:0:0:
33,20,161513,2,0,B|17:41|-4:49|-4:49|13:120,1,120,4|0,1:0|2:0,2:0:0:0:
101,282,161829,2,0,L|117:164,1,120,12|0,1:0|2:0,2:0:0:0:
270,109,162145,6,0,B|329:102|329:102|363:123|363:123|438:111,1,150,14|0,1:0|2:0,2:0:0:0:
510,223,162461,1,8,2:0:0:0:
467,208,162539,1,8,2:0:0:0:
422,214,162618,1,8,2:0:0:0:
386,240,162697,1,8,2:0:0:0:
371,281,162776,6,0,L|208:269,1,150,14|0,1:0|2:0,2:0:0:0:
44,233,163092,1,8,2:0:0:0:
92,253,163171,1,8,2:0:0:0:
143,244,163250,1,8,2:0:0:0:
180,206,163329,1,8,2:0:0:0:
184,154,163408,6,0,L|172:40,1,100,14|0,1:0|2:0,2:0:0:0:
270,109,163645,1,8,2:0:0:0:
270,109,163724,2,0,P|312:119|361:55,1,100,8|8,2:0|2:0,2:0:0:0:
488,233,163961,5,8,2:0:0:0:
488,233,164039,2,0,L|413:225,2,66.6666666666667,12|8|8,3:0|3:0|3:0,2:0:0:0:
323,199,164355,2,0,L|331:266,1,59.9999999999999,2|0,3:0|2:0,2:0:0:0:
415,310,164671,6,0,P|377:348|273:337,1,160,12|0,3:0|2:3,2:0:0:0:
151,221,165145,1,0,2:3:0:0:
151,221,165303,2,0,L|172:398,1,160,8|0,2:0|2:0,2:0:0:0:
412,77,165934,6,0,L|503:85,2,80,0|0|0,1:0|2:0|2:0,2:0:0:0:
335,18,166566,1,0,1:0:0:0:
324,97,166724,1,0,2:0:0:0:
312,175,166882,2,0,L|300:254,1,80,0|0,2:0|2:0,2:0:0:0:
331,333,167197,6,0,P|286:340|214:248,1,160,4|0,1:2|2:0,2:0:0:0:
248,126,167671,1,0,2:0:0:0:
248,126,167829,2,0,P|208:176|146:167,1,120,4|0,1:2|2:0,2:0:0:0:
142,153,168145,2,0,L|56:145,1,80,4|0,1:2|2:0,2:0:0:0:
4,351,168461,6,0,P|31:301|134:303,1,160,12|0,2:0|2:0,2:0:0:0:
219,343,168934,1,0,2:0:0:0:
219,343,169092,2,0,L|212:253,1,80,12|0,2:0|2:0,2:0:0:0:
83,362,169408,1,8,2:0:0:0:
14,28,169724,5,6,1:2:0:0:
92,37,169882,1,2,2:0:0:0:
171,46,170039,1,2,2:0:0:0:
250,54,170197,1,2,2:0:0:0:
488,346,170987,5,2,2:0:0:0:
410,355,171145,1,2,2:0:0:0:
331,364,171303,1,2,2:0:0:0:
252,372,171461,1,2,2:0:0:0:
34,233,171776,5,2,2:0:0:0:
34,233,171934,1,2,2:0:0:0:
305,54,172250,6,0,L|407:70,1,100,8|0,2:0|2:0,2:0:0:0:
426,168,172566,2,0,L|327:152,1,100,8|0,2:0|2:0,2:0:0:0:
292,42,172882,2,0,L|415:61,1,120,8|0,2:0|2:0,2:0:0:0:
438,179,173197,2,0,L|319:161,1,120,8|0,2:0|2:0,2:0:0:0:
57,306,173513,69,12,1:2:0:0:
88,327,173592,1,8,2:0:0:0:
125,334,173671,1,10,2:0:0:0:
162,327,173750,1,8,2:0:0:0:
194,305,173829,2,0,P|209:283|221:246,1,60,10|8,2:0|2:0,2:0:0:0:
275,125,173987,1,10,2:0:0:0:
306,103,174066,1,10,2:0:0:0:
343,96,174145,1,10,2:0:0:0:
380,103,174224,1,10,2:0:0:0:
412,125,174303,2,0,P|426:147|438:184,1,60,10|10,2:0|2:0,2:0:0:0:
342,284,174461,5,10,2:0:0:0:
335,279,174539,1,10,2:0:0:0:
329,274,174618,2,0,L|340:214,1,60,10|8,2:0|2:0,2:0:0:0:
136,77,175092,6,0,P|66:69|28:164,1,180,6|0,1:0|2:0,2:0:0:0:
33,169,175408,1,4,2:0:0:0:
246,241,175566,1,0,2:0:0:0:
93,379,175724,2,0,L|109:255,1,120,8|0,2:0|2:0,2:0:0:0:
136,77,176039,5,4,1:0:0:0:
136,77,176197,1,0,2:0:0:0:
343,191,176355,1,8,2:0:0:0:
343,191,176513,1,0,2:0:0:0:
179,336,176671,5,4,1:0:0:0:
272,59,176829,1,0,2:0:0:0:
437,289,176987,2,0,P|368:277|308:274,1,120,8|0,2:0|2:0,2:0:0:0:
74,188,177303,6,0,P|143:256|214:229,1,180,4|0,1:0|2:0,2:0:0:0:
221,213,177618,1,8,2:0:0:0:
350,362,177776,1,0,2:0:0:0:
344,138,177934,1,4,1:0:0:0:
243,317,178092,1,0,2:0:0:0:
428,239,178250,1,8,2:0:0:0:
284,69,178408,1,8,2:0:0:0:
284,69,178487,1,8,2:0:0:0:
284,69,178566,6,0,B|269:94|248:106|248:106|270:197,1,120,12|0,1:0|2:0,2:0:0:0:
461,159,178882,2,0,P|408:152|343:137,1,120,14|0,1:0|2:0,2:0:0:0:
187,264,179197,2,0,P|267:262|302:350,1,180,12|0,1:0|2:0,2:0:0:0:
295,353,179513,2,0,P|260:345|215:338,1,60,14|0,1:0|2:0,2:0:0:0:
36,123,179671,1,8,2:0:0:0:
36,123,179750,1,8,2:0:0:0:
36,123,179829,6,0,B|172:77|141:205|281:149,1,240,12|8,1:0|2:0,2:0:0:0:
380,70,180303,1,0,2:3:0:0:
316,334,180461,1,4,1:0:0:0:
498,161,180618,5,8,2:0:0:0:
459,138,180697,1,8,2:0:0:0:
415,141,180776,1,10,2:0:0:0:
381,169,180855,1,10,2:0:0:0:
369,211,180934,2,0,L|377:284,1,60,10|0,2:0|2:0,2:0:0:0:
442,360,181092,5,14,2:0:0:0:
106,285,181408,1,2,2:0:0:0:
443,214,181724,1,2,2:0:0:0:
21,49,182039,6,0,B|120:17|97:94|191:59,1,175,6|0,2:3|2:0,2:0:0:0:
431,190,187409,6,0,P|415:233|344:236,1,119.999996337891,2|0,2:0|2:0,2:0:0:0:
271,108,188198,2,0,P|316:100|354:160,1,120,2|0,2:0|2:0,2:0:0:0:
282,196,188957,6,0,B|148:150|178:275|42:220,1,239.999999999999,2|2,2:0|2:0,2:0:0:0:
56,225,190096,1,2,2:0:0:0:
329,316,190521,6,0,P|371:290|436:280,1,100.235,2|0,2:0|2:0,2:0:0:0:
179,358,191319,2,0,P|165:317|120:275,1,100,2|0,2:0|2:0,2:0:0:0:
314,121,192179,6,0,P|287:150|275:206,1,80,2|2,2:0|2:0,2:0:0:0:
34,120,193061,2,0,P|67:126|114:112,1,69.9999978637696,2|2,2:0|2:0,2:0:0:0:
269,269,194380,6,0,L|263:319,3,33.3333333333333,2|2|2|2,2:0|2:0|2:0|2:0,2:0:0:0:
256,192,194817,12,0,197692,2:0:0:0:
