osu file format v14

[General]
AudioFilename: audio.ogg
AudioLeadIn: 0
PreviewTime:142251
Countdown: 0
SampleSet: Soft
StackLeniency: 0.5
Mode: 0
LetterboxInBreaks: 0
WidescreenStoryboard: 1

[Editor]
Bookmarks: 14929,30719,48403,61666,68613,88824,111561,131771,143771,164613,175034,187350
DistanceSpacing: 0.6
BeatDivisor: 16
GridSize: 4
TimelineZoom: 1.8

[Metadata]
Title:Re: Hatsukoi no Ehon feat. Aida Miou (CV: Toyosaki Aki)
TitleUnicode:Re:初恋の絵本 feat. 合田美桜(CV:豊崎愛生)
Artist:HoneyWorks
ArtistUnicode:HoneyWorks
Creator:Setu
Version:Strenge's Normal
Source:いつだって僕らの恋は10センチだった。
Tags:We have always been 10 cm apart. 告白実行委員会 Kokuhaku Jikkou Iinkai japanese pop anime shiratamamywife dahkjdas coloured_glazee coloured glazee narcissu strengemistake itsudatte bokura no koi wa datta. centi 好きすぎてやばい。 ~告白実行委員会キャラクターソング集~ 東京ウインターセッション Sukisugiteyabai Kokuhakujikkouiinkai Character Song Shu Tokyo Winter Session
BeatmapID:3627854
BeatmapSetID:1688656

[Difficulty]
HPDrainRate:3
CircleSize:3
OverallDifficulty:4
ApproachRate:5
SliderMultiplier:1
SliderTickRate:1

[Events]
//Background and Video events
0,0,"bg.png",0,0
//Break Periods
2,25925,29458
2,41083,47142
2,86241,87563
2,111188,120405
2,132030,135562
2,139450,143141
2,169924,170931
//Storyboard Layer 0 (Background)
//Storyboard Layer 1 (Fail)
//Storyboard Layer 2 (Pass)
//Storyboard Layer 3 (Foreground)
//Storyboard Layer 4 (Overlay)
//Storyboard Sound Samples

[TimingPoints]
411,472.44094488189,4,2,1,35,1,0
1357,431.654676258993,4,2,1,35,1,0
2225,413.793103448276,4,2,1,35,1,0
3053,422.535211267606,4,2,1,35,1,0
4750,422.535211267606,4,2,1,35,1,0
6440,421.792618629174,4,2,1,35,1,0
8130,419.58041958042,4,2,1,35,1,0
8973,431.654676258993,4,2,1,35,1,0
9841,495.867768595041,4,2,1,35,1,0
12327,405.405405405406,4,2,1,35,1,0
14357,315.789473684211,4,2,1,35,1,0
15620,315.789473684211,4,2,1,50,1,0
15620,-100,4,2,1,50,0,0
24146,-100,4,2,1,60,0,0
30778,-100,4,2,1,40,0,0
39620,-100,4,2,1,50,0,0
40883,-100,4,2,1,30,0,0
48462,-100,4,2,1,50,0,0
63620,-100,4,2,1,40,0,0
66778,-100,4,2,1,60,0,0
68672,-100,4,2,1,70,0,0
77514,-100,4,2,1,50,0,0
78146,-100,4,2,1,65,0,0
78778,-100,4,2,1,70,0,0
85093,-100,4,2,1,50,0,0
89830,-100,4,2,1,60,0,0
111620,631.578947368421,4,2,1,60,1,0
121725,315.789473684211,4,2,1,40,1,0
129935,-100,4,2,1,60,0,0
131830,-100,4,2,1,30,0,0
136882,-100,4,2,1,50,0,0
138146,-100,4,2,1,60,0,0
138777,-100,4,2,1,70,0,0
144461,315.789473684211,4,2,1,70,1,0
153303,-100,4,2,1,50,0,0
153935,-100,4,2,1,65,0,0
154567,-100,4,2,1,70,0,0
162146,-100,4,2,1,70,0,0
164672,-100,4,2,1,50,0,0
172882,-100,4,2,1,60,0,0
173514,-100,4,2,1,70,0,0
181093,-100,4,2,1,50,0,0
184882,-100,4,2,1,5,0,0
187409,419.58041958042,4,2,1,5,1,0
187828,370.37037037037,4,2,1,5,1,0
188198,379.746835443038,4,2,1,5,1,0
190096,425.531914893617,4,2,1,5,1,0
190947,372.670807453416,4,2,1,5,1,0
191319,419.58041958042,4,2,1,5,1,0
191738,441.176470588235,4,2,1,5,1,0
193061,550.45871559633,4,2,1,5,1,0
193611,769.230769230769,4,2,1,5,1,0
194380,560.747663551402,4,2,1,5,1,0
194660,631.578947368421,4,2,1,5,1,0
195923,789.473684210526,4,2,1,5,1,0
196317,845.070422535211,4,2,1,5,1,0
196528,1153.84615384615,4,2,1,5,1,0
197104,1176.47058823529,4,2,1,5,1,0

[Colours]
Combo1 : 255,128,192
Combo2 : 255,128,0
Combo3 : 255,128,128
Combo4 : 128,255,255

[HitObjects]
22,188,15620,6,0,P|62:157|110:146,1,100,4|0,1:0|2:0,2:0:0:0:
201,106,16251,2,0,P|210:83|212:52,2,50,2|8|0,2:3|2:0|2:0,2:0:0:0:
277,171,16883,2,0,P|257:230|267:283,1,100,4|0,1:0|2:0,2:0:0:0:
310,293,17356,1,2,2:3:0:0:
310,293,17514,2,0,L|423:279,1,100,0|8,2:3|2:0,2:0:0:0:
493,225,18146,6,0,L|476:111,1,100,4|8,1:0|2:0,2:0:0:0:
401,61,18777,2,0,L|410:-1,2,50,2|2|8,2:3|2:3|2:0,2:0:0:0:
320,120,19409,1,4,1:0:0:0:
383,197,19725,1,2,2:3:0:0:
300,252,20041,1,2,2:3:0:0:
363,329,20356,1,8,2:0:0:0:
272,370,20672,6,0,P|231:342|179:341,1,100,4|8,1:0|2:0,2:0:0:0:
88,304,21304,2,0,P|63:304|40:314,2,50,2|8|0,2:3|2:0|2:0,2:0:0:0:
160,234,21935,2,0,L|171:84,2,150,4|8|8,1:0|2:0|2:0,2:0:0:0:
243,290,23198,5,4,1:0:0:0:
333,247,23514,1,2,2:3:0:0:
341,148,23830,1,2,2:3:0:0:
260,92,24146,1,2,2:3:0:0:
172,135,24462,1,8,2:0:0:0:
256,192,24620,12,10,25725,2:0:0:0:
11,229,30777,5,6,2:3:0:0:
104,262,31093,2,0,P|149:242|198:250,1,100,2|2,2:3|2:3,2:0:0:0:
278,191,31725,1,2,2:3:0:0:
354,126,32041,2,0,L|361:21,2,100,2|2|2,2:3|2:3|2:3,2:0:0:0:
448,159,32988,1,2,2:3:0:0:
466,257,33304,5,2,2:3:0:0:
385,315,33620,2,0,P|333:309|289:334,1,100,2|2,2:3|2:3,2:0:0:0:
197,364,34251,1,2,2:3:0:0:
104,326,34567,2,0,P|52:320|8:345,2,100,2|2|2,2:3|2:3|2:3,2:0:0:0:
180,261,35514,1,2,2:3:0:0:
256,197,35830,6,0,L|266:89,1,100,2|2,2:3|2:3,2:0:0:0:
201,21,36462,2,0,L|93:11,1,100,2|2,2:3|2:3,2:0:0:0:
25,76,37093,1,2,2:3:0:0:
15,175,37409,1,2,2:3:0:0:
80,252,37725,1,2,2:3:0:0:
179,261,38041,1,2,2:3:0:0:
255,196,38356,6,0,P|293:165|342:166,1,100,2|2,2:3|2:3,2:0:0:0:
432,121,38988,2,0,P|462:159|461:208,1,100,2|2,2:3|2:3,2:0:0:0:
507,298,39620,2,0,P|468:328|419:327,2,100,8|8|8,1:0|2:0|1:0,2:0:0:0:
429,113,40883,5,6,1:0:0:0:
55,147,48462,6,0,P|94:118|144:118,1,100,4|8,1:0|2:1,2:0:0:0:
187,153,48935,1,0,2:0:0:0:
187,153,49093,2,0,L|291:132,1,100,6|8,1:0|2:0,2:0:0:0:
352,60,49725,1,4,1:0:0:0:
449,82,50041,1,14,2:1:0:0:
478,177,50356,2,0,L|465:276,1,100,4|8,1:0|2:0,2:0:0:0:
405,356,50988,6,0,P|361:332|311:333,1,100,4|8,1:0|2:0,2:0:0:0:
269,357,51462,1,0,2:0:0:0:
269,357,51620,2,0,L|163:348,1,100,4|8,1:0|2:0,2:0:0:0:
78,307,52251,1,4,1:0:0:0:
73,207,52567,1,12,2:1:0:0:
153,146,52883,2,0,L|161:46,1,100,4|8,1:0|2:0,2:0:0:0:
254,8,53514,5,4,1:0:0:0:
333,68,53830,1,8,2:0:0:0:
424,29,54146,1,4,1:0:0:0:
503,89,54462,1,8,2:0:0:0:
490,187,54777,2,0,L|474:303,1,100,4|8,1:0|2:0,2:0:0:0:
395,344,55409,2,0,L|279:328,1,100,4|12,1:0|1:0,2:0:0:0:
238,249,56041,5,4,1:0:0:0:
251,149,56356,1,8,2:0:0:0:
193,67,56672,1,4,1:0:0:0:
94,54,56988,1,8,2:0:0:0:
13,111,57304,2,0,L|0:211,1,100,4|12,1:0|2:1,2:0:0:0:
27,259,57777,1,0,2:0:0:0:
27,259,57935,2,0,P|83:263|131:243,1,100,4|12,1:0|2:0,2:0:0:0:
193,176,58567,5,0,1:0:0:0:
193,176,58725,2,0,B|229:163|229:163|302:196|302:196|332:186,1,150,8|12,2:0|2:0,2:0:0:0:
492,66,59830,2,0,L|487:128,1,50,8|8,2:0|2:0,2:0:0:0:
486,166,60146,2,0,L|475:288,1,100,0|12,2:0|2:0,2:0:0:0:
403,333,60777,1,0,0:0:0:0:
306,358,61093,6,0,B|207:393|212:310|112:344,1,200,2|12,1:0|2:0,2:0:0:0:
11,171,62356,2,0,P|12:119|29:70,1,100,0|2,1:0|2:3,2:0:0:0:
76,57,62830,1,2,2:3:0:0:
76,57,62988,2,0,L|179:49,1,100,8|8,2:0|2:0,2:0:0:0:
271,78,63620,1,4,1:2:0:0:
256,192,66146,12,0,67251,2:0:0:0:
214,365,68672,6,0,P|257:342|307:346,1,100,6|8,1:0|2:0,2:0:0:0:
403,317,69304,2,0,L|411:217,1,100,4|8,1:0|2:0,2:0:0:0:
392,177,69777,1,0,2:0:0:0:
392,177,69935,2,0,P|348:154|298:158,1,100,4|8,1:0|2:0,2:0:0:0:
253,172,70409,1,0,2:0:0:0:
253,172,70567,1,4,1:0:0:0:
157,141,70883,1,12,1:0:0:0:
60,113,71198,6,0,P|44:61|51:6,2,100,6|8|12,1:0|2:0|1:0,2:0:0:0:
39,160,71988,1,0,2:0:0:0:
39,160,72146,2,0,L|28:233,1,50,8|0,1:0|2:0,2:0:0:0:
34,259,72462,1,4,1:0:0:0:
119,310,72777,1,12,2:1:0:0:
218,302,73093,1,4,1:0:0:0:
294,238,73409,1,8,2:0:0:0:
317,142,73725,6,0,P|321:88|345:46,1,100,6|8,1:0|2:0,2:0:0:0:
442,63,74356,2,0,L|451:173,1,100,4|8,1:0|2:0,2:0:0:0:
489,202,74830,1,0,2:0:0:0:
489,202,74988,2,0,L|480:312,1,100,4|12,1:0|2:1,2:0:0:0:
452,344,75462,1,0,2:0:0:0:
452,344,75620,1,4,1:0:0:0:
356,372,75935,1,8,2:0:0:0:
274,314,76251,5,4,1:0:0:0:
285,214,76567,1,12,1:0:0:0:
377,174,76883,1,4,1:0:0:0:
388,74,77198,1,12,1:0:0:0:
307,15,77514,2,0,L|197:4,1,100,4|10,1:0|2:3,2:0:0:0:
166,31,77988,1,10,2:3:0:0:
166,31,78146,2,0,P|160:56|161:80,1,50,2|2,2:3|2:3,2:0:0:0:
183,125,78462,2,0,P|183:149|177:174,1,50,10|10,2:0|2:0,2:0:0:0:
157,220,78777,6,0,L|146:342,1,100,6|8,1:0|2:0,2:0:0:0:
237,365,79409,2,0,P|299:365|348:341,1,100,4|8,1:0|1:0,2:0:0:0:
377,323,79883,1,0,2:0:0:0:
377,323,80041,2,0,L|362:215,1,100,4|8,1:0|2:0,2:0:0:0:
326,198,80514,1,0,2:0:0:0:
326,198,80672,1,4,1:0:0:0:
387,119,80988,1,12,1:0:0:0:
334,34,81304,6,0,P|288:15|239:24,1,100,4|8,1:0|2:0,2:0:0:0:
142,48,81935,2,0,P|93:39|47:57,1,100,4|8,1:0|2:0,2:0:0:0:
9,150,82567,1,4,1:0:0:0:
7,249,82883,1,12,1:0:0:0:
64,330,83198,1,4,1:0:0:0:
157,364,83514,1,12,1:0:0:0:
252,336,83830,6,0,P|258:286|281:228,1,100,4|8,1:0|2:0,2:0:0:0:
309,203,84304,1,0,2:0:0:0:
309,203,84462,2,0,L|420:190,1,100,4|8,1:0|2:0,2:0:0:0:
483,125,85093,2,0,P|477:75|454:17,2,100,0|2|2,1:2|2:0|2:0,2:0:0:0:
507,222,86041,1,2,2:0:0:0:
256,192,88883,12,8,90777,2:0:0:0:
18,273,91409,6,0,P|67:274|112:253,1,100,12|8,1:2|2:0,2:0:0:0:
143,214,91883,1,0,2:0:0:0:
143,214,92041,2,0,L|152:105,1,100,2|8,2:3|2:0,2:0:0:0:
237,62,92672,2,0,P|244:32|243:-7,2,50,0|0|8,1:0|2:0|2:0,2:0:0:0:
326,107,93304,2,0,P|319:137|320:176,2,50,2|0|10,2:3|2:0|2:0,2:0:0:0:
411,54,93935,5,0,1:0:0:0:
496,116,94251,1,8,2:0:0:0:
496,116,94409,2,0,L|487:225,1,100,8|2,2:0|2:0,2:0:0:0:
462,259,94883,1,0,1:2:0:0:
368,222,95198,1,0,2:0:0:0:
295,290,95514,1,8,2:0:0:0:
201,253,95830,1,10,2:3:0:0:
128,321,96146,1,8,2:0:0:0:
34,284,96462,6,0,P|28:229|52:128,2,150,2|8|8,1:0|2:0|2:0,2:0:0:0:
128,320,97725,2,0,P|172:298|221:300,1,100,2|8,1:0|2:0,2:0:0:0:
256,337,98198,2,0,L|362:324,1,100,8|10,2:0|2:0,2:0:0:0:
404,334,98672,1,8,2:0:0:0:
452,246,98988,6,0,P|450:196|435:148,1,100,2|4,1:0|2:0,2:0:0:0:
406,115,99462,1,8,2:0:0:0:
406,115,99620,2,0,L|300:102,1,100,10|8,2:0|2:0,2:0:0:0:
221,49,100251,1,12,2:0:0:0:
127,92,100567,1,8,2:0:0:0:
116,194,100883,1,14,2:0:0:0:
200,254,101198,1,10,2:0:0:0:
295,211,101514,6,0,P|342:192|405:200,1,100,4|8,1:2|2:0,2:0:0:0:
476,245,102146,2,0,L|463:353,1,100,2|8,2:3|2:0,2:0:0:0:
365,363,102777,2,0,P|311:366|268:334,1,100,4|8,1:2|2:0,2:0:0:0:
191,285,103409,2,0,L|200:217,1,50,2|0,2:3|2:3,2:0:0:0:
207,186,103725,1,8,2:0:0:0:
143,108,104041,6,0,P|85:104|37:127,2,100,4|8|0,1:2|2:0|1:0,2:0:0:0:
188,83,104830,1,0,2:0:0:0:
188,83,104988,1,8,2:0:0:0:
274,133,105304,2,0,P|332:137|380:114,1,100,4|8,1:2|2:0,2:0:0:0:
464,89,105935,2,0,L|474:10,2,75,2|2|2,2:3|2:3|2:3,2:0:0:0:
481,136,106567,6,0,L|467:248,1,100,4|8,1:2|2:0,2:0:0:0:
409,316,107198,2,0,P|362:332|313:323,1,100,4|8,1:2|2:0,2:0:0:0:
274,302,107672,1,0,2:0:0:0:
274,302,107830,2,0,L|160:312,1,100,4|8,1:2|2:0,2:0:0:0:
82,270,108462,2,0,P|73:221|90:174,1,100,4|8,1:2|2:0,2:0:0:0:
126,81,109093,5,12,2:0:0:0:
221,49,109409,1,12,2:0:0:0:
300,110,109725,1,12,2:0:0:0:
395,78,110041,1,12,2:0:0:0:
466,148,110356,2,0,P|457:196|456:244,2,75,12|8|8,1:2|2:0|2:0,2:0:0:0:
500,111,110988,1,12,2:0:0:0:
278,120,121725,6,0,P|188:78|89:88,1,200,0|8,1:0|2:0,2:0:0:0:
50,283,122988,2,0,P|139:324|237:315,1,200,0|8,1:0|2:0,2:0:0:0:
427,253,124251,2,0,P|464:198|364:194,2,200,0|8|0,1:0|2:0|1:0,2:0:0:0:
237,316,126146,1,8,2:0:0:0:
278,120,126777,1,6,2:0:0:0:
256,192,129303,12,6,131830,2:0:0:0:
104,340,136882,5,14,2:0:0:0:
198,308,137198,1,2,2:3:0:0:
274,372,137514,1,2,2:3:0:0:
368,340,137830,1,2,2:3:0:0:
420,254,138146,6,0,L|425:195,1,50,10|8,2:0|2:0,2:0:0:0:
402,159,138461,2,0,P|379:148|354:146,1,50,8|8,2:0|2:0,2:0:0:0:
314,115,138777,2,0,L|319:56,1,50,8|8,2:0|2:0,2:0:0:0:
352,28,139093,2,0,P|374:17|399:14,1,50,8|8,2:0|2:0,2:0:0:0:
69,206,144461,6,0,L|62:305,1,100,6|8,1:0|2:0,2:0:0:0:
156,341,145092,2,0,P|201:322|250:328,1,100,4|8,1:0|2:0,2:0:0:0:
302,348,145566,1,0,2:0:0:0:
302,348,145724,2,0,L|401:332,1,100,4|8,1:0|2:0,2:0:0:0:
447,310,146197,1,0,2:0:0:0:
447,310,146355,1,4,1:0:0:0:
466,211,146671,1,4,1:0:0:0:
386,148,146987,6,0,P|369:101|371:51,1,100,4|8,1:0|2:0,2:0:0:0:
278,13,147618,2,0,L|178:23,1,100,4|8,1:0|2:0,2:0:0:0:
141,56,148092,1,0,2:0:0:0:
141,56,148250,1,4,1:0:0:0:
130,155,148566,1,8,2:0:0:0:
212,211,148882,1,4,1:0:0:0:
201,310,149197,1,12,1:0:0:0:
111,353,149513,6,0,P|57:349|12:314,1,100,4|8,1:0|2:0,2:0:0:0:
15,278,149987,1,0,2:0:0:0:
15,278,150145,2,0,L|24:171,1,100,4|8,1:0|2:0,2:0:0:0:
33,78,150776,1,4,1:0:0:0:
122,33,151092,1,8,2:0:0:0:
205,87,151408,1,4,1:0:0:0:
294,42,151724,1,12,1:0:0:0:
377,96,152039,6,0,L|370:158,1,50,4|0,1:0|2:0,2:0:0:0:
364,195,152355,1,8,2:0:0:0:
460,220,152671,2,0,L|467:282,1,50,4|0,1:0|2:0,2:0:0:0:
473,319,152987,1,12,1:0:0:0:
384,364,153303,2,0,P|341:349|287:357,1,100,12|8,1:0|2:0,2:0:0:0:
198,311,153934,1,8,2:0:0:0:
107,354,154250,1,10,2:0:0:0:
21,301,154566,6,0,P|6:253|8:203,1,100,6|8,1:0|2:0,2:0:0:0:
50,112,155197,2,0,L|149:102,1,100,4|8,1:0|2:0,2:0:0:0:
202,118,155671,1,0,2:0:0:0:
202,118,155829,2,0,L|301:108,1,100,4|8,1:0|2:0,2:0:0:0:
380,47,156461,1,4,1:0:0:0:
464,101,156776,1,12,1:0:0:0:
452,200,157092,6,0,L|439:307,1,100,4|8,1:0|2:0,2:0:0:0:
345,334,157724,2,0,P|295:334|253:309,1,100,4|8,1:0|1:0,2:0:0:0:
245,209,158355,1,4,1:0:0:0:
155,166,158671,1,12,1:0:0:0:
73,223,158987,1,4,1:0:0:0:
81,323,159303,1,12,1:0:0:0:
171,365,159618,6,0,P|215:343|265:341,1,100,4|8,1:0|2:0,2:0:0:0:
318,357,160092,1,0,2:0:0:0:
318,357,160250,2,0,L|427:346,1,100,4|8,1:0|2:0,2:0:0:0:
490,277,160882,2,0,P|492:228|472:182,1,100,4|12,1:0|1:0,2:0:0:0:
457,140,161355,1,0,2:0:0:0:
457,140,161513,2,0,L|466:69,2,50,4|0|12,1:0|2:0|1:0,2:0:0:0:
372,193,162145,6,0,P|325:197|270:167,1,100,14|8,1:0|2:0,2:0:0:0:
255,137,162618,1,8,2:0:0:0:
255,137,162776,2,0,L|243:28,1,100,14|8,1:0|2:0,2:0:0:0:
147,11,163408,2,0,L|136:110,1,100,14|8,1:0|2:0,2:0:0:0:
117,159,163882,1,8,2:0:0:0:
117,159,164039,2,0,P|69:159|24:183,1,100,12|2,3:0|3:0,2:0:0:0:
18,283,164671,6,0,L|6:389,2,100,12|0|8,3:0|2:3|2:0,2:0:0:0:
108,243,165618,1,0,2:0:0:0:
188,306,165934,1,0,1:0:0:0:
280,269,166250,1,0,2:0:0:0:
295,170,166566,1,0,1:0:0:0:
387,133,166882,1,0,2:0:0:0:
467,195,167197,6,0,B|459:265|459:265|419:303|419:303|410:380,1,200,4|4,1:2|1:2,2:0:0:0:
229,290,168461,2,0,B|237:220|237:220|277:182|277:182|286:105,1,200,12|12,2:0|2:0,2:0:0:0:
103,21,169724,1,6,1:2:0:0:
147,361,172250,6,0,P|168:318|171:258,1,100,8|8,2:0|2:0,2:0:0:0:
84,217,172882,2,0,P|63:174|60:114,1,100,8|8,2:0|2:0,2:0:0:0:
141,66,173513,1,12,1:2:0:0:
233,105,173829,1,10,2:0:0:0:
321,57,174145,2,0,P|316:32|317:8,2,50,10|10|10,2:0|2:0|2:0,2:0:0:0:
497,152,175092,5,6,1:0:0:0:
396,149,175408,1,4,2:0:0:0:
314,206,175724,1,8,2:0:0:0:
280,298,176039,2,0,P|231:296|187:319,1,100,4|8,1:0|2:0,2:0:0:0:
164,366,176513,1,0,2:0:0:0:
164,366,176671,2,0,L|53:353,1,100,4|8,1:0|2:0,2:0:0:0:
5,273,177303,6,0,P|5:217|24:171,1,100,4|8,1:0|2:0,2:0:0:0:
47,135,177776,1,0,2:0:0:0:
47,135,177934,2,0,L|146:123,1,100,4|8,1:0|2:0,2:0:0:0:
199,137,178408,1,0,2:0:0:0:
199,137,178566,1,12,1:0:0:0:
284,83,178882,1,14,1:0:0:0:
384,92,179197,1,12,1:0:0:0:
460,157,179513,1,14,1:0:0:0:
483,253,179829,6,0,P|460:298|454:347,1,100,12|8,1:0|2:0,2:0:0:0:
359,377,180461,1,4,1:0:0:0:
272,327,180776,1,10,2:0:0:0:
177,358,181092,2,0,P|133:334|84:337,2,100,14|2|2,2:0|2:0|2:0,2:0:0:0:
272,327,182039,1,6,2:3:0:0:
256,192,182355,12,0,184882,2:0:0:0:
