osu file format v14

[General]
AudioFilename: audio.ogg
AudioLeadIn: 0
PreviewTime:142251
Countdown: 0
SampleSet: Soft
StackLeniency: 0.5
Mode: 0
LetterboxInBreaks: 0
WidescreenStoryboard: 1

[Editor]
Bookmarks: 143830
DistanceSpacing: 1.1
BeatDivisor: 4
GridSize: 4
TimelineZoom: 2

[Metadata]
Title:Re: Hatsukoi no Ehon feat. Aida Miou (CV: Toyosaki Aki)
TitleUnicode:Re:初恋の絵本 feat. 合田美桜(CV:豊崎愛生)
Artist:HoneyWorks
ArtistUnicode:HoneyWorks
Creator:Setu
Version:Narcissu's Extra ft. Setu
Source:いつだって僕らの恋は10センチだった。
Tags:We have always been 10 cm apart. 告白実行委員会 Kokuhaku Jikkou Iinkai japanese pop anime shiratamamywife dahkjdas coloured_glazee coloured glazee narcissu strengemistake itsudatte bokura no koi wa datta. centi 好きすぎてやばい。 ~告白実行委員会キャラクターソング集~ 東京ウインターセッション Sukisugiteyabai Kokuhakujikkouiinkai Character Song Shu Tokyo Winter Session
BeatmapID:3525392
BeatmapSetID:1688656

[Difficulty]
HPDrainRate:5
CircleSize:4
OverallDifficulty:8
ApproachRate:9
SliderMultiplier:1
SliderTickRate:1

[Events]
//Background and Video events
0,0,"bg.png",0,0
//Break Periods
2,41083,45335
2,139451,142251
//Storyboard Layer 0 (Background)
//Storyboard Layer 1 (Fail)
//Storyboard Layer 2 (Pass)
//Storyboard Layer 3 (Foreground)
//Storyboard Layer 4 (Overlay)
//Storyboard Sound Samples

[TimingPoints]
411,472.44094488189,4,2,1,35,1,0
1357,431.654676258993,4,2,1,35,1,0
2225,413.793103448276,4,2,1,35,1,0
3053,422.535211267606,4,2,1,35,1,0
4750,422.535211267606,4,2,1,35,1,0
6440,421.792618629174,4,2,1,35,1,0
8130,419.58041958042,4,2,1,35,1,0
8973,431.654676258993,4,2,1,35,1,0
9841,495.867768595041,4,2,1,35,1,0
12327,405.405405405406,4,2,1,35,1,0
14357,315.789473684211,4,2,1,35,1,0
15620,315.789473684211,4,2,1,50,1,0
15620,-62.5,4,2,1,50,0,0
24146,-62.5,4,2,1,60,0,0
25883,-62.5,4,2,1,5,0,0
28251,-62.5,4,2,1,30,0,0
28724,-62.5,4,2,1,40,0,0
29040,-62.5,4,2,1,50,0,0
29356,-62.5,4,2,1,60,0,0
30777,-71.4285714285714,4,2,1,40,0,0
39620,-71.4285714285714,4,2,1,50,0,0
40883,-71.4285714285714,4,2,1,30,0,0
45935,-71.4285714285714,4,2,1,50,0,0
46883,-71.4285714285714,4,2,1,60,0,0
48146,-71.4285714285714,4,2,1,40,0,0
48462,-62.5,4,2,1,50,0,0
59198,-83.3333333333333,4,2,1,50,0,0
61093,-62.5,4,2,1,50,0,0
63620,-62.5,4,2,1,40,0,0
66146,-62.5,4,2,1,50,0,0
66778,-62.5,4,2,1,60,0,0
68672,-58.8235294117647,4,2,1,70,0,1
77514,-58.8235294117647,4,2,1,50,0,1
78146,-58.8235294117647,4,2,1,65,0,1
78778,-58.8235294117647,4,2,1,70,0,1
85093,-71.4285714285714,4,2,1,50,0,0
86041,-100,4,2,1,50,0,0
86120,-100,4,2,1,5,0,0
87619,-100,4,2,1,35,0,0
88725,-100,4,2,1,50,0,0
88883,-62.5,4,2,1,50,0,0
89830,-62.5,4,2,1,60,0,0
111620,631.578947368421,4,2,1,30,1,0
121725,315.789473684211,4,2,1,40,1,0
121725,-83.3333333333333,4,2,1,40,0,0
129303,-83.3333333333333,4,2,1,50,0,0
129935,-83.3333333333333,4,2,1,60,0,0
131830,-83.3333333333333,4,2,1,30,0,0
134356,-100,4,2,1,40,0,0
134988,-100,4,2,1,50,0,0
136882,-71.4285714285714,4,2,1,50,0,0
138146,-71.4285714285714,4,2,1,60,0,0
138777,-71.4285714285714,4,2,1,70,0,0
143830,-41.6666666666667,4,2,1,60,0,0
144461,315.789473684211,4,2,1,70,1,0
144461,-55.5555555555556,4,2,1,70,0,1
153303,-55.5555555555556,4,2,1,50,0,1
153935,-55.5555555555556,4,2,1,65,0,1
154567,-55.5555555555556,4,2,1,70,0,1
162146,-55.5555555555556,4,2,1,70,0,1
164355,-83.3333333333333,4,2,1,70,0,1
164671,-66.6666666666667,4,2,1,50,0,0
169724,-90.9090909090909,4,2,1,50,0,0
172882,-71.4285714285714,4,2,1,60,0,0
173514,-71.4285714285714,4,2,1,70,0,0
173829,-55.5555555555556,4,2,1,70,0,0
175092,-55.5555555555556,4,2,1,70,0,1
181092,-55.5555555555556,4,2,1,50,0,0
187409,419.58041958042,4,2,1,50,1,0
187828,370.37037037037,4,2,1,50,1,0
188198,379.746835443038,4,2,1,50,1,0
190096,425.531914893617,4,2,1,50,1,0
190947,372.670807453416,4,2,1,50,1,0
191319,419.58041958042,4,2,1,50,1,0
191738,441.176470588235,4,2,1,50,1,0
193061,550.45871559633,4,2,1,50,1,0
193611,769.230769230769,4,2,1,50,1,0
194380,560.747663551402,4,2,1,50,1,0
194660,631.578947368421,4,2,1,50,1,0
195923,789.473684210526,4,2,1,50,1,0
196317,845.070422535211,4,2,1,50,1,0
196528,1153.84615384615,4,2,1,50,1,0
197104,1176.47058823529,4,2,1,50,1,0

[Colours]
Combo1 : 255,128,192
Combo2 : 255,128,0
Combo3 : 255,128,128
Combo4 : 128,255,255

[HitObjects]
64,204,14988,6,0,P|116:219|104:313,1,150,8|2,2:0|2:3,2:0:0:0:
117,303,15620,6,0,B|152:276|152:276|276:292,1,160,4|0,1:0|2:0,2:0:0:0:
400,340,16093,2,0,P|384:300|384:256,1,80,2|0,2:3|2:0,2:0:0:0:
432,112,16409,1,8,2:0:0:0:
488,276,16567,1,0,2:0:0:0:
312,176,16725,5,8,2:0:0:0:
312,176,16804,1,8,2:0:0:0:
312,176,16883,2,0,B|280:172|280:172|256:180|256:180|208:164|152:188,1,160,4|0,1:0|2:0,2:0:0:0:
32,232,17356,1,0,2:3:0:0:
134,110,17514,2,0,P|150:147|155:187,1,80,2|0,2:3|2:3,2:0:0:0:
0,120,17830,2,0,P|6:81|20:44,1,80,8|0,2:0|2:0,2:0:0:0:
12,320,18146,6,0,P|64:268|164:308,1,160,4|8,1:0|2:0,2:0:0:0:
212,348,18620,2,0,P|256:348|300:332,1,80,2|0,2:3|2:3,2:0:0:0:
512,220,18935,1,2,2:3:0:0:
464,108,19093,1,8,2:0:0:0:
384,268,19251,1,8,2:0:0:0:
384,268,19330,1,8,2:0:0:0:
384,268,19409,6,0,L|392:360,1,80,4|0,1:0|2:0,2:0:0:0:
432,108,19725,1,2,2:3:0:0:
480,228,19883,1,8,2:0:0:0:
248,188,20041,1,2,2:3:0:0:
360,272,20198,1,8,2:0:0:0:
360,272,20277,1,8,2:0:0:0:
360,272,20356,1,8,2:0:0:0:
300,108,20514,1,8,2:0:0:0:
300,108,20593,1,8,2:0:0:0:
299,107,20672,6,0,P|224:90|165:140,2,160,4|8|2,1:0|2:0|2:3,2:0:0:0:
248,188,21462,1,8,2:0:0:0:
76,200,21620,2,0,L|60:107,1,80,0|0,2:0|2:0,2:0:0:0:
404,80,21935,6,0,B|392:156|392:156|352:192,1,120,4|8,1:0|2:0,2:0:0:0:
359,184,22251,2,0,L|344:288,1,80,8|8,2:0|2:0,2:0:0:0:
460,240,22567,1,8,2:0:0:0:
248,188,22725,1,8,2:0:0:0:
248,188,22804,1,10,2:0:0:0:
248,188,22883,2,0,L|184:200,2,40,8|0|8,2:0|2:0|2:0,2:0:0:0:
388,68,23198,6,0,B|376:132|376:132|380:151|380:151|360:240,1,160,4|2,1:0|2:3,2:0:0:0:
192,292,23672,1,2,2:3:0:0:
252,92,23830,5,2,2:3:0:0:
252,92,23988,1,2,2:3:0:0:
80,144,24146,1,2,2:3:0:0:
80,144,24304,1,2,2:3:0:0:
272,212,24462,5,8,2:0:0:0:
216,292,24620,1,8,2:0:0:0:
168,148,24777,1,8,2:0:0:0:
80,184,24935,1,8,2:0:0:0:
224,72,25093,5,4,1:0:0:0:
372,176,25251,1,8,2:0:0:0:
374,183,25330,1,8,2:0:0:0:
376,191,25409,1,10,2:0:0:0:
378,198,25488,1,10,2:0:0:0:
381,206,25567,1,10,2:0:0:0:
383,214,25646,1,10,2:0:0:0:
385,221,25725,1,10,2:0:0:0:
256,192,25883,12,0,27935,2:0:0:0:
420,100,28251,6,0,B|420:132|420:132|392:188,1,80,10|8,2:0|2:0,2:0:0:0:
400,216,28488,1,8,2:0:0:0:
400,216,28567,2,0,B|373:232|373:232|310:235,1,80,8|8,2:0|2:0,2:0:0:0:
284,224,28804,1,8,2:0:0:0:
284,224,28883,2,0,L|276:308,1,80,8|8,2:0|2:0,2:0:0:0:
232,284,29120,1,8,2:0:0:0:
232,284,29198,2,0,L|148:276,1,80,8|8,2:0|2:0,2:0:0:0:
104,272,29435,1,8,2:0:0:0:
56,268,29514,1,8,2:0:0:0:
456,268,30777,6,0,L|356:256,1,70,6|0,2:3|2:0,2:0:0:0:
486,146,31093,1,2,2:3:0:0:
486,146,31251,1,0,2:0:0:0:
332,172,31409,2,0,L|400:160,1,70,2|0,2:3|2:0,2:0:0:0:
428,81,31725,1,2,2:3:0:0:
428,81,31883,1,0,2:0:0:0:
386,259,32041,6,0,P|320:296|244:272,2,140,2|2|2,2:3|2:3|2:3,2:0:0:0:
308,192,32830,1,0,2:0:0:0:
308,192,32988,2,0,L|316:120,1,70,2|0,2:3|2:0,2:0:0:0:
184,24,33304,6,0,L|192:100,1,70,2|0,2:3|2:0,2:0:0:0:
96,68,33620,2,0,L|104:144,1,70,2|0,2:3|2:0,2:0:0:0:
0,60,33935,2,0,L|8:136,1,70,2|0,2:3|2:0,2:0:0:0:
140,164,34251,1,2,2:3:0:0:
140,164,34409,1,0,2:3:0:0:
4,252,34567,6,0,P|56:285|136:260,2,140,2|2|2,2:3|2:3|2:3,2:0:0:0:
228,276,35356,1,0,2:0:0:0:
228,276,35514,2,0,P|252:304|268:340,1,70,2|0,2:3|2:0,2:0:0:0:
464,324,35830,6,0,P|432:340|380:340,1,70,2|0,2:3|2:0,2:0:0:0:
408,244,36146,2,0,P|373:240|342:224,1,70,2|0,2:3|2:0,2:0:0:0:
480,124,36462,2,0,P|495:92|499:58,1,70,2|0,2:3|2:0,2:0:0:0:
400,68,36777,2,0,P|398:33|383:1,1,70,2|0,2:3|2:0,2:0:0:0:
272,128,37093,6,0,P|249:154|218:170,1,70,2|0,2:3|2:0,2:0:0:0:
21,81,37409,2,0,P|54:73|89:77,1,70,2|0,2:3|2:0,2:0:0:0:
196,267,37725,2,0,P|163:253|138:229,1,70,2|0,2:3|2:0,2:0:0:0:
164,14,38041,2,0,P|181:43|188:78,1,70,2|0,2:3|2:0,2:0:0:0:
41,237,38356,6,0,P|44:202|59:170,1,70,2|0,2:3|2:0,2:0:0:0:
138,229,38672,2,0,P|158:200|186:180,1,70,2|0,2:3|2:0,2:0:0:0:
320,304,38988,2,0,P|340:332|368:352,1,70,2|0,2:3|2:0,2:0:0:0:
408,262,39304,2,0,P|439:276|474:279,1,70,2|0,2:3|2:0,2:0:0:0:
216,256,39620,6,0,B|164:260|164:260|192:244,1,70,8|0,1:0|2:0,2:0:0:0:
468,184,39935,2,0,B|520:188|520:188|492:172,1,70,8|0,2:0|2:3,2:0:0:0:
344,56,40251,1,8,1:0:0:0:
249,81,40409,1,0,1:3:0:0:
275,177,40567,1,6,2:3:0:0:
369,150,40725,1,6,2:3:0:0:
436,28,40883,5,6,1:0:0:0:
436,28,45935,6,0,B|460:68|460:68|440:192,1,140,12|2,1:2|2:3,2:0:0:0:
348,176,46409,1,2,2:3:0:0:
324,80,46567,1,2,2:3:0:0:
324,80,46725,1,2,2:3:0:0:
452,196,46883,1,8,2:0:0:0:
452,196,47041,1,8,2:0:0:0:
232,236,47198,5,8,2:0:0:0:
340,216,47356,1,8,2:0:0:0:
396,344,47514,1,8,2:0:0:0:
284,324,47672,1,8,2:0:0:0:
476,228,47830,2,0,L|488:300,1,70,8|0,2:0|2:0,2:0:0:0:
348,176,48146,2,0,L|360:104,1,70,12|0,1:2|2:0,2:0:0:0:
112,248,48462,6,0,P|68:232|32:200,1,80,4|0,1:0|2:0,2:0:0:0:
232,240,48777,1,8,2:1:0:0:
232,240,48935,1,0,2:0:0:0:
176,320,49093,2,0,P|133:339|85:342,1,80,6|0,2:1|2:0,2:0:0:0:
172,168,49409,1,8,2:0:0:0:
172,168,49567,1,0,2:0:0:0:
75,45,49725,6,0,P|78:85|88:124,1,80,4|0,1:0|2:0,2:0:0:0:
240,92,50041,2,0,B|308:100|372:72|372:72|360:88|352:104,1,160,14|4,2:1|1:0,2:0:0:0:
512,164,50514,1,8,2:0:0:0:
512,164,50672,2,0,P|480:152|424:152,1,80,8|0,2:0|2:0,2:0:0:0:
308,192,50988,5,4,1:0:0:0:
397,253,51146,1,0,2:0:0:0:
305,213,51304,1,8,2:0:0:0:
208,268,51462,1,0,2:0:0:0:
256,128,51620,1,4,1:0:0:0:
301,233,51777,1,0,2:0:0:0:
397,253,51935,2,0,P|428:288|452:336,1,80,8|0,2:0|2:0,2:0:0:0:
208,268,52251,6,0,L|128:260,1,80,4|0,1:0|2:0,2:0:0:0:
301,233,52567,2,0,P|304:136|248:108,1,160,12|4,2:1|1:0,2:0:0:0:
44,168,53041,1,8,2:0:0:0:
44,168,53198,2,0,L|160:156,1,80,8|0,2:0|2:0,2:0:0:0:
160,176,53435,1,8,2:0:0:0:
160,176,53514,6,0,L|167:82,1,80,4|0,1:0|2:0,2:0:0:0:
348,48,53830,2,0,L|355:142,1,80,8|0,2:0|2:0,2:0:0:0:
252,188,54146,2,0,L|259:94,1,80,4|0,1:0|2:0,2:0:0:0:
440,60,54462,2,0,L|447:154,1,80,8|0,2:0|2:0,2:0:0:0:
512,260,54777,6,0,P|469:266|408:296,1,80,4|0,1:0|2:0,2:0:0:0:
340,268,55093,2,0,P|306:294|268:351,1,80,8|0,2:0|2:0,2:0:0:0:
0,296,55409,2,0,P|37:310|76:315,1,80,4|0,1:0|2:0,2:0:0:0:
142,245,55725,2,0,P|181:238|218:223,1,80,12|0,1:0|2:0,2:0:0:0:
391,195,56041,6,0,P|387:231|367:285,1,80,4|0,1:0|2:0,2:0:0:0:
313,60,56356,2,0,P|337:32|384:0,1,80,8|0,2:0|2:0,2:0:0:0:
297,214,56672,2,0,P|260:222|204:219,1,80,4|0,1:0|2:0,2:0:0:0:
401,99,56988,2,0,P|435:113|479:149,1,80,8|0,2:0|2:0,2:0:0:0:
249,131,57304,6,0,P|229:99|214:44,1,80,4|0,1:0|2:0,2:0:0:0:
313,60,57620,1,12,2:1:0:0:
313,60,57698,1,8,2:0:0:0:
313,60,57777,1,8,2:0:0:0:
136,116,57935,2,0,L|128:212,1,80,4|8,1:0|2:0,2:0:0:0:
96,220,58172,1,8,2:0:0:0:
96,220,58251,2,0,L|4:212,1,80,12|0,2:0|2:0,2:0:0:0:
72,48,58567,5,0,1:0:0:0:
48,312,58725,1,8,2:0:0:0:
184,272,59041,5,2,2:3:0:0:
184,272,59120,1,2,2:3:0:0:
184,272,59198,2,0,P|184:344|272:320,1,180,12|0,2:0|2:0,2:0:0:0:
96,220,59830,5,8,2:0:0:0:
368,316,59988,1,8,2:0:0:0:
476,296,60304,5,2,2:3:0:0:
476,296,60383,1,2,2:3:0:0:
476,296,60462,2,0,B|508:232|460:184|460:184|380:168,1,180,12|0,2:0|2:0,2:0:0:0:
352,80,61093,6,0,L|520:72,1,160,2|0,1:0|2:0,2:0:0:0:
384,272,61725,2,0,L|216:264,1,160,12|2,2:0|2:3,2:0:0:0:
0,152,62356,5,0,1:0:0:0:
0,152,62514,2,0,L|168:144,1,160,8|2,2:0|2:3,2:0:0:0:
180,180,62909,1,2,2:3:0:0:
180,180,62988,1,8,2:0:0:0:
216,48,63146,1,0,2:0:0:0:
336,156,63304,2,0,P|316:120|316:64,1,80,8|0,2:0|2:0,2:0:0:0:
408,92,63620,5,4,1:2:0:0:
408,92,66146,5,8,2:0:0:0:
427,185,66304,1,8,2:0:0:0:
268,168,66462,1,8,2:0:0:0:
252,264,66620,1,8,2:0:0:0:
440,200,66777,5,8,2:0:0:0:
284,184,66935,1,8,2:0:0:0:
396,72,67093,1,8,2:0:0:0:
360,308,67251,1,8,2:0:0:0:
396,72,68356,5,8,2:0:0:0:
252,156,68514,1,8,2:0:0:0:
252,156,68593,1,8,2:0:0:0:
252,156,68672,2,0,P|152:132|116:60,2,170,6|8|4,1:0|2:0|1:0,2:0:0:0:
272,32,69462,1,0,2:0:0:0:
412,184,69620,2,0,L|424:272,1,85,8|0,2:0|2:0,2:0:0:0:
234,312,69935,6,0,P|214:244|278:136,1,170,4|8,1:0|2:0,2:0:0:0:
344,343,70409,1,0,2:0:0:0:
120,336,70567,2,0,L|16:344,1,85,4|0,1:0|2:0,2:0:0:0:
268,176,70883,2,0,L|356:184,1,85,12|0,1:0|2:0,2:0:0:0:
92,212,71198,6,0,B|52:188|52:188|28:48,2,170,6|8|12,1:0|2:0|1:0,2:0:0:0:
272,72,71988,1,0,2:0:0:0:
156,120,72146,2,0,L|159:35,1,85,10|0,1:0|2:0,2:0:0:0:
344,152,72462,5,4,1:0:0:0:
260,96,72620,1,0,2:0:0:0:
488,72,72777,1,12,2:1:0:0:
464,172,72935,1,0,2:0:0:0:
364,136,73093,1,4,1:0:0:0:
348,36,73251,1,0,2:0:0:0:
480,208,73409,1,8,2:0:0:0:
324,264,73567,1,0,2:0:0:0:
500,236,73725,6,0,P|488:328|408:340,1,170,6|8,1:0|2:0,2:0:0:0:
160,312,74198,1,0,2:0:0:0:
252,196,74356,2,0,P|288:272|295:356,1,170,4|8,1:0|2:0,2:0:0:0:
36,328,74830,1,8,2:0:0:0:
36,328,74909,1,8,2:0:0:0:
36,328,74988,6,0,P|44:284|68:232,1,85,4|0,1:0|2:0,2:0:0:0:
216,84,75304,2,0,P|208:40|184:-12,1,85,12|0,2:1|2:0,2:0:0:0:
0,140,75620,2,0,P|44:132|96:108,1,85,4|0,1:0|2:0,2:0:0:0:
260,244,75935,2,0,P|216:236|164:212,1,85,8|0,2:0|2:0,2:0:0:0:
96,96,76251,5,4,1:0:0:0:
136,308,76409,1,0,2:0:0:0:
248,132,76567,1,12,1:0:0:0:
148,316,76725,1,0,2:0:0:0:
108,80,76883,1,4,1:0:0:0:
160,324,77041,1,0,2:0:0:0:
240,108,77198,1,12,1:0:0:0:
172,332,77356,1,0,2:0:0:0:
156,208,77514,5,4,1:0:0:0:
156,208,77593,1,10,2:3:0:0:
156,208,77672,2,0,L|96:216,1,42.5,10|2,2:3|2:3,2:0:0:0:
232,260,77830,1,10,2:3:0:0:
232,260,77909,1,10,2:3:0:0:
232,260,77988,2,0,L|292:268,1,42.5,10|2,2:3|2:3,2:0:0:0:
244,164,78146,5,2,2:3:0:0:
224,148,78225,1,2,2:3:0:0:
213,125,78304,1,2,2:3:0:0:
213,100,78383,1,2,2:3:0:0:
226,78,78462,1,10,2:0:0:0:
246,64,78541,1,10,2:0:0:0:
271,60,78620,1,10,2:0:0:0:
295,69,78698,1,10,2:0:0:0:
312,88,78777,6,0,P|392:80|392:0,1,170,6|8,1:0|2:0,2:0:0:0:
504,144,79251,1,0,2:0:0:0:
424,296,79409,2,0,P|408:256|403:214,1,85,4|0,1:0|2:0,2:0:0:0:
312,88,79725,2,0,P|305:130|288:168,1,85,8|0,1:0|2:0,2:0:0:0:
304,344,80041,6,0,P|268:280|168:300,2,170,4|8|4,1:0|2:0|1:0,2:0:0:0:
108,360,80830,1,0,2:0:0:0:
108,176,80988,2,0,L|112:92,1,85,12|0,1:0|2:0,2:0:0:0:
208,272,81304,5,4,1:0:0:0:
20,304,81462,1,0,2:0:0:0:
96,184,81620,1,8,2:0:0:0:
108,360,81777,1,0,2:0:0:0:
192,280,81935,1,4,1:0:0:0:
4,312,82093,1,0,2:0:0:0:
80,192,82251,1,8,2:0:0:0:
92,368,82409,1,0,2:0:0:0:
224,264,82567,6,0,L|316:268,1,85,4|0,1:0|2:0,2:0:0:0:
64,200,82883,2,0,L|60:108,1,85,12|0,1:0|2:0,2:0:0:0:
236,284,83198,2,0,L|328:288,1,85,4|0,1:0|2:0,2:0:0:0:
48,192,83514,2,0,L|44:100,1,85,12|0,1:0|2:0,2:0:0:0:
280,168,83830,6,0,B|320:172|320:172|344:164|344:164|412:180|476:128,1,170,4|8,1:0|2:0,2:0:0:0:
468,4,84304,1,0,2:0:0:0:
292,68,84462,2,0,P|252:64|208:44,1,85,4|8,1:0|2:0,2:0:0:0:
180,60,84698,1,8,2:0:0:0:
180,60,84777,2,0,B|156:92|156:92|160:172,1,85,8|0,2:0|2:0,2:0:0:0:
260,200,85093,6,0,B|252:288|252:288|212:332,2,140,0|2|2,1:2|2:0|2:0,2:0:0:0:
16,260,86041,2,0,B|192:180|260:356|504:228,1,500,2|0,2:0|2:0,2:0:0:0:
480,264,88725,5,2,2:3:0:0:
480,264,88804,1,2,2:3:0:0:
480,264,88883,2,0,P|448:184|464:104,1,160,4|2,1:2|2:3,2:0:0:0:
372,36,89356,1,2,2:3:0:0:
280,60,89514,1,2,2:3:0:0:
308,152,89672,1,2,2:3:0:0:
372,36,89830,1,8,2:0:0:0:
196,156,89988,1,8,2:0:0:0:
387,248,90146,5,8,2:0:0:0:
280,60,90304,1,8,2:0:0:0:
248,278,90462,1,8,2:0:0:0:
248,278,90541,1,8,2:0:0:0:
248,278,90620,1,8,2:0:0:0:
104,208,90777,2,0,P|144:200|192:176,1,80,8|0,2:0|2:0,2:0:0:0:
28,140,91093,2,0,P|4:184|4:244,1,80,2|10,2:0|2:0,2:0:0:0:
16,252,91330,1,10,2:0:0:0:
16,252,91409,6,0,B|40:284|40:284|32:320|4:356|4:356|36:348|64:344,1,160,12|8,1:2|2:0,2:0:0:0:
224,280,91883,2,0,P|268:282|332:304,1,80,2|0,2:3|2:3,2:0:0:0:
152,360,92198,1,0,2:0:0:0:
179,184,92356,1,8,2:0:0:0:
320,328,92514,1,0,2:0:0:0:
384,220,92672,6,0,L|396:44,1,160,0|8,1:0|2:0,2:0:0:0:
480,272,93146,1,0,2:0:0:0:
512,144,93304,1,2,2:3:0:0:
512,144,93462,1,0,2:0:0:0:
352,236,93620,1,10,2:0:0:0:
352,236,93777,1,0,2:0:0:0:
296,80,93935,6,0,P|240:36|150:64,1,160,0|8,1:0|2:0,2:0:0:0:
36,32,94409,2,0,P|48:72|48:120,1,80,0|0,1:0|0:0,2:0:0:0:
204,200,94725,1,8,2:0:0:0:
204,200,94883,2,0,P|205:160|217:121,1,80,0|4,2:2|2:1,2:0:0:0:
80,144,95198,6,0,P|40:145|2:156,1,80,0|0,1:0|2:0,2:0:0:0:
116,312,95514,2,0,P|188:340|288:312,2,160,8|10|8,2:0|2:3|2:0,2:0:0:0:
336,236,96304,1,8,2:0:0:0:
336,236,96383,1,8,2:0:0:0:
336,236,96462,6,0,P|391:271|503:255,1,160,2|0,1:0|2:0,2:0:0:0:
468,96,96935,2,0,P|444:128|428:184,1,80,8|0,2:0|2:3,2:0:0:0:
260,92,97251,1,8,2:0:0:0:
260,92,97330,1,8,2:0:0:0:
260,92,97409,2,0,L|155:73,1,80,8|8,2:0|2:0,2:0:0:0:
376,24,97725,5,2,1:0:0:0:
328,204,97883,1,0,2:0:0:0:
352,32,98041,1,8,2:0:0:0:
204,164,98198,2,0,L|124:167,1,80,8|0,2:0|2:3,2:0:0:0:
16,8,98514,1,10,2:0:0:0:
16,8,98672,2,0,L|108:20,1,80,0|0,1:0|2:0,2:0:0:0:
8,152,98988,6,0,P|9:189|28:240,1,80,2|0,1:0|2:0,2:0:0:0:
83,303,99304,2,0,P|115:320|169:329,1,80,4|0,2:0|2:0,2:0:0:0:
408,320,99620,2,0,P|375:302|321:293,1,80,10|0,2:0|2:0,2:0:0:0:
300,204,99935,2,0,P|268:223|233:265,1,80,8|0,2:0|2:0,2:0:0:0:
488,256,100251,5,12,2:0:0:0:
488,256,100330,1,8,2:0:0:0:
488,256,100409,2,0,L|500:196,1,40,8|8,2:0|2:0,2:0:0:0:
400,208,100567,1,8,2:0:0:0:
400,208,100646,1,8,2:0:0:0:
400,208,100725,2,0,L|412:148,1,40,8|8,2:0|2:0,2:0:0:0:
512,64,100883,5,14,2:0:0:0:
505,66,100962,1,2,2:0:0:0:
497,68,101041,1,2,2:0:0:0:
489,70,101120,1,2,2:0:0:0:
481,72,101198,1,10,2:0:0:0:
474,74,101277,1,2,2:0:0:0:
466,75,101356,1,2,2:0:0:0:
458,77,101435,1,2,2:0:0:0:
449,78,101514,6,0,P|372:72|316:126,2,160,4|8|2,1:2|2:0|2:3,2:0:0:0:
407,168,102304,1,0,2:3:0:0:
224,176,102462,2,0,L|218:83,1,80,8|0,2:0|2:0,2:0:0:0:
407,168,102777,6,0,L|387:328,2,160,4|8|2,1:2|2:0|2:3,2:0:0:0:
284,260,103567,1,0,2:3:0:0:
500,260,103725,2,0,L|508:342,1,80,8|0,2:0|2:0,2:0:0:0:
492,120,104041,6,0,P|432:72|348:92,1,160,4|8,1:2|2:0,2:0:0:0:
168,132,104514,1,0,2:0:0:0:
168,132,104672,2,0,P|208:148|272:144,1,80,0|0,1:0|2:0,2:0:0:0:
408,168,104988,2,0,L|400:252,1,80,8|0,2:0|2:0,2:0:0:0:
208,324,105304,6,0,P|128:316|52:360,1,160,4|8,1:2|2:0,2:0:0:0:
80,180,105777,1,0,2:0:0:0:
80,180,105935,2,0,B|116:208|116:208|128:300,2,120,2|2|2,2:3|2:3|2:3,2:0:0:0:
236,304,106567,6,0,P|276:236|244:144,1,160,4|8,1:2|2:0,2:0:0:0:
52,40,107041,1,2,2:3:0:0:
72,136,107198,1,0,2:0:0:0:
168,120,107356,1,0,2:0:0:0:
268,28,107514,2,0,L|360:40,1,80,8|0,2:0|2:0,2:0:0:0:
488,112,107830,6,0,P|448:168|352:124,1,160,4|8,1:2|2:0,2:0:0:0:
452,8,108304,1,8,2:0:0:0:
367,151,108462,2,0,B|352:188|352:188|380:248|348:308,1,160,4|8,1:2|2:0,2:0:0:0:
258,160,108935,1,8,2:0:0:0:
464,260,109093,5,12,2:0:0:0:
272,340,109251,1,8,2:0:0:0:
468,272,109409,1,12,2:0:0:0:
276,352,109567,1,8,2:0:0:0:
188,212,109725,5,12,2:0:0:0:
350,303,109883,1,8,2:0:0:0:
184,224,110041,1,12,2:0:0:0:
346,315,110198,1,8,2:0:0:0:
488,156,110356,5,12,1:2:0:0:
316,216,110514,1,8,2:0:0:0:
316,216,110593,1,8,2:0:0:0:
316,216,110672,1,12,2:0:0:0:
360,120,110830,1,8,2:0:0:0:
440,244,110988,1,12,2:0:0:0:
440,244,111067,1,8,2:0:0:0:
440,244,111146,1,8,2:0:0:0:
316,216,111304,2,0,L|212:224,1,80,12|8,2:0|2:0,2:0:0:0:
60,280,111620,6,0,L|48:176,1,100,4|0,3:0|2:0,2:0:0:0:
48,292,112883,2,0,L|36:188,1,100,4|0,3:0|2:0,2:0:0:0:
38,304,114146,2,0,L|26:205,1,100,8|0,3:0|2:0,2:0:0:0:
26,316,115409,2,0,L|14:217,1,100,8|0,3:0|2:0,2:0:0:0:
324,72,116672,6,0,L|423:60,1,100,8|0,3:0|2:0,2:0:0:0:
336,84,117935,2,0,L|435:72,1,100,8|0,3:0|2:0,2:0:0:0:
348,94,119198,2,0,L|448:82,1,100,8|0,3:0|2:0,2:0:0:0:
360,106,120462,2,0,L|460:94,1,100,8|0,3:0|2:0,2:0:0:0:
204,284,121725,6,0,P|248:316|328:292,1,120,0|0,1:0|1:0,2:0:0:0:
328,224,122198,1,0,2:0:0:0:
328,224,122356,2,0,P|284:192|204:216,1,120,8|0,2:0|2:0,2:0:0:0:
24,320,122988,6,0,L|8:176,1,120,0|0,1:0|1:0,2:0:0:0:
96,156,123461,1,0,2:0:0:0:
96,156,123619,2,0,L|112:300,1,120,8|0,2:0|2:0,2:0:0:0:
56,60,124251,6,0,P|120:56|180:104,1,120,0|0,1:0|1:0,2:0:0:0:
248,60,124725,1,0,2:0:0:0:
248,60,124882,2,0,P|306:65|358:35,1,120,8|0,2:0|2:0,2:0:0:0:
512,168,125514,6,0,B|428:160|428:160|384:184,1,120,0|0,1:0|1:0,2:0:0:0:
356,252,125988,1,0,2:0:0:0:
356,252,126146,2,0,B|324:269|324:269|240:261,1,120,8|8,2:0|2:0,2:0:0:0:
168,220,126619,1,0,2:0:0:0:
88,244,126777,5,6,2:0:0:0:
172,52,129303,1,10,2:0:0:0:
172,52,129461,1,8,2:0:0:0:
328,88,129619,1,10,2:0:0:0:
328,88,129777,1,8,2:0:0:0:
212,128,129935,1,10,2:0:0:0:
288,188,130093,1,8,2:0:0:0:
232,268,130251,1,10,2:0:0:0:
268,360,130409,1,8,2:0:0:0:
172,168,130567,5,14,1:2:0:0:
340,296,130725,1,10,2:0:0:0:
380,180,130882,1,10,2:0:0:0:
216,284,131040,1,10,2:0:0:0:
188,148,131198,5,8,2:0:0:0:
324,280,131356,1,8,2:0:0:0:
360,164,131514,1,8,2:0:0:0:
210,299,131672,1,8,2:0:0:0:
120,232,131830,5,6,2:0:0:0:
120,232,133093,5,2,2:0:0:0:
120,232,134356,6,0,P|92:200|92:128,1,100,2|0,2:0|2:0,2:0:0:0:
312,76,134988,2,0,P|342:114|345:163,1,100,2|0,2:0|2:0,2:0:0:0:
168,164,135619,6,0,L|176:96,1,50,2|0,2:0|2:0,2:0:0:0:
260,152,135935,1,0,2:0:0:0:
260,152,136093,2,0,L|265:201,1,50,0|0,2:0|2:0,2:0:0:0:
224,272,136409,1,2,2:3:0:0:
274,333,136567,1,2,2:3:0:0:
349,304,136725,1,2,2:3:0:0:
345,223,136882,6,0,P|380:168|480:184,1,140,14|2,2:0|2:3,2:0:0:0:
504,228,137356,1,2,2:3:0:0:
480,80,137514,1,2,2:3:0:0:
368,136,137672,1,2,2:3:0:0:
392,24,137830,1,2,2:3:0:0:
260,152,137988,1,8,2:0:0:0:
232,36,138146,5,10,2:0:0:0:
55,203,138303,1,8,2:0:0:0:
116,0,138461,1,8,2:0:0:0:
170,237,138619,1,8,2:0:0:0:
28,82,138777,1,8,2:0:0:0:
259,155,138935,1,8,2:0:0:0:
55,203,139093,1,8,2:0:0:0:
232,36,139251,1,8,2:0:0:0:
6,60,143830,6,0,L|17:129,1,60,8|8,2:0|2:0,2:0:0:0:
98,190,143988,2,0,L|109:121,1,60,8|8,2:0|2:0,2:0:0:0:
173,59,144146,1,10,2:0:0:0:
201,51,144225,1,10,2:0:0:0:
231,56,144303,1,10,2:0:0:0:
256,71,144382,1,8,2:0:0:0:
273,96,144461,6,0,L|460:73,1,180,6|8,1:0|2:0,2:0:0:0:
346,259,144934,1,8,2:0:0:0:
346,259,145013,1,8,2:0:0:0:
346,259,145092,2,0,L|337:143,1,89.9999999999999,4|0,1:0|2:0,2:0:0:0:
194,105,145408,1,8,2:0:0:0:
312,16,145566,1,0,2:0:0:0:
247,215,145724,6,0,L|144:202,1,89.9999999999999,4|0,1:0|2:0,2:0:0:0:
23,319,146039,2,0,L|126:306,1,89.9999999999999,8|0,2:0|2:0,2:0:0:0:
192,298,146355,1,4,1:0:0:0:
80,194,146513,1,0,2:0:0:0:
214,36,146671,2,0,L|199:136,1,89.9999999999999,4|0,1:0|2:0,2:0:0:0:
6,160,146987,6,0,P|32:126|98:117,1,89.9999999999999,4|0,1:0|2:0,2:0:0:0:
126,279,147303,2,0,L|11:265,1,89.9999999999999,8|0,2:0|2:0,2:0:0:0:
186,204,147618,1,4,1:0:0:0:
248,364,147776,1,0,2:0:0:0:
343,269,147934,2,0,L|458:255,1,89.9999999999999,8|0,2:0|2:0,2:0:0:0:
270,281,148250,5,4,1:0:0:0:
350,89,148408,1,0,2:0:0:0:
282,285,148566,1,8,2:0:0:0:
362,93,148724,1,0,2:0:0:0:
313,167,148882,5,4,1:0:0:0:
222,5,149039,1,0,2:0:0:0:
234,1,149197,1,12,1:0:0:0:
325,163,149355,1,0,2:0:0:0:
159,85,149513,6,0,B|108:69|108:69|43:111|77:193,1,180,4|8,1:0|2:0,2:0:0:0:
120,258,149987,1,0,2:0:0:0:
30,273,150145,2,0,P|73:337|174:331,1,180,4|8,1:0|2:0,2:0:0:0:
279,271,150618,1,0,2:0:0:0:
370,199,150776,6,0,L|261:181,1,89.9999999999999,4|0,1:0|2:0,2:0:0:0:
353,313,151092,2,0,L|462:295,1,89.9999999999999,8|0,2:0|2:0,2:0:0:0:
195,141,151408,2,0,L|210:241,1,89.9999999999999,4|0,1:0|2:0,2:0:0:0:
61,352,151724,2,0,L|76:252,1,89.9999999999999,12|0,1:0|2:0,2:0:0:0:
210,320,152039,5,4,1:0:0:0:
8,224,152197,1,0,2:0:0:0:
214,308,152355,1,8,2:0:0:0:
12,212,152513,1,0,2:0:0:0:
230,135,152671,5,4,1:0:0:0:
27,32,152829,1,8,2:0:0:0:
27,32,152908,1,8,2:0:0:0:
27,32,152987,1,12,1:0:0:0:
108,245,153145,1,10,2:0:0:0:
228,47,153303,5,12,1:0:0:0:
228,47,153382,1,8,2:0:0:0:
228,47,153461,1,8,2:1:0:0:
306,82,153618,2,0,P|352:78|406:64,1,89.9999999999999,8|8,2:0|2:0,2:0:0:0:
506,203,153934,1,8,2:0:0:0:
475,188,154013,1,8,2:0:0:0:
442,187,154092,1,8,2:0:0:0:
410,198,154171,1,8,2:0:0:0:
386,221,154250,1,10,2:0:0:0:
373,252,154329,1,10,2:0:0:0:
372,286,154408,1,10,2:0:0:0:
385,317,154487,1,10,2:0:0:0:
409,340,154566,6,0,L|227:319,1,180,6|8,1:0|2:0,2:0:0:0:
145,375,155039,1,0,2:0:0:0:
245,217,155197,1,4,1:0:0:0:
81,152,155355,1,0,2:0:0:0:
231,320,155513,1,8,2:0:0:0:
26,364,155671,1,0,2:0:0:0:
157,236,155829,6,0,L|257:214,1,89.9999999999999,4|0,1:0|2:0,2:0:0:0:
89,77,156145,2,0,P|41:85|10:133,1,89.9999999999999,8|0,2:0|2:0,2:0:0:0:
199,137,156461,2,0,L|210:45,1,89.9999999999999,4|0,1:0|2:0,2:0:0:0:
67,207,156776,2,0,L|78:299,1,89.9999999999999,12|0,1:0|2:0,2:0:0:0:
240,327,157092,5,4,1:0:0:0:
418,215,157250,1,0,2:0:0:0:
384,360,157408,1,8,2:0:0:0:
273,182,157566,1,0,2:0:0:0:
227,334,157724,1,4,1:0:0:0:
430,207,157882,1,0,2:0:0:0:
391,372,158039,1,8,1:0:0:0:
265,169,158197,1,0,2:0:0:0:
215,346,158355,6,0,L|111:331,1,89.9999999999999,4|0,1:0|2:0,2:0:0:0:
9,279,158671,2,0,P|54:272|87:234,1,89.9999999999999,12|0,1:0|2:0,2:0:0:0:
178,170,158908,1,8,2:0:0:0:
178,170,158987,2,0,L|163:277,1,89.9999999999999,4|0,1:0|2:0,2:0:0:0:
150,363,159303,1,12,1:0:0:0:
7,141,159461,5,8,2:0:0:0:
7,141,159539,1,8,2:0:0:0:
7,141,159618,2,0,P|62:145|116:41,1,180,4|8,1:0|2:0,2:0:0:0:
239,0,160092,1,0,2:0:0:0:
178,170,160250,2,0,L|393:142,1,180,4|8,1:0|2:0,2:0:0:0:
431,237,160724,1,0,2:0:0:0:
493,97,160882,6,0,L|505:4,1,89.9999999999999,4|0,1:0|2:0,2:0:0:0:
425,245,161197,2,0,L|437:338,1,89.9999999999999,12|0,1:0|2:0,2:0:0:0:
452,169,161513,2,0,P|407:166|368:192,1,89.9999999999999,4|0,1:0|2:0,2:0:0:0:
268,103,161829,2,0,P|223:106|184:80,1,89.9999999999999,12|0,1:0|2:0,2:0:0:0:
56,145,162145,6,0,L|41:291,1,135,14|0,1:0|2:0,2:0:0:0:
112,377,162461,1,8,2:0:0:0:
125,346,162539,1,8,2:0:0:0:
150,324,162618,1,8,2:0:0:0:
182,313,162697,1,8,2:0:0:0:
215,317,162776,6,0,L|361:330,1,135,14|0,1:0|2:0,2:0:0:0:
467,246,163092,1,8,2:0:0:0:
423,253,163171,1,8,2:0:0:0:
382,236,163250,1,8,2:0:0:0:
356,200,163329,1,8,2:0:0:0:
353,156,163408,6,0,L|365:42,1,89.9999999999999,14|0,1:0|2:0,2:0:0:0:
268,103,163645,1,8,2:0:0:0:
268,103,163724,2,0,P|226:113|177:49,1,89.9999999999999,8|8,2:0|2:0,2:0:0:0:
82,224,163961,5,8,2:0:0:0:
82,224,164039,2,0,L|157:216,2,60,12|8|8,3:0|3:0|3:0,2:0:0:0:
235,193,164355,2,0,L|226:252,1,60,2|0,3:0|2:0,2:0:0:0:
163,317,164671,6,0,P|210:342|307:283,1,150,12|0,3:0|2:3,2:0:0:0:
400,365,165145,1,0,2:3:0:0:
400,365,165303,2,0,L|384:193|384:193,1,150,8|0,2:0|2:0,2:0:0:0:
113,62,165934,6,0,L|17:49,2,75,0|0|0,1:0|2:0|2:0,2:0:0:0:
202,0,166566,1,0,1:0:0:0:
192,74,166724,1,0,2:0:0:0:
183,148,166882,2,0,L|173:222,1,75,0|0,2:0|2:0,2:0:0:0:
64,301,167197,6,0,P|114:295|180:375,1,150,4|0,1:2|2:0,2:0:0:0:
248,280,167671,1,0,2:0:0:0:
248,280,167829,2,0,L|374:289,1,112.5,4|0,1:2|2:0,2:0:0:0:
384,271,168145,2,0,P|401:233|388:184,1,75,4|0,1:2|2:0,2:0:0:0:
270,40,168461,6,0,P|305:100|394:87,1,150,12|0,2:0|2:0,2:0:0:0:
459,135,168934,1,0,2:0:0:0:
459,135,169092,2,0,L|466:43,1,75,12|0,2:0|2:0,2:0:0:0:
340,38,169408,1,8,2:0:0:0:
88,205,169724,6,0,L|25:196,2,55,6|2|2,1:2|2:0|2:0,2:0:0:0:
166,216,170197,1,2,2:0:0:0:
166,216,170987,6,0,L|229:225,2,55,2|2|2,2:0|2:0|2:0,2:0:0:0:
88,205,171461,1,2,2:0:0:0:
299,241,171776,5,2,2:0:0:0:
299,241,171934,1,2,2:0:0:0:
374,289,172250,6,0,L|387:225,1,55,8|0,2:0|2:0,2:0:0:0:
447,329,172566,2,0,L|460:265,1,55,8|0,2:0|2:0,2:0:0:0:
325,88,172882,6,0,L|310:159,1,70,8|0,2:0|2:0,2:0:0:0:
243,43,173197,2,0,L|228:114,1,70,8|0,2:0|2:0,2:0:0:0:
78,236,173513,69,12,1:2:0:0:
104,254,173592,1,8,2:0:0:0:
136,260,173671,1,10,2:0:0:0:
168,254,173750,1,8,2:0:0:0:
195,235,173829,2,0,L|212:180,1,45,10|8,2:0|2:0,2:0:0:0:
270,128,173987,5,10,2:0:0:0:
296,109,174066,1,10,2:0:0:0:
327,103,174145,1,10,2:0:0:0:
358,109,174224,1,10,2:0:0:0:
385,128,174303,2,0,L|406:177,1,45,10|10,2:0|2:0,2:0:0:0:
327,247,174461,5,10,2:0:0:0:
320,242,174539,1,10,2:0:0:0:
314,237,174618,2,0,L|325:177,1,45,10|8,2:0|2:0,2:0:0:0:
475,27,175092,6,0,P|428:94|331:68,1,180,6|4,1:0|2:0,2:0:0:0:
290,23,175566,1,0,2:0:0:0:
202,186,175724,2,0,L|316:174,1,89.9999999999999,8|0,2:0|2:0,2:0:0:0:
159,114,176039,6,0,P|123:147|118:191,1,89.9999999999999,4|0,1:0|2:0,2:0:0:0:
250,351,176355,2,0,L|262:255,1,89.9999999999999,8|0,2:0|2:0,2:0:0:0:
377,120,176671,2,0,L|389:216,1,89.9999999999999,4|0,1:0|2:0,2:0:0:0:
437,323,176987,2,0,L|336:313,1,89.9999999999999,8|0,2:0|2:0,2:0:0:0:
208,272,177303,5,4,1:0:0:0:
20,304,177461,1,0,2:0:0:0:
96,184,177618,1,8,2:0:0:0:
108,360,177776,1,0,2:0:0:0:
199,283,177934,1,4,1:0:0:0:
11,315,178092,1,0,2:0:0:0:
87,195,178250,1,8,2:0:0:0:
99,371,178408,1,0,2:0:0:0:
263,213,178566,6,0,P|315:223|345:255,1,89.9999999999999,12|0,1:0|2:0,2:0:0:0:
443,307,178882,2,0,L|433:208,1,89.9999999999999,14|0,1:0|2:0,2:0:0:0:
494,58,179197,2,0,P|461:106|369:83,1,135,12|0,1:0|2:0,2:0:0:0:
380,92,179513,2,0,L|330:89,1,45,14|0,1:0|2:0,2:0:0:0:
159,31,179671,5,8,2:0:0:0:
159,31,179750,1,8,2:0:0:0:
159,31,179829,2,0,L|177:213,1,180,12|8,1:0|2:0,2:0:0:0:
122,366,180303,1,0,2:3:0:0:
298,252,180461,1,4,1:0:0:0:
90,130,180618,5,8,2:0:0:0:
46,127,180697,1,8,2:0:0:0:
10,153,180776,1,10,2:0:0:0:
1,196,180855,1,10,2:0:0:0:
21,235,180934,2,0,P|36:244|50:276,1,45,10|0,2:0|2:0,2:0:0:0:
29,349,181092,5,14,2:0:0:0:
209,343,181408,1,2,2:0:0:0:
315,197,181724,1,2,2:0:0:0:
256,25,182039,5,6,2:3:0:0:
256,192,182118,12,0,184803,2:0:0:0:
