osu file format v14

[General]
AudioFilename: audio.ogg
AudioLeadIn: 0
PreviewTime:142251
Countdown: 0
SampleSet: Soft
StackLeniency: 0.5
Mode: 0
LetterboxInBreaks: 0
WidescreenStoryboard: 1

[Editor]
DistanceSpacing: 1.4
BeatDivisor: 4
GridSize: 4
TimelineZoom: 2

[Metadata]
Title:Re: Hatsukoi no Ehon feat. Aida Miou (CV: Toyosaki Aki)
TitleUnicode:Re:初恋の絵本 feat. 合田美桜(CV:豊崎愛生)
Artist:HoneyWorks
ArtistUnicode:HoneyWorks
Creator:Setu
Version:Hard
Source:いつだって僕らの恋は10センチだった。
Tags:We have always been 10 cm apart. 告白実行委員会 Kokuhaku Jikkou Iinkai japanese pop anime shiratamamywife dahkjdas coloured_glazee coloured glazee narcissu strengemistake itsudatte bokura no koi wa datta. centi 好きすぎてやばい。 ~告白実行委員会キャラクターソング集~ 東京ウインターセッション Sukisugiteyabai Kokuhakujikkouiinkai Character Song Shu Tokyo Winter Session
BeatmapID:3450928
BeatmapSetID:1688656

[Difficulty]
HPDrainRate:4
CircleSize:4
OverallDifficulty:6
ApproachRate:8
SliderMultiplier:1.2
SliderTickRate:1

[Events]
//Background and Video events
0,0,"bg.png",0,0
//Break Periods
2,25925,27501
2,41083,45185
2,63820,65396
2,126977,128553
2,140872,142251
2,169924,171500
//Storyboard Layer 0 (Background)
//Storyboard Layer 1 (Fail)
//Storyboard Layer 2 (Pass)
//Storyboard Layer 3 (Foreground)
//Storyboard Layer 4 (Overlay)
//Storyboard Sound Samples

[TimingPoints]
411,472.44094488189,4,2,1,35,1,0
1357,431.654676258993,4,2,1,35,1,0
2225,413.793103448276,4,2,1,35,1,0
3053,422.535211267606,4,2,1,35,1,0
4750,422.535211267606,4,2,1,35,1,0
6440,421.792618629174,4,2,1,35,1,0
8130,419.58041958042,4,2,1,35,1,0
8973,431.654676258993,4,2,1,35,1,0
9841,495.867768595041,4,2,1,35,1,0
12327,405.405405405406,4,2,1,35,1,0
14357,315.789473684211,4,2,1,35,1,0
15620,315.789473684211,4,2,1,50,1,0
15620,-100,4,2,1,50,0,0
24146,-100,4,2,1,60,0,0
25725,-232.558139534884,4,2,1,60,0,0
28251,-232.558139534884,4,2,1,30,0,0
28409,-100,4,2,1,30,0,0
28725,-100,4,2,1,40,0,0
29041,-100,4,2,1,50,0,0
29357,-100,4,2,1,60,0,0
30778,-100,4,2,1,40,0,0
39620,-100,4,2,1,50,0,0
40883,-100,4,2,1,30,0,0
45935,-100,4,2,1,50,0,0
46883,-100,4,2,1,60,0,0
48146,-125,4,2,1,40,0,0
48462,-100,4,2,1,50,0,0
63620,-100,4,2,1,40,0,0
66146,-100,4,2,1,50,0,0
66778,-100,4,2,1,60,0,0
68672,-83.3333333333333,4,2,1,70,0,0
77514,-83.3333333333333,4,2,1,50,0,0
78146,-83.3333333333333,4,2,1,65,0,0
78778,-83.3333333333333,4,2,1,70,0,0
85093,-111.111111111111,4,2,1,50,0,0
87304,-111.111111111111,4,2,1,5,0,0
88251,-142.857142857143,4,2,1,50,0,0
88883,-100,4,2,1,50,0,0
89830,-100,4,2,1,60,0,0
101514,-83.3333333333333,4,2,1,60,0,0
111620,631.578947368421,4,2,1,30,1,0
121725,315.789473684211,4,2,1,40,1,0
121725,-142.857142857143,4,2,1,40,0,0
129303,-100,4,2,1,50,0,0
129935,-100,4,2,1,60,0,0
131830,-100,4,2,1,30,0,0
134356,-166.666666666667,4,2,1,40,0,0
134988,-166.666666666667,4,2,1,50,0,0
136882,-100,4,2,1,50,0,0
138146,-100,4,2,1,60,0,0
138777,-100,4,2,1,70,0,0
139409,-166.666666666667,4,2,1,30,0,0
143830,-100,4,2,1,60,0,0
144461,315.789473684211,4,2,1,70,1,0
144461,-76.9230769230769,4,2,1,70,0,0
153303,-76.9230769230769,4,2,1,50,0,0
153935,-76.9230769230769,4,2,1,65,0,0
154567,-76.9230769230769,4,2,1,70,0,0
162146,-76.9230769230769,4,2,1,70,0,0
164671,-100,4,2,1,50,0,0
169724,-200,4,2,1,50,0,0
172250,-100,4,2,1,50,0,0
172882,-100,4,2,1,60,0,0
173514,-100,4,2,1,70,0,0
175092,-76.9230769230769,4,2,1,70,0,0
181092,-142.857142857143,4,2,1,50,0,0
187409,419.58041958042,4,2,1,50,1,0
187828,370.37037037037,4,2,1,50,1,0
188198,379.746835443038,4,2,1,50,1,0
190096,425.531914893617,4,2,1,50,1,0
190947,372.670807453416,4,2,1,50,1,0
191319,419.58041958042,4,2,1,50,1,0
191738,441.176470588235,4,2,1,50,1,0
193061,550.45871559633,4,2,1,50,1,0
193611,769.230769230769,4,2,1,50,1,0
194380,560.747663551402,4,2,1,50,1,0
194660,631.578947368421,4,2,1,50,1,0
195923,789.473684210526,4,2,1,50,1,0
196317,845.070422535211,4,2,1,50,1,0
196528,1153.84615384615,4,2,1,50,1,0
197104,1176.47058823529,4,2,1,50,1,0

[Colours]
Combo1 : 255,128,192
Combo2 : 255,128,0
Combo3 : 255,128,128
Combo4 : 128,255,255

[HitObjects]
36,60,14988,6,0,B|150:37|108:103|222:73,1,180,8|2,2:0|2:3,2:0:0:0:
272,19,15620,6,0,P|297:78|276:131,1,120,4|0,1:0|2:0,2:0:0:0:
204,168,16093,2,0,P|179:226|200:279,1,120,2|8,2:3|2:0,2:0:0:0:
276,224,16567,2,0,L|343:209,1,60,0|0,2:0|2:0,2:0:0:0:
391,287,16883,6,0,P|326:301|268:318,1,120,4|0,1:0|2:0,2:0:0:0:
168,337,17356,1,2,2:3:0:0:
168,337,17514,2,0,L|182:266,1,60,0|0,2:3|2:3,2:0:0:0:
114,211,17830,2,0,L|100:140,1,60,8|0,2:0|2:0,2:0:0:0:
136,74,18146,6,0,P|176:61|231:129,1,120,4|8,1:0|2:0,2:0:0:0:
306,155,18620,1,2,2:3:0:0:
306,155,18777,2,0,P|279:175|265:216,1,60,2|2,2:3|2:3,2:0:0:0:
195,242,19093,2,0,P|222:262|236:303,1,60,8|0,2:0|2:0,2:0:0:0:
299,369,19409,6,0,L|170:347,1,120,4|2,1:0|2:3,2:0:0:0:
94,365,19883,1,8,2:0:0:0:
42,298,20041,2,0,P|39:282|46:261,3,30,2|2|2|2,2:3|2:3|2:3|2:3,2:0:0:0:
62,231,20356,2,0,P|65:215|58:194,3,30,8|8|8|8,2:0|2:0|2:0|2:0,2:0:0:0:
36,168,20672,6,0,L|54:41,1,120,4|8,1:0|2:0,2:0:0:0:
129,14,21146,2,0,P|159:22|189:57,1,60,2|0,2:3|2:3,2:0:0:0:
160,123,21462,2,0,L|282:104,1,120,8|0,2:0|2:0,2:0:0:0:
327,36,21935,6,0,P|362:71|419:74,2,90,4|8|8,1:0|2:0|2:0,2:0:0:0:
278,104,22567,2,0,P|286:146|271:177,1,60,8|8,2:0|2:0,2:0:0:0:
253,194,22804,1,10,2:0:0:0:
253,194,22883,2,0,P|248:219|257:238,3,30,8|8|8|8,2:0|2:0|2:0|2:0,2:0:0:0:
278,253,23198,6,0,L|269:323,1,60,4|0,1:0|2:0,2:0:0:0:
346,347,23514,2,0,L|353:287,1,60,2|2,2:3|2:3,2:0:0:0:
184,279,23830,6,0,L|193:349,1,60,2|2,2:3|2:3,2:0:0:0:
116,373,24146,2,0,L|108:313,1,60,2|2,2:3|2:3,2:0:0:0:
35,269,24462,6,0,P|69:244|84:216,1,60,8|8,2:0|2:0,2:0:0:0:
36,162,24777,1,8,2:0:0:0:
36,162,24935,1,8,2:0:0:0:
101,108,25093,2,0,P|124:105|141:112,3,30,4|8|8|8,1:0|2:0|2:0|2:0,2:0:0:0:
162,134,25409,2,0,P|185:137|202:130,3,30,10|10|10|10,2:0|2:0|2:0|2:0,2:0:0:0:
220,103,25725,5,10,2:0:0:0:
360,355,28251,5,10,2:0:0:0:
290,308,28409,2,0,P|275:305|260:306,2,30,8|8|8,2:0|2:0|2:0,2:0:0:0:
188,351,28725,2,0,P|174:353|159:352,2,30,8|8|8,2:0|2:0|2:0,2:0:0:0:
98,294,29041,2,0,P|83:291|68:292,2,30,8|8|8,2:0|2:0|2:0,2:0:0:0:
163,240,29356,2,0,L|168:197,2,30,8|8|0,2:0|2:0|2:0,2:0:0:0:
432,35,30777,6,0,L|443:114,1,60,6|0,2:3|2:0,2:0:0:0:
382,155,31093,1,2,2:3:0:0:
382,155,31251,1,0,2:0:0:0:
443,211,31409,2,0,P|402:237|316:207,1,120,2|2,2:3|2:3,2:0:0:0:
290,159,31883,1,0,2:0:0:0:
290,159,32041,6,0,L|308:36,2,120,2|2|2,2:3|2:3|2:3,2:0:0:0:
203,303,32988,2,0,P|170:307|130:290,1,60,2|0,2:3|2:0,2:0:0:0:
67,333,33304,6,0,L|56:254,1,60,2|0,2:3|2:0,2:0:0:0:
117,213,33620,2,0,L|122:147,1,60,2|0,2:3|2:0,2:0:0:0:
73,91,33935,2,0,P|128:73|186:106,1,120,2|2,2:3|2:3,2:0:0:0:
212,183,34409,1,0,2:3:0:0:
212,183,34567,6,0,L|201:321,2,120,2|2|2,2:3|2:3|2:3,2:0:0:0:
157,125,35356,1,0,2:0:0:0:
157,125,35514,2,0,L|147:64,1,60,2|0,2:3|2:0,2:0:0:0:
212,12,35830,6,0,P|246:4|281:15,1,60,2|0,2:3|2:0,2:0:0:0:
325,72,36146,2,0,P|359:80|394:69,1,60,2|0,2:3|2:0,2:0:0:0:
470,38,36462,2,0,L|461:113,1,60,2|0,2:3|2:0,2:0:0:0:
397,157,36777,2,0,L|406:232,1,60,2|0,2:3|2:0,2:0:0:0:
441,292,37093,6,0,P|414:306|369:289,1,60,2|0,2:3|2:0,2:0:0:0:
326,242,37409,2,0,P|298:228|253:245,1,60,2|0,2:3|2:0,2:0:0:0:
285,315,37725,2,0,L|295:383,1,60,2|0,2:3|2:0,2:0:0:0:
210,360,38041,2,0,L|201:300,1,60,2|0,2:3|2:0,2:0:0:0:
188,221,38356,5,2,2:3:0:0:
188,221,38514,1,0,2:0:0:0:
121,272,38672,2,0,P|91:273|53:248,1,60,2|0,2:3|2:0,2:0:0:0:
111,189,38988,2,0,L|120:118,1,60,2|0,2:3|2:0,2:0:0:0:
66,70,39304,1,2,2:3:0:0:
66,70,39462,1,0,2:0:0:0:
129,15,39620,6,0,P|169:57|240:49,1,120,8|8,1:0|2:0,2:0:0:0:
311,34,40093,1,0,1:3:0:0:
311,34,40251,2,0,L|299:114,1,60,8|0,1:0|2:3,2:0:0:0:
232,141,40567,2,0,L|244:221,1,60,6|0,2:3|2:3,2:0:0:0:
303,257,40883,5,6,1:0:0:0:
59,344,45935,5,12,1:2:0:0:
59,344,46251,6,0,L|50:276,1,60,2|2,2:3|2:3,2:0:0:0:
142,224,46567,2,0,L|133:292,1,60,2|2,2:3|2:3,2:0:0:0:
226,343,46883,2,0,L|217:275,1,60,8|8,2:0|2:0,2:0:0:0:
279,225,47198,5,8,2:0:0:0:
279,225,47356,1,8,2:0:0:0:
356,203,47514,1,8,2:0:0:0:
356,203,47672,1,8,2:0:0:0:
427,233,47830,2,0,P|451:244|479:276,1,60,8|0,2:0|2:0,2:0:0:0:
481,167,48146,6,0,P|467:132|466:98,1,72,12|0,1:2|2:0,2:0:0:0:
487,64,48462,2,0,P|437:87|377:60,1,120,4|8,1:0|2:1,2:0:0:0:
328,130,48935,1,0,2:0:0:0:
328,130,49093,2,0,P|297:117|221:175,1,120,4|8,1:0|2:0,2:0:0:0:
172,97,49567,1,0,2:0:0:0:
172,97,49725,6,0,P|124:94|42:73,2,120,4|14|4,1:0|2:1|1:0,2:0:0:0:
234,161,50514,1,8,2:0:0:0:
234,161,50672,2,0,P|244:194|227:236,1,60,8|0,2:0|2:0,2:0:0:0:
168,264,50988,6,0,L|94:250,2,60,4|0|8,1:0|2:0|2:0,2:0:0:0:
240,311,51462,1,0,2:0:0:0:
307,260,51620,2,0,P|339:253|378:267,1,60,4|0,1:0|2:0,2:0:0:0:
451,298,51935,2,0,L|445:218,1,60,8|0,2:0|2:0,2:0:0:0:
386,178,52251,6,0,L|401:46,2,120,4|12|4,1:0|2:1|1:0,2:0:0:0:
312,135,53041,1,8,2:0:0:0:
237,173,53198,2,0,L|164:160,1,60,8|0,2:0|2:0,2:0:0:0:
155,133,53435,1,8,2:0:0:0:
155,133,53514,6,0,P|111:168|46:161,2,120,4|8|4,1:0|2:0|1:0,2:0:0:0:
85,84,54304,1,0,2:0:0:0:
159,46,54462,2,0,L|220:62,1,60,8|0,2:0|2:0,2:0:0:0:
289,17,54777,6,0,P|306:66|390:76,2,120,4|8|4,1:0|2:0|1:0,2:0:0:0:
217,61,55567,1,0,2:0:0:0:
217,61,55725,2,0,P|227:99|221:131,1,60,12|0,1:0|2:0,2:0:0:0:
143,96,56041,6,0,L|79:85,1,60,4|0,1:0|2:0,2:0:0:0:
42,159,56356,2,0,L|101:169,1,60,8|0,2:0|2:0,2:0:0:0:
165,231,56672,1,4,1:0:0:0:
165,231,56830,1,0,2:0:0:0:
124,304,56988,2,0,P|88:281|81:243,1,60,8|0,2:0|2:0,2:0:0:0:
165,231,57304,6,0,P|196:221|228:232,1,60,4|0,1:0|2:0,2:0:0:0:
288,279,57620,2,0,P|319:289|351:278,1,60,12|0,2:1|2:0,2:0:0:0:
412,231,57935,1,4,1:0:0:0:
412,231,58093,1,8,2:0:0:0:
356,167,58251,2,0,L|349:90,1,60,12|0,2:0|2:0,2:0:0:0:
410,47,58567,5,0,1:0:0:0:
410,47,58725,1,8,2:0:0:0:
258,113,59041,5,2,2:3:0:0:
258,113,59120,1,2,2:3:0:0:
258,113,59198,2,0,L|116:99,1,120,12|0,2:0|2:0,2:0:0:0:
5,7,59830,5,8,2:0:0:0:
5,7,59988,1,8,2:0:0:0:
151,108,60304,5,2,2:3:0:0:
151,108,60383,1,2,2:3:0:0:
151,108,60462,2,0,P|100:120|72:201,1,120,12|0,2:0|2:0,2:0:0:0:
145,325,61093,6,0,L|163:197,1,120,2|0,1:0|2:0,2:0:0:0:
300,109,61725,2,0,L|318:237,1,120,12|2,2:0|2:3,2:0:0:0:
384,295,62198,1,2,2:3:0:0:
384,295,62277,1,2,2:3:0:0:
384,295,62356,6,0,P|413:308|453:304,2,60,0|8|2,1:0|2:0|2:3,2:0:0:0:
314,230,62830,1,2,2:3:0:0:
314,230,62909,1,2,2:3:0:0:
314,230,62988,2,0,L|245:240,1,60,8|0,2:0|2:0,2:0:0:0:
199,302,63304,2,0,L|130:292,1,60,8|0,2:0|2:0,2:0:0:0:
83,229,63620,5,4,1:2:0:0:
451,43,66146,6,0,L|463:118,1,60,8|8,2:0|2:0,2:0:0:0:
380,130,66462,2,0,L|370:70,1,60,8|8,2:0|2:0,2:0:0:0:
295,43,66777,5,8,2:0:0:0:
295,43,66935,1,8,2:0:0:0:
230,96,67093,1,8,2:0:0:0:
155,57,67251,1,8,2:0:0:0:
44,313,68514,5,8,2:0:0:0:
44,313,68593,1,8,2:0:0:0:
44,313,68672,2,0,B|134:291|108:348|195:321,1,144,6|8,1:0|2:0,2:0:0:0:
259,376,69146,1,0,2:0:0:0:
259,376,69304,2,0,L|269:290,1,72,4|0,1:0|2:0,2:0:0:0:
352,286,69620,2,0,L|343:357,1,72,8|0,2:0|2:0,2:0:0:0:
301,213,69935,6,0,P|360:199|438:265,1,144,4|8,1:0|2:0,2:0:0:0:
480,171,70409,1,0,2:0:0:0:
480,171,70567,2,0,P|488:122|494:87,1,72,4|0,1:0|2:0,2:0:0:0:
420,49,70883,2,0,P|414:84|408:120,1,72,12|0,1:0|2:0,2:0:0:0:
336,169,71198,6,0,P|291:186|215:127,1,144,6|8,1:0|2:0,2:0:0:0:
193,57,71672,1,0,2:0:0:0:
193,57,71830,2,0,P|151:80|135:129,1,72,12|0,1:0|2:0,2:0:0:0:
227,203,72146,2,0,P|228:155|193:116,1,72,8|0,1:0|2:0,2:0:0:0:
72,191,72462,6,0,L|144:183,1,72,4|0,1:0|2:0,2:0:0:0:
126,268,72777,2,0,L|54:276,1,72,12|0,2:1|2:0,2:0:0:0:
178,351,73093,2,0,P|201:317|246:306,1,72,4|0,1:0|2:0,2:0:0:0:
304,263,73409,2,0,P|327:297|372:308,1,72,8|0,2:0|2:0,2:0:0:0:
439,362,73725,6,0,P|453:280|484:220,1,144,6|8,1:0|2:0,2:0:0:0:
413,178,74198,1,0,2:0:0:0:
413,178,74356,2,0,P|361:194|295:116,1,144,4|8,1:0|2:0,2:0:0:0:
343,69,74830,1,0,2:0:0:0:
343,69,74988,6,0,L|257:55,1,72,4|0,1:0|2:0,2:0:0:0:
197,12,75304,2,0,P|182:53|193:97,1,72,12|0,2:1|2:0,2:0:0:0:
253,135,75620,2,0,P|268:175|257:219,1,72,4|0,1:0|2:0,2:0:0:0:
181,179,75935,2,0,L|101:166,1,72,8|0,2:0|2:0,2:0:0:0:
127,252,76251,6,0,L|198:263,1,72,4|0,1:0|2:0,2:0:0:0:
247,335,76567,2,0,P|275:300|315:289,1,72,12|0,1:0|2:0,2:0:0:0:
349,219,76883,2,0,P|377:254|417:265,1,72,4|0,1:0|2:0,2:0:0:0:
486,243,77198,2,0,L|472:313,1,72,12|0,1:0|2:0,2:0:0:0:
420,185,77514,6,0,P|417:165|423:146,3,36,4|10|10|2,1:0|2:3|2:3|2:3,2:0:0:0:
451,118,77830,2,0,P|454:98|448:79,3,36,10|10|10|2,2:3|2:3|2:3|2:3,2:0:0:0:
422,48,78146,2,0,P|357:33|311:56,1,108,2|2,2:3|2:3,2:0:0:0:
302,88,78462,2,0,P|237:103|191:80,1,108,10|10,2:0|2:0,2:0:0:0:
171,54,78777,6,0,L|186:213,1,144,6|8,1:0|2:0,2:0:0:0:
250,261,79251,1,0,2:0:0:0:
250,261,79409,2,0,L|325:273,1,72,4|0,1:0|2:0,2:0:0:0:
336,189,79725,2,0,L|264:177,1,72,8|0,1:0|2:0,2:0:0:0:
184,197,80041,6,0,P|147:249|52:235,1,144,4|8,1:0|2:0,2:0:0:0:
21,187,80514,1,0,2:0:0:0:
21,187,80672,2,0,L|34:105,1,72,4|0,1:0|2:0,2:0:0:0:
118,101,80988,2,0,L|106:172,1,72,12|0,1:0|2:0,2:0:0:0:
184,197,81304,6,0,P|223:209|266:193,1,72,4|0,1:0|2:0,2:0:0:0:
262,71,81620,2,0,P|232:98|224:144,1,72,8|0,2:0|2:0,2:0:0:0:
336,199,81935,2,0,P|326:159|291:129,1,72,4|0,1:0|2:0,2:0:0:0:
384,98,82251,2,0,L|463:107,1,72,8|0,2:0|2:0,2:0:0:0:
429,189,82567,6,0,L|414:272,1,72,4|0,1:0|2:0,2:0:0:0:
335,285,82883,2,0,L|350:368,1,72,12|0,1:0|2:0,2:0:0:0:
263,332,83198,2,0,P|224:345|178:326,1,72,4|0,1:0|2:0,2:0:0:0:
142,269,83514,2,0,P|103:256|57:275,1,72,12|0,1:0|2:0,2:0:0:0:
35,341,83830,6,0,P|34:272|12:193,1,144,4|8,1:0|2:0,2:0:0:0:
71,116,84304,1,0,2:0:0:0:
71,116,84462,2,0,P|105:163|193:155,1,144,4|8,1:0|2:0,2:0:0:0:
237,102,84935,1,0,2:0:0:0:
237,102,85093,6,0,P|288:74|346:73,2,108,0|2|2,1:2|2:0|2:0,2:0:0:0:
208,245,86041,1,2,2:0:0:0:
256,192,86120,12,0,87462,2:0:0:0:
425,350,88251,6,0,L|436:301,2,42,0|0|0,2:0|2:0|2:0,2:0:0:0:
352,310,88725,1,2,2:3:0:0:
352,310,88804,1,2,2:3:0:0:
352,310,88883,6,0,P|309:303|248:359,1,120,4|2,1:2|2:3,2:0:0:0:
193,286,89356,1,2,2:3:0:0:
193,286,89514,2,0,L|122:296,1,60,2|2,2:3|2:3,2:0:0:0:
93,219,89830,2,0,L|152:210,1,60,8|8,2:0|2:0,2:0:0:0:
197,140,90146,5,8,2:0:0:0:
260,210,90304,1,8,2:0:0:0:
260,210,90383,1,8,2:0:0:0:
260,210,90462,1,8,2:0:0:0:
339,173,90620,1,8,2:0:0:0:
339,173,90698,1,8,2:0:0:0:
339,173,90777,2,0,L|401:184,1,60,8|8,2:0|2:0,2:0:0:0:
482,182,91093,2,0,L|474:227,3,30,10|10|10|10,2:0|2:0|2:0|2:0,2:0:0:0:
449,244,91409,6,0,L|467:374,1,120,12|8,1:2|2:0,2:0:0:0:
383,346,91883,2,0,P|363:319|326:308,1,60,2|0,2:0|2:3,2:0:0:0:
275,253,92198,2,0,P|255:280|218:291,2,60,0|8|0,2:0|2:0|2:0,2:0:0:0:
355,229,92672,6,0,L|366:160,1,60,0|0,1:0|2:0,2:0:0:0:
339,88,92988,2,0,L|350:19,1,60,8|0,2:0|2:0,2:0:0:0:
256,46,93304,1,8,2:0:0:0:
256,46,93462,1,0,2:0:0:0:
196,104,93620,1,10,2:0:0:0:
196,104,93777,1,0,2:0:0:0:
122,64,93935,6,0,L|36:52,1,60,0|0,1:0|2:0,2:0:0:0:
24,131,94251,1,8,2:0:0:0:
24,131,94409,2,0,L|83:139,1,60,8|0,2:0|2:0,2:0:0:0:
149,192,94725,2,0,P|154:227|142:262,1,60,0|0,1:2|2:0,2:0:0:0:
89,311,95041,6,0,P|147:280|220:307,1,120,4|0,2:1|2:0,2:0:0:0:
252,354,95514,2,0,L|378:343,2,120,8|10|8,2:0|2:3|2:0,2:0:0:0:
279,272,96304,1,8,2:0:0:0:
279,272,96383,1,8,2:0:0:0:
279,272,96462,6,0,L|265:150,1,120,2|0,1:0|2:0,2:0:0:0:
205,93,96935,2,0,P|169:139|104:147,1,120,8|8,2:0|2:0,2:0:0:0:
84,125,97330,1,8,2:0:0:0:
84,125,97409,2,0,L|22:117,1,60,8|8,2:0|2:0,2:0:0:0:
40,200,97725,6,0,L|50:280,1,60,2|0,1:0|2:0,2:0:0:0:
132,286,98041,1,8,2:0:0:0:
132,286,98198,2,0,L|124:226,1,60,8|0,2:0|2:3,2:0:0:0:
183,166,98514,2,0,P|228:154|288:199,1,120,10|8,2:0|2:0,2:0:0:0:
248,269,98988,6,0,L|238:349,1,60,2|0,1:0|2:0,2:0:0:0:
314,369,99304,2,0,L|321:309,1,60,4|8,2:0|2:0,2:0:0:0:
399,236,99620,2,0,L|406:295,1,60,10|0,2:0|2:0,2:0:0:0:
479,255,99935,2,0,L|471:195,1,60,8|0,2:0|2:0,2:0:0:0:
404,152,100251,5,12,2:0:0:0:
404,152,100409,1,8,2:0:0:0:
330,189,100567,1,8,2:0:0:0:
330,189,100725,1,8,2:0:0:0:
256,148,100883,2,0,P|240:143|216:151,3,30,14|2|2|2,2:0|2:0|2:0|2:0,2:0:0:0:
195,173,101198,2,0,P|179:177|155:169,3,30,10|2|2|2,2:0|2:0|2:0|2:0,2:0:0:0:
134,145,101514,6,0,P|94:173|4:142,2,144,4|8|2,1:2|2:0|2:3,2:0:0:0:
69,86,102304,1,0,2:3:0:0:
152,62,102462,2,0,L|223:75,1,72,8|0,2:0|2:0,2:0:0:0:
288,132,102777,6,0,P|316:83|410:62,2,144,4|8|2,1:2|2:0|2:3,2:0:0:0:
211,189,103567,1,0,2:3:0:0:
211,189,103725,2,0,P|242:206|264:247,1,72,8|0,2:0|2:0,2:0:0:0:
341,203,104041,6,0,L|492:227,1,144,4|8,1:2|2:0,2:0:0:0:
443,304,104514,1,0,2:0:0:0:
443,304,104672,2,0,P|393:322|370:359,1,72,0|0,1:0|2:0,2:0:0:0:
303,374,104988,2,0,P|290:344|240:312,1,72,8|0,2:0|2:0,2:0:0:0:
180,352,105304,6,0,L|34:374,1,144,4|8,1:2|2:0,2:0:0:0:
61,289,105777,1,0,2:0:0:0:
61,289,105935,2,0,L|39:176,2,108,2|2|2,2:3|2:3|2:3,2:0:0:0:
136,244,106567,6,0,P|171:261|259:198,1,144,4|8,1:2|2:0,2:0:0:0:
202,151,107041,2,0,L|217:-2,1,143.999995605469,2|0,2:3|2:0,2:0:0:0:
292,57,107514,2,0,L|285:128,1,72,8|8,2:0|2:0,2:0:0:0:
327,152,107751,1,8,2:0:0:0:
327,152,107830,6,0,B|423:129|389:191|495:160,1,144,4|8,1:2|2:0,2:0:0:0:
506,243,108304,1,8,2:0:0:0:
468,320,108462,2,0,B|372:297|406:359|300:328,1,144,4|8,1:2|2:0,2:0:0:0:
256,287,108935,1,8,2:0:0:0:
256,287,109093,6,0,L|175:308,1,72,12|8,2:0|2:0,2:0:0:0:
135,234,109409,2,0,L|204:215,1,72,12|8,2:0|2:0,2:0:0:0:
256,146,109725,1,12,2:0:0:0:
256,146,109883,1,8,2:0:0:0:
207,80,110041,1,12,2:0:0:0:
207,80,110198,1,8,2:0:0:0:
256,14,110356,6,0,P|326:33|375:-4,2,108,12|8|8,1:2|2:0|2:0,2:0:0:0:
207,80,110988,2,0,L|171:73,3,36,12|8|8|8,2:0|2:0|2:0|2:0,2:0:0:0:
135,47,111304,2,0,L|99:54,3,36,12|8|8|8,2:0|2:0|2:0|2:0,2:0:0:0:
88,68,111620,5,4,3:0:0:0:
84,72,112883,1,4,3:0:0:0:
80,76,114146,1,8,3:0:0:0:
76,80,115409,1,8,3:0:0:0:
191,343,116672,5,8,3:0:0:0:
187,339,117935,1,8,3:0:0:0:
183,335,119198,1,8,3:0:0:0:
179,331,120462,1,8,3:0:0:0:
302,50,121725,6,0,P|350:39|387:48,2,83.9999999999999,0|0|8,1:0|1:0|2:0,2:0:0:0:
212,94,122672,1,0,2:0:0:0:
212,94,122988,2,0,P|164:105|127:96,2,83.9999999999999,0|0|8,1:0|1:0|2:0,2:0:0:0:
336,202,123935,1,0,2:0:0:0:
336,202,124251,6,0,L|345:114,2,83.9999999999999,0|0|8,1:0|1:0|2:0,2:0:0:0:
172,192,125198,1,0,2:0:0:0:
172,192,125514,2,0,L|180:275,2,83.9999999999999,0|0|8,1:0|1:0|2:0,2:0:0:0:
256,94,126461,1,8,2:0:0:0:
258,211,126777,5,6,2:0:0:0:
135,331,129303,6,0,L|65:317,1,60,10|8,2:0|2:0,2:0:0:0:
65,235,129619,2,0,L|123:246,1,60,10|8,2:0|2:0,2:0:0:0:
203,275,129935,2,0,L|198:206,1,60,10|8,2:0|2:0,2:0:0:0:
276,182,130251,2,0,L|280:241,1,60,10|8,2:0|2:0,2:0:0:0:
350,297,130567,5,14,1:2:0:0:
350,297,130725,1,10,2:0:0:0:
426,259,130882,1,10,2:0:0:0:
426,259,131040,1,10,2:0:0:0:
359,207,131198,2,0,L|354:147,1,60,8|8,2:0|2:0,2:0:0:0:
412,86,131514,1,8,2:0:0:0:
412,86,131672,1,8,2:0:0:0:
343,32,131830,5,6,2:0:0:0:
339,36,133093,1,2,2:0:0:0:
335,40,134356,2,0,L|251:27,1,71.9999999999999,2|0,2:0|2:0,2:0:0:0:
187,125,134988,2,0,L|271:112,1,71.9999999999999,2|0,2:0|2:0,2:0:0:0:
353,146,135619,6,0,P|369:234|288:196,1,216,2|2,2:0|2:3,2:0:0:0:
212,261,136725,1,2,2:3:0:0:
212,261,136882,6,0,L|147:252,1,60,14|0,2:0|2:0,2:0:0:0:
112,327,137198,2,0,L|171:335,1,60,2|2,2:3|2:3,2:0:0:0:
256,335,137514,2,0,L|315:343,1,60,2|2,2:3|2:3,2:0:0:0:
358,270,137830,2,0,L|298:261,1,60,2|8,2:3|2:0,2:0:0:0:
260,192,138146,5,10,2:0:0:0:
260,192,138303,1,8,2:0:0:0:
302,121,138461,1,8,2:0:0:0:
302,121,138619,1,8,2:0:0:0:
256,47,138777,5,8,2:0:0:0:
210,118,138935,1,8,2:0:0:0:
129,94,139093,1,8,2:0:0:0:
125,10,139251,1,8,2:0:0:0:
74,158,139409,6,0,L|-3:147,1,71.9999999999999,6|0,2:0|2:0,2:0:0:0:
63,286,140040,2,0,L|133:273,1,71.9999999999999,2|0,2:0|2:0,2:0:0:0:
283,248,140672,5,2,2:0:0:0:
454,375,143830,6,0,P|457:358|451:344,3,30,8|8|8|8,2:0|2:0|2:0|2:0,2:0:0:0:
425,313,144146,2,0,P|422:296|428:282,3,30,10|10|10|8,2:0|2:0|2:0|2:0,2:0:0:0:
457,244,144461,6,0,P|390:202|301:237,1,156,6|8,1:0|2:0,2:0:0:0:
258,280,144934,1,0,2:0:0:0:
258,280,145092,2,0,L|165:271,1,78,4|0,1:0|2:0,2:0:0:0:
161,188,145408,2,0,L|238:195,1,78,8|0,2:0|2:0,2:0:0:0:
303,137,145724,6,0,L|288:53,1,78,4|0,1:0|2:0,2:0:0:0:
367,24,146039,2,0,L|380:100,1,78,8|0,2:0|2:0,2:0:0:0:
464,137,146355,1,4,1:0:0:0:
464,137,146513,1,0,2:0:0:0:
391,183,146671,2,0,L|378:259,1,78,4|0,1:0|2:0,2:0:0:0:
307,309,146987,6,0,B|361:297|361:297|411:325|411:325|463:311,2,156,4|8|4,1:0|2:0|1:0,2:0:0:0:
239,360,147776,1,0,2:0:0:0:
239,360,147934,2,0,L|226:284,1,78,8|0,2:0|2:0,2:0:0:0:
152,330,148250,6,0,L|71:319,1,78,4|0,1:0|2:0,2:0:0:0:
67,232,148566,2,0,L|144:242,1,78,8|0,2:0|2:0,2:0:0:0:
219,200,148882,2,0,L|232:124,1,78,4|0,1:0|2:0,2:0:0:0:
156,81,149197,2,0,L|143:157,1,78,12|0,1:0|2:0,2:0:0:0:
235,120,149513,6,0,B|330:99|302:167|396:135,1,156,4|8,1:0|2:0,2:0:0:0:
433,69,149987,1,0,2:0:0:0:
433,69,150145,2,0,P|467:139|429:216,1,156,4|8,1:0|2:0,2:0:0:0:
356,232,150618,1,0,2:0:0:0:
356,232,150776,6,0,P|343:274|360:316,1,78,4|0,1:0|2:0,2:0:0:0:
428,356,151092,2,0,P|441:314|424:272,1,78,8|0,2:0|2:0,2:0:0:0:
348,309,151408,2,0,L|255:298,1,78,4|0,1:0|2:0,2:0:0:0:
204,348,151724,1,12,1:0:0:0:
204,348,151882,1,0,2:0:0:0:
127,309,152039,6,0,L|114:225,1,78,4|0,1:0|2:0,2:0:0:0:
188,186,152355,2,0,L|199:263,1,78,8|0,2:0|2:0,2:0:0:0:
112,226,152671,2,0,L|26:212,1,78,4|0,1:0|2:0,2:0:0:0:
26,129,152987,2,0,L|102:141,1,78,12|2,1:0|2:0,2:0:0:0:
177,96,153303,5,12,1:0:0:0:
177,96,153382,1,8,2:0:0:0:
177,96,153461,1,8,2:1:0:0:
256,127,153618,2,0,L|332:114,1,78,8|8,2:0|2:0,2:0:0:0:
400,168,153934,6,0,P|406:187|400:208,3,39,8|8|8|8,2:0|2:0|2:0|2:0,2:0:0:0:
376,240,154250,2,0,P|370:259|376:280,3,39,10|10|10|10,2:0|2:0|2:0|2:0,2:0:0:0:
402,310,154566,6,0,P|338:341|259:291,1,156,6|8,1:0|2:0,2:0:0:0:
290,225,155039,1,0,2:0:0:0:
290,225,155197,2,0,L|197:216,1,78,4|0,1:0|2:0,2:0:0:0:
187,134,155513,2,0,L|264:141,1,78,8|0,2:0|2:0,2:0:0:0:
349,158,155829,6,0,L|363:67,1,78,4|0,1:0|2:0,2:0:0:0:
315,13,156145,1,8,2:0:0:0:
315,13,156303,1,0,2:0:0:0:
231,34,156461,2,0,P|198:47|140:30,1,78,4|0,1:0|2:0,2:0:0:0:
74,13,156776,2,0,L|84:93,1,78,12|0,1:0|2:0,2:0:0:0:
5,126,157092,6,0,P|66:123|123:196,2,156,4|8|4,1:0|2:0|1:0,2:0:0:0:
37,205,157882,1,0,2:0:0:0:
37,205,158039,2,0,L|25:293,1,78,8|0,1:0|2:0,2:0:0:0:
72,355,158355,6,0,P|106:322|156:321,1,78,4|0,1:0|2:0,2:0:0:0:
189,250,158671,2,0,P|223:283|273:284,1,78,12|0,1:0|2:0,2:0:0:0:
294,273,158908,1,8,2:0:0:0:
294,273,158987,2,0,L|285:352,1,78,4|0,1:0|2:0,2:0:0:0:
369,335,159303,2,0,L|377:257,1,78,12|0,1:0|2:0,2:0:0:0:
329,185,159618,6,0,P|415:178|466:253,1,156,4|8,1:0|2:0,2:0:0:0:
501,78,160092,1,0,2:0:0:0:
501,78,160250,2,0,B|424:35|424:108|347:70,1,156,4|8,1:0|2:0,2:0:0:0:
268,39,160724,1,0,2:0:0:0:
268,39,160882,6,0,L|280:128,1,78,4|0,1:0|2:0,2:0:0:0:
202,158,161197,2,0,L|191:80,1,78,12|0,1:0|2:0,2:0:0:0:
127,31,161513,1,4,1:0:0:0:
127,31,161671,1,0,2:0:0:0:
77,100,161829,2,0,L|-7:86,1,78,12|0,1:0|2:0,2:0:0:0:
35,174,162145,6,0,P|52:214|52:321,1,117,14|0,1:0|2:0,2:0:0:0:
40,325,162461,2,0,L|62:369,3,39,8|8|8|8,2:0|2:0|2:0|2:0,2:0:0:0:
100,362,162776,2,0,P|139:373|214:312,1,117,14|0,1:0|2:0,2:0:0:0:
198,295,163092,2,0,P|201:270|216:249,3,39,8|8|8|8,2:0|2:0|2:0|2:0,2:0:0:0:
243,233,163408,6,0,P|312:229|363:306,1,156,14|8,1:0|2:0,2:0:0:0:
449,251,163882,1,8,2:0:0:0:
449,251,163961,1,8,2:0:0:0:
449,251,164039,6,0,L|461:188,2,52,12|8|8,3:0|3:0|3:0,2:0:0:0:
422,175,164355,2,0,L|410:112,2,52,2|4|4,3:0|3:0|3:0,2:0:0:0:
436,81,164671,6,0,P|397:111|315:82,1,120,12|0,3:0|2:3,2:0:0:0:
285,34,165145,1,0,2:3:0:0:
285,34,165303,2,0,L|298:160,1,120,8|0,2:0|2:0,2:0:0:0:
218,139,165776,1,0,2:0:0:0:
218,139,165934,6,0,L|210:64,2,60,0|0|0,1:0|2:0|2:0,2:0:0:0:
93,254,166566,2,0,L|85:328,2,60,0|0|0,1:0|2:0|2:0,2:0:0:0:
45,187,167039,1,0,2:0:0:0:
45,187,167197,6,0,P|118:175|169:217,1,120,4|0,1:2|2:0,2:0:0:0:
209,268,167671,1,0,2:0:0:0:
209,268,167829,2,0,P|253:284|310:264,1,90,4|0,1:2|2:0,2:0:0:0:
316,238,168145,2,0,L|324:164,1,60,4|0,1:2|2:0,2:0:0:0:
373,111,168461,6,0,P|405:151|480:150,2,120,12|8|0,2:0|2:0|2:0,2:0:0:0:
412,38,169250,1,0,2:0:0:0:
412,38,169408,2,0,L|344:26,1,60,12|0,2:0|2:0,2:0:0:0:
289,83,169724,5,6,1:3:0:0:
59,338,172250,6,0,L|128:348,1,60,8|0,2:0|2:0,2:0:0:0:
111,262,172566,2,0,L|180:272,1,60,8|0,2:0|2:0,2:0:0:0:
200,349,172882,2,0,L|269:359,1,60,8|0,2:0|2:0,2:0:0:0:
252,273,173197,2,0,L|321:283,1,60,8|0,2:0|2:0,2:0:0:0:
393,301,173513,6,0,P|400:277|394:257,3,30,12|8|10|8,1:2|2:0|2:0|2:0,2:0:0:0:
378,235,173829,2,0,P|371:211|377:191,3,30,10|8|10|10,2:0|2:0|2:0|2:0,2:0:0:0:
397,172,174145,2,0,P|404:148|398:128,3,30,10|10|10|10,2:0|2:0|2:0|2:0,2:0:0:0:
372,114,174461,2,0,P|365:90|371:70,4,30,10|10|10|8|0,2:0|2:0|2:0|2:0|2:0,2:0:0:0:
240,225,175092,6,0,B|148:181|170:255|85:217,1,156,6|4,1:0|2:0,2:0:0:0:
10,203,175566,1,0,2:0:0:0:
10,203,175724,2,0,L|23:286,1,78,8|0,2:0|2:0,2:0:0:0:
88,333,176039,6,0,P|118:297|172:297,1,78,4|0,1:0|2:0,2:0:0:0:
198,221,176355,2,0,P|228:257|282:257,1,78,8|0,2:0|2:0,2:0:0:0:
313,335,176671,1,4,1:0:0:0:
313,335,176829,1,0,2:0:0:0:
381,283,176987,2,0,L|466:297,1,78,8|0,2:0|2:0,2:0:0:0:
484,214,177303,6,0,L|463:34,2,156,4|8|4,1:0|2:0|1:0,2:0:0:0:
393,162,178092,1,0,2:0:0:0:
393,162,178250,2,0,P|354:148|311:163,1,78,8|0,2:0|2:0,2:0:0:0:
246,202,178566,6,0,L|236:122,1,78,12|0,1:0|2:0,2:0:0:0:
152,104,178882,2,0,L|161:181,1,78,14|0,1:0|2:0,2:0:0:0:
94,236,179197,2,0,L|1:220,1,78,12|0,1:0|2:0,2:0:0:0:
29,308,179513,2,0,L|105:321,1,78,14|0,1:0|2:0,2:0:0:0:
174,268,179829,6,0,P|215:333|292:317,1,156,12|8,1:0|2:0,2:0:0:0:
359,365,180303,1,0,2:3:0:0:
359,365,180461,2,0,L|369:279,1,78,4|8,1:0|2:0,2:0:0:0:
312,236,180776,1,10,2:0:0:0:
312,236,180855,1,10,2:0:0:0:
312,236,180934,1,10,2:0:0:0:
390,202,181092,6,0,L|477:224,1,83.9999999999999,14|2,2:0|2:0,2:0:0:0:
410,36,181724,2,0,L|328:15,1,83.9999999999999,2|6,2:0|2:3,2:0:0:0:
256,192,182118,12,0,184803,2:0:0:0:
