osu file format v14

[General]
AudioFilename: audio.mp3
AudioLeadIn: 0
PreviewTime: 15120
Countdown: 0
SampleSet: Soft
StackLeniency: 0.7
Mode: 0
LetterboxInBreaks: 0
WidescreenStoryboard: 0

[Editor]
Bookmarks: 9038,9741,14417
DistanceSpacing: 1
BeatDivisor: 4
GridSize: 16
TimelineZoom: 1

[Metadata]
Title:Ohayou no Asa
TitleUnicode:おはようの朝
Artist:HoneyWorks
ArtistUnicode:HoneyWorks
Creator:William K
Version:Lively
Source:ずっと前から好きでした。~告白実行委員会~
Tags:zutto mae kara suki deshita kokuhaku jikkou iinkai
BeatmapID:1210572
BeatmapSetID:571221

[Difficulty]
HPDrainRate:7
CircleSize:4
OverallDifficulty:7
ApproachRate:8
SliderMultiplier:1.8
SliderTickRate:1

[Events]
//Background and Video events
0,0,"31810473_p0.jpg",0,0
//Break Periods
//Storyboard Layer 0 (Background)
//Storyboard Layer 1 (Fail)
//Storyboard Layer 2 (Pass)
//Storyboard Layer 3 (Foreground)
//Storyboard Sound Samples

[TimingPoints]
280,472.44094488189,4,2,1,30,1,0
516,-100,4,2,2,30,0,0
752,545.454545454546,4,2,3,30,1,0
1022,487.80487804878,4,2,4,30,1,0
1509,-100,4,2,4,5,0,0
1753,-100,4,2,3,30,0,0
2241,-100,4,2,3,5,0,0
2485,-100,4,2,5,30,0,0
2973,-100,4,2,5,5,0,0
4088,472.44094488189,4,2,1,30,1,0
4324,-100,4,2,2,30,0,0
4560,-100,4,2,3,30,0,0
4796,472.44094488189,4,2,4,30,1,0
5268,-100,4,2,4,5,0,0
5505,-100,4,2,3,30,0,0
5977,-100,4,2,3,5,0,0
6213,-100,4,2,6,30,0,0
6685,-100,4,2,6,5,0,0
7842,480,4,2,7,30,1,0
8082,-100,4,2,8,30,0,0
8322,-100,4,2,9,30,0,0
8570,468.786623954997,4,2,10,40,1,0
8804,-100,4,2,10,20,0,0
9038,-100,4,2,23,20,0,0
9273,-100,4,2,9,40,0,0
9507,-100,4,2,9,20,0,0
9741,-100,4,2,25,20,0,0
9976,-100,4,2,11,40,0,0
10445,-100,4,2,11,20,0,0
11148,-100,4,2,12,40,0,0
11371,468.786623954997,4,2,13,40,1,0
11605,-100,4,2,14,40,0,0
11839,-100,4,2,15,40,0,0
12074,-100,4,2,16,40,0,0
12308,468.786623954997,4,2,17,40,1,0
12776,-100,4,2,17,20,0,0
13011,-100,4,2,17,40,0,0
13479,-100,4,2,17,20,0,0
13714,-100,4,2,16,40,0,0
14183,-100,4,2,16,40,0,0
14417,-100,4,2,44,40,0,0
14651,-100,4,2,19,40,0,0
15120,-100,4,2,24,40,0,0
15355,-100,4,2,20,40,0,0
15589,-100,4,2,21,40,0,0
15823,-100,4,2,22,40,0,0
16058,-100,4,2,26,50,0,0
16761,-100,4,2,22,50,0,0
17464,-100,4,2,20,50,0,0
19339,-100,4,2,21,50,0,0
19574,-100,4,2,22,50,0,0
19808,-100,4,2,26,50,0,0
20511,-100,4,2,22,50,0,0
21214,-100,4,2,28,50,0,0
22386,-100,4,2,20,50,0,0
22621,-100,4,2,22,50,0,0
22855,-100,4,2,29,50,0,0
23090,-100,4,2,30,50,0,0
23324,-100,4,2,31,50,0,0
23558,-100,4,2,30,50,0,0
24027,-100,4,2,22,50,0,0
24730,-100,4,2,20,50,0,0
24965,-100,4,2,29,50,0,0
27543,-100,4,2,32,50,0,0
27777,-100,4,2,33,50,0,0
28012,-100,4,2,34,50,0,0
28246,-100,4,2,35,50,0,0
28481,-100,4,2,36,50,0,0
28715,-100,4,2,37,50,0,0
29184,-100,4,2,38,50,0,0
29418,-100,4,2,42,50,0,0
29665,504.201680672269,4,2,43,50,1,0
29917,-100,4,2,39,50,0,0
30169,517.241379310345,4,2,42,50,1,0
30427,-100,4,2,43,50,0,0
30724,540.540540540541,4,2,40,50,1,0
30994,-100,4,2,42,50,0,0
31264,500,4,2,43,50,1,0
31514,612.244897959184,4,2,41,50,1,0
31820,472.44094488189,4,2,42,50,1,0
32292,952.380952380952,4,2,22,50,1,0
32768,-100,4,2,22,42,0,0
33244,-100,4,2,22,36,0,0
33720,-100,4,2,22,29,0,0
34196,-100,4,2,22,19,0,0
34672,-100,4,2,22,14,0,0
35149,-100,4,2,22,8,0,0
35625,-100,4,2,22,6,0,0
36101,-100,4,2,22,5,0,0

[Colours]
Combo1 : 255,235,175
Combo2 : 224,205,255
Combo3 : 193,240,251
Combo4 : 220,249,168
SliderBorder : 65,240,201
SliderTrackOverride : 0,0,0

[HitObjects]
150,151,280,6,0,P|145:216|150:247,2,90,2|2|2,0:0|0:0|0:0,0:0:0:0:
192,67,1022,6,0,B|248:89|248:89|386:63,1,180,2|0,0:0|0:0,0:0:0:0:
445,152,1753,2,0,P|409:112|312:178,1,180,2|0,0:0|0:0,0:0:0:0:
439,326,2485,2,0,B|475:231|400:235|452:135,1,180,2|0,0:0|0:0,0:0:0:0:
280,293,4088,2,0,P|347:272|399:289,2,90,2|2|2,0:0|0:0|0:0,0:0:0:0:
230,369,4796,6,0,B|242:310|242:310|230:184,1,180,2|0,0:0|0:0,0:0:0:0:
126,223,5505,2,0,P|160:262|223:177,1,180,2|0,0:0|0:0,0:0:0:0:
137,45,6213,2,0,B|126:114|126:114|135:164|135:164|124:232,1,180,2|0,0:0|0:0,0:0:0:0:
325,64,7842,2,0,P|268:74|231:52,2,90,2|2|2,0:0|0:0|0:0,0:0:0:0:
453,20,8570,6,0,P|438:104|446:140,1,90,2|0,0:0|0:0,0:0:0:0:
466,203,9038,1,2,0:0:0:0:
392,269,9273,2,0,L|298:262,1,90,2|0,0:0|0:0,0:0:0:0:
205,253,9741,1,2,0:0:0:0:
181,63,9976,2,0,P|262:84|258:167,1,180,2|0,0:0|0:0,0:0:0:0:
468,344,11148,5,2,0:0:0:0:
380,300,11371,2,0,L|266:308,2,90,2|2|2,0:0|0:0|0:0,0:0:0:0:
453,231,12073,1,2,0:0:0:0:
274,211,12308,6,0,P|211:247|198:349,1,180,2|0,0:0|0:0,0:0:0:0:
118,213,13011,2,0,P|195:174|274:211,1,180,2|0,0:0|0:0,0:0:0:0:
129,38,13714,2,0,B|91:121|156:131|117:213,1,180,2|0,0:0|0:0,0:0:0:0:
30,162,14417,1,2,0:0:0:0:
216,90,14651,2,0,P|306:69|420:99,1,180,2|2,0:0|0:0,0:0:0:0:
480,206,15355,2,0,P|478:159|477:94,2,90,2|2|2,0:0|0:0|0:0,0:0:0:0:
480,357,16058,6,0,P|428:295|356:303,1,135,2|0,0:0|0:0,0:0:0:0:
332,311,16527,1,0,0:0:0:0:
245,232,16761,2,0,P|253:156|251:131,2,90,2|0|0,0:0|0:0|0:0,0:0:0:0:
92,239,17464,6,0,P|142:199|245:232,1,180,2|0,0:0|0:0,0:0:0:0:
171,294,18167,1,0,0:0:0:0:
245,362,18402,1,0,0:0:0:0:
332,310,18636,2,0,P|373:294|418:295,1,90
245,362,19105,2,0,P|200:363|158:346,2,90,2|2|2,0:0|0:0|0:0,0:0:0:0:
91,277,19808,6,0,P|66:314|62:358,1,90,2|0,0:0|0:0,0:0:0:0:
158,346,20277,1,0,0:0:0:0:
183,213,20511,2,0,P|185:154|172:126,1,90,2|0,0:0|0:0,0:0:0:0:
99,179,20980,1,0,0:0:0:0:
339,222,21214,6,0,P|262:180|182:213,1,180,2|0,0:0|0:0,0:0:0:0:
257,276,21918,1,0,0:0:0:0:
212,365,22152,1,0,0:0:0:0:
353,323,22386,6,0,P|397:315|440:329,1,90,2|2,0:0|0:0,0:0:0:0:
339,222,22855,1,2,0:0:0:0:
170,282,23090,2,0,P|213:290|256:276,1,90,2|2,0:0|0:0,0:0:0:0:
437,190,23558,6,0,P|381:126|335:117,1,135,2|0,0:0|0:0,0:0:0:0:
289,131,24027,1,2,0:0:0:0:
189,47,24262,2,0,P|160:116|160:137,1,90,2|0,0:0|0:0,0:0:0:0:
226,203,24730,1,2,0:0:0:0:
92,278,24965,6,0,B|182:253|182:338|296:281,1,180,2|0,0:0|0:0,0:0:0:0:
226,203,25668,1,0,0:0:0:0:
290,129,25902,1,0,0:0:0:0:
364,193,26137,2,0,P|421:194|465:170,1,90
290,129,26605,1,0,0:0:0:0:
226,203,26840,1,0,0:0:0:0:
266,293,27074,1,0,0:0:0:0:
88,333,27543,5,2,0:0:0:0:
150,266,27777,1,2,0:0:0:0:
62,241,28012,1,2,0:0:0:0:
265,375,28246,5,2,0:0:0:0:
237,287,28480,1,2,0:0:0:0:
172,351,28715,1,2,0:0:0:0:
66,77,29184,6,0,L|174:68,1,90,2|2,0:0|0:0,0:0:0:0:
249,62,29665,1,2,0:0:0:0:
258,221,29917,6,0,P|218:181|211:141,1,90,2|2,0:0|0:0,0:0:0:0:
249,62,30427,1,2,0:0:0:0:
386,107,30724,6,0,P|325:137|276:121,1,90,2|2,0:0|0:0,0:0:0:0:
249,62,31264,1,2,0:0:0:0:
401,20,31514,6,0,P|444:40|473:97,1,90,2|2,0:0|0:0,0:0:0:0:
249,62,32292,1,2,0:0:0:0:
256,192,32411,12,0,36101,0:0:0:0:
