osu file format v14

[General]
AudioFilename: audio.mp3
AudioLeadIn: 0
PreviewTime: 15120
Countdown: 0
SampleSet: Soft
StackLeniency: 0.7
Mode: 0
LetterboxInBreaks: 0
WidescreenStoryboard: 0

[Editor]
DistanceSpacing: 1
BeatDivisor: 4
GridSize: 32
TimelineZoom: 1

[Metadata]
Title:Ohayou no Asa
TitleUnicode:おはようの朝
Artist:HoneyWorks
ArtistUnicode:HoneyWorks
Creator:William K
Version:Hard
Source:ずっと前から好きでした。~告白実行委員会~
Tags:zutto mae kara suki deshita kokuhaku jikkou iinkai
BeatmapID:1210571
BeatmapSetID:571221

[Difficulty]
HPDrainRate:5.4
CircleSize:3.8
OverallDifficulty:5.5
ApproachRate:6
SliderMultiplier:1.5
SliderTickRate:1

[Events]
//Background and Video events
0,0,"31810473_p0.jpg",0,0
//Break Periods
//Storyboard Layer 0 (Background)
//Storyboard Layer 1 (Fail)
//Storyboard Layer 2 (Pass)
//Storyboard Layer 3 (Foreground)
//Storyboard Sound Samples

[TimingPoints]
280,472.44094488189,4,2,1,30,1,0
516,-100,4,2,2,30,0,0
752,545.454545454546,4,2,3,30,1,0
1022,487.80487804878,4,2,4,30,1,0
1509,-100,4,2,4,5,0,0
1753,-100,4,2,3,30,0,0
2241,-100,4,2,3,5,0,0
2485,-100,4,2,5,30,0,0
2973,-100,4,2,5,5,0,0
4088,472.44094488189,4,2,1,30,1,0
4324,-100,4,2,2,30,0,0
4560,-100,4,2,3,30,0,0
4796,472.44094488189,4,2,4,30,1,0
5268,-100,4,2,4,5,0,0
5505,-100,4,2,3,30,0,0
5977,-100,4,2,3,5,0,0
6213,-100,4,2,6,30,0,0
6685,-100,4,2,6,5,0,0
7842,480,4,2,7,30,1,0
8082,-100,4,2,8,30,0,0
8322,-100,4,2,9,30,0,0
8570,468.786623954997,4,2,10,40,1,0
8804,-100,4,2,10,20,0,0
9038,-100,4,2,23,20,0,0
9273,-100,4,2,9,40,0,0
9507,-100,4,2,9,20,0,0
9741,-100,4,2,25,20,0,0
9976,-100,4,2,11,40,0,0
10445,-100,4,2,11,20,0,0
11148,-100,4,2,12,40,0,0
11371,468.786623954997,4,2,13,40,1,0
11605,-100,4,2,14,40,0,0
11839,-100,4,2,15,40,0,0
12074,-100,4,2,16,40,0,0
12308,468.786623954997,4,2,17,40,1,0
12776,-100,4,2,17,20,0,0
13011,-100,4,2,17,40,0,0
13479,-100,4,2,17,20,0,0
13714,-100,4,2,16,40,0,0
14183,-100,4,2,16,40,0,0
14417,-100,4,2,44,40,0,0
14651,-100,4,2,19,40,0,0
15120,-100,4,2,24,40,0,0
15355,-100,4,2,20,40,0,0
15589,-100,4,2,21,40,0,0
15823,-100,4,2,22,40,0,0
16058,-100,4,2,26,50,0,0
16761,-100,4,2,22,50,0,0
17464,-100,4,2,20,50,0,0
19339,-100,4,2,21,50,0,0
19574,-100,4,2,22,50,0,0
19808,-100,4,2,26,50,0,0
20511,-100,4,2,22,50,0,0
21214,-100,4,2,28,50,0,0
22386,-100,4,2,20,50,0,0
22621,-100,4,2,22,50,0,0
22855,-100,4,2,29,50,0,0
23090,-100,4,2,30,50,0,0
23324,-100,4,2,31,50,0,0
23558,-100,4,2,30,50,0,0
24027,-100,4,2,22,50,0,0
24730,-100,4,2,20,50,0,0
24965,-100,4,2,29,50,0,0
27543,-100,4,2,32,50,0,0
27777,-100,4,2,33,50,0,0
28012,-100,4,2,34,50,0,0
28246,-100,4,2,35,50,0,0
28481,-100,4,2,36,50,0,0
28715,-100,4,2,37,50,0,0
29184,-100,4,2,38,50,0,0
29418,-100,4,2,42,50,0,0
29665,504.201680672269,4,2,43,50,1,0
29917,-100,4,2,39,50,0,0
30169,517.241379310345,4,2,42,50,1,0
30427,-100,4,2,43,50,0,0
30724,540.540540540541,4,2,40,50,1,0
30994,-100,4,2,42,50,0,0
31264,500,4,2,43,50,1,0
31514,612.244897959184,4,2,41,50,1,0
31820,472.44094488189,4,2,42,50,1,0
32292,952.380952380952,4,2,22,50,1,0
32768,-100,4,2,22,42,0,0
33244,-100,4,2,22,36,0,0
33720,-100,4,2,22,29,0,0
34196,-100,4,2,22,19,0,0
34672,-100,4,2,22,14,0,0
35149,-100,4,2,22,8,0,0
35625,-100,4,2,22,6,0,0
36101,-100,4,2,22,5,0,0

[Colours]
Combo1 : 255,235,175
Combo2 : 224,205,255
Combo3 : 193,240,251
Combo4 : 220,249,168
SliderBorder : 65,240,201
SliderTrackOverride : 0,0,0

[HitObjects]
368,301,280,6,0,P|330:303|297:319,2,75,2|2|2,0:0|0:0|0:0,0:0:0:0:
442,346,1022,6,0,P|413:300|436:211,1,150,2|0,0:0|0:0,0:0:0:0:
494,164,1753,2,0,B|458:186|458:186|349:167,1,150,2|0,0:0|0:0,0:0:0:0:
286,206,2485,2,0,P|305:160|212:159,1,150,2|0,0:0|0:0,0:0:0:0:
102,93,4088,2,0,P|61:108|21:103,2,75,2|2|2,0:0|0:0|0:0,0:0:0:0:
153,40,4796,6,0,P|142:135|147:193,1,150,2|0,0:0|0:0,0:0:0:0:
190,250,5504,2,0,P|144:213|64:243,1,150,2|0,0:0|0:0,0:0:0:0:
145,321,6213,2,0,B|196:291|196:291|302:307,1,150,2|0,0:0|0:0,0:0:0:0:
422,273,7842,2,0,P|420:326|423:374,2,75,2|2|2,0:0|0:0|0:0,0:0:0:0:
465,179,8570,6,0,P|472:126|466:90,1,75,2|0,0:0|0:0,0:0:0:0:
423,46,9038,1,2,0:0:0:0:
367,97,9273,2,0,P|305:116|226:62,1,150,2|2,0:0|0:0,0:0:0:0:
183,22,9976,2,0,B|205:83|205:83|198:194,1,150,2|0,0:0|0:0,0:0:0:0:
62,348,11148,5,2,0:0:0:0:
102,285,11371,2,0,P|99:233|94:204,2,75,2|2|2,0:0|0:0|0:0,0:0:0:0:
62,348,12074,1,2,0:0:0:0:
169,318,12308,6,0,L|319:311,1,150,2|0,0:0|0:0,0:0:0:0:
380,357,13011,2,0,B|349:313|349:313|353:209,1,150,2|0,0:0|0:0,0:0:0:0:
418,181,13714,2,0,P|377:148|287:180,1,150,2|0,0:0|0:0,0:0:0:0:
250,238,14417,1,2,0:0:0:0:
195,187,14651,2,0,B|170:110|229:111|184:25,1,150,2|0,0:0|0:0,0:0:0:0:
127,81,15355,2,0,P|86:91|33:90,2,75,2|2|2,0:0|0:0|0:0,0:0:0:0:
269,43,16058,6,0,P|306:25|358:26,1,75,2|0,0:0|0:0,0:0:0:0:
414,40,16527,1,0,0:0:0:0:
326,107,16761,2,0,L|331:187,1,75,2|0,0:0|0:0,0:0:0:0:
340,257,17230,1,0,0:0:0:0:
291,350,17464,6,0,B|248:322|248:322|125:329,1,150,2|0,0:0|0:0,0:0:0:0:
83,363,18167,1,0,0:0:0:0:
39,303,18402,2,0,L|47:219,1,75
86,165,18871,1,0,0:0:0:0:
59,95,19105,2,0,P|53:45|53:11,2,75,2|2|2,0:0|0:0|0:0,0:0:0:0:
160,155,19808,6,0,P|197:138|249:148,1,75,2|0,0:0|0:0,0:0:0:0:
282,196,20277,1,0,0:0:0:0:
318,102,20511,2,0,L|328:13,1,75,2|0,0:0|0:0,0:0:0:0:
401,12,20980,1,0,0:0:0:0:
439,138,21214,6,0,B|415:178|415:178|423:289,1,150,2|0,0:0|0:0,0:0:0:0:
427,357,21918,1,0,0:0:0:0:
356,333,22152,2,0,P|314:323|275:324,1,75,0|2,0:0|0:0,0:0:0:0:
189,256,22621,6,0,P|231:246|270:247,2,75,2|2|2,0:0|0:0|0:0,0:0:0:0:
122,291,23324,1,2,0:0:0:0:
43,217,23558,6,0,P|35:152|39:123,1,75,2|0,0:0|0:0,0:0:0:0:
80,81,24027,1,2,0:0:0:0:
135,31,24262,2,0,L|217:35,1,75,2|0,0:0|0:0,0:0:0:0:
285,43,24730,1,2,0:0:0:0:
389,14,24965,6,0,B|375:71|375:71|381:113|381:113|369:181,1,150,2|0,0:0|0:0,0:0:0:0:
350,234,25668,1,0,0:0:0:0:
317,302,25902,1,0,0:0:0:0:
250,266,26137,2,0,P|212:265|176:277,1,75
168,351,26605,1,0,0:0:0:0:
94,336,26840,2,0,P|58:347|21:346,1,75
60,154,27543,6,0,P|99:136|147:137,1,75,2|2,0:0|0:0,0:0:0:0:
196,179,28012,1,2,0:0:0:0:
328,154,28246,6,0,P|289:136|241:137,1,75,2|2,0:0|0:0,0:0:0:0:
196,179,28715,1,2,0:0:0:0:
220,298,29184,6,0,L|321:289,1,75,2|2,0:0|0:0,0:0:0:0:
356,246,29665,1,2,0:0:0:0:
435,249,29917,6,0,P|420:297|434:344,1,75,2|2,0:0|0:0,0:0:0:0:
494,296,30427,1,2,0:0:0:0:
489,195,30724,6,0,L|483:100,1,75,2|2,0:0|0:0,0:0:0:0:
480,47,31264,1,2,0:0:0:0:
410,68,31514,6,0,P|370:82|335:70,1,75,2|2,0:0|0:0,0:0:0:0:
203,21,32292,1,2,0:0:0:0:
256,192,32411,12,0,36101,0:0:0:0:
