osu file format v14

[General]
AudioFilename: audio.mp3
AudioLeadIn: 0
PreviewTime: 45714
Countdown: 0
SampleSet: Normal
StackLeniency: 0.7
Mode: 3
LetterboxInBreaks: 0
EpilepsyWarning: 1
SpecialStyle: 0
WidescreenStoryboard: 1

[Editor]
Bookmarks: 60,22917,45774,67202,91409,114266,137123,159980
DistanceSpacing: 0.8
BeatDivisor: 4
GridSize: 4
TimelineZoom: 2.1

[Metadata]
Title:Kikoemasu ka feat. Haruki (CV: Koinu)
TitleUnicode:聞こえますか feat. 春輝〈幼少期〉(CV:こいぬ)
Artist:HoneyWorks
ArtistUnicode:HoneyWorks
Creator:SurfChu85
Version:do you hear me?
Source:いつだって僕らの恋は10センチだった。
Tags:Kadowaki Daisuke Strings Tokyo Winter Session Serizawa Our love has always been 10 centimeters apart Itsudatte Bokura no Koi wa 10 cm Datta trainer- 2dw lenfried- arviejhay jztcallmeron
BeatmapID:1515408
BeatmapSetID:717277

[Difficulty]
HPDrainRate:7.5
CircleSize:7
OverallDifficulty:7.5
ApproachRate:5
SliderMultiplier:1.4
SliderTickRate:1

[Events]
//Background and Video events
0,0,"test.png",0,0
//Break Periods
//Storyboard Layer 0 (Background)
//Storyboard Layer 1 (Fail)
//Storyboard Layer 2 (Pass)
//Storyboard Layer 3 (Foreground)
//Storyboard Sound Samples
Sample,68631,0,"bell2.wav",40
Sample,72917,0,"bell2.wav",40

[TimingPoints]
60,476.190476190476,3,1,1,15,1,0
11488,-100,3,1,1,20,0,0
45774,-100,3,1,1,30,0,1
52184,476.190476190476,3,1,1,30,1,1
52898,476.190476190476,3,1,1,30,1,1
57202,476.190476190476,3,1,1,30,1,1
67202,-100,3,1,1,20,0,0
85774,-100,3,1,1,15,0,0
91409,476.190476190476,3,1,1,25,1,0
114266,-100,3,1,1,30,0,1
135694,-100,3,1,1,30,0,0
137123,-100,3,1,1,30,0,1
159980,-100,3,1,1,30,0,0

[HitObjects]
109,192,60,128,0,1488:0:0:0:0:
329,192,298,128,0,536:0:0:0:0:
402,192,536,128,0,774:0:0:0:0:
475,192,774,128,0,1488:0:0:0:0:
182,192,1488,128,0,2917:0:0:0:0:
256,192,1726,128,0,1964:0:0:0:0:
329,192,1964,128,0,2202:0:0:0:0:
402,192,2202,128,0,2917:0:0:0:0:
256,192,2917,128,0,4345:0:0:0:0:
182,192,3155,128,0,3393:0:0:0:0:
329,192,3393,128,0,3631:0:0:0:0:
475,192,3631,128,0,4345:0:0:0:0:
182,192,4345,128,0,4821:0:0:0:0:
402,192,4345,128,0,4821:0:0:0:0:
109,192,4821,128,0,5298:0:0:0:0:
329,192,4821,128,0,5298:0:0:0:0:
36,192,5298,128,0,5774:0:0:0:0:
256,192,5298,128,0,5774:0:0:0:0:
109,192,5774,128,0,7202:0:0:0:0:
329,192,6012,128,0,6250:0:0:0:0:
402,192,6250,128,0,6488:0:0:0:0:
475,192,6488,128,0,7202:0:0:0:0:
182,192,7202,128,0,8631:0:0:0:0:
256,192,7440,128,0,7679:0:0:0:0:
329,192,7679,128,0,7917:0:0:0:0:
402,192,7917,128,0,8631:0:0:0:0:
36,192,8631,128,0,10059:0:0:0:0:
182,192,8869,128,0,9107:0:0:0:0:
256,192,9107,128,0,9345:0:0:0:0:
329,192,9345,128,0,9583:0:0:0:0:
475,192,9345,128,0,9583:0:0:0:0:
109,192,9583,128,0,9821:0:0:0:0:
182,192,9821,128,0,10059:0:0:0:0:
402,192,10059,128,0,10298:0:0:0:0:
256,192,10059,128,0,10536:0:0:0:0:
36,192,10298,128,0,10536:0:0:0:0:
475,192,10298,128,0,10536:0:0:0:0:
182,192,10536,128,0,10774:0:0:0:0:
329,192,10536,128,0,11012:0:0:0:0:
109,192,11012,128,0,11250:0:0:0:0:
402,192,11012,128,0,11488:0:0:0:0:
36,192,11488,128,0,11726:0:0:0:40:bell2.wav
256,192,11488,1,0,0:0:0:0:
475,192,11488,128,0,12202:0:0:0:0:
182,192,11726,128,0,11964:0:0:0:0:
256,192,11964,128,0,12202:0:0:0:0:
329,192,12202,128,0,12440:0:0:0:0:
402,192,12202,128,0,12917:0:0:0:0:
36,192,12917,128,0,13155:0:0:0:40:bell2.wav
109,192,12917,1,0,0:0:0:0:
329,192,12917,128,0,13631:0:0:0:0:
182,192,13155,128,0,13393:0:0:0:0:
256,192,13393,128,0,13631:0:0:0:0:
182,192,13631,128,0,14345:0:0:0:0:
402,192,13631,128,0,13869:0:0:0:0:
36,192,14345,1,0,0:0:0:40:bell2.wav
109,192,14345,128,0,15059:0:0:0:0:
256,192,14345,128,0,14583:0:0:0:0:
329,192,14583,128,0,14821:0:0:0:0:
402,192,14821,128,0,15059:0:0:0:0:
36,192,15059,128,0,15298:0:0:0:0:
475,192,15059,128,0,15298:0:0:0:0:
109,192,15298,128,0,15774:0:0:0:0:
402,192,15298,128,0,15536:0:0:0:0:
329,192,15536,128,0,15774:0:0:0:0:
182,192,15774,128,0,16012:0:0:0:40:bell2.wav
109,192,16012,128,0,16250:0:0:0:0:
475,192,16012,128,0,16250:0:0:0:0:
256,192,16250,128,0,17202:0:0:0:0:
402,192,16250,128,0,16488:0:0:0:0:
329,192,16488,128,0,16726:0:0:0:0:
182,192,16726,128,0,16964:0:0:0:0:
109,192,16964,128,0,17202:0:0:0:0:
36,192,17202,128,0,17679:0:0:0:40:bell2.wav
182,192,17202,1,0,0:0:0:0:
329,192,17440,1,0,0:0:0:0:
109,192,17679,128,0,18155:0:0:0:0:
402,192,17679,1,0,0:0:0:0:
475,192,17917,1,0,0:0:0:0:
182,192,18155,128,0,18631:0:0:0:0:
402,192,18155,1,0,0:0:0:0:
475,192,18393,1,0,0:0:0:0:
36,192,18631,128,0,18869:0:0:0:40:bell2.wav
256,192,18631,128,0,19107:0:0:0:0:
402,192,18631,1,0,0:0:0:0:
182,192,18869,1,0,0:0:0:0:
109,192,19107,128,0,19583:0:0:0:0:
329,192,19107,1,0,0:0:0:0:
402,192,19345,128,0,19821:0:0:0:0:
182,192,19583,128,0,19940:0:0:0:0:
475,192,19583,1,0,0:0:0:0:
329,192,19821,1,0,0:0:0:0:
36,192,20059,128,0,20298:0:0:0:40:bell2.wav
182,192,20059,128,0,21488:0:0:0:0:
256,192,20059,1,0,0:0:0:0:
109,192,20298,128,0,20536:0:0:0:0:
329,192,20536,128,0,20774:0:0:0:0:
402,192,20774,128,0,21012:0:0:0:0:
475,192,21012,128,0,21250:0:0:0:0:
256,192,21250,128,0,21488:0:0:0:0:
402,192,21488,128,0,22917:0:0:0:40:bell2.wav
475,192,21488,128,0,22917:0:0:0:0:
36,192,22917,128,0,23155:0:0:0:40:bell2.wav
329,192,22917,1,0,0:0:0:0:
182,192,23155,128,0,23393:0:0:0:0:
256,192,23393,128,0,23631:0:0:0:0:
329,192,23631,128,0,24345:0:0:0:0:
256,192,24345,128,0,24821:0:0:0:40:bell2.wav
109,192,24821,128,0,25774:0:0:0:0:
36,192,25774,128,0,26012:0:0:0:40:bell2.wav
329,192,25774,1,0,0:0:0:0:
182,192,26012,128,0,26250:0:0:0:0:
256,192,26250,128,0,26488:0:0:0:0:
402,192,26488,128,0,26964:0:0:0:0:
182,192,27202,1,0,0:0:0:40:bell2.wav
475,192,27202,128,0,27679:0:0:0:0:
329,192,27679,1,0,0:0:0:0:
36,192,28631,128,0,28869:0:0:0:40:bell2.wav
329,192,28631,1,0,0:0:0:0:
182,192,28869,128,0,29107:0:0:0:0:
256,192,29107,128,0,29345:0:0:0:0:
402,192,29345,128,0,30059:0:0:0:0:
109,192,30059,128,0,30298:0:0:0:40:bell2.wav
329,192,30059,1,0,0:0:0:0:
182,192,30298,128,0,30536:0:0:0:0:
256,192,30536,128,0,30774:0:0:0:0:
329,192,30774,128,0,31488:0:0:0:0:
36,192,31488,128,0,31726:0:0:0:40:bell2.wav
402,192,31488,1,0,0:0:0:0:
182,192,31726,128,0,31964:0:0:0:0:
256,192,31964,128,0,32202:0:0:0:0:
329,192,32202,128,0,32440:0:0:0:0:
402,192,32440,128,0,32679:0:0:0:0:
329,192,32679,128,0,32917:0:0:0:0:
475,192,32917,128,0,33036:0:0:0:40:bell2.wav
256,192,33155,128,0,33274:0:0:0:0:
402,192,33155,128,0,33274:0:0:0:0:
256,192,33393,128,0,33512:0:0:0:0:
402,192,33393,128,0,33512:0:0:0:0:
182,192,33631,128,0,33750:0:0:0:0:
329,192,33631,128,0,33750:0:0:0:0:
182,192,33869,128,0,33988:0:0:0:0:
329,192,33869,128,0,33988:0:0:0:0:
36,192,34345,128,0,34583:0:0:0:40:bell2.wav
182,192,34583,128,0,34821:0:0:0:0:
109,192,34821,128,0,35059:0:0:0:0:
256,192,34821,128,0,35059:0:0:0:0:
329,192,35059,128,0,35774:0:0:0:0:
402,192,35774,128,0,36250:0:0:0:40:bell2.wav
182,192,36250,1,0,0:0:0:0:
256,192,36250,1,0,0:0:0:0:
36,192,37202,128,0,37440:0:0:0:40:bell2.wav
109,192,37440,128,0,37679:0:0:0:0:
182,192,37679,128,0,37917:0:0:0:0:
402,192,37679,128,0,37917:0:0:0:0:
256,192,37917,128,0,38393:0:0:0:0:
329,192,38571,1,0,0:0:0:0:
402,192,38601,1,0,0:0:0:0:
475,192,38631,128,0,39107:0:0:0:40:bell2.wav
182,192,39107,1,0,0:0:0:0:
402,192,39107,128,0,39583:0:0:0:0:
109,192,39137,128,0,39226:0:0:0:0:
109,192,39583,1,0,0:0:0:0:
329,192,39583,128,0,40059:0:0:0:0:
182,192,39613,128,0,39702:0:0:0:0:
36,192,40059,128,0,40298:0:0:0:40:bell2.wav
109,192,40298,128,0,40536:0:0:0:0:
182,192,40536,128,0,40774:0:0:0:0:
402,192,40536,128,0,40774:0:0:0:0:
256,192,40774,128,0,41488:0:0:0:0:
109,192,41488,128,0,41726:0:0:0:40:bell2.wav
329,192,41488,128,0,41726:0:0:0:0:
182,192,41726,128,0,41964:0:0:0:0:
256,192,41964,128,0,42202:0:0:0:0:
475,192,41964,128,0,42202:0:0:0:0:
329,192,42202,128,0,42440:0:0:0:0:
109,192,42440,1,0,0:0:0:0:
182,192,42440,1,0,0:0:0:0:
256,192,42857,1,0,0:0:0:0:
329,192,42887,1,0,0:0:0:0:
402,192,42917,128,0,44345:0:0:0:40:bell2.wav
182,192,43869,128,0,44345:0:0:0:0:
109,192,44107,128,0,44345:0:0:0:0:
36,192,44345,128,0,44524:0:0:0:40:bell2.wav
329,192,44524,1,0,0:0:0:0:
402,192,44554,1,0,0:0:0:0:
475,192,44583,128,0,44821:0:0:0:0:
402,192,44821,128,0,45059:0:0:0:0:
329,192,45059,128,0,45298:0:0:0:0:
109,192,45298,128,0,45536:0:0:0:0:
256,192,45298,128,0,45536:0:0:0:0:
36,192,45536,128,0,45774:0:0:0:0:
182,192,45536,128,0,45774:0:0:0:0:
109,192,45774,128,0,47202:0:0:0:40:bell2.wav
329,192,45774,1,0,0:0:0:0:
475,192,45774,128,0,46250:0:0:0:0:
182,192,46012,1,0,0:0:0:0:
256,192,46250,1,0,0:0:0:40:bell2.wav
402,192,46250,128,0,46726:0:0:0:0:
182,192,46488,1,0,0:0:0:0:
36,192,46726,1,0,0:0:0:40:bell2.wav
329,192,46726,128,0,47202:0:0:0:0:
256,192,46964,1,0,0:0:0:0:
36,192,47202,128,0,47679:0:0:0:40:bell2.wav
182,192,47202,128,0,47679:0:0:0:0:
402,192,47202,1,0,0:0:0:0:
475,192,47440,1,0,0:0:0:0:
109,192,47679,128,0,48155:0:0:0:40:bell2.wav
256,192,47679,128,0,48155:0:0:0:0:
329,192,47679,1,0,0:0:0:0:
402,192,47917,1,0,0:0:0:0:
182,192,48155,128,0,48631:0:0:0:40:bell2.wav
329,192,48155,128,0,48631:0:0:0:0:
475,192,48155,1,0,0:0:0:0:
402,192,48393,1,0,0:0:0:0:
36,192,48631,128,0,50059:0:0:0:40:bell2.wav
109,192,48631,1,0,0:0:0:0:
475,192,48631,128,0,49107:0:0:0:0:
182,192,48869,1,0,0:0:0:0:
256,192,49107,1,0,0:0:0:0:
329,192,49345,1,0,0:0:0:0:
256,192,49583,1,0,0:0:0:40:bell2.wav
475,192,49583,128,0,49821:0:0:0:0:
182,192,49821,1,0,0:0:0:0:
402,192,49821,128,0,50536:0:0:0:0:
109,192,50020,1,0,0:0:0:0:
182,192,50059,128,0,50536:0:0:0:40:bell2.wav
256,192,50536,128,0,51012:0:0:0:40:bell2.wav
329,192,51012,128,0,51488:0:0:0:40:bell2.wav
36,192,51488,1,0,0:0:0:40:bell2.wav
182,192,51488,128,0,52898:0:0:0:0:
402,192,51488,128,0,51964:0:0:0:0:
109,192,51726,1,0,0:0:0:0:
256,192,51964,1,0,0:0:0:40:bell2.wav
329,192,51964,128,0,52422:0:0:0:0:
475,192,52184,1,0,0:0:0:0:
402,192,52422,1,0,0:0:0:0:
256,192,52422,128,0,52898:0:0:0:40:bell2.wav
109,192,52660,1,0,0:0:0:0:
329,192,52898,1,0,0:0:0:0:
402,192,52898,128,0,53374:0:0:0:0:
109,192,52898,128,0,54326:0:0:0:0:
36,192,52898,1,0,0:0:0:40:bell2.wav
475,192,53136,1,0,0:0:0:0:
329,192,53374,1,0,0:0:0:0:
182,192,53374,128,0,53850:0:0:0:40:bell2.wav
256,192,53612,1,0,0:0:0:0:
329,192,53850,128,0,54326:0:0:0:40:bell2.wav
402,192,53850,1,0,0:0:0:0:
475,192,54088,1,0,0:0:0:0:
402,192,54326,128,0,54802:0:0:0:0:
36,192,54326,128,0,54564:0:0:0:40:bell2.wav
256,192,54564,128,0,54802:0:0:0:0:
329,192,54802,128,0,55040:0:0:0:0:
182,192,55040,128,0,55278:0:0:0:0:
402,192,55278,128,0,55517:0:0:0:0:
256,192,55278,128,0,55755:0:0:0:40:bell2.wav
329,192,55517,128,0,55755:0:0:0:0:
182,192,55755,128,0,55993:0:0:0:40:bell2.wav
475,192,55755,128,0,55874:0:0:0:0:
475,192,55993,128,0,56112:0:0:0:0:
329,192,55993,128,0,56112:0:0:0:0:
109,192,55993,128,0,56231:0:0:0:0:
329,192,56231,128,0,56350:0:0:0:0:
475,192,56231,128,0,56350:0:0:0:0:
182,192,56231,128,0,56469:0:0:0:40:bell2.wav
109,192,56469,128,0,56707:0:0:0:0:
256,192,56469,128,0,56588:0:0:0:0:
402,192,56469,128,0,56588:0:0:0:0:
402,192,56707,128,0,56826:0:0:0:0:
256,192,56707,128,0,56826:0:0:0:0:
36,192,56707,128,0,56945:0:0:0:40:bell2.wav
109,192,56945,128,0,57202:0:0:0:0:
329,192,56945,1,0,0:0:0:0:
182,192,57202,128,0,58630:0:0:0:40:bell2.wav
256,192,57202,1,0,0:0:0:0:
475,192,57202,128,0,57678:0:0:0:0:
329,192,57440,1,0,0:0:0:0:
402,192,57678,128,0,58154:0:0:0:0:
36,192,57678,1,0,0:0:0:40:bell2.wav
109,192,57916,1,0,0:0:0:0:
329,192,58154,128,0,58630:0:0:0:0:
256,192,58154,1,0,0:0:0:40:bell2.wav
475,192,58392,1,0,0:0:0:0:
109,192,58630,1,0,0:0:0:0:
36,192,58630,128,0,60059:0:0:0:40:bell2.wav
256,192,58630,128,0,59106:0:0:0:0:
182,192,58868,1,0,0:0:0:0:
109,192,59106,128,0,59582:0:0:0:40:bell2.wav
329,192,59106,1,0,0:0:0:0:
402,192,59344,1,0,0:0:0:0:
475,192,59582,1,0,0:0:0:0:
182,192,59582,128,0,60059:0:0:0:40:bell2.wav
402,192,59821,1,0,0:0:0:0:
109,192,60059,128,0,61487:0:0:0:40:bell2.wav
329,192,60059,128,0,60297:0:0:0:0:
256,192,60059,128,0,60535:0:0:0:0:
402,192,60297,128,0,60535:0:0:0:0:
475,192,60535,128,0,60773:0:0:0:0:
36,192,60773,128,0,61011:0:0:0:0:
256,192,61011,128,0,61249:0:0:0:40:bell2.wav
402,192,61011,128,0,61249:0:0:0:0:
182,192,61249,128,0,61487:0:0:0:0:
256,192,61487,128,0,61963:0:0:0:0:
402,192,61487,128,0,61963:0:0:0:0:
36,192,61487,128,0,61963:0:0:0:40:bell2.wav
109,192,61963,128,0,62440:0:0:0:40:bell2.wav
329,192,61963,128,0,62440:0:0:0:0:
182,192,62440,128,0,62916:0:0:0:40:bell2.wav
256,192,62440,128,0,62678:0:0:0:0:
402,192,62440,128,0,62916:0:0:0:0:
109,192,62678,128,0,62916:0:0:0:0:
256,192,62876,1,0,0:0:0:0:
36,192,62916,128,0,63154:0:0:0:40:bell2.wav
475,192,62916,128,0,63392:0:0:0:0:
329,192,62916,128,0,63392:0:0:0:0:
109,192,63154,128,0,63392:0:0:0:0:
182,192,63392,128,0,63630:0:0:0:40:bell2.wav
256,192,63630,128,0,63868:0:0:0:0:
475,192,63630,128,0,64344:0:0:0:0:
182,192,63868,128,0,64106:0:0:0:40:bell2.wav
109,192,64106,128,0,64344:0:0:0:0:
36,192,64344,128,0,64582:0:0:0:40:bell2.wav
402,192,64344,128,0,64821:0:0:0:0:
256,192,64582,1,0,0:0:0:0:
109,192,64821,128,0,65297:0:0:0:40:bell2.wav
182,192,64821,1,0,0:0:0:0:
329,192,64821,128,0,65297:0:0:0:0:
36,192,65059,1,0,0:0:0:0:
182,192,65297,128,0,65773:0:0:0:40:bell2.wav
475,192,65297,128,0,65773:0:0:0:0:
109,192,65773,128,0,67202:0:0:0:40:bell2.wav
402,192,65773,128,0,67202:0:0:0:0:
36,192,66725,128,0,66963:0:0:0:0:
182,192,66963,128,0,67202:0:0:0:0:
36,192,67202,128,0,68630:0:0:0:40:bell2.wav
256,192,67202,1,0,0:0:0:0:
329,192,67440,1,0,0:0:0:0:
402,192,67678,1,0,0:0:0:0:
329,192,67916,1,0,0:0:0:0:
256,192,68154,1,0,0:0:0:0:
182,192,68392,1,0,0:0:0:0:
329,192,68511,1,0,0:0:0:0:
402,192,68571,1,0,0:0:0:0:
475,192,68630,128,0,68868:0:0:0:40:LR_J_Hit.wav
36,192,68789,1,0,0:0:0:0:
109,192,68828,1,0,0:0:0:0:
182,192,68868,128,0,69106:0:0:0:40:LR_J_Hit.wav
256,192,69106,128,0,69344:0:0:0:40:LR_J_Hit.wav
329,192,69344,128,0,69821:0:0:0:40:LR_J_Hit.wav
402,192,69582,128,0,69821:0:0:0:40:LR_J_Hit.wav
475,192,69821,128,0,70059:0:0:0:40:LR_J_Hit.wav
256,192,70059,128,0,70297:0:0:0:40:LR_J_Hit.wav
402,192,70059,128,0,70535:0:0:0:40:bell2.wav
36,192,70297,128,0,70535:0:0:0:0:
109,192,70535,128,0,70773:0:0:0:40:LR_J_Hit.wav
329,192,70535,128,0,71011:0:0:0:0:
182,192,70773,128,0,71011:0:0:0:0:
256,192,71011,128,0,71487:0:0:0:40:LR_J_Hit.wav
36,192,71487,128,0,71725:0:0:0:40:LR_J_Hit.wav
329,192,71487,128,0,71963:0:0:0:40:bell2.wav
182,192,71725,128,0,71963:0:0:0:0:
256,192,71963,128,0,72202:0:0:0:0:
329,192,72202,128,0,72916:0:0:0:0:
109,192,72440,128,0,72678:0:0:0:40:LR_J_Hit.wav
402,192,72876,1,0,0:0:0:0:
256,192,72916,128,0,73392:0:0:0:40:LR_J_Hit.wav
475,192,72916,128,0,73392:0:0:0:0:
182,192,73392,128,0,73868:0:0:0:40:LR_J_Hit.wav
402,192,73392,128,0,73868:0:0:0:0:
109,192,73868,128,0,74344:0:0:0:40:LR_J_Hit.wav
329,192,73868,128,0,74344:0:0:0:0:
36,192,74344,1,0,0:0:0:40:LR_J_Hit.wav
256,192,74344,128,0,74582:0:0:0:40:bell2.wav
109,192,74582,1,0,0:0:0:40:LR_J_Hit.wav
329,192,74582,128,0,74821:0:0:0:0:
182,192,74821,1,0,0:0:0:40:LR_J_Hit.wav
402,192,74821,128,0,75059:0:0:0:0:
256,192,75059,128,0,75535:0:0:0:40:LR_J_Hit.wav
475,192,75059,128,0,75297:0:0:0:0:
329,192,75297,128,0,75535:0:0:0:40:LR_J_Hit.wav
475,192,75535,128,0,75773:0:0:0:40:LR_J_Hit.wav
36,192,75773,128,0,76011:0:0:0:40:LR_J_Hit.wav
182,192,75773,128,0,76249:0:0:0:40:bell2.wav
256,192,76011,128,0,76249:0:0:0:0:
109,192,76249,128,0,76725:0:0:0:40:LR_J_Hit.wav
329,192,76249,128,0,76487:0:0:0:0:
475,192,76487,128,0,76725:0:0:0:0:
256,192,76725,128,0,77202:0:0:0:40:LR_J_Hit.wav
36,192,77202,128,0,77440:0:0:0:40:LR_J_Hit.wav
329,192,77202,128,0,77678:0:0:0:40:bell2.wav
475,192,77202,128,0,77678:0:0:0:0:
109,192,77440,128,0,77678:0:0:0:0:
182,192,77678,128,0,77916:0:0:0:40:LR_J_Hit.wav
256,192,77678,128,0,78392:0:0:0:0:
402,192,77678,128,0,78392:0:0:0:0:
475,192,77916,128,0,78154:0:0:0:0:
109,192,78154,128,0,78392:0:0:0:0:
36,192,78392,128,0,78630:0:0:0:40:LR_J_Hit.wav
182,192,78392,128,0,78630:0:0:0:0:
329,192,78392,128,0,78630:0:0:0:0:
256,192,78630,128,0,79344:0:0:0:40:bell2.wav
402,192,78630,128,0,80059:0:0:0:0:
109,192,78630,128,0,78868:0:0:0:40:LR_J_Hit.wav
182,192,79106,128,0,79344:0:0:0:0:
109,192,79344,128,0,79582:0:0:0:0:
329,192,79582,128,0,79821:0:0:0:0:
475,192,79582,128,0,80059:0:0:0:0:
256,192,80059,128,0,80297:0:0:0:40:bell2.wav
329,192,80059,128,0,81011:0:0:0:0:
109,192,80297,128,0,80535:0:0:0:0:
182,192,80535,128,0,80773:0:0:0:0:
475,192,80773,128,0,81011:0:0:0:0:
109,192,81011,1,0,0:0:0:0:
256,192,81011,128,0,81487:0:0:0:0:
182,192,81249,1,0,0:0:0:0:
36,192,81487,1,0,0:0:0:40:bell2.wav
182,192,81487,128,0,81963:0:0:0:0:
402,192,81487,128,0,81725:0:0:0:0:
256,192,81725,128,0,81963:0:0:0:0:
109,192,81963,128,0,82797:0:0:0:0:
329,192,81963,128,0,82201:0:0:0:0:
475,192,82201,128,0,82440:0:0:0:0:
329,192,82440,128,0,82678:0:0:0:0:
402,192,82678,128,0,82916:0:0:0:0:
329,192,82797,128,0,82916:0:0:0:0:
36,192,82886,128,0,83005:0:0:0:0:
109,192,82916,128,0,83987:0:0:0:40:bell2.wav
182,192,82946,128,0,83065:0:0:0:0:
475,192,83660,1,0,0:0:0:0:
402,192,83749,1,0,0:0:0:0:
329,192,83809,1,0,0:0:0:0:
256,192,83868,128,0,84344:0:0:0:0:
109,192,84106,128,0,84344:0:0:0:0:
36,192,84344,128,0,84821:0:0:0:40:bell2.wav
182,192,84344,1,0,0:0:0:0:
402,192,84642,1,0,0:0:0:0:
329,192,84701,1,0,0:0:0:0:
256,192,84761,1,0,0:0:0:0:
109,192,84821,128,0,85297:0:0:0:0:
182,192,84821,1,0,0:0:0:0:
256,192,85059,1,0,0:0:0:0:
329,192,85297,1,0,0:0:0:0:
182,192,85297,128,0,85773:0:0:0:0:
402,192,85535,1,0,0:0:0:0:
109,192,85773,128,0,86487:0:0:0:40:bell2.wav
475,192,85773,1,0,0:0:0:0:
36,192,87201,128,0,87678:0:0:0:40:bell2.wav
402,192,87201,128,0,88630:0:0:0:0:
256,192,87201,1,0,0:0:0:0:
109,192,87678,128,0,88154:0:0:0:0:
182,192,88154,128,0,88630:0:0:0:0:
475,192,88630,128,0,90059:0:0:0:0:
109,192,88630,128,0,90416:0:0:0:40:bell2.wav
109,192,90535,128,0,91408:0:0:0:0:
256,192,91409,128,0,91885:0:0:0:40:bell2.wav
475,192,91409,1,0,0:0:0:0:
329,192,91647,1,0,0:0:0:0:
182,192,91885,128,0,92361:0:0:0:40:bell2.wav
475,192,91885,1,0,0:0:0:0:
256,192,92123,1,0,0:0:0:0:
109,192,92361,128,0,92837:0:0:0:40:bell2.wav
475,192,92361,1,0,0:0:0:0:
182,192,92599,1,0,0:0:0:0:
36,192,92837,1,0,0:0:0:40:bell2.wav
256,192,92837,128,0,93313:0:0:0:0:
182,192,93075,1,0,0:0:0:0:
36,192,93313,1,0,0:0:0:40:bell2.wav
329,192,93313,128,0,93789:0:0:0:0:
256,192,93551,1,0,0:0:0:0:
36,192,93789,1,0,0:0:0:40:bell2.wav
402,192,93789,128,0,94266:0:0:0:0:
329,192,94028,1,0,0:0:0:0:
36,192,94266,1,0,0:0:0:40:bell2.wav
475,192,94266,128,0,95694:0:0:0:0:
402,192,94504,1,0,0:0:0:0:
109,192,94742,1,0,0:0:0:40:bell2.wav
329,192,94980,1,0,0:0:0:0:
182,192,95218,1,0,0:0:0:40:bell2.wav
329,192,95456,1,0,0:0:0:0:
36,192,95694,128,0,96170:0:0:0:40:bell2.wav
402,192,95932,128,0,96170:0:0:0:0:
329,192,96170,128,0,96409:0:0:0:40:bell2.wav
256,192,96409,128,0,96647:0:0:0:0:
182,192,96647,128,0,96885:0:0:0:40:bell2.wav
402,192,96647,128,0,96885:0:0:0:0:
109,192,96885,128,0,97123:0:0:0:0:
475,192,96885,128,0,97123:0:0:0:0:
36,192,97123,128,0,98551:0:0:0:40:bell2.wav
329,192,97123,128,0,97361:0:0:0:0:
402,192,97361,128,0,97599:0:0:0:0:
256,192,97599,128,0,97837:0:0:0:40:bell2.wav
329,192,97837,128,0,98075:0:0:0:0:
182,192,98075,128,0,98313:0:0:0:40:bell2.wav
256,192,98313,128,0,98551:0:0:0:0:
182,192,98551,1,0,0:0:0:40:bell2.wav
402,192,98551,128,0,99028:0:0:0:0:
109,192,98789,1,0,0:0:0:0:
36,192,99028,1,0,0:0:0:40:bell2.wav
329,192,99028,128,0,99266:0:0:0:0:
109,192,99266,1,0,0:0:0:0:
256,192,99266,128,0,99504:0:0:0:0:
182,192,99504,1,0,0:0:0:40:bell2.wav
329,192,99504,128,0,99742:0:0:0:0:
182,192,99742,128,0,99980:0:0:0:0:
475,192,99742,128,0,99980:0:0:0:0:
109,192,99980,128,0,101170:0:0:0:40:bell2.wav
256,192,99980,1,0,0:0:0:0:
402,192,99980,128,0,100694:0:0:0:0:
329,192,100218,1,0,0:0:0:0:
256,192,100456,1,0,0:0:0:40:bell2.wav
182,192,100694,1,0,0:0:0:0:
329,192,100694,128,0,101170:0:0:0:0:
36,192,100932,1,0,0:0:0:40:bell2.wav
182,192,101170,1,0,0:0:0:0:
402,192,101170,128,0,101409:0:0:0:0:
36,192,101409,1,0,0:0:0:40:bell2.wav
256,192,101409,1,0,0:0:0:0:
109,192,101647,1,0,0:0:0:0:
256,192,101647,1,0,0:0:0:0:
329,192,101726,1,0,0:0:0:0:
402,192,101805,1,0,0:0:0:0:
182,192,101885,128,0,102837:0:0:0:0:
475,192,101885,1,0,0:0:0:0:
402,192,102123,1,0,0:0:0:0:
329,192,102361,1,0,0:0:0:0:
256,192,102599,1,0,0:0:0:0:
36,192,102837,128,0,103313:0:0:0:40:bell2.wav
109,192,102837,1,0,0:0:0:0:
329,192,103075,1,0,0:0:0:0:
256,192,103313,128,0,103789:0:0:0:40:bell2.wav
402,192,103313,1,0,0:0:0:0:
475,192,103551,128,0,103789:0:0:0:0:
109,192,103789,128,0,104266:0:0:0:40:bell2.wav
402,192,103789,1,0,0:0:0:0:
329,192,104028,1,0,0:0:0:0:
182,192,104266,128,0,104742:0:0:0:40:bell2.wav
256,192,104266,1,0,0:0:0:0:
36,192,104504,1,0,0:0:0:0:
109,192,104742,1,0,0:0:0:40:bell2.wav
256,192,104742,128,0,105218:0:0:0:0:
182,192,104980,128,0,105218:0:0:0:0:
109,192,105218,1,0,0:0:0:40:bell2.wav
329,192,105218,128,0,105694:0:0:0:0:
36,192,105456,1,0,0:0:0:0:
109,192,105694,1,0,0:0:0:40:bell2.wav
402,192,105694,128,0,106409:0:0:0:0:
182,192,105932,1,0,0:0:0:0:
256,192,106170,1,0,0:0:0:40:bell2.wav
182,192,106409,128,0,106647:0:0:0:0:
109,192,106647,1,0,0:0:0:40:bell2.wav
475,192,106647,128,0,107004:0:0:0:0:
256,192,106885,128,0,107123:0:0:0:0:
329,192,107123,128,0,107361:0:0:0:40:bell2.wav
402,192,107123,128,0,107599:0:0:0:0:
182,192,107361,128,0,107599:0:0:0:0:
256,192,107599,128,0,107837:0:0:0:40:bell2.wav
329,192,107599,128,0,108075:0:0:0:0:
109,192,107837,128,0,108075:0:0:0:0:
182,192,108075,128,0,108313:0:0:0:40:bell2.wav
475,192,108075,128,0,108551:0:0:0:0:
256,192,108313,128,0,108551:0:0:0:0:
36,192,108551,1,0,0:0:0:40:bell2.wav
109,192,108551,128,0,109028:0:0:0:0:
402,192,108551,128,0,109504:0:0:0:0:
182,192,108789,1,0,0:0:0:0:
256,192,109028,1,0,0:0:0:40:bell2.wav
329,192,109028,128,0,109504:0:0:0:0:
475,192,109266,1,0,0:0:0:0:
36,192,109504,128,0,109980:0:0:0:40:bell2.wav
182,192,109504,128,0,109980:0:0:0:0:
256,192,109504,1,0,0:0:0:0:
475,192,109742,1,0,0:0:0:0:
109,192,109980,128,0,110456:0:0:0:40:bell2.wav
256,192,109980,128,0,111409:0:0:0:0:
329,192,109980,1,0,0:0:0:0:
475,192,110218,1,0,0:0:0:0:
36,192,110456,128,0,110932:0:0:0:40:bell2.wav
402,192,110456,1,0,0:0:0:0:
329,192,110694,1,0,0:0:0:0:
182,192,110932,128,0,111409:0:0:0:40:bell2.wav
402,192,110932,1,0,0:0:0:0:
475,192,111170,1,0,0:0:0:0:
36,192,111409,128,0,111647:0:0:0:0:
109,192,111409,128,0,112361:0:0:0:0:
329,192,111409,128,0,111528:0:0:0:0:
182,192,111647,128,0,111885:0:0:0:0:
256,192,111885,128,0,112123:0:0:0:40:bell2.wav
329,192,111885,128,0,112837:0:0:0:0:
475,192,112123,128,0,112361:0:0:0:0:
182,192,112361,128,0,112599:0:0:0:40:bell2.wav
36,192,112599,128,0,112837:0:0:0:0:
182,192,112778,1,0,0:0:0:0:
109,192,112837,128,0,113313:0:0:0:40:bell2.wav
256,192,112837,128,0,113075:0:0:0:0:
182,192,113313,128,0,113789:0:0:0:40:bell2.wav
329,192,113313,128,0,113551:0:0:0:0:
36,192,113789,128,0,114266:0:0:0:40:bell2.wav
256,192,113789,128,0,114266:0:0:0:0:
402,192,113789,128,0,114028:0:0:0:0:
109,192,114266,128,0,115694:0:0:0:40:bell2.wav
329,192,114266,1,0,0:0:0:0:
475,192,114266,128,0,114742:0:0:0:0:
182,192,114504,1,0,0:0:0:0:
256,192,114742,1,0,0:0:0:40:bell2.wav
402,192,114742,128,0,115218:0:0:0:0:
182,192,114980,1,0,0:0:0:0:
36,192,115218,1,0,0:0:0:40:bell2.wav
329,192,115218,128,0,115694:0:0:0:0:
256,192,115456,1,0,0:0:0:0:
36,192,115694,128,0,116170:0:0:0:40:bell2.wav
182,192,115694,128,0,116170:0:0:0:0:
402,192,115694,1,0,0:0:0:0:
475,192,115932,1,0,0:0:0:0:
109,192,116170,128,0,116647:0:0:0:40:bell2.wav
256,192,116170,128,0,116647:0:0:0:0:
329,192,116170,1,0,0:0:0:0:
402,192,116408,1,0,0:0:0:0:
182,192,116647,128,0,117123:0:0:0:40:bell2.wav
329,192,116647,128,0,117123:0:0:0:0:
475,192,116647,1,0,0:0:0:0:
402,192,116885,1,0,0:0:0:0:
36,192,117123,128,0,118551:0:0:0:40:bell2.wav
109,192,117123,1,0,0:0:0:0:
475,192,117123,128,0,117599:0:0:0:0:
182,192,117361,128,0,117480:0:0:0:0:
256,192,117599,128,0,117718:0:0:0:0:
329,192,117837,128,0,117956:0:0:0:0:
256,192,118075,128,0,118194:0:0:0:40:bell2.wav
475,192,118075,128,0,118313:0:0:0:0:
182,192,118313,128,0,118432:0:0:0:0:
109,192,118551,128,0,118789:0:0:0:40:bell2.wav
402,192,118551,128,0,119028:0:0:0:0:
182,192,118789,128,0,119028:0:0:0:0:
36,192,119028,1,0,0:0:0:40:bell2.wav
256,192,119028,128,0,119266:0:0:0:0:
329,192,119266,128,0,119504:0:0:0:0:
256,192,119504,128,0,119742:0:0:0:40:bell2.wav
475,192,119504,1,0,0:0:0:0:
182,192,119742,128,0,119980:0:0:0:0:
36,192,119980,128,0,121408:0:0:0:40:bell2.wav
109,192,119980,1,0,0:0:0:0:
402,192,119980,128,0,120456:0:0:0:0:
182,192,120218,128,0,120337:0:0:0:0:
256,192,120456,128,0,120575:0:0:0:40:bell2.wav
329,192,120456,128,0,120932:0:0:0:0:
475,192,120694,128,0,120813:0:0:0:0:
256,192,120932,128,0,121408:0:0:0:40:bell2.wav
402,192,120932,128,0,121051:0:0:0:0:
182,192,121170,128,0,121289:0:0:0:0:
109,192,121408,128,0,122837:0:0:0:40:bell2.wav
329,192,121408,1,0,0:0:0:0:
402,192,121408,128,0,121885:0:0:0:0:
475,192,121647,1,0,0:0:0:0:
182,192,121885,1,0,0:0:0:40:bell2.wav
329,192,121885,128,0,122361:0:0:0:0:
256,192,122123,1,0,0:0:0:0:
182,192,122361,128,0,122837:0:0:0:40:bell2.wav
402,192,122361,1,0,0:0:0:0:
475,192,122599,1,0,0:0:0:0:
36,192,122837,128,0,123075:0:0:0:40:bell2.wav
402,192,122837,128,0,123313:0:0:0:0:
256,192,123075,128,0,123313:0:0:0:0:
109,192,123313,1,0,0:0:0:0:
329,192,123313,128,0,123551:0:0:0:0:
36,192,123551,1,0,0:0:0:0:
109,192,123551,128,0,123789:0:0:0:0:
182,192,123789,128,0,124266:0:0:0:40:bell2.wav
329,192,123789,128,0,124028:0:0:0:0:
475,192,123789,1,0,0:0:0:0:
36,192,124028,1,0,0:0:0:0:
402,192,124028,128,0,124266:0:0:0:0:
109,192,124266,1,0,0:0:0:40:bell2.wav
329,192,124266,128,0,124385:0:0:0:0:
475,192,124266,128,0,124504:0:0:0:0:
109,192,124504,128,0,124623:0:0:0:0:
256,192,124504,128,0,124623:0:0:0:0:
402,192,124504,128,0,124742:0:0:0:0:
109,192,124742,128,0,124861:0:0:0:40:bell2.wav
256,192,124742,128,0,124861:0:0:0:0:
475,192,124742,128,0,124980:0:0:0:0:
36,192,124980,128,0,125099:0:0:0:0:
182,192,124980,128,0,125099:0:0:0:0:
402,192,124980,128,0,125218:0:0:0:0:
36,192,125218,128,0,125337:0:0:0:40:bell2.wav
182,192,125218,128,0,125337:0:0:0:0:
329,192,125218,128,0,125456:0:0:0:0:
109,192,125456,1,0,0:0:0:0:
402,192,125456,128,0,125694:0:0:0:0:
182,192,125694,128,0,127123:0:0:0:40:bell2.wav
256,192,125694,1,0,0:0:0:0:
475,192,125694,128,0,126170:0:0:0:0:
329,192,125932,1,0,0:0:0:0:
36,192,126170,1,0,0:0:0:40:bell2.wav
402,192,126170,128,0,126647:0:0:0:0:
109,192,126408,1,0,0:0:0:0:
256,192,126647,1,0,0:0:0:40:bell2.wav
329,192,126647,128,0,127123:0:0:0:0:
475,192,126885,1,0,0:0:0:0:
36,192,127123,128,0,128551:0:0:0:40:bell2.wav
109,192,127123,1,0,0:0:0:0:
256,192,127123,128,0,127599:0:0:0:0:
182,192,127361,1,0,0:0:0:0:
182,192,127599,128,0,128075:0:0:0:40:bell2.wav
329,192,127599,1,0,0:0:0:0:
402,192,127837,1,0,0:0:0:0:
109,192,128075,128,0,128551:0:0:0:40:bell2.wav
475,192,128075,1,0,0:0:0:0:
402,192,128313,1,0,0:0:0:0:
182,192,128551,128,0,129980:0:0:0:40:bell2.wav
329,192,128551,128,0,128789:0:0:0:0:
256,192,128551,128,0,129028:0:0:0:0:
402,192,128789,128,0,129028:0:0:0:0:
475,192,129028,128,0,129266:0:0:0:0:
36,192,129266,128,0,129504:0:0:0:0:
256,192,129504,128,0,129742:0:0:0:40:bell2.wav
402,192,129504,128,0,129742:0:0:0:0:
109,192,129742,128,0,129980:0:0:0:0:
36,192,129980,128,0,130456:0:0:0:40:bell2.wav
256,192,129980,128,0,130456:0:0:0:0:
402,192,129980,128,0,130456:0:0:0:0:
109,192,130456,128,0,130932:0:0:0:40:bell2.wav
329,192,130456,128,0,130932:0:0:0:0:
182,192,130932,128,0,131409:0:0:0:40:bell2.wav
256,192,130932,128,0,131170:0:0:0:0:
402,192,130932,128,0,131409:0:0:0:0:
109,192,131170,128,0,131409:0:0:0:0:
36,192,131409,128,0,131647:0:0:0:40:bell2.wav
329,192,131409,128,0,131885:0:0:0:0:
475,192,131409,128,0,131885:0:0:0:0:
109,192,131647,128,0,131885:0:0:0:0:
182,192,131885,128,0,132123:0:0:0:40:bell2.wav
256,192,132123,128,0,132361:0:0:0:0:
475,192,132123,128,0,132837:0:0:0:0:
182,192,132361,128,0,132599:0:0:0:40:bell2.wav
109,192,132599,128,0,132837:0:0:0:0:
36,192,132837,128,0,133075:0:0:0:40:bell2.wav
182,192,132837,1,0,0:0:0:0:
402,192,132837,128,0,133313:0:0:0:0:
256,192,133075,128,0,133313:0:0:0:0:
182,192,133313,128,0,133551:0:0:0:40:bell2.wav
329,192,133313,128,0,133789:0:0:0:0:
109,192,133551,128,0,133789:0:0:0:0:
36,192,133789,128,0,134028:0:0:0:40:bell2.wav
475,192,133789,128,0,134266:0:0:0:0:
182,192,134028,128,0,134266:0:0:0:0:
36,192,134266,128,0,134385:0:0:0:40:bell2.wav
402,192,134266,128,0,135694:0:0:0:0:
182,192,134504,128,0,134623:0:0:0:0:
256,192,134742,128,0,134861:0:0:0:40:bell2.wav
182,192,134980,128,0,135218:0:0:0:0:
256,192,135218,128,0,135456:0:0:0:40:bell2.wav
329,192,135456,128,0,135694:0:0:0:0:
36,192,135605,1,0,0:0:0:0:
109,192,135664,1,0,0:0:0:0:
182,192,135694,128,0,136170:0:0:0:40:bell2.wav
475,192,135694,128,0,136647:0:0:0:0:
256,192,136647,128,0,136805:0:0:0:0:
329,192,136726,128,0,136885:0:0:0:0:
402,192,136805,128,0,136964:0:0:0:0:
109,192,136885,128,0,137123:0:0:0:0:
182,192,136964,128,0,137123:0:0:0:0:
256,192,137043,128,0,137123:0:0:0:0:
36,192,137123,128,0,137361:0:0:0:40:bell2.wav
475,192,137123,128,0,138551:0:0:0:0:
329,192,137123,128,0,137599:0:0:0:0:
109,192,137361,128,0,137599:0:0:0:0:
182,192,137599,128,0,137837:0:0:0:40:bell2.wav
256,192,137599,128,0,138075:0:0:0:0:
109,192,137837,128,0,138075:0:0:0:0:
36,192,138075,128,0,138313:0:0:0:40:bell2.wav
182,192,138075,128,0,138551:0:0:0:0:
402,192,138313,128,0,138551:0:0:0:0:
109,192,138551,128,0,139028:0:0:0:40:bell2.wav
256,192,138551,128,0,139504:0:0:0:0:
329,192,138551,128,0,138789:0:0:0:0:
475,192,138789,128,0,139028:0:0:0:0:
36,192,139028,128,0,139504:0:0:0:40:bell2.wav
402,192,139028,128,0,139266:0:0:0:0:
329,192,139266,128,0,139504:0:0:0:0:
109,192,139504,128,0,139980:0:0:0:40:bell2.wav
182,192,139504,128,0,139742:0:0:0:0:
475,192,139504,128,0,139980:0:0:0:0:
329,192,139742,128,0,139980:0:0:0:0:
182,192,139980,128,0,141408:0:0:0:40:bell2.wav
256,192,139980,128,0,140218:0:0:0:0:
402,192,139980,128,0,141408:0:0:0:0:
109,192,140218,128,0,140456:0:0:0:0:
329,192,140218,1,0,0:0:0:0:
36,192,140456,128,0,140694:0:0:0:0:
256,192,140456,1,0,0:0:0:0:
109,192,140694,128,0,140932:0:0:0:0:
329,192,140694,1,0,0:0:0:0:
256,192,140932,128,0,141170:0:0:0:40:bell2.wav
475,192,140932,1,0,0:0:0:0:
109,192,141170,1,0,0:0:0:0:
329,192,141170,128,0,141408:0:0:0:0:
36,192,141408,128,0,141647:0:0:0:40:bell2.wav
256,192,141408,128,0,141885:0:0:0:0:
109,192,141647,128,0,141885:0:0:0:0:
329,192,141647,1,0,0:0:0:0:
182,192,141885,128,0,142123:0:0:0:40:bell2.wav
329,192,141885,128,0,142361:0:0:0:0:
402,192,141885,1,0,0:0:0:0:
36,192,142123,128,0,142361:0:0:0:0:
109,192,142123,1,0,0:0:0:0:
109,192,142361,128,0,142599:0:0:0:40:bell2.wav
182,192,142361,1,0,0:0:0:0:
402,192,142361,128,0,142837:0:0:0:0:
182,192,142599,128,0,142837:0:0:0:0:
256,192,142599,1,0,0:0:0:0:
109,192,142837,1,0,0:0:0:40:bell2.wav
329,192,142837,128,0,143075:0:0:0:0:
475,192,142837,128,0,144266:0:0:0:0:
36,192,143075,1,0,0:0:0:0:
256,192,143075,128,0,143313:0:0:0:0:
109,192,143313,1,0,0:0:0:40:bell2.wav
182,192,143313,128,0,143551:0:0:0:0:
329,192,143551,128,0,143789:0:0:0:0:
402,192,143551,1,0,0:0:0:0:
36,192,143789,1,0,0:0:0:40:bell2.wav
109,192,143789,128,0,144028:0:0:0:0:
182,192,144028,1,0,0:0:0:0:
256,192,144028,128,0,144266:0:0:0:0:
182,192,144266,128,0,144504:0:0:0:40:bell2.wav
329,192,144266,1,0,0:0:0:0:
402,192,144266,128,0,144742:0:0:0:0:
109,192,144504,128,0,144742:0:0:0:0:
256,192,144504,1,0,0:0:0:0:
36,192,144742,128,0,144980:0:0:0:40:bell2.wav
182,192,144742,1,0,0:0:0:0:
109,192,144980,1,0,0:0:0:0:
402,192,144980,128,0,145218:0:0:0:0:
182,192,145218,1,0,0:0:0:40:bell2.wav
329,192,145218,128,0,145456:0:0:0:0:
475,192,145218,128,0,145694:0:0:0:0:
109,192,145456,1,0,0:0:0:0:
256,192,145456,128,0,145694:0:0:0:0:
36,192,145694,1,0,0:0:0:40:bell2.wav
182,192,145694,128,0,145932:0:0:0:0:
402,192,145694,128,0,147123:0:0:0:0:
36,192,145932,128,0,146170:0:0:0:0:
256,192,145932,1,0,0:0:0:0:
109,192,146170,128,0,146408:0:0:0:40:bell2.wav
329,192,146170,1,0,0:0:0:0:
256,192,146408,128,0,146647:0:0:0:0:
475,192,146408,1,0,0:0:0:0:
182,192,146647,128,0,146885:0:0:0:40:bell2.wav
329,192,146647,1,0,0:0:0:0:
109,192,146885,128,0,147123:0:0:0:0:
256,192,146885,1,0,0:0:0:0:
36,192,147123,1,0,0:0:0:40:bell2.wav
182,192,147123,128,0,147361:0:0:0:0:
475,192,147123,128,0,147599:0:0:0:0:
109,192,147361,1,0,0:0:0:0:
256,192,147361,128,0,147599:0:0:0:0:
36,192,147599,1,0,0:0:0:40:bell2.wav
182,192,147599,128,0,147837:0:0:0:0:
329,192,147599,128,0,147718:0:0:0:0:
402,192,147599,128,0,148432:0:0:0:0:
109,192,147837,128,0,148075:0:0:0:0:
329,192,147837,128,0,147956:0:0:0:0:
36,192,148075,128,0,148313:0:0:0:40:bell2.wav
329,192,148075,128,0,148194:0:0:0:0:
109,192,148313,128,0,148551:0:0:0:0:
256,192,148313,1,0,0:0:0:0:
182,192,148551,128,0,149028:0:0:0:40:bell2.wav
402,192,148551,128,0,149980:0:0:0:0:
329,192,148789,128,0,149028:0:0:0:0:
109,192,149028,128,0,149504:0:0:0:40:bell2.wav
475,192,149028,128,0,149266:0:0:0:0:
36,192,149266,128,0,149504:0:0:0:0:
182,192,149504,128,0,149742:0:0:0:40:bell2.wav
256,192,149504,128,0,149980:0:0:0:0:
109,192,149742,128,0,149980:0:0:0:0:
36,192,149980,128,0,150218:0:0:0:40:bell2.wav
182,192,149980,128,0,150456:0:0:0:0:
329,192,149980,128,0,150932:0:0:0:0:
475,192,150218,128,0,150456:0:0:0:0:
109,192,150456,128,0,150932:0:0:0:40:bell2.wav
402,192,150456,128,0,150694:0:0:0:0:
182,192,150694,128,0,150932:0:0:0:0:
36,192,150932,128,0,151170:0:0:0:40:bell2.wav
256,192,150932,128,0,151408:0:0:0:0:
475,192,150932,128,0,151408:0:0:0:0:
109,192,151170,128,0,151408:0:0:0:0:
182,192,151408,128,0,151647:0:0:0:40:bell2.wav
329,192,151408,128,0,152361:0:0:0:0:
402,192,151408,128,0,151885:0:0:0:0:
256,192,151647,128,0,151885:0:0:0:0:
109,192,151885,128,0,152123:0:0:0:0:
182,192,152123,128,0,152361:0:0:0:0:
36,192,152361,128,0,152837:0:0:0:40:bell2.wav
256,192,152361,128,0,152599:0:0:0:0:
402,192,152361,128,0,152599:0:0:0:0:
182,192,152599,128,0,152837:0:0:0:0:
475,192,152599,128,0,152837:0:0:0:0:
109,192,152837,128,0,153075:0:0:0:40:bell2.wav
329,192,152837,128,0,153313:0:0:0:0:
182,192,153075,128,0,153313:0:0:0:0:
256,192,153313,128,0,153551:0:0:0:40:bell2.wav
402,192,153313,128,0,153789:0:0:0:0:
182,192,153551,128,0,153789:0:0:0:0:
109,192,153789,128,0,154028:0:0:0:40:bell2.wav
256,192,153789,128,0,154266:0:0:0:0:
475,192,153789,128,0,154147:0:0:0:0:
36,192,154028,128,0,154266:0:0:0:0:
109,192,154266,128,0,154504:0:0:0:40:bell2.wav
329,192,154266,128,0,154742:0:0:0:0:
475,192,154266,128,0,155218:0:0:0:0:
182,192,154504,128,0,154742:0:0:0:0:
256,192,154742,128,0,155218:0:0:0:40:bell2.wav
402,192,154742,128,0,154980:0:0:0:0:
329,192,154980,128,0,155218:0:0:0:0:
109,192,155218,128,0,155456:0:0:0:40:bell2.wav
182,192,155218,128,0,155694:0:0:0:0:
402,192,155218,128,0,155694:0:0:0:0:
256,192,155456,128,0,155694:0:0:0:0:
36,192,155694,128,0,156170:0:0:0:40:bell2.wav
329,192,155694,128,0,156170:0:0:0:0:
475,192,155694,128,0,155932:0:0:0:0:
182,192,155932,128,0,156170:0:0:0:0:
109,192,156170,128,0,156647:0:0:0:40:bell2.wav
256,192,156170,128,0,156647:0:0:0:0:
402,192,156170,128,0,156408:0:0:0:0:
475,192,156408,128,0,156647:0:0:0:0:
36,192,156647,128,0,156885:0:0:0:40:bell2.wav
182,192,156647,128,0,157123:0:0:0:0:
402,192,156647,128,0,157123:0:0:0:0:
109,192,156885,128,0,157123:0:0:0:0:
256,192,157123,128,0,157361:0:0:0:40:bell2.wav
329,192,157123,128,0,158551:0:0:0:0:
475,192,157123,128,0,159980:0:0:0:0:
182,192,157361,128,0,157599:0:0:0:0:
109,192,157599,128,0,157837:0:0:0:40:bell2.wav
36,192,157837,128,0,158075:0:0:0:0:
109,192,158075,128,0,158313:0:0:0:40:bell2.wav
182,192,158313,128,0,158551:0:0:0:0:
402,192,158551,128,0,159028:0:0:0:40:bell2.wav
