osu file format v14

[General]
AudioFilename: audio.mp3
AudioLeadIn: 0
PreviewTime: 45714
Countdown: 0
SampleSet: Normal
StackLeniency: 0.7
Mode: 3
LetterboxInBreaks: 0
EpilepsyWarning: 1
SpecialStyle: 0
WidescreenStoryboard: 1

[Editor]
Bookmarks: 0,22857,45714,67142,91309,114166,137023,159880
DistanceSpacing: 0.8
BeatDivisor: 2
GridSize: 4
TimelineZoom: 0.4999999

[Metadata]
Title:Kikoemasu ka feat. Haruki (CV: Koinu)
TitleUnicode:聞こえますか feat. 春輝〈幼少期〉(CV:こいぬ)
Artist:HoneyWorks
ArtistUnicode:HoneyWorks
Creator:SurfChu85
Version:Trainer's Easy
Source:いつだって僕らの恋は10センチだった。
Tags:Kadowaki Daisuke Strings Tokyo Winter Session Serizawa Our love has always been 10 centimeters apart Itsudatte Bokura no Koi wa 10 cm Datta trainer- 2dw lenfried- arviejhay jztcallmeron
BeatmapID:1621686
BeatmapSetID:717277

[Difficulty]
HPDrainRate:6
CircleSize:7
OverallDifficulty:6
ApproachRate:5
SliderMultiplier:1.4
SliderTickRate:1

[Events]
//Background and Video events
0,0,"test.png",0,0
//Break Periods
//Storyboard Layer 0 (Background)
//Storyboard Layer 1 (Fail)
//Storyboard Layer 2 (Pass)
//Storyboard Layer 3 (Foreground)
//Storyboard Sound Samples
Sample,68631,0,"bell2.wav",40
Sample,70059,0,"bell2.wav",40
Sample,71488,0,"bell2.wav",40
Sample,72917,0,"bell2.wav",40
Sample,74345,0,"bell2.wav",40
Sample,75774,0,"bell2.wav",40
Sample,77202,0,"bell2.wav",40
Sample,78631,0,"bell2.wav",40

[TimingPoints]
60,476.190476190476,3,1,1,15,1,0
11488,-100,3,1,1,20,0,0
45774,-100,3,1,1,30,0,1
52184,476.190476190476,3,1,1,30,1,1
52898,476.190476190476,3,1,1,30,1,1
57202,476.190476190476,3,1,1,30,1,1
67202,-100,3,1,1,20,0,0
85774,-100,3,1,1,15,0,0
91409,476.190476190476,3,1,1,25,1,0
114266,-100,3,1,1,30,0,1
135694,-100,3,1,1,30,0,0
137123,-100,3,1,1,30,0,1
159980,-100,3,1,1,30,0,0

[HitObjects]
109,192,60,128,0,1488:0:0:0:0:
182,192,1488,128,0,2917:0:0:0:0:
256,192,2917,128,0,4345:0:0:0:0:
475,192,4345,1,0,0:0:0:0:
402,192,4821,1,0,0:0:0:0:
329,192,5298,1,0,0:0:0:0:
109,192,5774,128,0,7202:0:0:0:0:
182,192,7202,128,0,8631:0:0:0:0:
36,192,8631,128,0,10059:0:0:0:0:
182,192,10059,1,0,0:0:0:0:
256,192,10536,1,0,0:0:0:0:
329,192,11012,1,0,0:0:0:0:
402,192,11488,128,0,12202:0:0:0:40:bell2.wav
329,192,12202,128,0,12917:0:0:0:0:
256,192,12917,128,0,13631:0:0:0:40:bell2.wav
182,192,13631,128,0,14345:0:0:0:0:
109,192,14345,128,0,15298:0:0:0:40:bell2.wav
36,192,15298,128,0,15774:0:0:0:0:
182,192,15774,128,0,17202:0:0:0:40:bell2.wav
109,192,17202,128,0,17679:0:0:0:40:bell2.wav
182,192,17679,128,0,18155:0:0:0:0:
256,192,18155,128,0,18631:0:0:0:0:
329,192,18631,128,0,19107:0:0:0:40:bell2.wav
36,192,19107,128,0,19583:0:0:0:0:
329,192,19583,128,0,20059:0:0:0:0:
402,192,20059,128,0,21488:0:0:0:40:bell2.wav
475,192,21488,128,0,22917:0:0:0:40:bell2.wav
36,192,22917,1,0,0:0:0:40:bell2.wav
109,192,23393,1,0,0:0:0:0:
329,192,23869,1,0,0:0:0:0:
182,192,24345,1,0,0:0:0:40:bell2.wav
109,192,24821,128,0,25774:0:0:0:0:
182,192,25774,1,0,0:0:0:40:bell2.wav
329,192,26250,1,0,0:0:0:0:
475,192,26726,1,0,0:0:0:0:
256,192,27202,1,0,0:0:0:40:bell2.wav
109,192,27679,1,0,0:0:0:0:
36,192,28631,1,0,0:0:0:40:bell2.wav
402,192,29107,1,0,0:0:0:0:
475,192,29583,1,0,0:0:0:0:
109,192,30059,1,0,0:0:0:40:bell2.wav
329,192,30536,1,0,0:0:0:0:
475,192,31012,1,0,0:0:0:0:
182,192,31488,1,0,0:0:0:40:bell2.wav
256,192,31964,1,0,0:0:0:0:
329,192,32440,1,0,0:0:0:0:
402,192,32917,128,0,33393:0:0:0:40:bell2.wav
329,192,33393,128,0,33869:0:0:0:0:
256,192,33869,128,0,34345:0:0:0:0:
109,192,34345,1,0,0:0:0:40:bell2.wav
182,192,34821,1,0,0:0:0:0:
329,192,35298,1,0,0:0:0:0:
256,192,35774,1,0,0:0:0:40:bell2.wav
36,192,36250,1,0,0:0:0:0:
182,192,37202,1,0,0:0:0:40:bell2.wav
402,192,37679,1,0,0:0:0:0:
475,192,38155,1,0,0:0:0:0:
402,192,38631,1,0,0:0:0:40:bell2.wav
329,192,39107,1,0,0:0:0:0:
256,192,39583,1,0,0:0:0:0:
36,192,40059,1,0,0:0:0:40:bell2.wav
109,192,40536,1,0,0:0:0:0:
256,192,41012,1,0,0:0:0:0:
36,192,41488,1,0,0:0:0:40:bell2.wav
182,192,41964,1,0,0:0:0:0:
402,192,42440,1,0,0:0:0:0:
256,192,42917,128,0,44345:0:0:0:40:bell2.wav
36,192,44345,1,0,0:0:0:40:bell2.wav
402,192,44821,1,0,0:0:0:0:
329,192,45059,1,0,0:0:0:0:
256,192,45298,1,0,0:0:0:0:
36,192,45774,128,0,47202:0:0:0:40:bell2.wav
402,192,45774,1,0,0:0:0:0:
182,192,47202,128,0,47679:0:0:0:40:bell2.wav
402,192,47202,1,0,0:0:0:0:
256,192,47679,128,0,48155:0:0:0:40:bell2.wav
329,192,48155,128,0,48631:0:0:0:40:bell2.wav
109,192,48631,1,0,0:0:0:40:bell2.wav
475,192,48631,128,0,50059:0:0:0:0:
109,192,50059,128,0,50536:0:0:0:40:bell2.wav
329,192,50059,1,0,0:0:0:0:
182,192,50536,128,0,51012:0:0:0:40:bell2.wav
256,192,51012,128,0,51488:0:0:0:40:bell2.wav
36,192,51488,128,0,52898:0:0:0:40:bell2.wav
402,192,51488,1,0,0:0:0:0:
182,192,52898,1,0,0:0:0:40:bell2.wav
329,192,52898,128,0,54326:0:0:0:0:
475,192,54326,1,0,0:0:0:0:
109,192,54326,128,0,55755:0:0:0:40:bell2.wav
182,192,55755,1,0,0:0:0:40:bell2.wav
402,192,55755,128,0,56231:0:0:0:0:
329,192,56231,128,0,56707:0:0:0:40:bell2.wav
256,192,56707,128,0,57202:0:0:0:40:bell2.wav
182,192,57202,128,0,58630:0:0:0:40:bell2.wav
402,192,57202,1,0,0:0:0:0:
36,192,58630,128,0,60059:0:0:0:40:bell2.wav
475,192,58630,1,0,0:0:0:0:
182,192,60059,1,0,0:0:0:40:bell2.wav
402,192,60059,128,0,61487:0:0:0:0:
109,192,61487,1,0,0:0:0:40:bell2.wav
256,192,61487,128,0,61963:0:0:0:0:
329,192,61963,128,0,62440:0:0:0:40:bell2.wav
402,192,62440,128,0,62916:0:0:0:40:bell2.wav
36,192,62916,1,0,0:0:0:40:bell2.wav
182,192,62916,128,0,64344:0:0:0:0:
109,192,64344,128,0,64821:0:0:0:40:bell2.wav
329,192,64344,1,0,0:0:0:0:
36,192,64821,128,0,65297:0:0:0:40:bell2.wav
256,192,65297,128,0,65773:0:0:0:40:bell2.wav
109,192,65773,1,0,0:0:0:40:bell2.wav
329,192,65773,128,0,67202:0:0:0:0:
36,192,67202,1,0,0:0:0:40:bell2.wav
256,192,67678,1,0,0:0:0:0:
475,192,68154,1,0,0:0:0:0:
182,192,68630,1,0,0:0:0:40:LR_J_Hit.wav
256,192,69106,1,0,0:0:0:40:LR_J_Hit.wav
402,192,69344,1,0,0:0:0:40:LR_J_Hit.wav
475,192,69821,1,0,0:0:0:40:LR_J_Hit.wav
329,192,70059,1,0,0:0:0:40:LR_J_Hit.wav
256,192,70535,1,0,0:0:0:40:LR_J_Hit.wav
182,192,71011,1,0,0:0:0:40:LR_J_Hit.wav
256,192,71487,1,0,0:0:0:40:LR_J_Hit.wav
36,192,72440,1,0,0:0:0:40:LR_J_Hit.wav
329,192,72916,1,0,0:0:0:40:LR_J_Hit.wav
256,192,73392,1,0,0:0:0:40:LR_J_Hit.wav
182,192,73868,1,0,0:0:0:40:LR_J_Hit.wav
109,192,74344,1,0,0:0:0:40:LR_J_Hit.wav
182,192,74821,1,0,0:0:0:40:LR_J_Hit.wav
329,192,75297,1,0,0:0:0:40:LR_J_Hit.wav
182,192,75773,1,0,0:0:0:40:LR_J_Hit.wav
36,192,76249,1,0,0:0:0:40:LR_J_Hit.wav
256,192,76725,1,0,0:0:0:40:LR_J_Hit.wav
402,192,77202,1,0,0:0:0:40:LR_J_Hit.wav
329,192,77678,1,0,0:0:0:40:LR_J_Hit.wav
256,192,78392,1,0,0:0:0:40:LR_J_Hit.wav
329,192,78630,1,0,0:0:0:40:LR_J_Hit.wav
182,192,79106,128,0,79582:0:0:0:0:
475,192,79582,128,0,80059:0:0:0:0:
402,192,80059,128,0,81011:0:0:0:40:bell2.wav
329,192,81011,128,0,81487:0:0:0:0:
256,192,81487,128,0,82201:0:0:0:40:bell2.wav
182,192,82201,128,0,82916:0:0:0:0:
109,192,82916,128,0,83868:0:0:0:40:bell2.wav
36,192,83868,128,0,84344:0:0:0:0:
256,192,84344,128,0,84821:0:0:0:40:bell2.wav
329,192,84821,128,0,85297:0:0:0:0:
402,192,85297,128,0,85773:0:0:0:0:
182,192,85773,128,0,86487:0:0:0:40:bell2.wav
109,192,87201,128,0,87678:0:0:0:40:bell2.wav
329,192,87678,128,0,88154:0:0:0:0:
36,192,88154,128,0,88630:0:0:0:0:
329,192,88630,128,0,90059:0:0:0:40:bell2.wav
182,192,91409,1,0,0:0:0:40:bell2.wav
256,192,91885,1,0,0:0:0:40:bell2.wav
36,192,92361,1,0,0:0:0:40:bell2.wav
109,192,92837,1,0,0:0:0:40:bell2.wav
329,192,93313,1,0,0:0:0:40:bell2.wav
402,192,93789,1,0,0:0:0:40:bell2.wav
475,192,94266,128,0,95694:0:0:0:40:bell2.wav
182,192,95694,1,0,0:0:0:40:bell2.wav
109,192,96170,1,0,0:0:0:40:bell2.wav
329,192,96647,1,0,0:0:0:40:bell2.wav
182,192,97123,1,0,0:0:0:40:bell2.wav
402,192,97599,1,0,0:0:0:40:bell2.wav
256,192,98075,1,0,0:0:0:40:bell2.wav
402,192,98551,1,0,0:0:0:40:bell2.wav
36,192,99028,1,0,0:0:0:40:bell2.wav
182,192,99504,1,0,0:0:0:40:bell2.wav
256,192,99980,128,0,101409:0:0:0:40:bell2.wav
182,192,101409,1,0,0:0:0:40:bell2.wav
329,192,101885,1,0,0:0:0:0:
475,192,102361,1,0,0:0:0:0:
109,192,102837,1,0,0:0:0:40:bell2.wav
475,192,103313,1,0,0:0:0:40:bell2.wav
256,192,103789,1,0,0:0:0:40:bell2.wav
329,192,104266,1,0,0:0:0:40:bell2.wav
109,192,104742,1,0,0:0:0:40:bell2.wav
256,192,105218,1,0,0:0:0:40:bell2.wav
475,192,105694,128,0,106409:0:0:0:40:bell2.wav
256,192,106647,1,0,0:0:0:40:bell2.wav
475,192,107123,128,0,107599:0:0:0:40:bell2.wav
36,192,108551,1,0,0:0:0:40:bell2.wav
329,192,109028,1,0,0:0:0:40:bell2.wav
109,192,109504,1,0,0:0:0:40:bell2.wav
402,192,109980,1,0,0:0:0:40:bell2.wav
256,192,110456,1,0,0:0:0:40:bell2.wav
182,192,110932,1,0,0:0:0:40:bell2.wav
109,192,111409,128,0,112837:0:0:0:0:
256,192,112837,1,0,0:0:0:40:bell2.wav
329,192,113313,1,0,0:0:0:40:bell2.wav
402,192,113789,1,0,0:0:0:40:bell2.wav
109,192,114266,128,0,115694:0:0:0:40:bell2.wav
256,192,114266,1,0,0:0:0:0:
36,192,115694,128,0,116170:0:0:0:40:bell2.wav
402,192,115694,1,0,0:0:0:0:
109,192,116170,128,0,116647:0:0:0:40:bell2.wav
182,192,116647,128,0,117123:0:0:0:40:bell2.wav
329,192,117123,128,0,118551:0:0:0:40:bell2.wav
475,192,117123,1,0,0:0:0:0:
109,192,118551,128,0,119028:0:0:0:40:bell2.wav
256,192,118551,1,0,0:0:0:0:
182,192,119028,128,0,119504:0:0:0:40:bell2.wav
256,192,119504,128,0,119980:0:0:0:40:bell2.wav
109,192,119980,1,0,0:0:0:40:bell2.wav
329,192,119980,128,0,121408:0:0:0:0:
109,192,121408,128,0,122837:0:0:0:40:bell2.wav
256,192,121408,1,0,0:0:0:0:
36,192,122837,128,0,123313:0:0:0:40:bell2.wav
402,192,122837,1,0,0:0:0:0:
475,192,123789,128,0,124266:0:0:0:40:bell2.wav
256,192,124266,128,0,124742:0:0:0:40:bell2.wav
329,192,124266,1,0,0:0:0:0:
182,192,124742,128,0,125218:0:0:0:40:bell2.wav
109,192,125218,128,0,125694:0:0:0:40:bell2.wav
256,192,125694,128,0,127123:0:0:0:40:bell2.wav
329,192,125694,1,0,0:0:0:0:
36,192,127123,128,0,128551:0:0:0:40:bell2.wav
182,192,127123,1,0,0:0:0:0:
182,192,128551,1,0,0:0:0:40:bell2.wav
329,192,128551,128,0,129980:0:0:0:0:
109,192,129980,128,0,130456:0:0:0:40:bell2.wav
256,192,129980,1,0,0:0:0:0:
182,192,130456,128,0,130932:0:0:0:40:bell2.wav
256,192,130932,128,0,131409:0:0:0:40:bell2.wav
182,192,131409,128,0,132837:0:0:0:40:bell2.wav
402,192,131409,1,0,0:0:0:0:
36,192,132837,128,0,133313:0:0:0:40:bell2.wav
475,192,132837,1,0,0:0:0:0:
256,192,133313,128,0,133789:0:0:0:40:bell2.wav
475,192,133789,128,0,134266:0:0:0:40:bell2.wav
182,192,134266,1,0,0:0:0:40:bell2.wav
402,192,134266,128,0,135694:0:0:0:0:
109,192,135694,1,0,0:0:0:40:bell2.wav
36,192,136647,128,0,137123:0:0:0:0:
182,192,137123,1,0,0:0:0:40:bell2.wav
329,192,137123,128,0,138551:0:0:0:0:
182,192,138551,128,0,139504:0:0:0:40:bell2.wav
475,192,138551,1,0,0:0:0:0:
329,192,139504,128,0,139980:0:0:0:40:bell2.wav
36,192,139980,128,0,141408:0:0:0:40:bell2.wav
182,192,139980,1,0,0:0:0:0:
182,192,141408,1,0,0:0:0:40:bell2.wav
402,192,141408,128,0,141885:0:0:0:0:
109,192,141885,128,0,142361:0:0:0:40:bell2.wav
182,192,142361,128,0,142837:0:0:0:40:bell2.wav
256,192,142837,1,0,0:0:0:40:bell2.wav
475,192,142837,128,0,144266:0:0:0:0:
36,192,144266,1,0,0:0:0:40:bell2.wav
402,192,144266,128,0,144742:0:0:0:0:
329,192,144742,128,0,145218:0:0:0:40:bell2.wav
256,192,145218,128,0,145694:0:0:0:40:bell2.wav
36,192,145694,1,0,0:0:0:40:bell2.wav
182,192,145694,128,0,147123:0:0:0:0:
36,192,147123,1,0,0:0:0:40:bell2.wav
329,192,147123,128,0,147599:0:0:0:0:
256,192,147599,128,0,148075:0:0:0:40:bell2.wav
182,192,148075,128,0,148551:0:0:0:40:bell2.wav
329,192,148551,128,0,149980:0:0:0:40:bell2.wav
475,192,148551,1,0,0:0:0:0:
109,192,149980,1,0,0:0:0:40:bell2.wav
256,192,149980,128,0,151408:0:0:0:0:
182,192,151408,128,0,152361:0:0:0:40:bell2.wav
402,192,151408,1,0,0:0:0:0:
36,192,152361,128,0,152837:0:0:0:40:bell2.wav
182,192,152837,128,0,153313:0:0:0:40:bell2.wav
329,192,152837,1,0,0:0:0:0:
256,192,153313,128,0,153789:0:0:0:40:bell2.wav
329,192,153789,128,0,154266:0:0:0:40:bell2.wav
182,192,154266,1,0,0:0:0:40:bell2.wav
475,192,154266,128,0,155218:0:0:0:0:
402,192,155218,128,0,155694:0:0:0:40:bell2.wav
36,192,155694,128,0,156170:0:0:0:40:bell2.wav
182,192,155694,1,0,0:0:0:0:
109,192,156170,128,0,156647:0:0:0:40:bell2.wav
329,192,156647,128,0,157123:0:0:0:40:bell2.wav
256,192,157123,128,0,159980:0:0:0:40:bell2.wav
402,192,157123,1,0,0:0:0:0:
