osu file format v14

[General]
AudioFilename: audio.mp3
AudioLeadIn: 0
PreviewTime: 45714
Countdown: 0
SampleSet: Normal
StackLeniency: 0.7
Mode: 3
LetterboxInBreaks: 0
EpilepsyWarning: 1
SpecialStyle: 0
WidescreenStoryboard: 1

[Editor]
Bookmarks: 0,22857,45714,67142,91309,114166,137023,159880
DistanceSpacing: 0.8
BeatDivisor: 4
GridSize: 4
TimelineZoom: 1.4

[Metadata]
Title:Kikoemasu ka feat. Haruki (CV: Koinu)
TitleUnicode:聞こえますか feat. 春輝〈幼少期〉(CV:こいぬ)
Artist:HoneyWorks
ArtistUnicode:HoneyWorks
Creator:SurfChu85
Version:Normal
Source:いつだって僕らの恋は10センチだった。
Tags:Kadowaki Daisuke Strings Tokyo Winter Session Serizawa Our love has always been 10 centimeters apart Itsudatte Bokura no Koi wa 10 cm Datta trainer- 2dw lenfried- arviejhay jztcallmeron
BeatmapID:1619296
BeatmapSetID:717277

[Difficulty]
HPDrainRate:7
CircleSize:7
OverallDifficulty:7
ApproachRate:5
SliderMultiplier:1.4
SliderTickRate:1

[Events]
//Background and Video events
0,0,"test.png",0,0
//Break Periods
//Storyboard Layer 0 (Background)
//Storyboard Layer 1 (Fail)
//Storyboard Layer 2 (Pass)
//Storyboard Layer 3 (Foreground)
//Storyboard Sound Samples

[TimingPoints]
60,476.190476190476,3,1,1,15,1,0
11488,-100,3,1,1,20,0,0
45774,-100,3,1,1,30,0,1
52184,476.190476190476,3,1,1,30,1,1
52898,476.190476190476,3,1,1,30,1,1
57202,476.190476190476,3,1,1,30,1,1
67202,-100,3,1,1,20,0,0
85774,-100,3,1,1,15,0,0
91409,476.190476190476,3,1,1,25,1,0
114266,-100,3,1,1,30,0,1
135694,-100,3,1,1,30,0,0
137123,-100,3,1,1,30,0,1
159980,-100,3,1,1,30,0,0

[HitObjects]
109,192,60,5,0,0:0:0:0:
329,192,298,1,0,0:0:0:0:
402,192,536,1,0,0:0:0:0:
475,192,774,1,0,0:0:0:0:
182,192,1488,1,0,0:0:0:0:
256,192,1726,1,0,0:0:0:0:
329,192,1964,1,0,0:0:0:0:
402,192,2202,1,0,0:0:0:0:
256,192,2917,1,0,0:0:0:0:
109,192,3155,1,0,0:0:0:0:
329,192,3393,1,0,0:0:0:0:
475,192,3631,1,0,0:0:0:0:
182,192,4345,1,0,0:0:0:0:
402,192,4345,1,0,0:0:0:0:
109,192,4821,1,0,0:0:0:0:
329,192,4821,1,0,0:0:0:0:
36,192,5298,1,0,0:0:0:0:
256,192,5298,1,0,0:0:0:0:
109,192,5774,1,0,0:0:0:0:
329,192,6012,1,0,0:0:0:0:
402,192,6250,1,0,0:0:0:0:
475,192,6488,1,0,0:0:0:0:
182,192,7202,1,0,0:0:0:0:
256,192,7440,1,0,0:0:0:0:
329,192,7679,1,0,0:0:0:0:
402,192,7917,1,0,0:0:0:0:
36,192,8631,1,0,0:0:0:0:
182,192,8869,1,0,0:0:0:0:
256,192,9107,1,0,0:0:0:0:
329,192,9345,1,0,0:0:0:0:
109,192,9583,1,0,0:0:0:0:
182,192,9821,1,0,0:0:0:0:
402,192,10059,1,0,0:0:0:0:
256,192,10298,1,0,0:0:0:0:
109,192,10536,1,0,0:0:0:0:
329,192,10536,128,0,11012:0:0:0:0:
182,192,11012,1,0,0:0:0:0:
402,192,11012,128,0,11488:0:0:0:0:
256,192,11488,1,0,0:0:0:40:bell2.wav
475,192,11488,128,0,12202:0:0:0:0:
256,192,11964,1,0,0:0:0:0:
109,192,12202,1,0,0:0:0:0:
402,192,12202,128,0,12917:0:0:0:0:
109,192,12917,1,0,0:0:0:40:bell2.wav
329,192,12917,128,0,13631:0:0:0:0:
36,192,13393,1,0,0:0:0:0:
109,192,13631,128,0,14345:0:0:0:0:
475,192,13631,1,0,0:0:0:0:
182,192,14345,128,0,15298:0:0:0:40:bell2.wav
256,192,14345,1,0,0:0:0:0:
475,192,14821,1,0,0:0:0:0:
329,192,15059,1,0,0:0:0:0:
109,192,15298,128,0,15774:0:0:0:0:
36,192,15774,128,0,16250:0:0:0:40:bell2.wav
329,192,15774,1,0,0:0:0:0:
475,192,16012,1,0,0:0:0:0:
329,192,16250,1,0,0:0:0:0:
256,192,16250,128,0,17202:0:0:0:0:
109,192,16488,1,0,0:0:0:0:
36,192,17202,128,0,17679:0:0:0:40:bell2.wav
182,192,17202,1,0,0:0:0:0:
109,192,17679,128,0,18155:0:0:0:0:
475,192,17679,1,0,0:0:0:0:
329,192,17917,1,0,0:0:0:0:
182,192,18155,128,0,18631:0:0:0:0:
475,192,18155,1,0,0:0:0:0:
36,192,18631,1,0,0:0:0:40:bell2.wav
256,192,18631,128,0,19107:0:0:0:0:
109,192,19107,128,0,19583:0:0:0:0:
475,192,19107,1,0,0:0:0:0:
182,192,19583,128,0,20059:0:0:0:0:
402,192,19583,1,0,0:0:0:0:
36,192,20059,1,0,0:0:0:40:bell2.wav
256,192,20059,128,0,21488:0:0:0:0:
329,192,20536,1,0,0:0:0:0:
475,192,20774,1,0,0:0:0:0:
182,192,21250,1,0,0:0:0:0:
36,192,21488,1,0,0:0:0:40:bell2.wav
329,192,21488,128,0,22917:0:0:0:0:
36,192,22917,1,0,0:0:0:40:bell2.wav
182,192,23155,1,0,0:0:0:0:
256,192,23393,1,0,0:0:0:0:
329,192,23631,128,0,24345:0:0:0:0:
402,192,24345,128,0,24821:0:0:0:40:bell2.wav
109,192,24821,128,0,25774:0:0:0:0:
36,192,25774,1,0,0:0:0:40:bell2.wav
182,192,26012,1,0,0:0:0:0:
256,192,26250,1,0,0:0:0:0:
475,192,26488,128,0,26964:0:0:0:0:
182,192,27202,1,0,0:0:0:40:bell2.wav
402,192,27202,128,0,27679:0:0:0:0:
36,192,28631,1,0,0:0:0:40:bell2.wav
182,192,28869,1,0,0:0:0:0:
256,192,29107,1,0,0:0:0:0:
402,192,29345,128,0,30059:0:0:0:0:
109,192,30059,1,0,0:0:0:40:bell2.wav
182,192,30298,1,0,0:0:0:0:
256,192,30536,1,0,0:0:0:0:
329,192,30774,128,0,31488:0:0:0:0:
36,192,31488,1,0,0:0:0:40:bell2.wav
256,192,31726,1,0,0:0:0:0:
182,192,31964,1,0,0:0:0:0:
329,192,32202,1,0,0:0:0:0:
402,192,32440,1,0,0:0:0:0:
329,192,32679,1,0,0:0:0:0:
475,192,32917,1,0,0:0:0:40:bell2.wav
256,192,33155,1,0,0:0:0:0:
256,192,33393,1,0,0:0:0:0:
109,192,33631,1,0,0:0:0:0:
109,192,33869,1,0,0:0:0:0:
36,192,34345,1,0,0:0:0:40:bell2.wav
182,192,34583,1,0,0:0:0:0:
256,192,34821,1,0,0:0:0:0:
402,192,35059,128,0,35774:0:0:0:0:
329,192,35774,128,0,36250:0:0:0:40:bell2.wav
182,192,36250,1,0,0:0:0:0:
36,192,37202,1,0,0:0:0:40:bell2.wav
109,192,37440,1,0,0:0:0:0:
182,192,37679,1,0,0:0:0:0:
256,192,37917,128,0,38631:0:0:0:0:
329,192,38631,1,0,0:0:0:40:bell2.wav
402,192,38631,128,0,39107:0:0:0:0:
256,192,39107,128,0,39583:0:0:0:0:
182,192,39583,128,0,40059:0:0:0:0:
36,192,40059,1,0,0:0:0:40:bell2.wav
109,192,40298,1,0,0:0:0:0:
182,192,40536,1,0,0:0:0:0:
256,192,40774,128,0,41488:0:0:0:0:
109,192,41488,1,0,0:0:0:40:bell2.wav
182,192,41726,1,0,0:0:0:0:
256,192,41964,1,0,0:0:0:0:
329,192,42202,128,0,42917:0:0:0:0:
109,192,42917,1,0,0:0:0:40:bell2.wav
402,192,42917,128,0,44345:0:0:0:0:
182,192,43869,128,0,44345:0:0:0:0:
36,192,44345,1,0,0:0:0:40:bell2.wav
475,192,44583,1,0,0:0:0:0:
402,192,44821,1,0,0:0:0:0:
329,192,45059,1,0,0:0:0:0:
256,192,45298,1,0,0:0:0:0:
182,192,45536,1,0,0:0:0:0:
109,192,45774,1,0,0:0:0:40:bell2.wav
475,192,45774,128,0,46250:0:0:0:0:
182,192,46250,1,0,0:0:0:40:bell2.wav
402,192,46250,128,0,46726:0:0:0:0:
109,192,46726,1,0,0:0:0:40:bell2.wav
329,192,46726,128,0,47202:0:0:0:0:
36,192,47202,128,0,47679:0:0:0:40:bell2.wav
256,192,47202,1,0,0:0:0:0:
109,192,47679,128,0,48155:0:0:0:40:bell2.wav
329,192,47679,1,0,0:0:0:0:
182,192,48155,128,0,48631:0:0:0:40:bell2.wav
402,192,48155,1,0,0:0:0:0:
36,192,48631,1,0,0:0:0:40:bell2.wav
475,192,48631,128,0,49107:0:0:0:0:
182,192,49107,1,0,0:0:0:0:
329,192,49345,1,0,0:0:0:0:
475,192,49583,128,0,50059:0:0:0:40:bell2.wav
182,192,50059,1,0,0:0:0:40:bell2.wav
402,192,50059,128,0,50536:0:0:0:0:
256,192,50536,1,0,0:0:0:40:bell2.wav
329,192,51012,1,0,0:0:0:40:bell2.wav
36,192,51488,1,0,0:0:0:40:bell2.wav
402,192,51488,128,0,51964:0:0:0:0:
109,192,51964,1,0,0:0:0:40:bell2.wav
329,192,51964,128,0,52422:0:0:0:0:
256,192,52422,128,0,52898:0:0:0:40:bell2.wav
475,192,52422,1,0,0:0:0:0:
109,192,52898,1,0,0:0:0:40:bell2.wav
402,192,52898,128,0,53374:0:0:0:0:
329,192,53374,128,0,53850:0:0:0:0:
36,192,53374,1,0,0:0:0:40:bell2.wav
182,192,53850,128,0,54326:0:0:0:40:bell2.wav
475,192,53850,1,0,0:0:0:0:
36,192,54326,1,0,0:0:0:40:bell2.wav
402,192,54326,128,0,54802:0:0:0:0:
329,192,54802,1,0,0:0:0:0:
182,192,55040,1,0,0:0:0:0:
36,192,55278,1,0,0:0:0:40:bell2.wav
256,192,55278,128,0,55755:0:0:0:0:
329,192,55755,1,0,0:0:0:40:bell2.wav
475,192,55755,1,0,0:0:0:0:
109,192,55993,1,0,0:0:0:0:
256,192,56231,1,0,0:0:0:40:bell2.wav
402,192,56469,1,0,0:0:0:0:
36,192,56707,1,0,0:0:0:40:bell2.wav
182,192,56707,1,0,0:0:0:0:
256,192,57202,1,0,0:0:0:40:bell2.wav
475,192,57202,128,0,57678:0:0:0:0:
36,192,57678,1,0,0:0:0:40:bell2.wav
402,192,57678,128,0,58154:0:0:0:0:
329,192,58154,128,0,58630:0:0:0:0:
182,192,58154,1,0,0:0:0:40:bell2.wav
256,192,58630,128,0,59106:0:0:0:0:
36,192,58630,1,0,0:0:0:40:bell2.wav
109,192,59106,128,0,59582:0:0:0:40:bell2.wav
402,192,59106,1,0,0:0:0:0:
182,192,59582,128,0,60059:0:0:0:40:bell2.wav
475,192,59582,1,0,0:0:0:0:
36,192,60059,1,0,0:0:0:40:bell2.wav
329,192,60059,128,0,60535:0:0:0:0:
182,192,60535,1,0,0:0:0:0:
109,192,60773,1,0,0:0:0:0:
402,192,61011,128,0,61487:0:0:0:40:bell2.wav
475,192,61011,1,0,0:0:0:0:
36,192,61487,1,0,0:0:0:40:bell2.wav
256,192,61487,128,0,61963:0:0:0:0:
109,192,61963,1,0,0:0:0:40:bell2.wav
329,192,62440,1,0,0:0:0:40:bell2.wav
475,192,62440,128,0,62916:0:0:0:0:
182,192,62678,1,0,0:0:0:0:
36,192,62916,128,0,63392:0:0:0:40:bell2.wav
402,192,63154,1,0,0:0:0:0:
109,192,63392,128,0,63868:0:0:0:40:bell2.wav
329,192,63630,1,0,0:0:0:0:
182,192,63868,128,0,64344:0:0:0:40:bell2.wav
475,192,64106,1,0,0:0:0:0:
36,192,64344,1,0,0:0:0:40:bell2.wav
402,192,64344,128,0,64821:0:0:0:0:
182,192,64821,1,0,0:0:0:40:bell2.wav
329,192,64821,128,0,65297:0:0:0:0:
109,192,65297,1,0,0:0:0:40:bell2.wav
475,192,65297,128,0,65773:0:0:0:0:
182,192,65773,128,0,67202:0:0:0:40:bell2.wav
329,192,65773,128,0,67202:0:0:0:0:
36,192,67202,128,0,68630:0:0:0:40:bell2.wav
475,192,67202,1,0,0:0:0:0:
256,192,67440,1,0,0:0:0:0:
402,192,67678,1,0,0:0:0:0:
329,192,67916,1,0,0:0:0:0:
256,192,68154,1,0,0:0:0:0:
182,192,68392,1,0,0:0:0:0:
329,192,68630,1,0,0:0:0:40:LR_J_Hit.wav
475,192,68630,1,0,0:0:0:40:bell2.wav
256,192,68868,1,0,0:0:0:40:LR_J_Hit.wav
182,192,69106,1,0,0:0:0:40:LR_J_Hit.wav
256,192,69344,1,0,0:0:0:40:LR_J_Hit.wav
329,192,69582,1,0,0:0:0:40:LR_J_Hit.wav
475,192,69821,1,0,0:0:0:40:LR_J_Hit.wav
182,192,70059,1,0,0:0:0:40:LR_J_Hit.wav
402,192,70059,128,0,70535:0:0:0:40:bell2.wav
109,192,70535,1,0,0:0:0:40:LR_J_Hit.wav
329,192,70535,128,0,71011:0:0:0:0:
36,192,71011,1,0,0:0:0:40:LR_J_Hit.wav
256,192,71011,128,0,71487:0:0:0:0:
329,192,71487,128,0,72440:0:0:0:40:LR_J_Hit.wav
475,192,71487,1,0,0:0:0:40:bell2.wav
36,192,71963,1,0,0:0:0:0:
182,192,72202,1,0,0:0:0:0:
109,192,72440,1,0,0:0:0:40:LR_J_Hit.wav
256,192,72916,1,0,0:0:0:40:LR_J_Hit.wav
475,192,72916,128,0,73392:0:0:0:40:bell2.wav
182,192,73392,1,0,0:0:0:40:LR_J_Hit.wav
402,192,73392,128,0,73868:0:0:0:0:
109,192,73868,1,0,0:0:0:40:LR_J_Hit.wav
329,192,73868,128,0,74344:0:0:0:0:
36,192,74344,1,0,0:0:0:40:LR_J_Hit.wav
475,192,74344,128,0,75773:0:0:0:40:bell2.wav
256,192,74582,1,0,0:0:0:40:LR_J_Hit.wav
109,192,74821,1,0,0:0:0:40:LR_J_Hit.wav
182,192,75059,1,0,0:0:0:40:LR_J_Hit.wav
256,192,75297,1,0,0:0:0:40:LR_J_Hit.wav
329,192,75535,1,0,0:0:0:40:LR_J_Hit.wav
36,192,75773,1,0,0:0:0:40:LR_J_Hit.wav
182,192,75773,128,0,76249:0:0:0:40:bell2.wav
109,192,76249,128,0,76725:0:0:0:40:LR_J_Hit.wav
329,192,76249,1,0,0:0:0:0:
256,192,76725,128,0,77202:0:0:0:40:LR_J_Hit.wav
402,192,76725,1,0,0:0:0:0:
109,192,77202,1,0,0:0:0:40:LR_J_Hit.wav
475,192,77202,128,0,77678:0:0:0:40:bell2.wav
36,192,77678,1,0,0:0:0:40:LR_J_Hit.wav
402,192,77678,128,0,78392:0:0:0:0:
109,192,78392,1,0,0:0:0:40:LR_J_Hit.wav
329,192,78392,128,0,78630:0:0:0:0:
182,192,78630,1,0,0:0:0:40:LR_J_Hit.wav
402,192,78630,128,0,80059:0:0:0:40:bell2.wav
256,192,79106,1,0,0:0:0:0:
182,192,79582,1,0,0:0:0:0:
109,192,80059,1,0,0:0:0:40:bell2.wav
329,192,80059,128,0,81011:0:0:0:0:
182,192,80535,1,0,0:0:0:0:
475,192,80773,1,0,0:0:0:0:
36,192,81011,1,0,0:0:0:0:
256,192,81011,128,0,81487:0:0:0:0:
182,192,81487,128,0,81963:0:0:0:40:bell2.wav
475,192,81487,1,0,0:0:0:0:
109,192,81963,128,0,82916:0:0:0:0:
402,192,81963,1,0,0:0:0:0:
256,192,82201,1,0,0:0:0:0:
329,192,82440,1,0,0:0:0:0:
182,192,82916,128,0,83868:0:0:0:40:bell2.wav
402,192,82916,1,0,0:0:0:0:
329,192,83392,1,0,0:0:0:0:
475,192,83630,1,0,0:0:0:0:
256,192,83868,128,0,84344:0:0:0:0:
402,192,83868,1,0,0:0:0:0:
36,192,84344,128,0,84821:0:0:0:40:bell2.wav
329,192,84344,128,0,84821:0:0:0:0:
109,192,84821,128,0,85297:0:0:0:0:
402,192,84821,128,0,85297:0:0:0:0:
182,192,85297,128,0,85773:0:0:0:0:
475,192,85297,128,0,85773:0:0:0:0:
109,192,85773,128,0,86487:0:0:0:40:bell2.wav
109,192,87201,128,0,87678:0:0:0:40:bell2.wav
402,192,87201,128,0,88630:0:0:0:0:
182,192,87678,128,0,88154:0:0:0:0:
36,192,88154,128,0,88630:0:0:0:0:
109,192,88630,128,0,90059:0:0:0:40:bell2.wav
329,192,88630,128,0,90059:0:0:0:0:
109,192,90535,128,0,91409:0:0:0:0:
182,192,91409,128,0,91885:0:0:0:40:bell2.wav
475,192,91409,1,0,0:0:0:0:
256,192,91885,128,0,92361:0:0:0:40:bell2.wav
402,192,91885,1,0,0:0:0:0:
109,192,92361,128,0,92837:0:0:0:40:bell2.wav
329,192,92361,1,0,0:0:0:0:
36,192,92837,1,0,0:0:0:40:bell2.wav
256,192,92837,128,0,93313:0:0:0:0:
109,192,93313,1,0,0:0:0:40:bell2.wav
329,192,93313,128,0,93789:0:0:0:0:
182,192,93789,1,0,0:0:0:40:bell2.wav
402,192,93789,128,0,94266:0:0:0:0:
256,192,94266,1,0,0:0:0:40:bell2.wav
475,192,94266,128,0,95694:0:0:0:0:
109,192,94742,1,0,0:0:0:40:bell2.wav
329,192,94980,1,0,0:0:0:0:
182,192,95218,1,0,0:0:0:40:bell2.wav
329,192,95456,1,0,0:0:0:0:
36,192,95694,1,0,0:0:0:40:bell2.wav
182,192,95694,1,0,0:0:0:0:
256,192,96170,1,0,0:0:0:40:bell2.wav
109,192,96409,1,0,0:0:0:0:
182,192,96647,1,0,0:0:0:40:bell2.wav
402,192,96647,1,0,0:0:0:0:
329,192,96885,1,0,0:0:0:0:
36,192,97123,128,0,98551:0:0:0:40:bell2.wav
182,192,97123,1,0,0:0:0:0:
402,192,97361,1,0,0:0:0:0:
256,192,97599,1,0,0:0:0:40:bell2.wav
402,192,97837,1,0,0:0:0:0:
182,192,98075,1,0,0:0:0:40:bell2.wav
329,192,98313,1,0,0:0:0:0:
182,192,98551,1,0,0:0:0:40:bell2.wav
475,192,98551,128,0,99028:0:0:0:0:
109,192,99028,1,0,0:0:0:40:bell2.wav
256,192,99266,1,0,0:0:0:0:
329,192,99504,1,0,0:0:0:40:bell2.wav
475,192,99504,1,0,0:0:0:0:
182,192,99742,1,0,0:0:0:0:
109,192,99980,128,0,101170:0:0:0:40:bell2.wav
475,192,99980,1,0,0:0:0:0:
329,192,100456,1,0,0:0:0:40:bell2.wav
475,192,100694,1,0,0:0:0:0:
475,192,101170,1,0,0:0:0:0:
36,192,101409,1,0,0:0:0:40:bell2.wav
329,192,101409,1,0,0:0:0:0:
109,192,101647,1,0,0:0:0:0:
182,192,101885,128,0,102837:0:0:0:0:
329,192,101885,1,0,0:0:0:0:
475,192,102123,1,0,0:0:0:0:
402,192,102361,1,0,0:0:0:0:
329,192,102599,1,0,0:0:0:0:
36,192,102837,128,0,103313:0:0:0:40:bell2.wav
475,192,102837,1,0,0:0:0:0:
109,192,103313,1,0,0:0:0:40:bell2.wav
256,192,103313,128,0,103789:0:0:0:0:
109,192,103789,128,0,104266:0:0:0:40:bell2.wav
475,192,103789,1,0,0:0:0:0:
182,192,104266,128,0,104742:0:0:0:40:bell2.wav
402,192,104266,1,0,0:0:0:0:
256,192,104742,128,0,105218:0:0:0:40:bell2.wav
475,192,104742,1,0,0:0:0:0:
36,192,105218,1,0,0:0:0:40:bell2.wav
329,192,105218,128,0,105694:0:0:0:0:
182,192,105694,1,0,0:0:0:40:bell2.wav
402,192,105694,128,0,106170:0:0:0:0:
109,192,106170,1,0,0:0:0:40:bell2.wav
256,192,106409,1,0,0:0:0:0:
182,192,106647,1,0,0:0:0:40:bell2.wav
475,192,106647,128,0,107123:0:0:0:0:
329,192,106885,1,0,0:0:0:0:
36,192,107123,128,0,107599:0:0:0:40:bell2.wav
256,192,107123,1,0,0:0:0:0:
182,192,107599,128,0,108075:0:0:0:40:bell2.wav
475,192,107599,1,0,0:0:0:0:
109,192,108075,1,0,0:0:0:40:bell2.wav
329,192,108075,128,0,108551:0:0:0:0:
109,192,108551,128,0,109028:0:0:0:40:bell2.wav
475,192,108551,1,0,0:0:0:0:
182,192,109028,1,0,0:0:0:40:bell2.wav
329,192,109028,128,0,109504:0:0:0:0:
36,192,109504,1,0,0:0:0:40:bell2.wav
182,192,109504,128,0,109980:0:0:0:0:
109,192,109980,128,0,110456:0:0:0:40:bell2.wav
402,192,109980,1,0,0:0:0:0:
256,192,110456,128,0,110932:0:0:0:40:bell2.wav
475,192,110456,1,0,0:0:0:0:
36,192,110932,1,0,0:0:0:40:bell2.wav
109,192,110932,128,0,111409:0:0:0:0:
182,192,111409,128,0,112361:0:0:0:0:
475,192,111409,1,0,0:0:0:0:
329,192,111885,1,0,0:0:0:40:bell2.wav
475,192,112123,1,0,0:0:0:0:
402,192,112361,1,0,0:0:0:40:bell2.wav
329,192,112599,1,0,0:0:0:0:
36,192,112837,128,0,113313:0:0:0:40:bell2.wav
256,192,112837,1,0,0:0:0:0:
109,192,113313,128,0,113789:0:0:0:40:bell2.wav
329,192,113313,1,0,0:0:0:0:
182,192,113789,128,0,114266:0:0:0:40:bell2.wav
402,192,113789,1,0,0:0:0:0:
109,192,114266,128,0,115694:0:0:0:40:bell2.wav
475,192,114266,128,0,114742:0:0:0:0:
402,192,114742,128,0,115218:0:0:0:40:bell2.wav
329,192,115218,128,0,115694:0:0:0:40:bell2.wav
36,192,115694,128,0,117123:0:0:0:40:bell2.wav
182,192,115694,128,0,116170:0:0:0:0:
256,192,116170,128,0,116647:0:0:0:40:bell2.wav
329,192,116647,128,0,117123:0:0:0:40:bell2.wav
109,192,117123,128,0,118551:0:0:0:40:bell2.wav
475,192,117123,128,0,117599:0:0:0:0:
475,192,118075,128,0,118551:0:0:0:40:bell2.wav
182,192,118551,128,0,119980:0:0:0:40:bell2.wav
402,192,118551,1,0,0:0:0:0:
256,192,118789,1,0,0:0:0:0:
329,192,119028,1,0,0:0:0:40:bell2.wav
402,192,119266,1,0,0:0:0:0:
329,192,119504,1,0,0:0:0:40:bell2.wav
256,192,119742,1,0,0:0:0:0:
36,192,119980,128,0,121408:0:0:0:40:bell2.wav
475,192,119980,128,0,120456:0:0:0:0:
402,192,120456,128,0,120932:0:0:0:40:bell2.wav
329,192,120932,128,0,121408:0:0:0:40:bell2.wav
109,192,121408,128,0,122837:0:0:0:40:bell2.wav
402,192,121408,128,0,121885:0:0:0:0:
256,192,121885,128,0,122361:0:0:0:40:bell2.wav
329,192,122361,128,0,122837:0:0:0:40:bell2.wav
36,192,122837,128,0,124266:0:0:0:40:bell2.wav
402,192,122837,128,0,123313:0:0:0:0:
256,192,123313,1,0,0:0:0:0:
182,192,123551,1,0,0:0:0:0:
329,192,123789,128,0,124266:0:0:0:40:bell2.wav
182,192,124266,1,0,0:0:0:40:bell2.wav
402,192,124266,1,0,0:0:0:0:
329,192,124504,1,0,0:0:0:0:
36,192,124742,1,0,0:0:0:40:bell2.wav
256,192,124742,1,0,0:0:0:0:
182,192,124980,1,0,0:0:0:0:
109,192,125218,1,0,0:0:0:40:bell2.wav
329,192,125218,1,0,0:0:0:0:
182,192,125694,128,0,127123:0:0:0:40:bell2.wav
475,192,125694,128,0,126170:0:0:0:0:
402,192,126170,128,0,126647:0:0:0:40:bell2.wav
329,192,126647,128,0,127123:0:0:0:40:bell2.wav
36,192,127123,128,0,128551:0:0:0:40:bell2.wav
256,192,127123,128,0,127599:0:0:0:0:
109,192,127599,128,0,128075:0:0:0:40:bell2.wav
256,192,128075,128,0,128551:0:0:0:40:bell2.wav
182,192,128551,128,0,129980:0:0:0:40:bell2.wav
475,192,128551,128,0,129028:0:0:0:0:
329,192,129028,1,0,0:0:0:0:
402,192,129266,1,0,0:0:0:0:
329,192,129504,128,0,129980:0:0:0:40:bell2.wav
109,192,129980,128,0,131409:0:0:0:40:bell2.wav
256,192,129980,128,0,130456:0:0:0:0:
475,192,130456,1,0,0:0:0:40:bell2.wav
182,192,130932,1,0,0:0:0:40:bell2.wav
402,192,130932,1,0,0:0:0:0:
256,192,131170,1,0,0:0:0:0:
329,192,131409,1,0,0:0:0:40:bell2.wav
475,192,131409,128,0,132837:0:0:0:0:
109,192,131647,1,0,0:0:0:0:
329,192,131885,1,0,0:0:0:40:bell2.wav
182,192,132123,1,0,0:0:0:0:
36,192,132361,1,0,0:0:0:40:bell2.wav
256,192,132599,1,0,0:0:0:0:
182,192,132837,128,0,133313:0:0:0:40:bell2.wav
402,192,132837,128,0,134266:0:0:0:0:
36,192,133313,128,0,133789:0:0:0:40:bell2.wav
256,192,133789,128,0,134266:0:0:0:40:bell2.wav
109,192,134266,128,0,135694:0:0:0:40:bell2.wav
329,192,134266,128,0,135694:0:0:0:0:
182,192,135694,128,0,137123:0:0:0:40:bell2.wav
402,192,135694,128,0,137123:0:0:0:0:
329,192,137123,128,0,137599:0:0:0:40:bell2.wav
475,192,137123,128,0,138551:0:0:0:0:
256,192,137599,128,0,138075:0:0:0:40:bell2.wav
182,192,138075,128,0,138551:0:0:0:40:bell2.wav
109,192,138551,128,0,139028:0:0:0:40:bell2.wav
256,192,138551,128,0,139980:0:0:0:0:
36,192,139028,128,0,139504:0:0:0:40:bell2.wav
329,192,139504,128,0,139980:0:0:0:40:bell2.wav
182,192,139980,128,0,141408:0:0:0:40:bell2.wav
402,192,139980,128,0,141408:0:0:0:0:
109,192,141408,128,0,142837:0:0:0:40:bell2.wav
256,192,141885,1,0,0:0:0:40:bell2.wav
402,192,142123,1,0,0:0:0:0:
329,192,142361,1,0,0:0:0:40:bell2.wav
256,192,142599,1,0,0:0:0:0:
182,192,142837,1,0,0:0:0:40:bell2.wav
475,192,142837,128,0,144266:0:0:0:0:
329,192,143075,1,0,0:0:0:0:
109,192,143313,1,0,0:0:0:40:bell2.wav
256,192,143551,1,0,0:0:0:0:
36,192,143789,1,0,0:0:0:40:bell2.wav
182,192,144028,1,0,0:0:0:0:
36,192,144266,128,0,145694:0:0:0:40:bell2.wav
329,192,144266,128,0,144742:0:0:0:0:
402,192,144980,1,0,0:0:0:0:
329,192,145218,1,0,0:0:0:40:bell2.wav
256,192,145456,1,0,0:0:0:0:
182,192,145694,1,0,0:0:0:40:bell2.wav
402,192,145694,128,0,147123:0:0:0:0:
256,192,146170,1,0,0:0:0:40:bell2.wav
36,192,146408,1,0,0:0:0:0:
182,192,146647,1,0,0:0:0:40:bell2.wav
36,192,146885,1,0,0:0:0:0:
256,192,147123,128,0,147599:0:0:0:40:bell2.wav
475,192,147123,128,0,148551:0:0:0:0:
182,192,147599,1,0,0:0:0:40:bell2.wav
109,192,147837,1,0,0:0:0:0:
36,192,148075,128,0,148551:0:0:0:40:bell2.wav
182,192,148551,128,0,149028:0:0:0:40:bell2.wav
402,192,148551,128,0,149980:0:0:0:0:
109,192,149028,128,0,149504:0:0:0:40:bell2.wav
256,192,149504,128,0,149980:0:0:0:40:bell2.wav
182,192,149980,128,0,150456:0:0:0:40:bell2.wav
329,192,149980,128,0,151408:0:0:0:0:
36,192,150456,128,0,150932:0:0:0:40:bell2.wav
109,192,150932,128,0,151408:0:0:0:40:bell2.wav
182,192,151408,128,0,151885:0:0:0:40:bell2.wav
402,192,151408,128,0,152837:0:0:0:0:
109,192,151885,1,0,0:0:0:0:
256,192,152123,1,0,0:0:0:0:
36,192,152361,1,0,0:0:0:40:bell2.wav
182,192,152599,1,0,0:0:0:0:
329,192,152837,128,0,154266:0:0:0:40:bell2.wav
475,192,152837,1,0,0:0:0:0:
109,192,153075,1,0,0:0:0:0:
182,192,153313,1,0,0:0:0:40:bell2.wav
256,192,153551,1,0,0:0:0:0:
182,192,153789,1,0,0:0:0:40:bell2.wav
109,192,154028,1,0,0:0:0:0:
36,192,154266,128,0,154742:0:0:0:40:bell2.wav
475,192,154266,128,0,155694:0:0:0:0:
256,192,154742,128,0,155218:0:0:0:40:bell2.wav
182,192,155218,128,0,155694:0:0:0:40:bell2.wav
36,192,155694,128,0,157123:0:0:0:40:bell2.wav
329,192,155694,128,0,156170:0:0:0:0:
256,192,156170,128,0,156647:0:0:0:40:bell2.wav
475,192,156647,128,0,157123:0:0:0:40:bell2.wav
182,192,157123,128,0,158551:0:0:0:40:bell2.wav
329,192,157123,128,0,159980:0:0:0:0:
402,192,157123,128,0,159980:0:0:0:0:
