osu file format v14

[General]
AudioFilename: audio.mp3
AudioLeadIn: 0
PreviewTime: 54071
Countdown: 0
SampleSet: Soft
StackLeniency: 0.7
Mode: 0
LetterboxInBreaks: 0
WidescreenStoryboard: 0

[Editor]
DistanceSpacing: 1
BeatDivisor: 4
GridSize: 32
TimelineZoom: 1

[Metadata]
Title:Heroine Ikusei Keikaku feat. Suzumi Hiyori (CV: Minase Inori)
TitleUnicode:ヒロイン育成計画 feat. 涼海ひより(CV:水瀬いのり)
Artist:HoneyWorks
ArtistUnicode:HoneyWorks
Creator:sanairrt
Version:Insane
Source:
Tags:好きすぎてやばい。〜告白実行委員会キャラクターソング集〜 hiroin suki sugite yabai kokuhaku jikkou iinkai Character Song Shu Japanese pop jpop j-pop ハニーワークス ハニワ Haniwa Premium Live プレミアムライブ ハニプレ arronchu1207 Oriental not dt farmer
BeatmapID:2965560
BeatmapSetID:1441554

[Difficulty]
HPDrainRate:5
CircleSize:3.8
OverallDifficulty:7.5
ApproachRate:9
SliderMultiplier:1.6
SliderTickRate:1

[Events]
//Background and Video events
0,0,"seax.jpg",0,0
Video,0,"xviwdw.mp4"
//Break Periods
2,167021,171054
//Storyboard Layer 0 (Background)
//Storyboard Layer 1 (Fail)
//Storyboard Layer 2 (Pass)
//Storyboard Layer 3 (Foreground)
//Storyboard Layer 4 (Overlay)
//Storyboard Sound Samples

[TimingPoints]
822,333.333333333333,4,2,2,40,1,0
1488,333.333333333333,4,2,2,40,1,0
1488,-125,4,2,2,40,0,0
6821,-111.111111111111,4,2,2,60,0,0
11821,-250,4,2,2,70,0,0
12071,-166.666666666667,4,2,2,5,0,0
12154,-100,4,2,2,80,0,0
22821,-125,4,2,2,50,0,0
27821,-250,4,2,2,60,0,0
28071,-250,4,2,2,60,0,0
28154,-125,4,2,2,60,0,0
30737,-125,4,2,2,5,0,0
30821,-125,4,2,2,60,0,0
31821,-166.666666666667,4,2,2,60,0,0
32071,-166.666666666667,4,2,2,60,0,0
32154,-90.9090909090909,4,2,2,70,0,0
33487,-100,4,2,2,65,0,0
41404,-100,4,2,2,65,0,0
41487,-100,4,2,2,65,0,0
42821,-90.9090909090909,4,2,2,65,0,0
44154,-166.666666666667,4,2,2,50,0,0
49154,-250.000000000001,4,2,2,50,0,0
49404,-250.000000000001,4,2,2,5,0,0
49487,-166.666666666667,4,2,2,50,0,0
54154,-166.666666666667,4,2,2,50,0,0
54737,-166.666666666667,4,2,2,5,0,0
54821,-90.9090909090909,4,2,2,80,0,1
65487,-100,4,2,2,80,0,0
76154,-125,4,2,2,80,0,0
77654,-100,4,2,2,90,0,0
78404,-100,4,2,2,5,0,0
78487,-100,4,2,2,80,0,0
78737,-100,4,2,2,5,0,0
78821,-100,4,2,2,80,0,0
89487,-125,4,2,2,50,0,0
91987,-125,4,2,2,50,0,0
92404,-125,4,2,2,5,0,0
92487,-125,4,2,2,50,0,0
94487,-250,4,2,2,50,0,0
94737,-250,4,2,2,50,0,0
94821,-125,4,2,2,60,0,0
97404,-125,4,2,2,60,0,0
97487,-125,4,2,2,60,0,0
98821,-142.857142857143,4,2,2,60,0,0
100154,-100,4,2,2,60,0,0
108071,-100,4,2,2,60,0,0
108154,-100,4,2,2,60,0,0
110821,-166.666666666667,4,2,2,50,0,0
118737,-166.666666666667,4,2,2,5,0,0
118821,-166.666666666667,4,2,2,60,0,0
121154,-250.000000000001,4,2,2,90,0,0
121404,-100,4,2,2,5,0,0
121487,-90.9090909090909,4,2,2,80,0,1
132154,-100,4,2,2,80,0,0
142987,-125,4,2,2,80,0,0
144321,-100,4,2,2,90,0,0
145071,-100,4,2,2,5,0,0
145154,-100,4,2,2,80,0,0
145404,-100,4,2,2,5,0,0
145487,-100,4,2,2,75,0,0
148154,-125,4,2,2,75,0,0
150404,-125,4,2,2,75,0,0
150487,-125,4,2,2,75,0,0
150821,-100,4,2,2,75,0,0
154737,-100,4,2,2,5,0,0
154821,-100,4,2,2,75,0,0
156154,-90.9090909090909,4,2,2,75,0,1
166487,-90.9090909090909,4,2,2,45,0,1
166821,-100,4,2,2,50,0,0
171654,-100,4,2,2,50,0,0
171821,-250,4,2,2,50,0,0
172154,-111.111111111111,4,2,2,60,0,0
173321,-111.111111111111,4,2,2,45,0,0
173654,-111.111111111111,4,2,2,50,0,0
173987,-111.111111111111,4,2,2,60,0,0
174321,-111.111111111111,4,2,2,70,0,0
175487,-111.111111111111,4,2,2,90,0,0
176321,-111.111111111111,4,2,2,70,0,0
177487,-90.9090909090909,4,2,2,80,0,1
188154,-100,4,2,2,80,0,0
198821,-125,4,2,2,80,0,0
200321,-100,4,2,2,90,0,0
201071,-100,4,2,2,5,0,0
201154,-100,4,2,2,90,0,0
201404,-100,4,2,2,5,0,0
201487,-100,4,2,2,70,0,0
212321,-142.857142857143,4,2,2,70,0,0
213654,-100,4,2,2,90,0,0
214487,-100,4,2,2,90,0,0
214821,-100,4,2,2,5,0,0

[Colours]
Combo1 : 0,128,255
Combo2 : 255,128,128
Combo3 : 128,128,255

[HitObjects]
65,118,1488,6,0,P|96:123|127:129,2,64,6|0|10,3:2|0:0|0:2,0:0:0:0:
177,55,1987,2,0,P|208:95|201:180,1,128,10|2,0:2|3:2,0:0:0:0:
165,260,2487,1,10,0:2:0:0:
127,129,2654,1,2,0:2:0:0:
268,155,2821,6,0,L|191:173,2,64,0|0|10,3:2|0:0|0:2,0:0:0:0:
320,266,3321,2,0,B|403:288|403:288|451:260,1,128,10|2,0:2|3:2,0:0:0:0:
507,209,3821,1,10,0:2:0:0:
415,95,3987,1,2,0:2:0:0:
301,181,4154,6,0,P|289:115|273:34,1,128,0|10,3:2|0:2,0:0:0:0:
160,22,4654,2,0,P|125:66|50:56,1,128,10|2,0:2|3:2,0:0:0:0:
9,182,5154,2,0,P|55:174|84:171,1,64,10|2,0:2|0:2,0:0:0:0:
179,65,5487,5,2,3:2:0:0:
179,65,5654,1,2,3:2:0:0:
253,189,5821,1,10,0:2:0:0:
335,95,5987,2,0,P|389:64|450:79,1,128,10|2,0:2|3:2,0:0:0:0:
491,205,6487,2,0,P|479:249|463:313,1,96,10|0,0:2|0:2,0:0:0:0:
400,352,6821,6,0,P|391:321|381:278,2,71.9999978027344,2|2|2,3:2|0:2|3:2,0:0:0:0:
295,250,7321,2,0,B|226:221|226:289|148:261,1,143.999995605469,2|2,0:2|0:2,0:0:0:0:
52,201,7821,1,2,3:2:0:0:
6,338,7987,1,2,0:2:0:0:
159,240,8154,6,0,P|151:196|143:150,2,71.9999978027344,0|2|2,3:2|0:2|3:2,0:0:0:0:
67,128,8654,2,0,P|100:89|189:91,1,143.999995605469,2|2,0:2|0:2,0:0:0:0:
313,212,9154,2,0,P|280:218|223:233,1,71.9999978027344,2|2,3:2|0:2,0:0:0:0:
371,122,9487,6,0,P|403:150|416:196,1,71.9999978027344,8|2,0:3|0:2,0:0:0:0:
501,189,9821,2,0,P|486:228|448:257,1,71.9999978027344,2|2,3:2|3:2,0:0:0:0:
313,212,10154,1,10,0:2:0:0:
313,212,10321,1,10,0:2:0:0:
225,321,10487,1,10,0:2:0:0:
146,169,10654,1,14,0:2:0:0:
146,169,12154,6,0,P|202:94|273:117,1,160,14|10,0:2|0:2,0:0:0:0:
313,212,12654,2,0,P|301:256|288:309,1,80,2|8,0:2|0:2,0:0:0:0:
169,377,12987,2,0,P|159:338|148:299,1,80,2|8,3:2|0:2,0:0:0:0:
313,212,13321,6,0,B|401:190|374:275|468:247,1,160,2|2,3:2|0:2,0:0:0:0:
451,97,13821,1,10,0:2:0:0:
451,97,13987,2,0,P|380:78|326:150,1,160,2|2,3:2|3:2,0:0:0:0:
248,257,14487,2,0,P|238:218|227:179,1,80,10|2,0:2|3:2,0:0:0:0:
117,51,14821,6,0,P|106:89|96:128,1,80,14|2,0:2|0:2,0:0:0:0:
227,179,15154,1,10,0:2:0:0:
77,243,15321,2,0,B|138:249|138:249|159:285|159:285|233:291,1,160,2|2,0:2|3:2,0:0:0:0:
341,199,15821,2,0,P|305:171|271:172,1,80,10|2,0:2|3:2,0:0:0:0:
138,250,16154,5,10,0:2:0:0:
138,250,16321,1,2,0:2:0:0:
225,376,16487,1,10,0:2:0:0:
390,241,16654,2,0,P|316:225|223:201,1,160,2|2,3:2|3:2,0:0:0:0:
262,383,17154,2,0,P|284:352|280:302,1,80,10|2,0:2|0:2,0:0:0:0:
162,231,17487,5,14,0:2:0:0:
162,231,17654,1,0,0:0:0:0:
81,376,17821,1,10,0:2:0:0:
9,270,17987,2,0,P|19:223|32:178,1,80,2|8,0:2|0:2,0:0:0:0:
171,148,18321,2,0,P|181:186|189:225,1,80,2|8,3:2|0:2,0:0:0:0:
81,113,18654,6,0,P|124:58|215:58,1,160,2|2,3:2|0:2,0:0:0:0:
300,172,19154,1,10,0:2:0:0:
300,172,19321,2,0,B|359:182|399:190|399:190|450:140,1,160,2|2,3:2|3:2,0:0:0:0:
348,21,19821,2,0,P|363:81|376:128,1,80,10|2,0:2|3:2,0:0:0:0:
189,132,20154,6,0,P|199:93|208:54,1,80,14|2,0:2|3:2,0:0:0:0:
300,172,20487,1,10,0:2:0:0:
160,242,20654,1,2,3:2:0:0:
287,315,20821,1,10,0:2:0:0:
287,315,20904,1,8,0:2:0:0:
287,315,20987,1,10,0:3:0:0:
216,176,21154,1,10,0:2:0:0:
81,334,21321,6,0,B|39:292|39:292|71:161,1,160,6|10,3:2|0:2,0:0:0:0:
189,132,21821,1,10,0:2:0:0:
57,45,21987,1,10,0:2:0:0:
144,211,22154,2,0,P|196:222|280:143,1,160,14|8,0:2|0:2,0:0:0:0:
292,132,22571,1,8,0:2:0:0:
292,132,22654,1,8,0:3:0:0:
411,218,22821,6,0,P|452:206|497:195,1,64,6|0,3:2|0:0,0:0:0:0:
368,86,23154,2,0,P|336:58|241:64,2,128,0|0|0,3:2|3:2|3:2,0:0:0:0:
410,180,23987,1,2,0:2:0:0:
287,223,24154,6,0,P|279:183|271:139,1,64,0|0,3:2|0:0,0:0:0:0:
386,306,24487,2,0,P|392:274|414:163,1,128,0|0,3:2|3:2,0:0:0:0:
292,132,24987,1,2,0:2:0:0:
292,132,25154,2,0,P|258:134|215:100,1,64,0|2,3:2|0:2,0:0:0:0:
121,32,25487,6,0,P|165:21|212:12,1,64,0|0,3:2|0:0,0:0:0:0:
45,148,25821,2,0,B|37:86|37:86|27:77|27:77|18:10,2,128,0|0|0,3:2|3:2|3:2,0:0:0:0:
66,251,26654,1,2,0:2:0:0:
172,176,26821,6,0,P|198:159|248:161,1,64,0|0,3:2|0:0,0:0:0:0:
343,235,27154,2,0,P|309:281|226:269,1,128,0|0,3:2|3:2,0:0:0:0:
172,176,27654,1,2,0:2:0:0:
172,176,27737,1,0,0:0:0:0:
172,176,27821,2,0,L|161:117,1,48,2|0,3:2|0:0,0:0:0:0:
206,55,28154,6,0,P|240:37|275:40,2,64,2|2|10,3:2|0:2|0:2,0:0:0:0:
272,159,28654,2,0,P|317:179|395:119,1,128,2|2,0:2|0:2,0:0:0:0:
448,53,29154,1,8,0:2:0:0:
491,182,29321,1,2,0:2:0:0:
354,135,29487,6,0,B|330:54|330:54|370:0,2,128,2|10|2,3:2|0:2|3:2,0:0:0:0:
491,182,30321,1,8,0:2:0:0:
364,264,30487,2,0,P|324:274|270:233,1,96,8|0,0:2|0:0,0:0:0:0:
292,151,30821,6,0,P|326:141|361:132,2,64,2|2|10,3:2|0:2|0:2,0:0:0:0:
234,252,31321,2,0,P|200:266|122:215,1,128,2|2,0:2|0:2,0:0:0:0:
181,151,31821,2,0,L|165:73,1,71.9999978027344,10|0,0:2|0:0,0:0:0:0:
93,34,32154,6,0,P|54:41|-7:53,1,88.000002685547,14|0,0:2|3:2,0:0:0:0:
181,151,32487,2,0,P|220:158|283:172,1,88.000002685547,14|0,0:2|3:2,0:0:0:0:
93,268,32821,2,0,P|53:275|3:284,1,88.000002685547,10|8,0:2|0:2,0:0:0:0:
0,315,33071,1,8,0:2:0:0:
0,315,33154,2,0,L|14:370,3,44.0000013427735,8|8|8|8,0:2|0:3|0:3|0:3,0:0:0:0:
93,268,33487,6,0,P|105:220|116:174,1,80,6|2,3:2|0:2,0:0:0:0:
215,108,33821,2,0,P|263:158|349:136,1,160,8|0,0:2|3:2,0:0:0:0:
422,67,34321,1,2,3:2:0:0:
274,3,34487,2,0,P|284:48|297:104,1,80,8|2,0:2|0:2,0:0:0:0:
427,151,34821,5,0,3:2:0:0:
427,151,34987,1,2,0:2:0:0:
374,281,35154,2,0,B|275:242|275:242|220:281,1,160,8|0,0:2|3:2,0:0:0:0:
129,335,35654,1,10,0:2:0:0:
70,217,35821,2,0,L|91:139,1,80,8|2,0:2|0:2,0:0:0:0:
222,50,36154,6,0,P|256:78|306:76,1,80,0|2,3:2|0:2,0:0:0:0:
427,151,36487,2,0,P|354:133|304:216,1,160,8|0,0:2|3:2,0:0:0:0:
374,281,36987,1,2,3:2:0:0:
452,165,37154,2,0,P|443:120|433:72,1,80,8|2,0:2|0:2,0:0:0:0:
323,0,37487,5,0,3:2:0:0:
323,0,37654,1,2,0:2:0:0:
247,125,37821,1,8,0:2:0:0:
125,43,37987,2,0,P|170:34|212:26,2,80,2|2|10,0:2|3:2|0:2,0:0:0:0:
80,178,38487,2,0,P|37:171|8:137,1,80,10|2,0:2|0:2,0:0:0:0:
162,221,38821,6,0,P|134:254|91:268,2,80,6|0|10,3:2|0:0|0:2,0:0:0:0:
8,315,39321,2,0,P|82:294|129:368,1,160,2|2,0:2|3:2,0:0:0:0:
275,251,39821,1,8,0:2:0:0:
213,375,39987,1,2,0:2:0:0:
162,221,40154,6,0,B|129:123|129:123|179:69,2,160,2|10|2,3:2|0:2|3:2,0:0:0:0:
275,251,40987,1,8,0:2:0:0:
370,148,41154,2,0,P|411:131|471:197,1,120,8|0,0:2|0:0,0:0:0:0:
497,250,41487,6,0,P|486:293|475:344,2,80,2|2|8,3:2|0:2|0:2,0:0:0:0:
381,332,41987,2,0,P|344:276|246:306,1,160,2|2,0:2|3:2,0:0:0:0:
126,223,42487,1,10,0:2:0:0:
189,361,42654,1,2,3:2:0:0:
292,231,42821,6,0,P|279:175|268:125,1,88.000002685547,14|0,0:2|3:2,0:0:0:0:
115,42,43154,2,0,P|105:84|95:127,1,88.000002685547,14|0,0:2|0:2,0:0:0:0:
136,250,43487,1,10,0:2:0:0:
136,250,43654,1,8,0:3:0:0:
236,163,43821,1,8,0:3:0:0:
292,231,43987,1,0,0:0:0:0:
407,100,44154,6,0,B|373:86|352:54|352:54|305:95|259:81|235:42,2,191.999994140625,6|2|2,3:2|0:2|3:2,0:0:0:0:
407,100,46154,1,2,0:2:0:0:
330,214,46821,6,0,P|409:203|448:303,2,191.999994140625,2|2|2,3:2|0:2|3:2,0:0:0:0:
330,214,49154,2,0,P|305:209|273:203,1,48,2|0,0:2|0:0,0:0:0:0:
227,144,49487,5,2,3:2:0:0:
210,167,49821,2,0,L|165:178,3,31.9999990234375,10|8|8|8,0:2|0:2|0:2|0:2,0:0:0:0:
112,93,50487,1,0,3:2:0:0:
28,178,50821,2,0,P|36:224|46:293,2,95.9999970703126,2|8|8,3:2|0:2|0:2,0:0:0:0:
98,93,51821,2,0,L|159:104,1,47.9999985351563,2|2,0:2|0:2,0:0:0:0:
254,34,52154,5,2,3:2:0:0:
268,53,52487,2,0,L|316:42,3,31.9999990234375,10|8|8|10,0:2|0:2|0:2|0:2,0:0:0:0:
441,106,53154,2,0,P|411:96|362:150,1,95.9999970703126,10|2,0:2|0:2,0:0:0:0:
421,254,54154,5,0,0:0:0:0:
421,254,54487,2,0,P|388:251|338:250,1,71.9999978027344
282,195,54821,6,0,P|266:242|252:285,1,88.000002685547,14|2,0:2|0:2,0:0:0:0:
193,105,55154,1,10,0:2:0:0:
107,233,55321,2,0,P|43:240|7:135,1,176.000005371094,2|2,0:2|3:2,0:0:0:0:
85,45,55821,1,10,0:2:0:0:
213,129,55987,6,0,B|316:97|316:97|381:159,1,176.000005371094,2|2,3:2|0:2,0:0:0:0:
449,230,56487,1,10,0:2:0:0:
292,285,56654,2,0,P|241:242|267:138,1,176.000005371094,2|2,3:2|3:2,0:0:0:0:
363,68,57154,1,10,0:2:0:0:
315,206,57321,1,2,3:2:0:0:
161,91,57487,6,0,P|210:79|257:68,1,88.000002685547,14|2,0:2|0:2,0:0:0:0:
107,233,57821,1,10,0:2:0:0:
243,329,57987,2,0,B|292:286|292:286|273:174,1,176.000005371094,2|2,0:2|3:2,0:0:0:0:
245,42,58487,1,10,0:2:0:0:
149,173,58654,1,2,3:2:0:0:
82,26,58821,5,10,0:2:0:0:
82,26,58987,1,2,0:2:0:0:
211,114,59154,1,10,0:2:0:0:
57,160,59321,2,0,B|79:230|79:230|68:262|68:262|89:335,1,176.000005371094,2|2,3:2|3:2,0:0:0:0:
240,288,59821,2,0,P|187:260|150:272,1,88.000002685547,10|0,0:2|0:0,0:0:0:0:
324,355,60154,5,14,0:2:0:0:
324,355,60321,1,2,0:2:0:0:
390,215,60487,1,10,0:2:0:0:
240,288,60654,2,0,B|193:235|193:235|229:125,1,176.000005371094,2|2,0:2|3:2,0:0:0:0:
276,18,61154,1,10,0:2:0:0:
369,174,61321,6,0,P|297:195|222:124,1,176.000005371094,2|2,3:2|0:2,0:0:0:0:
173,7,61821,1,10,0:2:0:0:
81,174,61987,2,0,P|142:116|225:134,1,176.000005371094,2|2,3:2|3:2,0:0:0:0:
311,269,62487,1,10,0:2:0:0:
166,200,62654,1,2,3:2:0:0:
312,109,62821,6,0,P|355:117|398:127,1,88.000002685547,14|2,0:2|0:2,0:0:0:0:
510,221,63154,1,10,0:2:0:0:
510,221,63321,1,2,3:2:0:0:
426,106,63487,2,0,L|442:50,2,44.0000013427735,10|8|10,0:2|0:2|0:3,0:0:0:0:
392,243,63821,1,10,0:2:0:0:
312,109,63987,6,0,P|241:112|215:227,1,176.000005371094,6|10,3:2|0:2,0:0:0:0:
306,264,64487,2,0,P|349:253|405:239,1,88.000002685547,8|10,0:2|0:3,0:0:0:0:
424,231,64737,1,8,0:2:0:0:
424,231,64821,1,2,3:2:0:0:
379,362,64987,1,10,0:2:0:0:
379,362,65071,1,8,0:2:0:0:
379,362,65154,2,0,L|315:345,2,44.0000013427735,8|8|8,0:3|0:3|0:3,0:0:0:0:
306,264,65487,5,6,3:2:0:0:
306,264,65654,1,2,0:2:0:0:
222,374,65821,1,10,0:2:0:0:
156,258,65987,2,0,P|128:184|171:98,1,160,10|2,0:2|3:2,0:0:0:0:
228,28,66487,1,10,0:2:0:0:
231,185,66654,6,0,P|152:171|41:155,1,160,2|2,3:2|3:2,0:0:0:0:
19,67,67154,1,10,0:2:0:0:
151,5,67321,2,0,B|239:-16|211:71|309:41,1,160,10|2,0:2|3:2,0:0:0:0:
431,142,67821,2,0,P|398:119|340:134,1,80,10|2,0:2|0:2,0:0:0:0:
231,185,68154,5,6,3:2:0:0:
231,185,68321,1,2,0:2:0:0:
323,287,68487,1,10,0:2:0:0:
388,153,68654,2,0,B|434:61|434:61|388:-11,1,160,10|2,0:2|3:2,0:0:0:0:
274,71,69154,2,0,P|236:63|169:50,1,80,10|2,0:2|3:2,0:0:0:0:
73,140,69487,5,2,0:2:0:0:
73,140,69654,1,2,3:2:0:0:
15,18,69821,1,10,0:2:0:0:
155,84,69987,2,0,P|171:151|118:228,1,160,10|2,0:2|3:2,0:0:0:0:
0,320,70487,2,0,P|50:330|98:341,1,80,10|0,0:2|0:2,0:0:0:0:
234,214,70821,6,0,P|184:224|136:235,1,80,6|2,3:2|0:2,0:0:0:0:
167,359,71154,1,10,0:2:0:0:
256,232,71321,2,0,B|347:218|317:285|406:267,1,160,10|2,0:2|3:2,0:0:0:0:
510,163,71821,1,8,0:2:0:0:
394,66,71987,6,0,P|318:63|287:141,1,160,2|2,3:2|3:2,0:0:0:0:
400,192,72487,1,10,0:2:0:0:
256,232,72654,2,0,B|195:220|195:220|176:184|176:184|110:174,1,160,10|2,0:2|3:2,0:0:0:0:
31,295,73154,2,0,P|83:290|121:247,1,80,10|2,0:2|3:2,0:0:0:0:
35,117,73487,6,0,P|25:156|12:210,1,80,6|2,3:2|3:2,0:0:0:0:
108,36,73821,1,10,0:2:0:0:
151,180,73987,1,2,3:2:0:0:
241,72,74154,1,10,0:3:0:0:
82,125,74321,1,10,0:2:0:0:
82,125,74404,1,8,0:2:0:0:
82,125,74487,1,10,0:2:0:0:
238,207,74654,6,0,P|289:149|376:196,1,160,6|10,3:2|0:2,0:0:0:0:
464,288,75154,1,10,0:2:0:0:
314,247,75321,1,10,0:2:0:0:
451,102,75487,2,0,P|442:144|431:207,1,80,10|0,0:2|0:2,0:0:0:0:
431,213,75737,1,8,0:2:0:0:
431,213,75821,1,0,3:2:0:0:
314,247,76321,6,0,P|280:253|237:261,2,64,2|2|2,0:2|0:2|0:2,0:0:0:0:
197,317,76821,2,0,P|174:280|173:239,1,64,2|2,0:2|0:2,0:0:0:0:
215,120,77154,2,0,P|238:157|239:198,1,64,2|2,0:2|0:2,0:0:0:0:
197,317,77654,5,10,0:2:0:0:
197,317,77821,1,10,0:2:0:0:
285,203,77987,1,10,0:2:0:0:
383,309,78154,2,0,P|426:320|472:262,1,120,10|0,0:2|0:0,0:0:0:0:
484,185,78487,2,0,P|437:175|351:159,1,120,14|0,0:2|0:2,0:0:0:0:
285,203,78821,6,0,B|266:136|266:136|272:116|272:116|248:33,1,160,14|10,0:2|0:2,0:0:0:0:
92,84,79321,2,0,P|139:105|186:93,1,80,2|8,0:2|0:2,0:0:0:0:
285,203,79654,2,0,P|245:202|210:221,1,80,2|8,3:2|0:2,0:0:0:0:
87,315,79987,6,0,B|179:283|153:349|253:316,1,160,2|2,3:2|0:2,0:0:0:0:
391,244,80487,1,10,0:2:0:0:
391,244,80654,2,0,P|378:196|282:207,1,160,2|2,3:2|3:2,0:0:0:0:
174,319,81154,2,0,P|162:267|148:216,1,80,10|2,0:2|3:2,0:0:0:0:
303,124,81487,6,0,P|293:162|284:201,1,80,14|2,0:2|0:2,0:0:0:0:
155,241,81821,1,10,0:2:0:0:
28,151,81987,2,0,B|94:129|94:129|128:137|128:137|193:116,1,160,2|2,0:2|3:2,0:0:0:0:
303,32,82487,2,0,P|244:16|210:6,1,80,10|2,0:2|3:2,0:0:0:0:
447,142,82821,5,10,0:2:0:0:
447,142,82987,1,2,0:2:0:0:
392,0,83154,1,10,0:2:0:0:
303,124,83321,2,0,P|268:187|292:281,1,160,2|2,3:2|3:2,0:0:0:0:
443,229,83821,2,0,P|382:208|350:202,1,80,10|2,0:2|0:2,0:0:0:0:
268,300,84154,5,14,0:2:0:0:
268,300,84321,1,0,0:0:0:0:
189,172,84487,1,10,0:2:0:0:
123,319,84654,2,0,P|94:334|35:329,1,80,2|8,0:2|0:2,0:0:0:0:
10,168,84987,2,0,P|69:181|109:190,1,80,2|8,3:2|0:2,0:0:0:0:
197,267,85321,6,0,P|212:203|238:104,1,160,2|2,3:2|0:2,0:0:0:0:
352,32,85821,1,10,0:2:0:0:
352,32,85987,2,0,P|403:86|394:174,1,160,2|2,3:2|3:2,0:0:0:0:
239,145,86487,2,0,P|296:124|326:119,1,80,10|2,0:2|3:2,0:0:0:0:
450,232,86821,6,0,P|410:222|355:209,1,80,14|2,0:2|3:2,0:0:0:0:
200,287,87154,1,10,0:2:0:0:
239,145,87321,1,2,3:2:0:0:
319,299,87487,1,10,0:2:0:0:
319,299,87571,1,8,0:2:0:0:
319,299,87654,1,10,0:3:0:0:
165,197,87821,1,10,0:2:0:0:
353,112,87987,6,0,B|268:85|281:149|192:116,1,160,6|10,3:2|0:3,0:0:0:0:
89,0,88487,1,10,0:3:0:0:
237,41,88654,1,10,0:2:0:0:
79,98,88821,2,0,P|48:154|66:237,1,120,10|8,0:2|0:2,0:0:0:0:
66,244,89154,1,8,0:2:0:0:
151,180,89321,1,8,0:2:0:0:
151,180,89404,1,8,0:2:0:0:
151,180,89487,6,0,P|187:171|231:162,1,64,6|0,3:2|0:0,0:0:0:0:
328,86,89821,2,0,B|281:80|281:80|261:55|261:55|204:49,2,128,0|0|0,3:2|3:2|3:2,0:0:0:0:
398,32,90654,1,2,0:2:0:0:
467,139,90821,6,0,P|458:170|444:225,1,64,0|0,3:2|0:0,0:0:0:0:
473,330,91154,2,0,P|441:287|365:298,1,128,0|0,3:2|3:2,0:0:0:0:
287,372,91654,2,0,P|229:355|162:340,1,128,2|2,0:2|0:2,0:0:0:0:
120,350,92071,1,0,0:0:0:0:
120,350,92154,6,0,P|113:311|105:270,1,64,0|0,3:2|0:0,0:0:0:0:
176,156,92487,2,0,P|217:190|212:275,2,128,0|0|0,3:2|3:2|3:2,0:0:0:0:
101,249,93321,1,2,0:2:0:0:
32,146,93487,6,0,P|39:108|49:61,1,64,0|0,3:2|0:0,0:0:0:0:
159,28,93821,2,0,B|237:14|198:79|288:58,1,128,0|0,3:2|3:2,0:0:0:0:
374,0,94321,1,2,0:2:0:0:
433,95,94487,2,0,P|427:120|420:154,1,48,2|0,3:2|0:0,0:0:0:0:
351,218,94821,6,0,P|342:181|331:134,2,64,6|0|10,3:2|0:2|0:2,0:0:0:0:
429,299,95321,2,0,P|394:260|313:290,1,128,2|2,0:2|0:2,0:0:0:0:
218,370,95821,2,0,P|210:334|195:279,1,64,8|2,0:2|0:2,0:0:0:0:
103,195,96154,6,0,P|87:255|67:329,2,128,2|10|2,3:2|0:2|3:2,0:0:0:0:
187,77,96987,1,8,0:2:0:0:
264,202,97154,2,0,P|312:193|336:131,1,96,8|0,0:2|0:0,0:0:0:0:
273,97,97487,6,0,P|246:91|198:80,1,64,2|10,3:2|0:3,0:0:0:0:
104,195,97821,1,10,0:3:0:0:
76,70,97987,2,0,L|92:29,2,32,8|8|8,0:2|0:2|0:2,0:0:0:0:
104,195,98321,1,8,0:2:0:0:
104,195,98404,1,8,0:2:0:0:
104,195,98487,2,8,L|92:224,2,32,8|8|2,0:2|0:2|3:2,0:0:0:0:
190,125,98821,6,0,P|220:75|201:12,2,111.999996582031,2|2|2,0:2|0:2|0:2,0:0:0:0:
91,224,100154,6,0,P|134:216|183:207,1,80,6|2,3:2|0:2,0:0:0:0:
311,178,100487,2,0,P|262:115|169:147,1,160,8|0,0:2|3:2,0:0:0:0:
91,224,100987,1,2,3:2:0:0:
207,297,101154,2,0,P|216:249|228:189,1,80,8|2,0:2|0:2,0:0:0:0:
103,132,101487,5,0,3:2:0:0:
103,132,101654,1,2,0:2:0:0:
233,69,101821,2,0,B|327:56|288:138|390:118,1,160,8|0,0:2|3:2,0:0:0:0:
413,113,102237,1,8,0:2:0:0:
413,113,102321,1,2,3:2:0:0:
472,259,102487,2,0,P|438:236|385:241,1,80,8|2,0:2|0:2,0:0:0:0:
282,364,102821,6,0,P|330:352|382:342,1,80,0|2,3:2|0:2,0:0:0:0:
252,231,103154,2,0,B|151:205|151:205|90:266,1,160,8|0,0:2|3:2,0:0:0:0:
33,329,103654,1,2,3:2:0:0:
0,198,103821,2,0,P|10:154|23:106,1,80,8|2,0:2|0:2,0:0:0:0:
29,84,104071,1,8,0:2:0:0:
29,84,104154,6,0,P|76:62|114:69,1,80,0|2,3:2|3:2,0:0:0:0:
191,160,104487,1,8,0:2:0:0:
298,78,104654,2,0,P|287:37|275:-5,2,80,2|2|2,0:2|3:2|3:2,0:0:0:0:
191,160,105154,2,0,P|167:200|164:251,1,80,14|2,0:2|0:2,0:0:0:0:
333,244,105487,6,0,P|291:230|241:216,2,80,6|2|8,3:2|0:2|0:2,0:0:0:0:
425,341,105987,2,0,B|469:289|469:289|439:171,1,160,2|2,0:2|3:2,0:0:0:0:
347,81,106487,2,0,P|336:121|321:180,1,80,8|2,0:2|0:2,0:0:0:0:
215,252,106821,6,0,P|203:181|184:70,2,160,2|10|2,3:2|0:2|3:2,0:0:0:0:
233,332,107571,1,8,0:2:0:0:
233,332,107654,1,0,3:2:0:0:
332,239,107821,2,0,P|381:204|441:218,1,120,8|0,0:2|0:0,0:0:0:0:
497,281,108154,6,0,P|482:325|467:372,2,80,2|2|8,3:2|0:2|0:2,0:0:0:0:
399,203,108654,1,2,3:2:0:0:
511,114,108821,2,0,P|469:104|411:90,1,80,8|2,0:2|3:2,0:0:0:0:
283,228,109154,2,0,P|324:218|383:204,1,80,10|2,0:2|0:2,0:0:0:0:
282,52,109487,6,0,P|273:88|255:156,1,80,14|0,0:2|0:2,0:0:0:0:
145,201,109821,2,0,P|134:162|125:123,1,80,10|0,0:3|0:2,0:0:0:0:
213,261,110154,2,0,P|184:282|143:287,2,53.3333333333333,2|10|10,3:2|0:3|0:3,0:0:0:0:
149,367,110487,2,0,P|116:352|91:319,2,53.3333333333333,10|6|6,0:3|0:3|0:3,0:0:0:0:
213,261,110821,6,0,B|269:307|327:273|327:273|357:313|376:341,2,191.999994140625,6|2|2,3:2|0:2|3:2,0:0:0:0:
213,261,112821,1,2,0:2:0:0:
282,197,113487,6,0,P|282:120|382:141,2,191.999994140625,2|2|2,3:2|0:2|3:2,0:0:0:0:
282,197,115154,2,0,P|309:192|338:187,1,47.9999985351563,2|2,0:2|0:2,0:0:0:0:
475,114,115487,2,0,P|425:105|360:96,2,95.9999970703126,10|2|2,0:2|0:2|3:2,0:0:0:0:
475,114,116487,6,0,P|468:132|456:177,1,47.9999985351563,10|2,0:2|0:2,0:0:0:0:
375,212,116821,1,0,3:2:0:0:
375,212,116987,1,10,0:2:0:0:
441,301,117154,2,0,P|477:287|508:283,1,47.9999985351563,0|2,3:2|0:2,0:0:0:0:
375,212,117487,6,0,P|336:188|284:201,2,95.9999970703126,2|10|10,3:2|0:2|0:2,0:0:0:0:
375,212,118487,2,0,P|366:237|349:296,1,71.9999978027344,2|0,0:2|0:0,0:0:0:0:
276,348,118821,6,0,P|264:303|247:248,2,95.9999970703126,2|10|10,3:2|0:2|0:3,0:0:0:0:
353,280,119654,1,8,0:2:0:0:
276,348,119821,2,0,P|230:355|179:323,1,95.9999970703126,2|2,3:2|0:2,0:0:0:0:
192,204,120821,5,0,0:0:0:0:
192,204,121154,2,0,P|203:165|207:149,1,48,12|0,0:3|0:2,0:0:0:0:
230,72,121487,6,0,P|282:45|323:64,1,88.000002685547,14|0,0:2|0:0,0:0:0:0:
426,120,121821,1,10,0:2:0:0:
347,247,121987,2,0,B|239:205|239:205|173:245,1,176.000005371094,2|2,0:2|3:2,0:0:0:0:
89,313,122487,1,10,0:2:0:0:
0,189,122654,6,0,P|48:120|132:127,1,176.000005371094,2|2,3:2|0:2,0:0:0:0:
234,223,123154,1,10,0:2:0:0:
269,50,123321,2,0,P|249:132|233:224,1,176.000005371094,2|2,3:2|3:2,0:0:0:0:
347,247,123821,1,10,0:2:0:0:
216,331,123987,1,2,3:2:0:0:
290,186,124154,6,0,P|338:164|392:179,1,88.000002685547,14|2,0:2|0:2,0:0:0:0:
512,213,124487,1,10,0:2:0:0:
371,328,124654,2,0,B|251:294|251:294|198:348,1,176.000005371094,2|2,0:2|3:2,0:0:0:0:
70,268,125154,1,10,0:2:0:0:
158,384,125321,1,2,3:2:0:0:
184,212,125487,5,10,0:2:0:0:
184,212,125654,1,2,0:2:0:0:
93,343,125821,1,10,0:2:0:0:
0,179,125987,2,0,P|86:185|129:97,1,176.000005371094,2|2,3:2|3:2,0:0:0:0:
44,0,126487,2,0,P|35:29|18:92,1,88.000002685547,10|0,0:2|0:0,0:0:0:0:
151,0,126821,5,14,0:2:0:0:
151,0,126987,1,2,0:2:0:0:
249,108,127154,1,10,0:2:0:0:
365,2,127321,2,0,P|418:0|469:105,1,176.000005371094,2|2,0:2|3:2,0:0:0:0:
450,225,127821,1,10,0:2:0:0:
336,85,127987,6,0,B|298:192|298:192|343:262,1,176.000005371094,2|2,3:2|0:2,0:0:0:0:
476,201,128487,1,10,0:2:0:0:
388,340,128654,2,0,P|333:270|258:296,1,176.000005371094,2|2,3:2|3:2,0:0:0:0:
120,228,129154,1,10,0:2:0:0:
193,364,129321,1,2,3:2:0:0:
246,203,129487,6,0,P|238:158|228:103,1,88.000002685547,14|2,0:2|0:2,0:0:0:0:
115,22,129821,1,10,0:2:0:0:
115,22,129987,1,2,3:2:0:0:
252,96,130154,1,10,0:2:0:0:
91,142,130321,1,2,3:2:0:0:
212,20,130487,1,10,0:2:0:0:
321,147,130654,6,0,B|430:132|346:63|474:55,1,176.000005371094,6|10,3:2|0:2,0:0:0:0:
506,184,131154,2,0,P|488:238|479:278,1,88.000002685547,8|10,0:2|0:2,0:0:0:0:
472,301,131404,1,8,0:2:0:0:
472,301,131487,1,2,3:2:0:0:
336,231,131654,2,0,P|331:200|327:179,2,44.0000013427735,10|8|8,0:2|0:2|0:3,0:0:0:0:
234,322,131987,1,8,0:2:0:0:
234,322,132071,1,8,0:2:0:0:
234,322,132154,6,0,P|194:328|144:298,1,80,6|2,3:2|0:2,0:0:0:0:
72,235,132487,1,10,0:2:0:0:
196,103,132654,2,0,B|240:149|240:149|206:253,1,160,10|2,0:2|3:2,0:0:0:0:
72,235,133154,1,8,0:2:0:0:
196,103,133321,6,0,P|258:66|345:98,1,160,2|2,3:2|3:2,0:0:0:0:
428,167,133821,1,10,0:2:0:0:
366,272,133987,2,0,P|326:262|208:240,1,160,10|2,0:2|3:2,0:0:0:0:
96,158,134487,2,0,P|83:194|68:247,1,80,10|2,0:2|0:2,0:0:0:0:
127,364,134821,5,6,3:2:0:0:
127,364,134987,1,2,0:2:0:0:
191,249,135154,1,10,0:2:0:0:
280,360,135321,2,0,P|358:360|395:286,1,160,10|2,0:2|3:2,0:0:0:0:
318,178,135821,2,0,P|303:225|295:266,1,80,10|2,0:2|3:2,0:0:0:0:
438,127,136154,5,2,0:2:0:0:
438,127,136321,1,2,3:2:0:0:
326,30,136487,1,10,0:2:0:0:
239,164,136654,2,0,B|132:191|132:191|85:147,1,160,10|2,0:2|3:2,0:0:0:0:
21,72,137154,2,0,P|64:60|119:46,1,80,10|0,0:2|0:2,0:0:0:0:
239,164,137487,6,0,P|251:122|226:77,1,80,6|0,3:2|0:0,0:0:0:0:
98,51,137821,1,10,0:2:0:0:
58,194,137987,2,0,P|73:266|89:353,1,160,10|2,0:2|3:2,0:0:0:0:
171,250,138487,1,10,0:2:0:0:
256,364,138654,6,0,P|315:306|388:333,1,160,2|2,3:2|3:2,0:0:0:0:
466,215,139154,1,10,0:2:0:0:
495,355,139321,2,0,B|526:304|526:304|493:187,1,160,10|2,0:2|3:2,0:0:0:0:
400,115,139821,2,0,P|386:159|375:203,1,80,10|2,0:2|0:2,0:0:0:0:
469,48,140154,6,0,P|431:23|380:23,1,80,6|2,3:2|3:2,0:0:0:0:
260,45,140487,1,10,0:2:0:0:
400,115,140654,1,2,3:2:0:0:
208,177,140821,1,10,0:3:0:0:
332,76,140987,1,10,0:3:0:0:
332,76,141071,1,8,0:3:0:0:
332,76,141154,1,10,0:3:0:0:
363,227,141321,6,0,B|384:328|384:328|325:382,1,160,6|10,3:2|0:2,0:0:0:0:
221,306,141821,1,10,0:2:0:0:
342,212,141987,1,10,0:2:0:0:
199,99,142154,2,0,P|189:141|177:196,1,80,10|0,0:2|0:2,0:0:0:0:
175,211,142404,1,8,0:2:0:0:
175,211,142487,1,0,3:2:0:0:
339,129,142987,6,0,P|372:114|416:121,2,64,2|2|2,0:2|0:2|0:2,0:0:0:0:
268,197,143487,2,0,P|231:184|186:171,1,64,2|2,0:2|0:2,0:0:0:0:
158,73,143821,2,0,P|195:60|240:47,1,64,2|2,0:2|0:2,0:0:0:0:
339,129,144321,5,10,0:2:0:0:
339,129,144487,1,10,0:2:0:0:
240,23,144654,1,10,0:2:0:0:
174,167,144821,2,0,B|114:154|114:196|42:177,1,120,10|0,0:2|0:0,0:0:0:0:
31,158,145154,2,0,P|10:106|53:49,1,120,14|0,0:2|0:0,0:0:0:0:
117,14,145487,6,0,P|158:20|209:29,1,80,6|2,3:2|0:2,0:0:0:0:
255,149,145821,1,10,0:2:0:0:
365,46,145987,2,0,P|459:41|494:111,1,160,10|2,0:2|3:2,0:0:0:0:
409,211,146487,2,0,B|388:173|388:173|404:130,1,80,10|2,0:2|0:2,0:0:0:0:
512,287,146821,6,0,P|496:349|487:391,1,80,2|2,3:2|3:2,0:0:0:0:
409,211,147154,1,10,0:2:0:0:
319,308,147321,2,0,B|225:280|255:346|160:321,1,160,10|2,0:2|3:2,0:0:0:0:
39,258,147821,2,0,P|49:212|58:174,1,80,10|2,0:2|0:2,0:0:0:0:
170,124,148154,5,6,3:2:0:0:
170,124,148321,1,2,3:2:0:0:
10,72,148487,2,0,P|67:57|94:51,1,64,10|2,0:2|0:2,0:0:0:0:
100,48,148737,1,8,0:3:0:0:
100,48,148821,1,2,3:2:0:0:
184,136,148987,1,2,3:2:0:0:
274,18,149154,2,0,P|266:44|254:91,1,64,10|2,0:2|0:2,0:0:0:0:
275,108,149404,1,2,0:2:0:0:
275,108,149487,6,0,P|308:124|353:118,1,64,2|0,3:2|3:2,0:0:0:0:
489,44,149821,2,0,P|456:28|411:34,1,64,10|0,0:2|3:2,0:0:0:0:
409,57,150071,1,8,0:3:0:0:
409,57,150154,2,0,P|415:105|422:145,1,64,2|0,3:2|3:2,0:0:0:0:
487,223,150487,2,0,P|477:249|465:290,1,64,14|0,0:2|0:2,0:0:0:0:
354,384,150821,5,6,3:2:0:0:
354,384,150987,1,2,0:2:0:0:
466,283,151154,1,10,0:2:0:0:
321,237,151321,2,0,B|229:206|262:293|147:252,1,160,10|2,0:2|3:2,0:0:0:0:
77,154,151821,2,0,P|114:131|160:135,1,80,10|2,0:2|0:2,0:0:0:0:
256,240,152154,5,2,3:2:0:0:
256,240,152321,1,2,3:2:0:0:
311,88,152487,1,10,0:2:0:0:
149,131,152654,2,0,P|103:80|148:-9,1,160,10|2,0:2|3:2,0:0:0:0:
271,65,153154,2,0,P|319:57|366:49,1,80,10|2,0:2|0:2,0:0:0:0:
489,125,153487,5,6,3:2:0:0:
489,125,153654,1,0,0:0:0:0:
349,51,153821,2,0,P|339:89|323:151,1,80,8|0,0:0|0:2,0:0:0:0:
320,164,154071,1,8,0:3:0:0:
320,164,154154,1,0,3:2:0:0:
459,134,154321,1,0,0:2:0:0:
344,257,154487,2,0,P|279:252|232:199,1,120,10|0,0:2|0:0,0:0:0:0:
160,154,154821,6,0,P|206:141|252:130,1,80,14|2,0:2|3:2,0:0:0:0:
399,193,155154,1,10,0:2:0:0:
309,59,155321,1,10,0:2:0:0:
268,246,155487,1,8,0:2:0:0:
385,107,155654,1,10,0:2:0:0:
385,107,155737,1,8,0:2:0:0:
385,107,155821,2,0,L|444:115,1,40,8|8,0:2|0:2,0:0:0:0:
512,214,155987,2,0,L|453:222,1,40,10|8,0:2|0:2,0:0:0:0:
385,107,156154,6,0,P|398:53|409:1,1,88.000002685547,6|2,3:2|0:2,0:0:0:0:
475,171,156487,1,10,0:2:0:0:
344,257,156654,2,0,B|232:223|232:223|209:245|179:279,1,176.000005371094,2|2,0:2|3:2,0:0:0:0:
112,370,157154,1,10,0:2:0:0:
255,315,157321,1,2,3:2:0:0:
128,219,157487,6,0,P|89:196|32:206,1,88.000002685547,8|2,0:2|0:2,0:0:0:0:
168,306,157821,1,10,0:2:0:0:
256,150,157987,1,2,3:2:0:0:
358,279,158154,2,0,P|346:321|336:364,1,88.000002685547,10|0,0:2|3:2,0:0:0:0:
213,228,158487,1,10,0:2:0:0:
367,178,158654,1,2,3:2:0:0:
234,64,158821,6,0,P|245:106|255:149,1,88.000002685547,14|2,0:2|0:2,0:0:0:0:
408,37,159154,1,10,0:2:0:0:
367,178,159321,1,2,0:2:0:0:
234,64,159487,2,0,P|195:47|138:58,1,88.000002685547,10|0,0:2|3:2,0:0:0:0:
13,93,159821,1,10,0:2:0:0:
131,190,159987,1,2,3:2:0:0:
0,287,160154,6,0,P|51:275|115:262,1,88.000002685547,10|0,0:2|3:2,0:0:0:0:
255,149,160487,2,0,P|204:137|140:124,1,88.000002685547,10|0,0:2|3:2,0:0:0:0:
221,324,160821,2,0,P|281:259|367:289,1,176.000005371094,10|10,0:2|0:2,0:0:0:0:
456,378,161321,1,2,0:2:0:0:
512,223,161487,6,0,P|499:171|481:105,1,88.000002685547,14|0,0:2|0:2,0:0:0:0:
382,260,161821,1,10,0:2:0:0:
291,138,161987,2,0,B|194:107|228:190|124:165,1,176.000005371094,2|2,0:2|3:2,0:0:0:0:
66,64,162487,1,8,0:2:0:0:
4,253,162654,6,0,P|58:177|141:206,1,176.000005371094,2|2,3:2|0:2,0:0:0:0:
222,291,163154,1,10,0:2:0:0:
321,143,163321,2,0,B|344:171|372:198|372:198|348:248|318:319,1,176.000005371094,2|2,3:2|3:2,0:0:0:0:
232,173,163821,2,0,P|227:129|253:76,1,88.000002685547,10|2,0:2|3:2,0:0:0:0:
406,18,164154,6,0,P|419:68|433:130,1,88.000002685547,14|2,0:2|0:2,0:0:0:0:
436,136,164404,1,8,0:2:0:0:
436,136,164487,1,2,3:2:0:0:
331,237,164654,1,10,0:3:0:0:
477,316,164821,2,0,P|487:273|498:230,1,88.000002685547,10|10,0:3|0:2,0:0:0:0:
512,193,165071,1,8,0:2:0:0:
512,193,165154,1,10,0:2:0:0:
331,237,165321,6,0,P|256:248|201:152,1,176.000005371094,6|2,3:2|3:2,0:0:0:0:
352,49,165821,1,10,0:2:0:0:
287,165,165987,1,2,0:2:0:0:
169,95,166154,2,0,P|200:85|240:72,2,58.6666684570313,10|8|8,0:2|0:2|0:3,0:0:0:0:
117,208,166487,2,0,P|86:198|46:185,2,58.6666684570313,12|8|8,0:3|0:3|0:3,0:0:0:0:
191,308,166821,5,6,3:2:0:0:
331,237,171654,5,2,0:2:0:0:
331,237,171737,1,0,0:2:0:0:
331,237,171821,2,0,P|354:244|386:254,1,48,10|0,0:3|0:2,0:0:0:0:
457,271,172154,6,0,P|447:222|437:183,2,71.9999978027344,14|0|2,0:2|0:2|3:2,0:0:0:0:
506,143,172654,2,0,P|470:116|375:140,1,143.999995605469,2|2,0:2|3:2,0:0:0:0:
331,237,173154,1,0,3:2:0:0:
238,150,173321,1,2,3:2:0:0:
238,150,173404,1,8,0:2:0:0:
237,150,173487,6,0,P|246:115|255:80,1,71.9999978027344,0|10,3:2|0:2,0:0:0:0:
319,0,173737,1,8,0:2:0:0:
319,0,173821,2,0,P|327:35|336:69,1,71.9999978027344,2|10,3:2|0:2,0:0:0:0:
400,146,174071,1,8,0:2:0:0:
400,146,174154,2,0,P|408:110|417:76,1,71.9999978027344,8|10,0:2|0:2,0:0:0:0:
484,13,174404,1,8,0:2:0:0:
484,13,174487,2,0,P|492:48|501:82,1,71.9999978027344,10|10,0:2|0:2,0:0:0:0:
434,155,174737,1,8,0:2:0:0:
434,155,174821,6,0,P|415:149|389:143,3,35.9999989013672,12|0|10|8,0:3|3:2|0:3|0:3,0:0:0:0:
492,227,175154,1,10,0:3:0:0:
506,247,175237,1,8,0:3:0:0:
512,271,175320,1,10,0:2:0:0:
511,296,175404,1,8,0:2:0:0:
501,320,175487,2,0,L|438:304,1,35.9999989013672,10|8,0:3|0:3,0:0:0:0:
348,244,175654,2,0,L|411:228,1,35.9999989013672,8|8,0:3|0:3,0:0:0:0:
270,333,175821,2,0,L|207:317,1,35.9999989013672,10|8,0:2|0:2,0:0:0:0:
161,226,175987,1,6,3:2:0:0:
161,226,176987,6,0,P|171:183|182:145,2,71.9999978027344,2|2|2,0:2|0:2|0:2,0:0:0:0:
131,350,177487,5,14,0:2:0:0:
131,350,177654,1,2,0:2:0:0:
49,213,177821,1,10,0:2:0:0:
193,250,177987,2,0,B|301:281|301:281|364:219,1,176.000005371094,2|2,0:2|3:2,0:0:0:0:
427,126,178487,1,10,0:2:0:0:
304,65,178654,6,0,B|188:42|246:122|125:102,1,176.000005371094,2|2,3:2|0:2,0:0:0:0:
7,51,179154,1,10,0:2:0:0:
69,191,179321,2,0,P|140:241|221:209,1,176.000005371094,2|2,3:2|3:2,0:0:0:0:
307,100,179821,1,10,0:2:0:0:
151,150,179987,1,2,3:2:0:0:
285,268,180154,6,0,P|296:217|307:164,1,88.000002685547,14|2,0:2|0:2,0:0:0:0:
206,66,180487,1,10,0:2:0:0:
368,25,180654,2,0,B|418:83|418:83|368:197,1,176.000005371094,2|2,0:2|3:2,0:0:0:0:
311,307,181154,1,10,0:2:0:0:
207,183,181321,1,2,3:2:0:0:
157,347,181487,5,10,0:2:0:0:
157,347,181654,1,2,0:2:0:0:
280,227,181821,1,10,0:2:0:0:
110,241,181987,2,0,P|72:192|105:86,1,176.000005371094,2|2,3:2|3:2,0:0:0:0:
244,17,182487,2,0,P|230:67|217:117,1,88.000002685547,10|0,0:2|0:0,0:0:0:0:
108,204,182821,5,14,0:2:0:0:
108,204,182987,1,2,0:2:0:0:
219,291,183154,1,10,0:2:0:0:
322,168,183321,2,0,P|405:172|440:255,1,176.000005371094,2|2,0:2|3:2,0:0:0:0:
368,362,183821,1,10,0:2:0:0:
219,291,183987,6,0,B|117:248|117:248|50:305,1,176.000005371094,2|2,3:2|0:2,0:0:0:0:
146,373,184487,1,10,0:2:0:0:
247,275,184654,2,0,P|238:216|217:81,1,176.000005371094,2|2,3:2|3:2,0:0:0:0:
65,115,185154,1,10,0:2:0:0:
203,16,185321,1,2,3:2:0:0:
138,170,185487,6,0,P|95:159|52:149,1,88.000002685547,14|2,0:2|0:2,0:0:0:0:
180,31,185821,1,10,0:2:0:0:
180,31,185987,1,2,3:2:0:0:
250,152,186154,2,0,L|227:213,2,44.0000013427735,10|8|10,0:2|0:2|0:3,0:0:0:0:
297,26,186487,1,10,0:2:0:0:
378,187,186654,6,0,P|333:125|246:156,1,176.000005371094,6|10,3:2|0:2,0:0:0:0:
260,316,187154,1,8,0:2:0:0:
157,210,187321,1,10,0:2:0:0:
99,366,187487,2,0,P|84:312|66:259,1,88.000002685547,10|10,0:3|0:2,0:0:0:0:
64,247,187737,1,8,0:2:0:0:
64,247,187821,1,8,0:2:0:0:
184,310,187987,1,8,0:2:0:0:
184,310,188071,1,8,0:2:0:0:
184,310,188154,6,0,P|228:324|283:295,1,80,6|2,3:2|0:2,0:0:0:0:
371,249,188487,1,8,0:2:0:0:
460,379,188654,2,0,B|505:339|505:339|474:239,1,160,10|2,0:2|3:2,0:0:0:0:
436,133,189154,1,8,0:2:0:0:
333,228,189321,6,0,B|236:237|285:161|161:179,1,160,2|2,3:2|3:2,0:0:0:0:
64,247,189821,1,10,0:2:0:0:
91,89,189987,2,0,P|81:147|61:263,1,160,10|0,0:2|3:2,0:0:0:0:
188,176,190487,2,0,P|224:150|283:159,1,80,10|0,0:2|0:2,0:0:0:0:
371,249,190821,5,6,3:2:0:0:
371,249,190987,1,2,0:2:0:0:
446,115,191154,1,8,0:2:0:0:
285,157,191321,2,0,B|181:126|181:126|134:168,1,160,10|2,0:2|3:2,0:0:0:0:
56,252,191821,1,8,0:2:0:0:
160,372,191987,6,0,P|209:307|292:321,1,160,2|2,3:2|3:2,0:0:0:0:
387,383,192487,1,10,0:2:0:0:
486,258,192654,2,0,P|473:192|452:79,1,160,10|2,0:2|3:2,0:0:0:0:
354,21,193154,2,0,P|318:44|261:36,1,80,10|0,0:2|0:2,0:0:0:0:
188,176,193487,5,6,3:2:0:0:
134,15,193654,2,0,P|117:68|102:118,1,80,2|8,0:2|0:2,0:0:0:0:
64,232,193987,2,0,P|111:171|206:190,1,160,10|2,0:2|3:2,0:0:0:0:
285,251,194487,1,8,0:2:0:0:
166,380,194654,6,0,B|115:335|115:335|154:221,1,160,2|2,3:2|3:2,0:0:0:0:
285,251,195154,1,10,0:2:0:0:
192,143,195321,2,0,P|118:157|25:176,1,160,10|2,0:2|3:2,0:0:0:0:
69,321,195821,2,0,P|106:286|158:288,1,80,10|2,0:2|0:2,0:0:0:0:
266,373,196154,6,0,P|306:361|361:350,1,80,6|10,3:2|0:2,0:0:0:0:
446,233,196487,1,10,0:2:0:0:
316,217,196654,1,10,0:3:0:0:
441,341,196821,2,0,P|460:297|451:256,1,80,10|8,0:2|0:2,0:0:0:0:
446,233,197071,1,8,0:2:0:0:
446,233,197154,1,10,0:2:0:0:
344,127,197321,6,0,B|249:162|249:162|194:129,1,160,6|10,3:2|0:2,0:0:0:0:
97,59,197821,1,10,0:3:0:0:
254,0,197987,1,10,0:2:0:0:
198,131,198154,2,0,P|208:183|217:237,1,80,14|0,0:2|3:2,0:0:0:0:
221,251,198404,1,0,3:2:0:0:
221,251,198487,2,0,L|165:272,2,40,8|8|0,0:2|0:2|3:2,0:0:0:0:
383,220,198987,6,0,P|421:227|462:236,2,64,2|2|2,0:2|0:2|0:2,0:0:0:0:
326,305,199487,2,0,P|297:320|261:316,1,64,2|2,0:2|0:2,0:0:0:0:
153,222,199821,2,0,P|182:207|218:211,1,64,2|2,0:2|0:2,0:0:0:0:
326,305,200321,5,10,0:2:0:0:
326,305,200487,1,10,0:2:0:0:
402,187,200654,1,10,0:2:0:0:
257,216,200821,2,0,P|247:176|223:90,1,120,10|0,0:2|3:2,0:0:0:0:
215,66,201154,2,0,P|182:35|106:71,1,120,14|0,0:2|0:2,0:0:0:0:
88,148,201487,6,0,B|179:122|157:192|265:154,1,160,14|10,0:2|0:2,0:0:0:0:
375,52,201987,2,0,P|320:36|285:26,1,80,2|8,0:2|0:2,0:0:0:0:
402,187,202321,2,0,P|440:175|478:164,1,80,2|8,3:2|0:2,0:0:0:0:
366,312,202654,6,0,P|313:250|238:276,1,160,2|2,3:2|0:2,0:0:0:0:
152,383,203154,1,10,0:2:0:0:
152,383,203321,2,0,P|130:304|101:222,1,160,2|2,3:2|3:2,0:0:0:0:
245,121,203821,2,0,P|218:174|207:214,1,80,10|2,0:2|3:2,0:0:0:0:
29,167,204154,6,0,P|78:132|120:133,1,80,14|2,0:2|0:2,0:0:0:0:
211,193,204487,1,10,0:2:0:0:
333,95,204654,2,0,P|266:33|198:43,1,160,2|2,3:2|3:2,0:0:0:0:
211,193,205154,2,0,P|260:191|309:183,1,80,10|2,0:2|3:2,0:0:0:0:
440,142,205487,5,10,0:2:0:0:
440,142,205654,1,2,0:2:0:0:
396,288,205820,1,10,0:2:0:0:
290,186,205987,2,0,P|241:173|177:260,1,160,2|2,3:2|3:2,0:0:0:0:
244,351,206487,2,0,P|297:335|352:327,1,80,10|2,0:2|0:2,0:0:0:0:
461,226,206821,5,14,0:2:0:0:
461,226,206987,1,0,0:0:0:0:
329,175,207154,1,10,0:2:0:0:
351,343,207321,2,0,P|372:273|386:239,1,80,2|8,0:2|0:2,0:0:0:0:
201,177,207654,2,0,P|214:214|224:253,1,80,2|8,3:2|0:2,0:0:0:0:
281,116,207987,6,0,P|207:70|119:118,1,160,2|2,3:2|0:2,0:0:0:0:
67,221,208487,1,10,0:2:0:0:
67,221,208654,2,0,P|150:237|245:258,1,160,2|2,3:2|3:2,0:0:0:0:
350,126,209154,2,0,P|285:133|246:140,1,80,10|2,0:2|3:2,0:0:0:0:
180,242,209487,5,14,0:2:0:0:
117,111,209654,1,2,0:2:0:0:
117,111,209737,1,8,0:2:0:0:
117,111,209821,2,0,P|127:63|139:27,1,80,10|10,0:2|0:3,0:0:0:0:
270,135,210154,1,10,0:3:0:0:
108,197,210321,1,10,0:2:0:0:
108,197,210404,1,8,0:2:0:0:
108,197,210487,1,10,0:2:0:0:
226,315,210654,6,0,P|289:263|366:283,1,160,6|10,3:2|0:2,0:0:0:0:
471,333,211154,1,10,0:2:0:0:
380,187,211321,1,10,0:2:0:0:
306,347,211487,2,0,B|226:328|234:381|143:361,1,160,14|8,0:2|0:2,0:0:0:0:
121,356,211904,1,8,0:2:0:0:
121,356,211987,1,0,3:2:0:0:
63,233,212321,6,0,P|74:201|84:173,2,55.9999982910157,2|2|2,0:2|0:2|0:2,0:0:0:0:
22,118,212821,2,0,P|62:95|96:95,1,55.9999982910157,2|2,0:2|0:2,0:0:0:0:
160,175,213154,1,2,0:2:0:0:
160,175,213321,1,2,0:2:0:0:
286,60,213654,5,10,0:2:0:0:
160,175,213821,1,10,0:2:0:0:
346,194,213987,1,10,0:2:0:0:
201,93,214154,1,10,0:2:0:0:
292,270,214321,1,0,0:0:0:0:
292,270,214404,1,0,0:0:0:0:
292,270,214487,6,0,P|358:286|432:219,1,160,14|0,0:2|0:0,0:0:0:0:
