osu file format v14

[General]
AudioFilename: audio.mp3
AudioLeadIn: 0
PreviewTime: 54071
Countdown: 0
SampleSet: Soft
StackLeniency: 0.4
Mode: 0
LetterboxInBreaks: 0
WidescreenStoryboard: 1

[Editor]
Bookmarks: 1488,7991,8158,12160,22833,33505,44178,54154,54850,78821,100154,110821,121487,132154,145487,156154,166821,172154,201487
DistanceSpacing: 1.5
BeatDivisor: 4
GridSize: 32
TimelineZoom: 1.3

[Metadata]
Title:Heroine Ikusei Keikaku feat. Suzumi Hiyori (CV: Minase Inori)
TitleUnicode:ヒロイン育成計画 feat. 涼海ひより(CV:水瀬いのり)
Artist:HoneyWorks
ArtistUnicode:HoneyWorks
Creator:sanairrt
Version:Chu's Hard
Source:
Tags:好きすぎてやばい。〜告白実行委員会キャラクターソング集〜 hiroin suki sugite yabai kokuhaku jikkou iinkai Character Song Shu Japanese pop jpop j-pop ハニーワークス ハニワ Haniwa Premium Live プレミアムライブ ハニプレ arronchu1207 Oriental not dt farmer
BeatmapID:2965563
BeatmapSetID:1441554

[Difficulty]
HPDrainRate:4.6
CircleSize:3.8
OverallDifficulty:6.5
ApproachRate:8
SliderMultiplier:1.3
SliderTickRate:1

[Events]
//Background and Video events
0,0,"seax.jpg",0,0
Video,0,"xviwdw.mp4"
//Break Periods
2,167021,171405
//Storyboard Layer 0 (Background)
//Storyboard Layer 1 (Fail)
//Storyboard Layer 2 (Pass)
//Storyboard Layer 3 (Foreground)
//Storyboard Layer 4 (Overlay)
//Storyboard Sound Samples

[TimingPoints]
822,333.333333333333,4,2,2,40,1,0
822,-111.111111111111,4,2,2,40,0,0
1488,333.333333333333,4,2,2,40,1,0
1488,-125,4,2,2,40,0,0
6821,-111.111111111111,4,2,2,60,0,0
11821,-76.9230769230769,4,2,2,70,0,0
12071,-76.9230769230769,4,2,2,5,0,0
12154,-100,4,2,2,80,0,0
22821,-125,4,2,2,50,0,0
27737,-125,4,2,2,5,0,0
27821,-125,4,2,2,60,0,0
30737,-125,4,2,2,5,0,0
30821,-125,4,2,2,60,0,0
32154,-100,4,2,2,70,0,0
33487,-100,4,2,2,65,0,0
44154,-200,4,2,2,50,0,0
49487,-125,4,2,2,50,0,0
53821,-125,4,2,2,50,0,0
54821,-90.9090909090909,4,2,2,80,0,1
59821,-90.9090909090909,4,2,2,80,0,0
60071,-90.9090909090909,4,2,2,5,0,0
60154,-90.9090909090909,4,2,2,80,0,1
64321,-90.9090909090909,4,2,2,80,0,1
65487,-100,4,2,2,80,0,0
70737,-100,4,2,2,5,0,0
70821,-100,4,2,2,80,0,0
76321,-100,4,2,2,80,0,0
77654,-100,4,2,2,90,0,0
78487,-100,4,2,2,80,0,0
78737,-100,4,2,2,5,0,0
78821,-100,4,2,2,80,0,0
89487,-125,4,2,2,50,0,0
91904,-125,4,2,2,5,0,0
91987,-125,4,2,2,50,0,0
92404,-125,4,2,2,5,0,0
92487,-125,4,2,2,50,0,0
94654,-125,4,2,2,50,0,0
94821,-125,4,2,2,60,0,0
98821,-166.666666666667,4,2,2,60,0,0
100154,-100,4,2,2,60,0,0
110821,-200,4,2,2,50,0,0
116154,-125,4,2,2,50,0,0
118737,-125,4,2,2,5,0,0
118821,-125,4,2,2,60,0,0
121154,-100,4,2,2,90,0,0
121404,-100,4,2,2,5,0,0
121487,-90.9090909090909,4,2,2,80,0,1
126487,-90.9090909090909,4,2,2,80,0,0
126737,-90.9090909090909,4,2,2,5,0,0
126821,-90.9090909090909,4,2,2,80,0,1
130987,-90.9090909090909,4,2,2,80,0,1
132154,-100,4,2,2,80,0,0
137404,-100,4,2,2,5,0,0
137487,-100,4,2,2,80,0,0
142987,-100,4,2,2,80,0,0
144321,-100,4,2,2,90,0,0
145154,-100,4,2,2,80,0,0
145404,-100,4,2,2,5,0,0
145487,-100,4,2,2,75,0,0
156154,-90.9090909090909,4,2,2,75,0,1
166487,-90.9090909090909,4,2,2,45,0,1
166821,-100,4,2,2,50,0,0
171654,-100,4,2,2,50,0,0
171821,-100,4,2,2,50,0,0
172154,-100,4,2,2,60,0,0
173321,-100,4,2,2,45,0,0
173654,-100,4,2,2,50,0,0
173987,-100,4,2,2,60,0,0
174321,-100,4,2,2,70,0,0
175487,-100,4,2,2,90,0,0
176321,-100,4,2,2,70,0,0
177487,-90.9090909090909,4,2,2,80,0,1
182487,-100,4,2,2,80,0,0
182737,-100,4,2,2,5,0,0
182821,-90.9090909090909,4,2,2,80,0,1
186987,-90.9090909090909,4,2,2,80,0,1
188154,-100,4,2,2,80,0,0
200321,-100,4,2,2,90,0,0
201154,-100,4,2,2,90,0,0
201404,-100,4,2,2,5,0,0
201487,-100,4,2,2,70,0,0
212321,-100,4,2,2,70,0,0
213654,-100,4,2,2,90,0,0
214487,-83.3333333333333,4,2,2,100,0,0
214821,-83.3333333333333,4,2,2,5,0,0

[Colours]
Combo1 : 128,255,128
Combo2 : 255,128,192
Combo3 : 0,128,192
Combo4 : 128,64,64

[HitObjects]
99,103,822,6,0,B|120:78|152:74|152:74|174:96|216:95,1,116.999996429443,2|2,0:2|0:0,0:0:0:0:
202,96,1488,6,0,P|235:93|257:100,1,52,6|0,3:2|0:0,0:0:0:0:
327,134,1821,1,10,0:2:0:0:
327,134,1988,2,0,L|317:253,1,104,10|2,0:2|3:2,0:0:0:0:
370,302,2488,1,10,0:2:0:0:
370,302,2655,6,0,P|410:319|469:304,1,104,2|0,0:2|0:0,0:0:0:0:
511,240,3155,1,10,0:2:0:0:
511,240,3321,1,10,0:2:0:0:
450,96,3655,2,0,L|395:106,1,52,2|10,3:2|0:2,0:0:0:0:
338,55,3988,6,0,L|231:44,1,104,2|2,0:2|0:2,0:0:0:0:
168,86,4488,1,10,0:2:0:0:
168,86,4655,2,0,P|152:137|177:188,1,104,10|2,0:2|3:2,0:0:0:0:
241,214,5155,2,0,L|301:205,1,52,10|2,0:2|0:2,0:0:0:0:
344,264,5488,6,0,L|335:324,1,52,2|2,3:2|3:2,0:0:0:0:
270,358,5821,1,10,0:2:0:0:
270,358,5988,2,0,P|228:333|171:338,1,104,10|2,0:2|3:2,0:0:0:0:
113,287,6488,2,0,L|120:232,1,52,10|0,0:2|0:0,0:0:0:0:
179,170,6821,5,2,3:2:0:0:
179,170,6988,2,0,L|170:107,1,58.4999982147217,2|2,0:2|3:2,0:0:0:0:
229,45,7321,2,0,P|262:72|356:67,1,116.999996429443,2|2,0:2|0:2,0:0:0:0:
419,57,7821,1,2,3:2:0:0:
419,57,7988,6,0,L|401:189,1,116.999996429443,2|2,0:2|0:2,0:0:0:0:
333,227,8488,1,2,3:2:0:0:
333,227,8655,2,0,L|351:359,1,116.999996429443,2|2,0:2|0:2,0:0:0:0:
270,382,9155,1,2,3:2:0:0:
207,319,9321,1,2,0:2:0:0:
207,319,9488,6,0,L|216:253,1,58.4999982147217,8|2,0:3|0:2,0:0:0:0:
119,217,9821,2,0,L|127:275,1,58.4999982147217,2|2,3:2|3:2,0:0:0:0:
232,172,10155,1,10,0:2:0:0:
232,172,10321,1,10,0:2:0:0:
109,125,10488,1,10,0:2:0:0:
109,125,10655,1,14,0:2:0:0:
109,125,11821,6,0,B|156:136|156:136|177:129|177:129|244:141,1,126.749994197846,2|0,0:2|0:2,0:0:0:0:
264,174,12155,6,0,L|272:247,1,65,14|0,0:2|0:0,0:0:0:0:
344,302,12488,1,10,0:2:0:0:
434,266,12655,2,0,P|452:215|448:192,1,65,2|8,0:2|0:2,0:0:0:0:
404,119,12988,2,0,P|386:68|390:45,1,65,2|8,3:2|0:2,0:0:0:0:
305,3,13321,6,0,P|273:33|169:31,1,130,2|2,3:2|0:2,0:0:0:0:
94,24,13821,1,10,0:2:0:0:
94,24,13988,2,0,P|106:78|119:167,1,130,2|2,3:2|3:2,0:0:0:0:
162,244,14488,1,10,0:2:0:0:
162,244,14655,6,0,B|199:221|199:221|297:235,1,130,2|2,3:2|0:2,0:0:0:0:
384,252,15155,1,10,0:2:0:0:
384,252,15321,2,0,L|399:114,1,130,2|2,0:2|3:2,0:0:0:0:
344,40,15821,2,0,L|272:48,1,65,10|2,0:2|3:2,0:0:0:0:
218,123,16155,6,0,L|146:115,1,65,10|2,0:2|0:2,0:0:0:0:
64,156,16488,1,10,0:2:0:0:
64,156,16655,2,0,B|48:195|48:195|71:292,1,130,2|2,3:2|3:2,0:0:0:0:
142,344,17155,1,10,0:2:0:0:
209,273,17321,1,2,0:2:0:0:
284,334,17488,6,0,L|356:326,1,65,14|0,0:2|0:0,0:0:0:0:
443,303,17821,1,10,0:2:0:0:
443,303,17988,2,0,P|455:256|450:229,1,65,2|8,0:2|0:2,0:0:0:0:
377,177,18321,2,0,P|365:130|370:103,1,65,2|8,3:2|0:2,0:0:0:0:
421,32,18655,6,0,P|359:16|288:56,1,130,2|2,3:2|0:2,0:0:0:0:
233,112,19155,1,10,0:2:0:0:
233,112,19321,2,0,L|85:92,1,130,2|2,3:2|3:2,0:0:0:0:
26,153,19821,2,0,L|37:228,1,65,10|2,0:2|3:2,0:0:0:0:
113,276,20155,5,14,0:2:0:0:
113,276,20321,2,0,L|104:358,1,65,2|10,3:2|0:2,0:0:0:0:
194,382,20655,1,2,3:2:0:0:
261,311,20821,2,0,L|256:271,2,32.5,10|8|10,0:2|0:2|0:3,0:0:0:0:
341,365,21155,1,10,0:2:0:0:
399,286,21321,1,6,3:2:0:0:
399,286,21655,5,10,0:2:0:0:
358,178,21821,1,10,0:2:0:0:
466,137,21988,1,10,0:2:0:0:
507,245,22155,1,14,0:2:0:0:
507,245,22488,6,0,L|501:287,2,32.5,8|8|8,0:2|0:2|0:3,0:0:0:0:
453,187,22821,6,0,L|445:131,2,52,6|0|0,3:2|0:0|3:2,0:0:0:0:
453,187,23488,2,0,P|421:207|343:192,1,104,0|0,3:2|3:2,0:0:0:0:
299,149,23988,1,2,0:2:0:0:
250,210,24155,6,0,L|257:279,2,52,0|0|0,3:2|0:0|3:2,0:0:0:0:
250,210,24821,2,0,L|264:100,1,104,0|0,3:2|3:2,0:0:0:0:
222,40,25321,1,2,0:2:0:0:
154,79,25488,6,0,L|96:84,2,52,0|0|0,3:2|0:0|3:2,0:0:0:0:
154,79,26155,2,0,P|195:55|257:55,1,104,0|0,3:2|3:2,0:0:0:0:
308,105,26655,1,2,0:2:0:0:
372,61,26821,6,0,L|382:2,2,52,0|0|0,3:2|0:0|3:2,0:0:0:0:
372,61,27488,2,0,L|381:147,1,78,0|0,3:2|0:0,0:0:0:0:
401,171,27821,2,0,L|396:239,1,52,2|0,3:2|0:2,0:0:0:0:
343,279,28155,6,0,P|302:280|287:275,1,52,2|2,3:2|0:2,0:0:0:0:
236,221,28488,1,10,0:2:0:0:
236,221,28655,2,0,L|126:233,1,104,2|2,0:2|0:2,0:0:0:0:
67,189,29155,1,8,0:2:0:0:
115,128,29321,1,2,0:2:0:0:
115,128,29488,6,0,P|100:90|122:23,1,104,2|10,3:2|0:2,0:0:0:0:
269,5,30155,2,0,L|325:13,1,52,2|8,3:2|0:2,0:0:0:0:
371,71,30488,1,8,0:2:0:0:
271,191,30821,5,2,3:2:0:0:
271,191,30988,2,0,P|266:226|277:248,1,52,2|10,0:2|0:2,0:0:0:0:
295,315,31321,2,0,P|248:322|211:375,1,104,2|2,0:2|0:2,0:0:0:0:
138,341,31821,2,0,L|127:286,1,52,10|2,0:2|0:2,0:0:0:0:
37,245,32155,6,0,L|28:322,1,65,14|0,0:2|3:2,0:0:0:0:
122,189,32488,2,0,L|59:142,1,65,14|0,0:2|3:2,0:0:0:0:
127,290,32821,2,0,L|198:259,1,65,10|8,0:2|0:2,0:0:0:0:
251,191,33155,2,0,L|289:197,3,32.5,8|8|8|8,0:2|0:3|0:3|0:3,0:0:0:0:
327,176,33488,6,0,P|318:137|330:105,1,65,6|2,3:2|0:2,0:0:0:0:
400,50,33821,2,0,P|365:64|282:28,1,130,8|0,0:2|3:2,0:0:0:0:
190,1,34321,1,2,3:2:0:0:
129,76,34488,2,0,L|139:142,1,65,8|2,0:2|0:2,0:0:0:0:
100,230,34821,5,0,3:2:0:0:
100,230,34988,1,2,0:2:0:0:
5,206,35155,2,0,L|17:62,1,130,8|0,0:2|3:2,0:0:0:0:
84,7,35655,1,10,0:2:0:0:
154,74,35821,2,0,P|193:89|226:85,1,65,8|2,0:2|0:2,0:0:0:0:
298,36,36155,5,0,3:2:0:0:
298,36,36321,1,2,0:2:0:0:
355,113,36488,2,0,L|345:255,1,130,8|0,0:2|3:2,0:0:0:0:
422,303,36988,1,2,3:2:0:0:
501,246,37155,2,0,L|495:175,1,65,8|2,0:2|0:2,0:0:0:0:
449,94,37488,5,0,3:2:0:0:
449,94,37655,1,2,0:2:0:0:
367,147,37821,2,0,P|322:155|250:103,1,130,8|2,0:2|3:2,0:0:0:0:
208,25,38321,1,10,0:2:0:0:
117,59,38488,2,0,L|125:137,1,65,10|2,0:2|0:2,0:0:0:0:
190,195,38821,6,0,L|185:271,1,65,6|0,3:2|0:0,0:0:0:0:
115,327,39155,1,10,0:2:0:0:
115,327,39321,2,0,P|70:328|20:244,1,130,2|2,0:2|3:2,0:0:0:0:
42,172,39821,2,0,L|114:180,1,65,8|2,0:2|0:2,0:0:0:0:
171,106,40155,6,0,L|303:95,1,130,2|10,3:2|0:2,0:0:0:0:
376,34,40655,1,0,0:2:0:0:
429,115,40821,2,0,P|416:162|415:191,1,65,2|8,3:2|0:2,0:0:0:0:
479,251,41155,2,0,P|492:298|493:327,1,65,8|0,0:2|0:2,0:0:0:0:
419,378,41488,5,2,3:2:0:0:
419,378,41655,2,0,L|348:366,1,65,2|8,0:2|0:2,0:0:0:0:
295,289,41988,2,0,L|311:153,1,130,2|2,0:2|3:2,0:0:0:0:
263,73,42488,1,10,0:2:0:0:
180,124,42655,1,2,3:2:0:0:
124,43,42821,6,0,P|86:39|57:57,1,65,14|0,0:2|3:2,0:0:0:0:
4,129,43155,2,0,L|13:204,1,65,14|0,0:2|0:2,0:0:0:0:
89,252,43488,1,10,0:2:0:0:
89,252,43655,1,8,0:3:0:0:
168,195,43821,2,0,P|199:193|242:211,1,65,8|0,0:3|0:0,0:0:0:0:
286,284,44155,6,0,L|423:275,1,130,6|2,3:2|0:2,0:0:0:0:
504,233,45155,1,0,3:2:0:0:
441,125,45488,6,0,B|418:99|383:94|383:94|357:118|315:114,1,130,2|2,3:2|0:2,0:0:0:0:
321,16,46488,1,0,0:2:0:0:
192,73,46821,6,0,L|209:213,1,130,2|2,3:2|0:2,0:0:0:0:
262,282,47821,1,0,3:2:0:0:
147,348,48155,6,0,P|116:318|32:311,1,130,2|10,3:2|0:2,0:0:0:0:
3,217,49155,2,0,L|12:172,1,32.5,2|0,0:2|0:2,0:0:0:0:
31,100,49488,5,2,3:2:0:0:
31,100,49821,2,0,L|24:54,2,34.6666666666667,10|8|8,0:2|0:2|0:2,0:0:0:0:
62,114,50155,1,8,0:2:0:0:
136,47,50488,1,0,3:2:0:0:
197,125,50821,6,0,P|236:144|294:136,1,104,2|8,3:2|0:2,0:0:0:0:
367,61,51488,1,8,0:2:0:0:
396,162,51821,2,0,L|382:222,1,52,2|2,0:2|0:2,0:0:0:0:
360,294,52155,5,2,3:2:0:0:
360,294,52488,2,0,L|366:338,2,34.6666666666667,10|8|8,0:2|0:2|0:2,0:0:0:0:
330,275,52821,1,10,0:2:0:0:
253,350,53155,1,10,0:2:0:0:
125,264,53488,5,2,0:2:0:0:
125,264,54821,6,0,P|116:223|123:183,1,71.5000021820069,14|2,0:2|0:2,0:0:0:0:
174,110,55155,1,10,0:2:0:0:
174,110,55321,2,0,L|317:126,1,143.000004364014,2|2,0:2|3:2,0:0:0:0:
386,54,55821,1,10,0:2:0:0:
386,54,55988,6,0,B|432:74|432:74|407:180,1,143.000004364014,2|2,3:2|0:2,0:0:0:0:
332,227,56488,1,10,0:2:0:0:
332,227,56655,2,0,L|342:301,1,71.5000021820069,2|8,3:2|0:2,0:0:0:0:
279,376,56988,1,2,3:2:0:0:
279,376,57155,1,10,0:2:0:0:
198,316,57321,6,0,P|165:310|119:326,1,71.5000021820069,2|14,3:2|0:2,0:0:0:0:
38,359,57655,1,2,0:2:0:0:
38,359,57821,1,10,0:2:0:0:
6,264,57988,2,0,L|16:185,1,71.5000021820069,2|8,0:2|0:2,0:0:0:0:
101,139,58321,1,2,3:2:0:0:
101,139,58488,1,10,0:2:0:0:
50,52,58655,1,2,3:2:0:0:
136,1,58821,6,0,P|175:6|205:27,1,71.5000021820069,10|2,0:2|0:2,0:0:0:0:
244,113,59155,1,10,0:2:0:0:
244,113,59321,2,0,L|390:98,1,143.000004364014,2|2,3:2|3:2,0:0:0:0:
464,158,59821,2,0,P|485:202|467:270,1,107.25000327301,10|0,0:2|0:0,0:0:0:0:
450,271,60155,6,0,L|374:259,1,71.5000021820069,14|2,0:2|0:2,0:0:0:0:
299,302,60488,1,10,0:2:0:0:
299,302,60655,2,0,L|155:320,1,143.000004364014,2|2,0:2|3:2,0:0:0:0:
75,261,61155,1,10,0:2:0:0:
75,261,61321,6,0,B|52:229|59:195|59:195|88:164|84:125,1,143.000004364014,2|2,3:2|0:2,0:0:0:0:
68,34,61821,1,10,0:2:0:0:
68,34,61988,2,0,L|140:26,1,71.5000021820069,2|8,3:2|0:2,0:0:0:0:
241,8,62321,1,2,3:2:0:0:
241,8,62488,1,10,0:2:0:0:
295,92,62655,6,0,P|281:139|281:167,1,71.5000021820069,2|14,3:2|0:2,0:0:0:0:
337,249,62988,1,2,0:2:0:0:
337,249,63155,1,10,0:2:0:0:
427,204,63321,1,2,3:2:0:0:
476,290,63488,2,0,L|511:283,2,35.7500010910034,10|8|10,0:2|0:2|0:3,0:0:0:0:
400,357,63821,1,10,0:2:0:0:
337,249,63988,6,0,L|345:131,1,107.25000327301,6|0,3:2|0:0,0:0:0:0:
324,119,64321,2,0,L|317:45,1,71.5000021820069,10|8,0:2|0:2,0:0:0:0:
224,63,64655,1,10,0:3:0:0:
224,63,64738,1,8,0:2:0:0:
224,63,64821,2,0,L|230:135,1,71.5000021820069,2|10,3:2|0:2,0:0:0:0:
167,212,65155,2,0,L|163:258,3,35.7500010910034,8|8|8|8,0:3|0:3|0:3|0:3,0:0:0:0:
159,296,65488,6,0,P|123:297|75:330,1,65,6|2,3:2|0:2,0:0:0:0:
9,351,65821,1,10,0:2:0:0:
0,246,65988,2,0,B|21:214|21:214|10:122,1,130,10|2,0:2|3:2,0:0:0:0:
63,49,66488,1,10,0:2:0:0:
63,49,66655,6,0,B|92:44|119:67|119:67|154:71|186:40,1,130,2|2,3:2|3:2,0:0:0:0:
266,78,67155,1,10,0:2:0:0:
266,78,67321,2,0,P|247:127|272:200,1,130,10|2,0:2|3:2,0:0:0:0:
341,254,67821,1,10,0:2:0:0:
415,201,67988,1,2,0:2:0:0:
490,252,68155,6,0,L|484:335,1,65,6|2,3:2|0:2,0:0:0:0:
417,377,68488,1,10,0:2:0:0:
417,377,68655,2,0,B|390:347|390:347|288:355,1,130,10|2,0:2|3:2,0:0:0:0:
223,305,69155,2,0,P|214:264|221:235,1,65,10|2,0:2|3:2,0:0:0:0:
276,171,69488,6,0,P|285:130|278:101,1,65,2|2,0:2|3:2,0:0:0:0:
229,31,69821,1,10,0:2:0:0:
229,31,69988,2,0,L|92:40,1,130,10|2,0:2|3:2,0:0:0:0:
39,108,70488,2,0,B|20:146|20:146|32:207,1,97.5,10|0,0:2|0:0,0:0:0:0:
53,224,70821,6,0,L|46:294,1,65,6|2,3:2|0:2,0:0:0:0:
129,325,71155,1,10,0:2:0:0:
129,325,71321,2,0,L|135:260,1,65,10|0,0:2|0:0,0:0:0:0:
198,194,71655,2,0,P|236:188|263:198,1,65,2|8,3:2|0:2,0:0:0:0:
334,144,71988,6,0,L|320:3,1,130,2|2,3:2|3:2,0:0:0:0:
411,1,72488,1,10,0:2:0:0:
411,1,72655,2,0,L|419:69,1,65,10|0,0:2|0:2,0:0:0:0:
488,123,72988,1,2,3:2:0:0:
432,195,73155,1,10,0:2:0:0:
498,257,73321,6,0,P|502:303|433:351,1,130,2|2,3:2|3:2,0:0:0:0:
361,307,73821,2,0,L|293:314,1,65,10|2,0:2|3:2,0:0:0:0:
229,375,74155,1,10,0:3:0:0:
170,305,74321,2,0,L|175:268,2,32.5,10|8|10,0:2|0:2|0:2,0:0:0:0:
99,362,74655,1,6,3:2:0:0:
99,362,74988,6,0,L|89:286,1,65,10|10,0:2|0:2,0:0:0:0:
9,265,75321,1,10,0:2:0:0:
9,265,75488,1,10,0:2:0:0:
63,191,75655,2,0,L|96:194,2,32.5,0|8|0,0:2|0:2|3:2,0:0:0:0:
76,86,76321,6,0,L|6:93,2,65,2|2|2,0:2|0:2|0:2,0:0:0:0:
146,22,76821,2,0,L|216:29,2,65,2|2|2,0:2|0:2|0:2,0:0:0:0:
169,118,77321,1,2,0:2:0:0:
169,118,77655,5,10,0:2:0:0:
282,96,77821,1,10,0:2:0:0:
304,209,77988,1,10,0:2:0:0:
190,231,78155,1,10,0:2:0:0:
190,231,78321,2,0,L|140:224,2,32.5,0|0|14,3:2|0:0|0:2,0:0:0:0:
190,231,78821,6,0,P|231:215|305:262,1,130,14|10,0:2|0:2,0:0:0:0:
390,213,79321,2,0,L|375:138,1,65,2|8,0:2|0:2,0:0:0:0:
440,75,79655,2,0,L|455:0,1,65,2|8,3:2|0:2,0:0:0:0:
356,27,79988,6,0,B|289:16|299:63|229:50,1,130,2|2,3:2|0:2,0:0:0:0:
143,20,80488,1,10,0:2:0:0:
143,20,80655,2,0,L|166:161,1,130,2|2,3:2|3:2,0:0:0:0:
242,214,81155,1,10,0:2:0:0:
242,214,81321,6,0,P|286:208|347:280,1,130,2|2,3:2|0:2,0:0:0:0:
305,354,81821,1,10,0:2:0:0:
305,354,81988,2,0,L|167:339,1,130,2|2,0:2|3:2,0:0:0:0:
79,326,82488,2,0,P|68:295|71:254,1,65,10|2,0:2|3:2,0:0:0:0:
140,197,82821,5,10,0:2:0:0:
140,197,82988,2,0,P|151:166|148:125,1,65,2|10,0:2|0:2,0:0:0:0:
104,47,83321,2,0,B|143:31|143:31|240:54,1,130,2|2,3:2|3:2,0:0:0:0:
291,126,83821,1,10,0:2:0:0:
220,193,83988,1,2,0:2:0:0:
281,268,84155,6,0,L|273:340,1,65,14|0,0:2|0:0,0:0:0:0:
364,382,84488,1,10,0:2:0:0:
364,382,84655,2,0,P|406:380|435:363,1,65,2|8,0:2|0:2,0:0:0:0:
491,297,84988,2,0,P|503:250|498:223,1,65,2|8,3:2|0:2,0:0:0:0:
459,145,85321,6,0,P|397:129|326:169,1,130,2|2,3:2|0:2,0:0:0:0:
258,210,85821,1,10,0:2:0:0:
258,210,85988,2,0,L|238:62,1,130,2|2,3:2|3:2,0:0:0:0:
144,99,86488,2,0,L|155:174,1,65,10|2,0:2|3:2,0:0:0:0:
115,255,86821,5,14,0:2:0:0:
115,255,86988,2,0,L|106:337,1,65,2|10,3:2|0:2,0:0:0:0:
186,377,87321,1,2,3:2:0:0:
253,306,87488,2,0,L|248:266,2,32.5,10|8|10,0:2|0:2|0:3,0:0:0:0:
333,360,87821,1,10,0:2:0:0:
391,281,87988,1,6,3:2:0:0:
391,281,88321,5,10,0:3:0:0:
350,173,88488,1,10,0:3:0:0:
458,132,88655,1,10,0:2:0:0:
499,240,88821,2,0,L|494:351,1,97.5,10|8,0:2|0:2,0:0:0:0:
474,358,89155,1,8,0:2:0:0:
401,315,89321,1,8,0:2:0:0:
401,315,89405,1,8,0:2:0:0:
401,315,89488,6,0,P|363:308|336:315,2,52,6|0|0,3:2|0:0|3:2,0:0:0:0:
401,315,90155,2,0,L|387:204,1,104,0|0,3:2|3:2,0:0:0:0:
345,146,90655,1,2,0:2:0:0:
274,179,90821,6,0,L|206:182,2,52,0|0|0,3:2|0:0|3:2,0:0:0:0:
274,179,91488,2,0,P|290:129|281:77,1,104,0|0,3:2|3:2,0:0:0:0:
218,34,91988,1,2,0:2:0:0:
147,67,92155,6,0,P|110:57|95:44,2,52,0|0|0,3:2|0:0|3:2,0:0:0:0:
147,67,92821,2,0,L|137:181,1,104,0|0,3:2|3:2,0:0:0:0:
66,203,93321,1,2,0:2:0:0:
97,273,93488,6,0,L|103:332,2,52,0|0|0,3:2|0:0|3:2,0:0:0:0:
97,273,94155,2,0,P|131:262|184:282,1,78,0|2,3:2|0:2,0:0:0:0:
202,294,94488,2,0,L|261:288,1,52,2|0,3:2|0:2,0:0:0:0:
324,254,94821,6,0,P|325:213|320:198,1,52,6|0,3:2|0:2,0:0:0:0:
256,169,95155,1,10,0:2:0:0:
256,169,95321,2,0,L|244:59,1,104,2|2,0:2|0:2,0:0:0:0:
288,1,95821,1,8,0:2:0:0:
356,48,95988,1,2,0:2:0:0:
356,48,96155,6,0,P|394:33|461:55,1,104,2|10,3:2|0:2,0:0:0:0:
473,202,96821,2,0,L|465:258,1,52,2|8,3:2|0:2,0:0:0:0:
503,321,97155,1,8,0:2:0:0:
356,281,97488,5,2,3:2:0:0:
356,281,97655,2,0,P|321:276|299:287,1,52,10|10,0:3|0:3,0:0:0:0:
235,316,97988,2,0,L|239:356,2,26,8|8|8,0:2|0:2|0:2,0:0:0:0:
239,237,98321,1,8,0:2:0:0:
239,237,98405,1,8,0:2:0:0:
239,237,98488,2,8,L|183:230,1,52,8|2,0:2|3:2,0:0:0:0:
114,258,98821,6,0,L|33:247,2,77.999997619629,2|2|2,0:2|0:2|0:2,0:0:0:0:
114,258,100155,6,0,P|123:219|111:187,1,65,6|2,3:2|0:2,0:0:0:0:
41,132,100488,2,0,P|76:146|159:110,1,130,8|0,0:2|3:2,0:0:0:0:
218,36,100988,1,2,3:2:0:0:
294,96,101155,2,0,L|284:162,1,65,8|2,0:2|0:2,0:0:0:0:
358,232,101488,5,0,3:2:0:0:
358,232,101655,1,2,0:2:0:0:
453,208,101821,2,0,L|441:64,1,130,8|0,0:2|3:2,0:0:0:0:
441,65,102238,1,8,0:2:0:0:
440,53,102321,1,2,3:2:0:0:
347,66,102488,2,0,P|314:65|285:52,1,65,8|2,0:2|0:2,0:0:0:0:
198,17,102821,5,0,3:2:0:0:
198,17,102988,1,2,0:2:0:0:
141,94,103155,2,0,L|151:236,1,130,8|0,0:2|3:2,0:0:0:0:
237,267,103655,1,2,3:2:0:0:
179,346,103821,2,0,P|147:339|108:352,1,65,8|2,0:2|0:2,0:0:0:0:
27,381,104155,5,0,3:2:0:0:
27,381,104321,1,2,3:2:0:0:
7,285,104488,2,0,L|26:145,1,130,8|2,0:2|3:2,0:0:0:0:
80,76,104988,1,2,3:2:0:0:
164,124,105155,2,0,P|201:131|242:116,1,65,14|2,0:2|0:2,0:0:0:0:
324,110,105488,6,0,L|319:186,1,65,6|2,3:2|0:2,0:0:0:0:
396,242,105821,1,8,0:2:0:0:
396,242,105988,2,0,P|441:243|491:159,1,130,2|2,0:2|3:2,0:0:0:0:
472,86,106488,2,0,L|400:94,1,65,8|2,0:2|0:2,0:0:0:0:
336,25,106821,6,0,L|204:14,1,130,2|10,3:2|0:2,0:0:0:0:
115,49,107321,1,0,0:2:0:0:
180,134,107488,1,2,3:2:0:0:
180,134,107571,1,8,0:2:0:0:
180,134,107655,1,0,3:2:0:0:
96,184,107821,2,0,P|83:231|82:260,1,65,8|0,0:2|0:2,0:0:0:0:
163,309,108155,5,2,3:2:0:0:
163,309,108321,2,0,L|234:297,1,65,2|8,0:2|0:2,0:0:0:0:
287,220,108655,2,0,L|271:84,1,130,2|2,3:2|3:2,0:0:0:0:
331,13,109155,1,10,0:2:0:0:
409,70,109321,1,2,0:2:0:0:
485,8,109488,6,0,P|500:37|506:73,1,65,14|0,0:2|0:2,0:0:0:0:
460,154,109821,2,0,P|445:183|439:219,1,65,10|0,0:3|0:2,0:0:0:0:
385,296,110155,2,0,P|386:327|380:348,2,43.3333333333333,2|10|10,3:2|0:3|0:3,0:0:0:0:
328,240,110488,2,0,P|322:216|323:196,2,43.3333333333333,10|6|6,0:3|0:3|0:3,0:0:0:0:
272,296,110821,6,0,L|135:287,1,130,6|2,3:2|0:2,0:0:0:0:
44,282,111821,1,0,3:2:0:0:
81,158,112155,6,0,B|104:132|139:127|139:127|165:151|207:147,1,130,2|2,3:2|0:2,0:0:0:0:
279,96,113155,1,0,0:2:0:0:
372,182,113488,6,0,L|355:325,1,130,2|2,3:2|0:2,0:0:0:0:
268,352,114488,1,0,3:2:0:0:
201,234,114821,6,0,P|137:232|86:271,1,130,2|10,3:2|0:2,0:0:0:0:
5,227,115821,2,0,L|14:182,1,32.5,2|2,0:2|0:2,0:0:0:0:
28,111,116155,5,2,3:2:0:0:
28,111,116488,2,0,L|20:48,1,52,10|2,0:2|0:2,0:0:0:0:
86,15,116821,1,0,3:2:0:0:
86,15,116987,1,10,0:2:0:0:
86,15,117155,2,0,P|109:11|145:23,1,52,0|2,3:2|0:2,0:0:0:0:
196,68,117488,6,0,P|219:72|255:60,1,52,2|8,3:2|0:2,0:0:0:0:
315,28,117821,1,10,0:2:0:0:
315,28,118155,2,0,P|361:29|412:84,1,104,10|2,0:2|0:2,0:0:0:0:
447,130,118655,1,0,0:0:0:0:
392,186,118821,6,0,L|276:174,1,104,2|10,3:2|0:2,0:0:0:0:
248,243,119321,1,8,0:2:0:0:
248,243,119488,2,0,B|231:276|231:276|246:361,1,104,10|2,0:3|3:2,0:0:0:0:
407,319,120155,5,2,0:2:0:0:
407,319,121155,2,0,L|395:219,1,97.5,12|0,0:3|0:2,0:0:0:0:
391,192,121488,6,0,P|432:201|472:194,1,71.5000021820069,14|0,0:2|0:0,0:0:0:0:
432,106,121821,1,10,0:2:0:0:
432,106,121988,2,0,L|289:122,1,143.000004364014,2|2,0:2|3:2,0:0:0:0:
225,51,122488,1,10,0:2:0:0:
225,51,122655,6,0,B|179:71|179:71|204:177,1,143.000004364014,2|2,3:2|0:2,0:0:0:0:
284,225,123155,1,10,0:2:0:0:
284,225,123321,2,0,L|274:299,1,71.5000021820069,2|8,3:2|0:2,0:0:0:0:
221,382,123655,1,2,3:2:0:0:
221,382,123821,1,10,0:2:0:0:
154,307,123988,6,0,P|121:301|75:317,1,71.5000021820069,2|14,3:2|0:2,0:0:0:0:
13,247,124321,1,2,0:2:0:0:
13,247,124488,1,10,0:2:0:0:
80,173,124655,2,0,L|90:94,1,71.5000021820069,2|8,0:2|0:2,0:0:0:0:
164,35,124988,1,2,3:2:0:0:
164,35,125155,1,10,0:2:0:0:
241,98,125321,1,2,3:2:0:0:
321,37,125488,6,0,P|351:55|386:59,1,71.5000021820069,10|2,0:2|0:2,0:0:0:0:
488,43,125821,1,10,0:2:0:0:
488,43,125988,2,0,L|473:189,1,143.000004364014,2|2,3:2|3:2,0:0:0:0:
373,212,126488,2,0,P|351:256|370:325,1,107.25000327301,10|0,0:2|0:0,0:0:0:0:
372,334,126821,6,0,L|296:322,1,71.5000021820069,14|2,0:2|0:2,0:0:0:0:
210,360,127155,1,10,0:2:0:0:
210,360,127321,2,0,L|192:216,1,143.000004364014,2|2,0:2|3:2,0:0:0:0:
138,135,127821,1,10,0:2:0:0:
138,135,127988,6,0,B|170:112|204:119|204:119|235:148|274:144,1,143.000004364014,2|2,3:2|0:2,0:0:0:0:
273,44,128488,1,10,0:2:0:0:
273,44,128655,2,0,L|345:36,1,71.5000021820069,2|8,3:2|0:2,0:0:0:0:
446,21,128988,1,2,3:2:0:0:
446,21,129155,1,10,0:2:0:0:
500,104,129321,6,0,P|486:151|486:179,1,71.5000021820069,2|14,3:2|0:2,0:0:0:0:
512,273,129655,1,2,0:2:0:0:
512,273,129821,1,10,0:2:0:0:
434,336,129988,1,2,3:2:0:0:
378,244,130155,2,0,P|340:234|299:245,1,71.5000021820069,10|2,0:2|3:2,0:0:0:0:
238,321,130488,1,10,0:2:0:0:
174,235,130655,6,0,L|182:117,1,107.25000327301,6|0,3:2|0:0,0:0:0:0:
207,109,130988,2,0,P|217:74|214:35,1,71.5000021820069,10|8,0:2|0:2,0:0:0:0:
133,9,131321,1,10,0:2:0:0:
133,9,131405,1,8,0:2:0:0:
133,9,131488,2,0,L|61:15,1,71.5000021820069,2|10,3:2|0:2,0:0:0:0:
15,20,131738,1,8,0:2:0:0:
15,20,131821,1,8,0:3:0:0:
20,119,131988,2,0,L|24:165,1,35.7500010910034,8|8,0:2|0:2,0:0:0:0:
5,187,132155,6,0,B|39:187|93:192,1,65,6|2,3:2|0:2,0:0:0:0:
141,123,132487,1,10,0:2:0:0:
217,170,132655,2,0,B|198:320,1,130,10|2,0:2|3:2,0:0:0:0:
272,363,133155,1,8,0:2:0:0:
272,363,133321,6,0,B|301:368|328:345|328:345|363:341|395:372,1,130,2|2,3:2|3:2,0:0:0:0:
482,348,133821,1,10,0:2:0:0:
482,348,133988,2,0,P|501:299|476:226,1,130,10|2,0:2|3:2,0:0:0:0:
398,183,134488,1,10,0:2:0:0:
439,102,134655,1,2,0:2:0:0:
364,49,134821,6,0,L|281:55,1,65,6|2,3:2|0:2,0:0:0:0:
219,21,135155,1,10,0:2:0:0:
219,21,135321,2,0,B|189:48|189:48|197:150,1,130,10|2,0:2|3:2,0:0:0:0:
270,189,135821,2,0,P|279:230|272:259,1,65,10|2,0:2|3:2,0:0:0:0:
204,310,136155,6,0,P|171:314|140:305,1,65,2|2,0:2|3:2,0:0:0:0:
73,251,136488,1,10,0:2:0:0:
73,251,136655,2,0,L|82:114,1,130,10|2,0:2|3:2,0:0:0:0:
150,61,137155,2,0,B|188:42|188:42|249:54,1,97.5,10|0,0:2|0:0,0:0:0:0:
266,75,137488,6,0,L|336:68,1,65,6|0,3:2|0:0,0:0:0:0:
424,58,137821,1,10,0:2:0:0:
424,58,137988,2,0,L|418:123,1,65,10|0,0:2|0:2,0:0:0:0:
355,189,138321,2,0,P|317:195|290:185,1,65,2|10,3:2|0:2,0:0:0:0:
208,220,138655,6,0,L|222:361,1,130,2|2,3:2|3:2,0:0:0:0:
310,382,139155,1,10,0:2:0:0:
310,382,139321,2,0,L|378:374,1,65,10|0,0:2|0:2,0:0:0:0:
440,311,139655,1,2,3:2:0:0:
384,239,139821,1,10,0:2:0:0:
450,177,139988,6,0,P|454:131|385:83,1,130,2|2,0:2|3:2,0:0:0:0:
309,118,140488,2,0,L|241:125,1,65,10|2,0:2|3:2,0:0:0:0:
177,186,140821,1,10,0:3:0:0:
118,116,140988,2,0,L|123:79,2,32.5,10|8|10,0:3|0:3|0:3,0:0:0:0:
47,173,141321,1,6,3:2:0:0:
47,173,141655,6,0,P|49:223|64:249,1,65,10|10,0:2|0:2,0:0:0:0:
135,289,141988,1,10,0:2:0:0:
135,289,142155,1,10,0:2:0:0:
81,363,142321,2,0,L|48:360,2,32.5,0|8|0,0:2|0:2|3:2,0:0:0:0:
250,376,142988,6,0,P|217:376|186:367,2,65,2|2|2,0:2|0:2|0:2,0:0:0:0:
323,322,143488,2,0,P|353:312|386:313,2,65,2|2|2,0:2|0:2|0:2,0:0:0:0:
229,285,143988,1,2,0:2:0:0:
229,285,144321,5,10,0:2:0:0:
116,307,144488,1,10,0:2:0:0:
94,194,144655,1,10,0:2:0:0:
208,172,144821,1,10,0:2:0:0:
208,172,144988,2,0,L|258:179,2,32.5,0|0|14,3:2|0:0|0:2,0:0:0:0:
208,172,145488,6,0,L|200:107,1,65,6|2,3:2|0:2,0:0:0:0:
257,36,145821,1,10,0:2:0:0:
257,36,145988,2,0,P|301:29|364:83,1,130,10|2,0:2|3:2,0:0:0:0:
371,171,146488,2,0,L|440:162,1,65,10|2,0:2|0:2,0:0:0:0:
504,223,146821,6,0,P|511:268|500:302,1,65,2|2,3:2|3:2,0:0:0:0:
450,357,147155,1,10,0:2:0:0:
450,357,147321,2,0,L|317:342,1,130,10|2,0:2|3:2,0:0:0:0:
255,278,147821,1,10,0:2:0:0:
197,348,147988,1,2,0:2:0:0:
129,287,148155,6,0,L|133:220,2,65,6|2|10,3:2|3:2|0:2,0:0:0:0:
45,283,148655,1,2,0:2:0:0:
45,283,148738,1,8,0:3:0:0:
45,283,148821,2,0,L|49:216,1,65,2|2,3:2|3:2,0:0:0:0:
98,141,149155,2,0,L|94:74,1,65,10|2,0:2|0:2,0:0:0:0:
119,37,149405,1,2,0:2:0:0:
119,37,149488,6,0,P|150:22|182:28,1,65,2|0,3:2|3:2,0:0:0:0:
260,69,149821,1,10,0:2:0:0:
231,159,149988,1,0,3:2:0:0:
231,159,150071,1,8,0:3:0:0:
231,159,150155,2,0,L|240:225,1,65,2|0,3:2|3:2,0:0:0:0:
317,271,150488,2,0,P|354:253|419:269,1,97.5,14|0,0:2|0:0,0:0:0:0:
432,278,150821,6,0,L|436:207,1,65,6|2,3:2|0:2,0:0:0:0:
499,148,151155,1,10,0:2:0:0:
499,148,151321,2,0,L|483:8,1,130,10|2,0:2|3:2,0:0:0:0:
393,29,151821,2,0,L|401:100,1,65,10|2,0:2|0:2,0:0:0:0:
336,158,152155,6,0,P|297:163|266:150,1,65,2|2,3:2|3:2,0:0:0:0:
198,102,152488,1,10,0:2:0:0:
198,102,152655,2,0,P|143:101|94:161,1,130,10|2,0:2|3:2,0:0:0:0:
179,188,153155,1,10,0:2:0:0:
139,270,153321,1,2,0:2:0:0:
222,305,153488,6,0,L|288:298,2,65,6|0|8,3:2|0:0|0:0,0:0:0:0:
139,270,153988,1,0,0:2:0:0:
139,270,154071,1,8,0:3:0:0:
139,270,154155,2,0,L|73:263,1,65,0|0,3:2|0:2,0:0:0:0:
20,189,154488,2,0,P|18:153|28:122,1,65,10|0,0:2|3:2,0:0:0:0:
83,53,154821,5,14,0:2:0:0:
83,53,154988,1,2,3:2:0:0:
160,110,155155,1,10,0:2:0:0:
160,110,155321,1,10,0:2:0:0:
213,37,155488,2,0,L|259:43,3,32.5,8|0|10|8,0:2|0:0|0:2|0:2,0:0:0:0:
279,71,155821,2,0,L|325:65,3,32.5,8|8|10|8,0:2|0:2|0:2|0:2,0:0:0:0:
349,46,156155,6,0,L|341:129,1,71.5000021820069,6|2,3:2|0:2,0:0:0:0:
419,181,156488,1,10,0:2:0:0:
419,181,156655,2,0,L|429:324,1,143.000004364014,2|2,0:2|3:2,0:0:0:0:
336,363,157155,1,10,0:2:0:0:
336,363,157321,6,0,B|311:329|276:325|276:325|247:350|203:349,1,143.000004364014,2|2,3:2|0:2,0:0:0:0:
212,248,157821,1,10,0:2:0:0:
212,248,157988,1,2,3:2:0:0:
114,272,158155,2,0,P|63:266|41:251,1,71.5000021820069,10|0,0:2|3:2,0:0:0:0:
31,160,158488,1,10,0:2:0:0:
31,160,158655,6,0,L|178:140,1,143.000004364014,2|2,3:2|0:2,0:0:0:0:
236,63,159155,2,0,L|311:73,1,71.5000021820069,10|2,0:2|0:2,0:0:0:0:
391,19,159488,2,0,P|405:56|401:100,1,71.5000021820069,10|0,0:2|3:2,0:0:0:0:
344,168,159821,1,10,0:2:0:0:
344,168,159988,1,2,3:2:0:0:
426,225,160155,6,0,L|504:216,1,71.5000021820069,10|0,0:2|3:2,0:0:0:0:
509,316,160488,2,0,L|437:324,1,71.5000021820069,10|0,0:2|3:2,0:0:0:0:
347,280,160821,1,10,0:2:0:0:
283,356,160988,1,0,0:0:0:0:
193,310,161155,2,0,P|177:266|179:237,1,71.5000021820069,10|2,0:2|0:2,0:0:0:0:
259,183,161488,6,0,L|265:110,1,71.5000021820069,14|0,0:2|0:2,0:0:0:0:
204,30,161821,1,10,0:2:0:0:
204,30,161988,2,0,B|167:55|167:55|63:45,1,143.000004364014,2|2,0:2|3:2,0:0:0:0:
0,118,162488,1,8,0:2:0:0:
0,118,162655,6,0,P|11:159|14:202,1,71.5000021820069,2|8,3:2|0:2,0:0:0:0:
67,272,162988,1,2,0:2:0:0:
137,201,163155,1,10,0:2:0:0:
198,280,163321,2,0,L|345:262,1,143.000004364014,2|2,3:2|3:2,0:0:0:0:
433,311,163821,1,10,0:2:0:0:
433,311,163988,1,2,3:2:0:0:
502,238,164155,5,14,0:2:0:0:
459,147,164321,2,0,L|470:111,2,35.7500010910034,2|8|2,0:2|0:2|3:2,0:0:0:0:
360,166,164655,1,10,0:3:0:0:
360,166,164821,2,0,L|349:85,1,71.5000021820069,10|10,0:3|0:2,0:0:0:0:
347,77,165071,1,8,0:2:0:0:
345,59,165155,1,10,0:2:0:0:
254,16,165321,6,0,B|219:22|197:54|197:54|150:64|119:32,1,143.000004364014,6|2,3:2|3:2,0:0:0:0:
55,109,165821,1,10,0:2:0:0:
55,109,165988,1,2,0:2:0:0:
119,186,166155,2,0,L|106:242,2,47.6666681213379,10|8|8,0:2|0:2|0:3,0:0:0:0:
147,218,166488,2,0,L|136:264,2,47.6666681213379,12|8|8,0:3|0:3|0:3,0:0:0:0:
180,247,166821,5,6,3:2:0:0:
463,52,172155,6,0,P|473:91|466:126,1,65,14|0,0:2|0:2,0:0:0:0:
418,190,172488,1,2,3:2:0:0:
418,190,172655,2,0,L|284:172,1,130,2|2,0:2|3:2,0:0:0:0:
227,239,173155,1,0,3:2:0:0:
284,310,173321,6,0,L|321:304,2,32.5,2|8|0,3:2|0:2|3:2,0:0:0:0:
212,367,173655,2,0,L|175:361,2,32.5,10|8|2,0:2|0:2|3:2,0:0:0:0:
143,274,173988,2,0,L|139:231,2,32.5,10|8|8,0:2|0:2|0:2,0:0:0:0:
71,331,174321,2,0,L|61:368,2,32.5,10|8|10,0:2|0:2|0:2,0:0:0:0:
24,246,174655,1,10,0:2:0:0:
24,246,174738,1,8,0:2:0:0:
24,246,174821,6,0,L|18:197,3,32.5,12|0|10|8,0:3|3:2|0:3|0:3,0:0:0:0:
42,190,175155,2,0,L|48:141,3,32.5,10|8|10|8,0:3|0:3|0:2|0:2,0:0:0:0:
29,130,175488,2,0,L|24:59,1,65,10|8,0:3|0:3,0:0:0:0:
112,28,175821,1,10,0:2:0:0:
112,28,175905,1,8,0:2:0:0:
112,28,175988,1,6,3:2:0:0:
112,28,176988,6,0,L|105:99,2,65,2|2|2,0:2|0:2|0:2,0:0:0:0:
202,34,177488,6,0,L|194:116,1,71.5000021820069,14|2,0:2|0:2,0:0:0:0:
268,181,177821,1,10,0:2:0:0:
268,181,177988,2,0,P|328:189|395:142,1,143.000004364014,2|2,0:2|3:2,0:0:0:0:
456,67,178488,1,10,0:2:0:0:
456,67,178655,6,0,B|501:80|501:80|486:189,1,143.000004364014,2|2,3:2|0:2,0:0:0:0:
419,249,179155,1,10,0:2:0:0:
419,249,179321,2,0,L|429:321,1,71.5000021820069,2|8,3:2|0:2,0:0:0:0:
352,384,179655,1,2,3:2:0:0:
352,384,179821,1,10,0:2:0:0:
278,316,179988,6,0,P|242:310|207:317,1,71.5000021820069,2|14,3:2|0:2,0:0:0:0:
131,383,180321,1,2,0:2:0:0:
131,383,180488,1,10,0:2:0:0:
77,298,180655,2,0,L|88:223,1,71.5000021820069,2|8,0:2|0:2,0:0:0:0:
164,163,180988,1,2,3:2:0:0:
164,163,181155,1,10,0:2:0:0:
108,79,181321,1,2,3:2:0:0:
184,14,181488,6,0,P|221:11|264:33,1,71.5000021820069,10|2,0:2|0:2,0:0:0:0:
314,109,181821,1,10,0:2:0:0:
314,109,181988,2,0,L|460:94,1,143.000004364014,2|2,3:2|3:2,0:0:0:0:
505,171,182488,2,0,P|511:222|483:269,1,97.5,10|0,0:2|0:0,0:0:0:0:
464,277,182821,6,0,L|477:360,1,71.5000021820069,14|2,0:2|0:2,0:0:0:0:
376,366,183155,1,10,0:2:0:0:
376,366,183321,2,0,L|352:216,1,143.000004364014,2|2,0:2|3:2,0:0:0:0:
283,152,183821,1,10,0:2:0:0:
283,152,183988,6,0,B|256:122|217:127|217:127|196:160|153:165,1,143.000004364014,2|2,3:2|0:2,0:0:0:0:
78,116,184488,1,10,0:2:0:0:
78,116,184655,2,0,L|65:194,1,71.5000021820069,2|8,3:2|0:2,0:0:0:0:
0,262,184988,1,2,3:2:0:0:
0,262,185155,1,10,0:2:0:0:
80,322,185321,6,0,P|112:309|152:308,1,71.5000021820069,2|14,3:2|0:2,0:0:0:0:
239,360,185655,1,2,0:2:0:0:
239,360,185821,1,10,0:2:0:0:
306,286,185988,1,2,3:2:0:0:
392,337,186155,2,0,L|390:375,2,35.7500010910034,10|8|10,0:2|0:2|0:3,0:0:0:0:
456,259,186488,1,10,0:2:0:0:
393,180,186655,6,0,L|276:190,1,107.25000327301,6|0,3:2|0:0,0:0:0:0:
261,203,186988,2,0,P|262:161|250:129,1,71.5000021820069,10|8,0:2|0:2,0:0:0:0:
155,146,187321,1,10,0:2:0:0:
155,146,187488,2,0,P|154:188|166:220,1,71.5000021820069,10|10,0:3|0:2,0:0:0:0:
172,224,187738,1,8,0:2:0:0:
181,230,187821,2,0,L|169:352,1,107.25000327301,8|8,0:2|0:2,0:0:0:0:
145,357,188155,6,0,L|78:349,1,65,6|2,3:2|0:2,0:0:0:0:
22,279,188488,1,8,0:2:0:0:
22,279,188655,2,0,B|7:228|7:228|30:144,1,130,10|2,0:2|3:2,0:0:0:0:
26,66,189155,1,8,0:2:0:0:
26,66,189321,6,0,B|63:63|89:89|89:89|121:87|145:61,1,130,2|2,3:2|3:2,0:0:0:0:
230,31,189821,1,10,0:2:0:0:
230,31,189988,2,0,L|220:177,1,130,10|0,0:2|3:2,0:0:0:0:
273,235,190488,2,0,P|304:241|347:229,1,65,10|0,0:2|0:2,0:0:0:0:
394,163,190821,6,0,P|425:157|468:169,1,65,6|2,3:2|0:2,0:0:0:0:
510,237,191155,1,8,0:2:0:0:
510,237,191321,2,0,L|496:369,1,130,10|2,0:2|3:2,0:0:0:0:
406,383,191821,1,8,0:2:0:0:
406,383,191988,6,0,B|377:367|357:343|357:343|316:341|288:365,1,130,2|2,3:2|3:2,0:0:0:0:
209,327,192488,1,10,0:2:0:0:
209,327,192655,2,0,P|191:286|190:262,1,65,10|0,0:2|3:2,0:0:0:0:
257,205,192988,2,0,L|273:75,1,130,2|0,3:2|0:2,0:0:0:0:
205,14,193488,5,6,3:2:0:0:
205,14,193655,2,0,L|132:24,1,65,2|8,0:2|0:2,0:0:0:0:
64,73,193988,2,0,B|43:113|43:113|61:202,1,130,10|2,0:2|3:2,0:0:0:0:
140,247,194488,1,8,0:2:0:0:
140,247,194655,6,0,B|178:243|197:217|197:217|229:215|262:247,1,130,2|2,3:2|3:2,0:0:0:0:
312,317,195155,1,10,0:2:0:0:
312,317,195321,2,0,L|456:300,1,130,10|2,0:2|3:2,0:0:0:0:
494,227,195821,1,10,0:2:0:0:
494,227,195988,6,0,P|506:173|474:97,1,130,2|10,0:2|0:2,0:0:0:0:
407,50,196488,1,10,0:2:0:0:
407,50,196655,1,10,0:3:0:0:
348,120,196821,1,10,0:2:0:0:
274,66,196988,2,0,L|279:25,2,32.5,8|8|10,0:2|0:2|0:2,0:0:0:0:
217,138,197321,1,6,3:2:0:0:
217,138,197655,6,0,L|228:214,1,65,10|10,0:2|0:3,0:0:0:0:
290,266,197988,1,10,0:2:0:0:
290,266,198155,1,14,0:2:0:0:
225,330,198321,1,0,3:2:0:0:
225,330,198405,1,0,3:2:0:0:
225,330,198488,2,0,L|186:322,2,32.5,8|8|0,0:2|0:2|3:2,0:0:0:0:
96,291,198988,6,0,L|103:363,2,65,2|2|2,0:2|0:2|0:2,0:0:0:0:
165,231,199488,2,0,L|230:223,2,65,2|2|2,0:2|0:2|0:2,0:0:0:0:
84,188,199988,1,2,0:2:0:0:
84,188,200321,5,10,0:2:0:0:
6,101,200488,1,10,0:2:0:0:
94,25,200655,1,10,0:2:0:0:
170,112,200821,1,10,0:2:0:0:
170,112,200988,2,0,L|215:106,2,32.5,0|0|14,3:2|3:2|0:2,0:0:0:0:
170,112,201488,6,0,L|178:185,1,65,14|0,0:2|0:0,0:0:0:0:
244,247,201821,1,10,0:2:0:0:
334,211,201988,2,0,P|352:160|348:137,1,65,2|8,0:2|0:2,0:0:0:0:
432,96,202321,2,0,P|414:45|418:22,1,65,2|8,3:2|0:2,0:0:0:0:
322,1,202655,6,0,P|290:31|186:29,1,130,2|2,3:2|0:2,0:0:0:0:
114,24,203155,1,10,0:2:0:0:
114,24,203321,2,0,P|126:78|139:167,1,130,2|2,3:2|3:2,0:0:0:0:
69,225,203821,1,10,0:2:0:0:
69,225,203988,6,0,B|89:264|89:264|181:245,1,130,2|2,3:2|0:2,0:0:0:0:
269,217,204488,1,10,0:2:0:0:
269,217,204655,2,0,L|254:355,1,130,2|2,3:2|3:2,0:0:0:0:
350,365,205155,2,0,L|358:293,1,65,10|2,0:2|3:2,0:0:0:0:
431,236,205488,6,0,L|423:164,1,65,10|2,0:2|0:2,0:0:0:0:
359,97,205821,1,10,0:2:0:0:
359,97,205988,2,0,B|320:81|320:81|223:104,1,130,2|2,3:2|3:2,0:0:0:0:
167,172,206488,1,10,0:2:0:0:
238,239,206655,1,2,0:2:0:0:
172,310,206821,6,0,L|95:302,1,65,14|0,0:2|0:0,0:0:0:0:
13,320,207155,1,10,0:2:0:0:
13,320,207321,2,0,P|12:287|23:257,1,65,2|8,0:2|0:2,0:0:0:0:
81,178,207655,2,0,P|81:145|70:115,1,65,2|8,3:2|0:2,0:0:0:0:
16,33,207988,6,0,P|78:17|149:57,1,130,2|2,3:2|0:2,0:0:0:0:
197,124,208488,1,10,0:2:0:0:
197,124,208655,2,0,L|345:104,1,130,2|2,3:2|3:2,0:0:0:0:
406,162,209155,2,0,L|395:237,1,65,10|2,0:2|3:2,0:0:0:0:
333,300,209488,5,14,0:2:0:0:
262,248,209655,1,2,0:2:0:0:
262,248,209738,1,8,0:2:0:0:
262,248,209821,2,0,P|215:237|188:251,1,65,10|10,0:2|0:3,0:0:0:0:
115,289,210155,1,10,0:3:0:0:
48,217,210321,2,0,L|54:175,2,32.5,10|8|10,0:2|0:2|0:2,0:0:0:0:
143,150,210655,1,6,3:2:0:0:
143,150,210988,5,10,0:2:0:0:
102,42,211155,1,10,0:2:0:0:
210,1,211321,1,10,0:2:0:0:
251,109,211488,1,14,0:2:0:0:
251,109,211821,6,0,L|245:151,2,32.5,8|8|0,0:2|0:2|3:2,0:0:0:0:
397,204,212321,6,0,L|408:280,2,65,2|2|2,0:2|0:2|0:2,0:0:0:0:
391,106,212821,2,0,L|400:41,2,65,2|2|2,0:2|0:2|0:2,0:0:0:0:
303,61,213321,1,2,0:2:0:0:
303,61,213655,5,10,0:2:0:0:
195,20,213821,1,10,0:2:0:0:
154,128,213988,1,10,0:2:0:0:
261,168,214155,1,10,0:2:0:0:
303,61,214321,1,2,0:0:0:0:
312,49,214405,1,0,0:0:0:0:
324,40,214488,6,0,B|366:13|419:19|488:38|459:145|375:121,1,233.999992858887,14|0,0:2|0:2,0:0:0:0:
