osu file format v14

[General]
AudioFilename: audio.mp3
AudioLeadIn: 0
PreviewTime: 54186
Countdown: 0
SampleSet: Soft
StackLeniency: 0.5
Mode: 0
LetterboxInBreaks: 0
WidescreenStoryboard: 1

[Editor]
Bookmarks: 1520,8023,8190,12192,22865,33537,44210,54186,54882,78853,100186,110853,121519,132186,145519,156186,166853,172186,201519
DistanceSpacing: 1
BeatDivisor: 4
GridSize: 32
TimelineZoom: 1.3

[Metadata]
Title:Heroine Ikusei Keikaku feat. Suzumi Hiyori (CV: Minase Inori)
TitleUnicode:ヒロイン育成計画 feat. 涼海ひより(CV:水瀬いのり)
Artist:HoneyWorks
ArtistUnicode:HoneyWorks
Creator:Not DT Farmer
Version:Prince
Source:
Tags:love executive committee Japanese 好きすぎてやばい 告白実行委員会 lip×lip 染谷勇次郎 柴崎愛蔵 海堂飛鳥 novelty 好きすぎてやばい。〜告白実行委員会キャラクターソング集〜 suki sugite yabai kokuhaku jikkou iinkai character song someya yuujirou yujiro yuujiro shibasaki sibasaki aizou aizo arronchu1207 sanairrt
BeatmapID:2658947
BeatmapSetID:1119518

[Difficulty]
HPDrainRate:5
CircleSize:3.8
OverallDifficulty:7
ApproachRate:9
SliderMultiplier:1.4
SliderTickRate:1

[Events]
//Background and Video events
0,0,"e6684ebe4d3738660a1761671871ec6e17e73688.jpg",0,0
Video,0,"video.mp4"
//Break Periods
2,167053,171086
//Storyboard Layer 0 (Background)
//Storyboard Layer 1 (Fail)
//Storyboard Layer 2 (Pass)
//Storyboard Layer 3 (Foreground)
//Storyboard Layer 4 (Overlay)
//Storyboard Sound Samples

[TimingPoints]
854,333.333333333333,4,2,2,40,1,0
1520,333.333333333333,4,2,2,40,1,0
1520,-105.263157894737,4,2,2,40,0,0
6853,-100,4,2,2,60,0,0
11853,-76.9230769230769,4,2,2,70,0,0
12103,-76.9230769230769,4,2,2,5,0,0
12186,-80,4,2,2,80,0,0
22853,-111.111111111111,4,2,2,50,0,0
27853,-111.111111111111,4,2,2,60,0,0
28186,-105.263157894737,4,2,2,60,0,0
30769,-105.263157894737,4,2,2,5,0,0
30853,-105.263157894737,4,2,2,60,0,0
32186,-105.263157894737,4,2,2,70,0,0
33519,-100,4,2,2,65,0,0
44186,-117.647058823529,4,2,2,50,0,0
54853,-76.9230769230769,4,2,2,80,0,1
59853,-76.9230769230769,4,2,2,80,0,0
60186,-76.9230769230769,4,2,2,80,0,1
65519,-83.3333333333333,4,2,2,80,0,0
76353,-100,4,2,2,80,0,0
76436,-83.3333333333333,4,2,2,80,0,0
77686,-83.3333333333333,4,2,2,90,0,0
78519,-76.9230769230769,4,2,2,80,0,0
78769,-76.9230769230769,4,2,2,5,0,0
78853,-80,4,2,2,80,0,0
89519,-111.111111111111,4,2,2,50,0,0
91936,-111.111111111111,4,2,2,5,0,0
92019,-111.111111111111,4,2,2,50,0,0
92436,-111.111111111111,4,2,2,5,0,0
92519,-111.111111111111,4,2,2,50,0,0
94603,-111.111111111111,4,2,2,5,0,0
94686,-111.111111111111,4,2,2,50,0,0
94853,-105.263157894737,4,2,2,60,0,0
100186,-100,4,2,2,60,0,0
110853,-117.647058823529,4,2,2,50,0,0
118769,-117.647058823529,4,2,2,5,0,0
118853,-117.647058823529,4,2,2,60,0,0
121186,-181.818181818182,4,2,2,90,0,0
121436,-181.818181818182,4,2,2,5,0,0
121519,-76.9230769230769,4,2,2,80,0,1
126519,-76.9230769230769,4,2,2,80,0,0
126853,-76.9230769230769,4,2,2,80,0,1
132186,-83.3333333333333,4,2,2,80,0,0
143019,-100,4,2,2,80,0,0
143102,-83.3333333333333,4,2,2,80,0,0
144353,-83.3333333333333,4,2,2,90,0,0
145186,-83.3333333333333,4,2,2,80,0,0
145436,-83.3333333333333,4,2,2,5,0,0
145519,-83.3333333333333,4,2,2,75,0,0
156186,-76.9230769230769,4,2,2,75,0,1
166853,-76.9230769230769,4,2,2,50,0,0
171686,-100,4,2,2,50,0,0
171853,-166.666666666667,4,2,2,50,0,0
172186,-90.9090909090909,4,2,2,60,0,0
173353,-90.9090909090909,4,2,2,45,0,0
173686,-90.9090909090909,4,2,2,50,0,0
174019,-90.9090909090909,4,2,2,60,0,0
174353,-90.9090909090909,4,2,2,70,0,0
175019,-90.9090909090909,4,2,2,80,0,0
175519,-90.9090909090909,4,2,2,90,0,0
176353,-90.9090909090909,4,2,2,70,0,0
177519,-76.9230769230769,4,2,2,80,0,1
182519,-76.9230769230769,4,2,2,80,0,0
182853,-76.9230769230769,4,2,2,80,0,1
188186,-83.3333333333333,4,2,2,80,0,0
200353,-83.3333333333333,4,2,2,90,0,0
201186,-66.6666666666667,4,2,2,90,0,0
201436,-66.6666666666667,4,2,2,5,0,0
201519,-80,4,2,2,70,0,0
212353,-100,4,2,2,70,0,0
212436,-83.3333333333333,4,2,2,70,0,0
213686,-83.3333333333333,4,2,2,90,0,0
214519,-83.3333333333333,4,2,2,100,0,0
214686,-66.6666666666667,4,2,2,100,0,0
214769,-66.6666666666667,4,2,2,5,0,0

[Colours]
Combo1 : 128,255,128
Combo2 : 255,128,192
Combo3 : 0,128,192
Combo4 : 128,64,64

[HitObjects]
133,88,853,6,0,P|153:44|220:91,1,140,2|2,0:2|0:2,0:0:0:0:
220,76,1520,6,0,B|250:114|250:114|233:203,1,132.999996448517,6|10,3:2|0:2,0:0:0:0:
158,249,2019,1,10,0:2:0:0:
158,249,2353,1,2,3:2:0:0:
93,189,2519,2,0,P|128:167|160:165,1,66.4999982242585,10|2,0:2|0:2,0:0:0:0:
276,294,2853,6,0,B|201:289|230:338|152:334,1,132.999996448517,0|10,3:2|0:2,0:0:0:0:
67,282,3353,1,10,0:2:0:0:
67,282,3686,1,2,3:2:0:0:
158,249,3853,2,0,L|239:245,1,66.4999982242585,10|2,0:2|0:2,0:0:0:0:
332,348,4186,6,0,B|300:319|300:319|314:206,1,132.999996448517,0|10,3:2|0:2,0:0:0:0:
368,165,4686,1,10,0:2:0:0:
368,165,5019,1,2,3:2:0:0:
454,249,5186,2,0,L|446:153,1,66.4999982242585,10|2,0:2|0:2,0:0:0:0:
301,97,5519,6,0,P|273:162|276:186,1,66.4999982242585,2|2,3:2|3:2,0:0:0:0:
289,250,5853,1,10,0:2:0:0:
185,154,6019,2,0,P|211:219|230:234,1,66.4999982242585,10|0,0:2|0:2,0:0:0:0:
294,276,6353,1,2,3:2:0:0:
374,147,6519,2,0,L|382:269,1,99.7499973363877,10|0,0:2|0:2,0:0:0:0:
391,274,6853,6,0,P|441:257|481:270,2,70,2|2|2,3:2|0:2|3:2,0:0:0:0:
261,328,7353,2,0,P|298:269|258:187,1,140,2|2,0:2|0:2,0:0:0:0:
232,76,7853,1,2,3:2:0:0:
374,128,8019,6,0,L|304:125,1,70,2|0,0:2|3:2,0:0:0:0:
204,158,8353,1,2,0:2:0:0:
305,37,8519,1,2,3:2:0:0:
338,210,8686,2,0,P|293:215|254:202,1,70,2|0,0:2|3:2,0:0:0:0:
112,106,9019,1,2,0:2:0:0:
183,243,9186,1,2,3:2:0:0:
217,72,9353,1,2,0:2:0:0:
76,185,9519,6,0,L|68:282,1,70,8|2,0:3|0:2,0:0:0:0:
196,362,9853,1,2,3:2:0:0:
183,243,10019,1,2,3:2:0:0:
70,369,10186,1,10,0:2:0:0:
260,291,10353,1,10,0:2:0:0:
76,185,10519,1,10,0:2:0:0:
196,362,10686,1,14,0:2:0:0:
46,151,11853,6,0,P|82:113|130:178,1,136.499993751526,2|0,0:2|0:2,0:0:0:0:
146,188,12186,6,0,B|216:186|216:186|250:166|250:166|335:165,1,175,14|10,0:2|0:2,0:0:0:0:
462,225,12686,2,0,P|412:242|364:228,1,87.5,2|8,0:2|0:2,0:0:0:0:
358,86,13019,2,0,P|397:120|409:169,1,87.5,2|8,3:2|0:2,0:0:0:0:
285,338,13353,6,0,L|281:250,1,87.5,2|8,3:2|0:2,0:0:0:0:
124,174,13686,1,2,0:2:0:0:
187,332,13853,1,10,0:2:0:0:
236,170,14019,2,0,P|277:158|325:170,1,87.5,2|8,3:2|0:2,0:0:0:0:
404,318,14353,1,2,3:2:0:0:
408,137,14519,1,10,0:2:0:0:
281,250,14686,1,2,3:2:0:0:
479,196,14853,6,0,P|497:154|480:89,1,87.5,14|2,0:2|0:2,0:0:0:0:
397,18,15186,1,10,0:2:0:0:
319,167,15353,2,0,L|217:156,1,87.5,2|8,0:2|0:2,0:0:0:0:
133,39,15686,2,0,L|219:29,2,87.5,2|10|2,3:2|0:2|3:2,0:0:0:0:
59,184,16186,5,10,0:2:0:0:
207,122,16353,1,2,0:2:0:0:
33,50,16519,1,10,0:2:0:0:
174,208,16686,2,0,P|233:215|273:200,1,87.5,2|8,3:2|0:2,0:0:0:0:
355,85,17019,1,2,3:2:0:0:
352,273,17186,2,0,L|352:184,1,87.5,10|2,0:2|0:2,0:0:0:0:
483,29,17519,6,0,B|525:64|525:64|495:183,1,175,14|10,0:2|0:2,0:0:0:0:
421,334,18019,2,0,P|444:290|433:238,1,87.5,2|8,0:2|0:2,0:0:0:0:
271,253,18353,2,0,P|315:276|367:265,1,87.5,2|8,3:2|0:2,0:0:0:0:
319,102,18686,6,0,L|322:197,1,87.5,2|8,3:2|0:2,0:0:0:0:
268,353,19019,1,2,0:2:0:0:
209,193,19186,1,10,0:2:0:0:
143,359,19353,2,0,P|87:371|49:355,1,87.5,2|8,3:2|0:2,0:0:0:0:
0,146,19686,1,2,3:2:0:0:
104,284,19853,1,10,0:2:0:0:
124,110,20019,1,2,3:2:0:0:
12,284,20186,6,0,P|29:229|62:204,1,87.5,14|2,0:2|3:2,0:0:0:0:
182,332,20519,1,10,0:2:0:0:
236,152,20686,1,2,3:2:0:0:
104,284,20853,1,10,0:2:0:0:
104,284,20936,1,8,0:2:0:0:
104,284,21019,1,10,0:3:0:0:
151,107,21186,1,10,0:2:0:0:
277,311,21353,5,6,3:2:0:0:
277,311,21686,1,10,0:2:0:0:
341,134,21853,1,10,0:2:0:0:
180,226,22019,1,10,0:2:0:0:
376,295,22186,2,0,P|425:288|465:212,1,131.25,14|8,0:2|0:2,0:0:0:0:
463,188,22519,2,0,P|488:189|511:196,2,43.75,8|8|8,0:2|0:2|0:3,0:0:0:0:
291,223,22853,6,0,B|218:217|250:270|147:255,1,125.999996154785,6|0,3:2|3:2,0:0:0:0:
128,122,23353,2,0,P|145:163|141:191,1,62.9999980773926,2|0,0:2|3:2,0:0:0:0:
0,191,23686,2,0,P|41:174|69:177,1,62.9999980773926,2|0,0:2|3:2,0:0:0:0:
135,269,24019,1,2,0:2:0:0:
158,105,24186,6,0,L|300:119,1,125.999996154785,0|0,3:2|3:2,0:0:0:0:
390,84,24686,2,0,P|369:123|372:156,1,62.9999980773926,2|0,0:2|3:2,0:0:0:0:
475,205,25019,2,0,P|454:166|457:133,1,62.9999980773926,2|0,0:2|3:2,0:0:0:0:
490,54,25353,1,2,0:2:0:0:
362,170,25519,6,0,B|324:195|324:195|227:180,1,125.999996154785,0|0,3:2|3:2,0:0:0:0:
121,131,26019,2,0,L|129:205,1,62.9999980773926,2|0,0:2|3:2,0:0:0:0:
218,272,26353,2,0,L|224:209,1,62.9999980773926,2|0,0:2|3:2,0:0:0:0:
239,89,26686,1,2,0:2:0:0:
342,228,26853,6,0,L|471:216,1,125.999996154785,0|0,3:2|3:2,0:0:0:0:
415,127,27353,2,0,P|380:130|346:153,1,62.9999980773926,2|0,0:2|3:2,0:0:0:0:
326,255,27686,1,2,0:2:0:0:
263,111,27853,2,0,L|272:173,1,62.9999980773926,2|0,3:2|0:2,0:0:0:0:
186,291,28186,6,0,P|212:261|250:248,1,66.4999982242585,2|2,3:2|0:2,0:0:0:0:
335,347,28519,1,10,0:2:0:0:
405,210,28686,2,0,L|384:65,1,132.999996448517,2|2,0:2|0:2,0:0:0:0:
252,0,29186,1,8,0:2:0:0:
280,145,29353,1,2,0:2:0:0:
418,6,29519,6,0,P|382:-3|333:14,1,66.4999982242585,2|0,3:2|0:2,0:0:0:0:
262,130,29853,2,0,P|287:103|297:52,1,66.4999982242585,10|0,0:2|0:2,0:0:0:0:
132,29,30186,1,2,3:2:0:0:
170,155,30353,1,8,0:2:0:0:
219,0,30519,2,0,L|208:65,1,66.4999982242585,8|0,0:2|0:2,0:0:0:0:
286,211,30853,6,0,P|328:220|378:202,1,66.4999982242585,2|2,3:2|0:2,0:0:0:0:
426,140,31186,1,10,0:2:0:0:
312,67,31353,2,0,L|320:132,1,66.4999982242585,2|0,0:2|3:2,0:0:0:0:
268,237,31686,1,2,0:2:0:0:
182,82,31853,1,10,0:2:0:0:
160,252,32019,1,2,0:2:0:0:
292,155,32186,6,0,P|253:153|206:180,1,66.4999982242585,14|0,0:2|3:2,0:0:0:0:
134,311,32519,2,0,P|155:278|155:224,1,66.4999982242585,14|0,0:2|3:2,0:0:0:0:
101,117,32853,1,10,0:2:0:0:
267,237,33019,1,8,0:2:0:0:
298,248,33102,1,8,0:2:0:0:
331,252,33185,1,8,0:2:0:0:
363,247,33269,1,8,0:3:0:0:
394,234,33352,1,8,0:3:0:0:
420,213,33435,1,8,0:3:0:0:
440,187,33519,6,0,L|442:105,1,70,6|2,3:2|0:2,0:0:0:0:
399,10,33853,1,8,0:2:0:0:
330,132,34019,2,0,P|292:138|242:108,1,70,2|0,0:2|3:2,0:0:0:0:
190,0,34353,2,0,P|228:-6|278:24,1,70,2|8,3:2|0:2,0:0:0:0:
173,164,34686,1,2,0:2:0:0:
77,22,34853,6,0,L|90:115,1,70,0|2,3:2|0:2,0:0:0:0:
105,221,35186,1,8,0:2:0:0:
235,104,35353,2,0,P|200:82|145:86,1,70,2|0,0:2|3:2,0:0:0:0:
202,248,35686,2,0,P|237:229|261:179,1,70,10|8,0:2|0:2,0:0:0:0:
249,80,36019,1,2,0:2:0:0:
359,196,36186,6,0,L|353:273,1,70,0|2,3:2|0:2,0:0:0:0:
275,380,36519,1,8,0:2:0:0:
202,248,36686,2,0,P|242:229|278:231,1,70,2|0,0:2|3:2,0:0:0:0:
275,380,37019,2,0,P|256:340|258:304,1,70,2|8,3:2|0:2,0:0:0:0:
349,215,37353,1,2,0:2:0:0:
462,341,37519,6,0,L|469:260,1,70,0|2,3:2|0:2,0:0:0:0:
384,125,37853,1,8,0:2:0:0:
379,296,38019,1,2,0:2:0:0:
286,150,38186,1,2,3:2:0:0:
448,190,38353,1,10,0:2:0:0:
283,276,38519,2,0,L|193:264,1,70,10|2,0:2|0:2,0:0:0:0:
104,148,38853,6,0,B|139:184|139:184|119:293,1,140,6|10,3:2|0:2,0:0:0:0:
14,179,39353,2,0,P|8:132|29:87,1,70,2|0,0:2|3:2,0:0:0:0:
172,148,39686,2,0,P|125:154|80:133,1,70,2|8,3:2|0:2,0:0:0:0:
3,23,40019,1,2,0:2:0:0:
138,71,40186,6,0,L|226:60,1,70,2|0,3:2|0:2,0:0:0:0:
325,6,40519,2,0,P|299:41|300:89,1,70,10|0,0:2|0:2,0:0:0:0:
350,226,40853,1,2,3:2:0:0:
394,70,41019,1,8,0:2:0:0:
259,159,41186,2,0,L|189:150,1,70,8|0,0:2|0:2,0:0:0:0:
125,49,41519,5,2,3:2:0:0:
111,195,41686,2,0,P|96:153|106:108,1,70,2|8,0:2|0:2,0:0:0:0:
252,193,42019,2,0,P|223:226|179:240,1,70,2|0,0:2|3:2,0:0:0:0:
57,267,42353,1,2,3:2:0:0:
191,347,42519,1,10,0:2:0:0:
122,172,42686,1,2,3:2:0:0:
29,358,42853,6,0,L|114:347,1,70,14|0,0:2|3:2,0:0:0:0:
238,265,43186,2,0,L|323:276,1,70,14|0,0:2|0:2,0:0:0:0:
466,376,43519,1,10,0:2:0:0:
427,218,43686,1,8,0:3:0:0:
353,384,43853,1,8,0:3:0:0:
225,157,44186,6,0,B|295:139|277:195|356:175,1,119.000002269745,6|0,3:2|0:2,0:0:0:0:
393,8,44853,2,0,P|354:22|330:95,1,119.000002269745,2|0,0:2|3:2,0:0:0:0:
455,206,45519,6,0,B|429:171|429:171|447:88,1,119.000002269745,2|0,3:2|0:2,0:0:0:0:
512,279,46186,2,0,P|468:296|397:277,1,119.000002269745,2|0,0:2|0:2,0:0:0:0:
267,109,46853,6,0,L|280:255,1,119.000002269745,2|0,3:2|0:2,0:0:0:0:
163,370,47519,2,0,L|173:251,1,119.000002269745,2|0,0:2|3:2,0:0:0:0:
61,102,48186,6,0,P|90:132|163:143,1,119.000002269745,2|0,3:2|0:2,0:0:0:0:
343,70,48853,6,0,P|337:45|342:4,2,39.6666674232483,10|2|2,0:2|0:2|0:2,0:0:0:0:
396,129,49186,6,0,L|392:208,1,59.5000011348725,2|0,0:2|0:2,0:0:0:0:
325,288,49519,6,0,B|350:267|350:267|409:279,1,89.2500017023087,2|0,3:2|0:0,0:0:0:0:
430,295,49853,2,0,L|477:291,2,39.6666674232483,10|8|8,0:2|0:2|0:2,0:0:0:0:
371,358,50186,1,8,0:2:0:0:
290,166,50519,1,0,3:2:0:0:
171,338,50853,6,0,P|108:299|103:240,2,119.000002269745,2|8|8,3:2|0:2|0:2,0:0:0:0:
272,174,51853,2,0,L|199:184,1,59.5000011348725,2|2,0:2|0:2,0:0:0:0:
258,314,52186,2,0,P|250:273|261:238,1,59.5000011348725,2|0,3:2|0:2,0:0:0:0:
409,188,52519,5,10,0:2:0:0:
414,198,52631,1,8,0:2:0:0:
418,208,52742,1,8,0:2:0:0:
421,219,52853,6,0,L|415:280,1,59.5000011348725,10|0,0:2|0:2,0:0:0:0:
284,373,53186,2,0,L|278:313,1,59.5000011348725,10|0,0:2|0:2,0:0:0:0:
438,362,53519,5,2,0:2:0:0:
185,110,54853,5,14,0:2:0:0:
109,278,55019,1,2,0:2:0:0:
73,83,55186,1,10,0:2:0:0:
209,258,55353,2,0,P|255:269|300:260,1,90.9999958343508,2|8,0:2|0:2,0:0:0:0:
422,113,55686,1,2,3:2:0:0:
251,176,55853,1,10,0:2:0:0:
334,19,56019,6,0,L|326:109,1,90.9999958343508,2|8,3:2|0:2,0:0:0:0:
379,256,56353,1,2,0:2:0:0:
232,147,56519,1,10,0:2:0:0:
457,202,56686,2,0,P|474:256|462:300,1,90.9999958343508,2|8,3:2|0:2,0:0:0:0:
281,347,57019,1,2,3:2:0:0:
328,178,57186,1,10,0:2:0:0:
269,372,57353,1,2,3:2:0:0:
205,151,57519,5,14,0:2:0:0:
352,290,57686,1,2,0:2:0:0:
384,84,57853,1,10,0:2:0:0:
227,252,58019,2,0,L|116:244,1,90.9999958343508,2|8,0:2|0:2,0:0:0:0:
11,114,58353,1,2,3:2:0:0:
205,151,58519,1,10,0:2:0:0:
34,237,58686,1,2,3:2:0:0:
124,60,58853,5,10,0:2:0:0:
150,264,59019,1,2,0:2:0:0:
11,114,59186,1,10,0:2:0:0:
241,232,59353,2,0,P|252:277|237:321,1,90.9999958343508,2|8,3:2|0:2,0:0:0:0:
45,373,59686,1,2,3:2:0:0:
105,181,59853,1,10,0:2:0:0:
299,384,60186,5,14,0:2:0:0:
234,205,60353,1,2,0:2:0:0:
389,343,60519,1,10,0:2:0:0:
389,145,60686,2,0,P|355:187|295:202,1,90.9999958343508,2|8,0:2|0:2,0:0:0:0:
141,163,61019,1,2,3:2:0:0:
303,111,61186,1,10,0:2:0:0:
241,295,61353,6,0,L|231:175,1,90.9999958343508,2|8,3:2|0:2,0:0:0:0:
74,81,61686,1,2,0:2:0:0:
145,248,61853,1,10,0:2:0:0:
221,66,62019,2,0,P|276:62|335:97,1,90.9999958343508,2|8,3:2|0:2,0:0:0:0:
443,217,62353,1,2,3:2:0:0:
263,153,62519,1,10,0:2:0:0:
436,77,62686,1,2,3:2:0:0:
315,232,62853,6,0,P|273:246|228:241,1,90.9999958343508,14|2,0:2|0:2,0:0:0:0:
47,178,63186,1,10,0:2:0:0:
122,340,63353,1,2,3:2:0:0:
158,134,63519,1,10,0:2:0:0:
158,134,63603,1,8,0:2:0:0:
158,134,63686,1,10,0:3:0:0:
9,271,63853,1,10,0:2:0:0:
219,346,64019,5,6,3:2:0:0:
252,103,64353,5,10,0:2:0:0:
120,250,64519,1,8,0:2:0:0:
326,195,64686,1,10,0:3:0:0:
326,195,64769,1,8,0:2:0:0:
326,195,64853,1,2,3:2:0:0:
158,134,65019,2,0,L|81:126,1,45.4999979171754,10|8,0:2|0:2,0:0:0:0:
212,257,65186,2,0,L|289:249,3,45.4999979171754,8|8|8|8,0:3|0:3|0:3|0:3,0:0:0:0:
346,172,65519,6,0,L|351:255,1,83.9999974365235,6|2,3:2|0:2,0:0:0:0:
243,381,65853,1,10,0:2:0:0:
480,306,66019,2,0,B|385:285|418:354|314:334,1,167.999994873047,10|2,0:2|3:2,0:0:0:0:
162,272,66519,1,10,0:2:0:0:
323,160,66686,6,0,B|358:132|358:132|350:270,1,167.999994873047,2|2,3:2|3:2,0:0:0:0:
242,297,67186,1,10,0:2:0:0:
204,135,67353,2,0,P|153:127|105:145,1,83.9999974365235,10|0,0:2|0:2,0:0:0:0:
7,263,67686,1,2,3:2:0:0:
159,217,67853,1,10,0:2:0:0:
0,154,68019,1,2,0:2:0:0:
104,304,68186,5,6,3:2:0:0:
188,120,68353,2,0,L|278:129,1,83.9999974365235,2|10,0:2|0:2,0:0:0:0:
362,268,68686,2,0,L|272:277,1,83.9999974365235,10|0,0:2|0:2,0:0:0:0:
381,132,69019,1,2,3:2:0:0:
459,282,69186,1,10,0:2:0:0:
483,105,69353,1,2,3:2:0:0:
302,186,69519,6,0,P|285:136|294:94,1,83.9999974365235,2|2,0:2|3:2,0:0:0:0:
348,0,69853,1,10,0:2:0:0:
460,119,70019,2,0,P|410:136|368:127,1,83.9999974365235,10|0,0:2|0:2,0:0:0:0:
261,23,70353,1,2,3:2:0:0:
277,195,70519,2,0,L|292:290,1,83.9999974365235,10|0,0:2|0:2,0:0:0:0:
137,360,70853,6,0,P|186:317|231:318,1,83.9999974365235,6|2,3:2|0:2,0:0:0:0:
343,357,71186,1,10,0:2:0:0:
245,184,71353,2,0,B|145:181|186:242|68:231,1,167.999994873047,10|2,0:2|3:2,0:0:0:0:
0,182,71853,1,8,0:2:0:0:
90,48,72019,6,0,B|130:15|184:41|184:41|195:89|158:128,1,167.999994873047,2|2,3:2|3:2,0:0:0:0:
88,232,72519,1,10,0:2:0:0:
9,93,72686,2,0,P|-2:33|11:-6,1,83.9999974365235,10|0,0:2|0:2,0:0:0:0:
183,132,73019,1,2,3:2:0:0:
0,181,73186,1,10,0:2:0:0:
103,23,73352,1,2,3:2:0:0:
157,220,73519,6,0,P|200:225|240:206,1,83.9999974365235,6|2,3:2|3:2,0:0:0:0:
354,69,73853,1,10,0:2:0:0:
318,241,74019,1,2,3:2:0:0:
255,64,74186,1,10,0:3:0:0:
405,201,74353,1,10,0:2:0:0:
405,201,74436,1,8,0:2:0:0:
405,201,74519,1,10,0:2:0:0:
421,3,74686,5,6,3:2:0:0:
233,244,75019,5,10,0:2:0:0:
348,104,75185,1,10,0:2:0:0:
388,318,75352,1,10,0:2:0:0:
264,159,75519,2,0,P|213:154|157:191,1,83.9999974365235,10|0,0:2|0:2,0:0:0:0:
150,190,75769,1,8,0:2:0:0:
150,190,75853,1,0,3:2:0:0:
447,241,76353,6,0,P|450:196|437:161,2,70,2|2|2,0:2|0:2|0:2,0:0:0:0:
292,317,76853,1,2,0:2:0:0:
276,229,77019,1,2,0:2:0:0:
364,213,77186,1,2,0:2:0:0:
379,300,77353,1,2,0:2:0:0:
191,135,77686,5,10,0:2:0:0:
292,317,77853,1,10,0:2:0:0:
385,103,78019,1,10,0:2:0:0:
202,282,78186,2,0,P|151:286|101:255,1,83.9999974365235,10|0,0:2|3:2,0:0:0:0:
0,77,78519,6,0,B|45:98|45:98|144:72,1,136.499993751526,14|0,0:2|0:2,0:0:0:0:
156,47,78853,6,0,B|264:30|214:94|331:80,1,175,14|10,0:2|0:2,0:0:0:0:
474,0,79353,2,0,P|423:16|393:56,1,87.5,2|8,0:2|0:2,0:0:0:0:
402,214,79686,2,0,P|412:163|392:117,1,87.5,2|8,3:2|0:2,0:0:0:0:
238,165,80020,6,0,L|326:169,1,87.5,2|8,3:2|0:2,0:0:0:0:
207,42,80353,1,2,0:2:0:0:
137,201,80520,1,10,0:2:0:0:
91,26,80686,2,0,P|50:14|2:26,1,87.5,2|8,3:2|0:2,0:0:0:0:
137,201,81020,1,2,3:2:0:0:
216,15,81186,1,10,0:2:0:0:
36,103,81353,1,2,3:2:0:0:
238,165,81519,6,0,L|326:169,1,87.5,14|2,0:2|0:2,0:0:0:0:
388,62,81853,1,10,0:2:0:0:
400,225,82020,2,0,P|418:179|414:138,1,87.5,2|8,0:2|0:2,0:0:0:0:
230,205,82353,2,0,P|260:243|297:261,2,87.5,2|10|2,3:2|0:2|3:2,0:0:0:0:
215,30,82853,5,10,0:2:0:0:
325,168,83020,1,2,0:2:0:0:
341,0,83186,1,10,0:2:0:0:
188,122,83353,2,0,L|100:129,1,87.5,2|8,3:2|0:2,0:0:0:0:
34,24,83686,1,2,3:2:0:0:
215,30,83853,2,0,P|264:55|288:108,1,87.5,10|2,0:2|0:2,0:0:0:0:
203,282,84186,6,0,B|170:248|170:248|188:119,1,175,14|10,0:2|0:2,0:0:0:0:
347,29,84686,2,0,P|298:54|274:107,1,87.5,2|8,0:2|0:2,0:0:0:0:
381,204,85019,2,0,P|383:149|349:101,1,87.5,2|8,3:2|0:2,0:0:0:0:
202,166,85353,6,0,L|289:168,1,87.5,2|8,3:2|0:2,0:0:0:0:
410,288,85686,1,2,0:2:0:0:
369,121,85853,1,10,0:2:0:0:
279,283,86020,2,0,P|227:289|188:273,1,87.5,2|8,3:2|0:2,0:0:0:0:
48,164,86353,1,2,3:2:0:0:
242,201,86520,1,10,0:2:0:0:
77,283,86686,1,2,3:2:0:0:
136,111,86853,6,0,L|148:211,1,87.5,14|2,0:2|3:2,0:0:0:0:
72,373,87186,1,10,0:2:0:0:
27,195,87353,1,2,3:2:0:0:
173,301,87520,1,10,0:2:0:0:
173,301,87603,1,8,0:2:0:0:
173,301,87686,1,10,0:3:0:0:
121,118,87853,1,10,0:2:0:0:
0,320,88020,5,6,3:2:0:0:
210,154,88353,1,10,0:3:0:0:
258,350,88519,1,10,0:3:0:0:
346,178,88686,1,10,0:2:0:0:
346,178,88769,1,8,0:2:0:0:
346,178,88853,2,0,P|413:173|461:224,1,131.25,10|8,0:2|0:2,0:0:0:0:
457,258,89186,1,8,0:2:0:0:
296,329,89353,1,8,0:2:0:0:
296,329,89436,1,8,0:2:0:0:
296,329,89519,6,0,L|149:316,1,125.999996154785,6|0,3:2|3:2,0:0:0:0:
163,175,90019,2,0,P|190:209|194:237,1,62.9999980773926,2|0,0:2|3:2,0:0:0:0:
68,294,90352,2,0,P|84:252|105:234,1,62.9999980773926,2|0,0:2|3:2,0:0:0:0:
170,317,90685,1,2,0:2:0:0:
185,146,90852,6,0,B|256:128|243:182|327:160,1,125.999996154785,0|0,3:2|3:2,0:0:0:0:
360,49,91352,2,0,P|318:63|297:89,1,62.9999980773926,2|0,0:2|3:2,0:0:0:0:
372,215,91686,2,0,P|413:200|451:157,1,94.499997116089,2|0,0:2|0:0,0:0:0:0:
459,139,92019,1,2,0:2:0:0:
492,291,92185,6,0,B|455:275|455:275|361:301,1,125.999996154785,0|0,3:2|3:2,0:0:0:0:
296,384,92686,2,0,L|289:316,1,62.9999980773926,2|0,0:2|3:2,0:0:0:0:
208,230,93019,2,0,L|202:293,1,62.9999980773926,2|0,0:2|3:2,0:0:0:0:
136,376,93352,1,2,0:2:0:0:
117,194,93519,6,0,P|170:143|244:147,1,125.999996154785,0|0,3:2|3:2,0:0:0:0:
325,248,94019,2,0,P|302:221|294:180,1,62.9999980773926,2|0,0:2|3:2,0:0:0:0:
400,107,94353,1,2,0:2:0:0:
400,107,94436,1,2,0:2:0:0:
400,107,94519,2,0,L|381:193,1,62.9999980773926,2|0,3:2|0:2,0:0:0:0:
470,331,94853,6,0,P|490:297|492:257,1,66.4999982242585,6|0,3:2|0:2,0:0:0:0:
475,156,95186,1,10,0:2:0:0:
353,264,95353,2,0,L|208:243,1,132.999996448517,2|2,0:2|0:2,0:0:0:0:
109,170,95853,1,8,0:2:0:0:
160,311,96020,1,2,0:2:0:0:
261,168,96186,6,0,P|225:159|176:176,1,66.4999982242585,2|0,3:2|0:2,0:0:0:0:
256,321,96519,2,0,P|292:330|341:313,1,66.4999982242585,10|0,0:2|0:2,0:0:0:0:
411,183,96853,1,2,3:2:0:0:
410,328,97020,1,8,0:2:0:0:
280,177,97186,2,0,L|289:245,1,66.4999982242585,8|0,0:2|0:2,0:0:0:0:
175,369,97519,5,2,3:2:0:0:
132,197,97686,1,10,0:3:0:0:
256,321,97853,1,10,0:3:0:0:
90,379,98019,1,8,0:2:0:0:
90,379,98103,1,8,0:2:0:0:
90,379,98186,2,0,P|74:336|77:294,1,66.4999982242585,8|8,0:2|0:2,0:0:0:0:
86,281,98436,1,8,0:2:0:0:
86,281,98519,2,8,L|132:287,1,33.2499991121292,8|8,0:2|0:2,0:0:0:0:
200,238,98686,2,8,L|232:233,1,33.2499991121292,2|0,3:2|0:0,0:0:0:0:
327,270,98853,5,2,0:2:0:0:
194,50,99186,1,2,0:2:0:0:
86,281,99520,1,2,0:2:0:0:
363,322,100186,6,0,L|365:240,1,70,6|2,3:2|0:2,0:0:0:0:
322,145,100520,1,8,0:2:0:0:
253,267,100686,2,0,P|215:273|165:243,1,70,2|0,0:2|3:2,0:0:0:0:
113,135,101020,2,0,P|151:129|201:159,1,70,2|8,3:2|0:2,0:0:0:0:
94,303,101353,1,2,0:2:0:0:
0,155,101520,6,0,L|13:248,1,70,0|2,3:2|0:2,0:0:0:0:
26,362,101853,1,8,0:2:0:0:
96,217,102019,1,2,0:2:0:0:
167,374,102186,1,0,3:2:0:0:
167,374,102269,1,8,0:2:0:0:
167,374,102353,2,0,P|205:379|259:362,1,70,2|8,3:2|0:2,0:0:0:0:
251,258,102686,1,2,0:2:0:0:
341,382,102853,6,0,L|335:312,1,70,0|2,3:2|0:2,0:0:0:0:
237,238,103186,1,8,0:2:0:0:
394,246,103353,2,0,P|354:227|318:229,1,70,2|0,0:2|3:2,0:0:0:0:
427,328,103686,2,0,P|463:302|479:270,1,70,2|8,3:2|0:2,0:0:0:0:
322,157,104020,1,2,0:2:0:0:
322,157,104103,1,8,0:2:0:0:
322,157,104186,6,0,L|329:238,1,70,0|2,3:2|3:2,0:0:0:0:
432,106,104520,1,8,0:2:0:0:
287,68,104686,1,2,0:2:0:0:
287,68,104769,1,8,0:2:0:0:
287,68,104853,1,2,3:2:0:0:
410,189,105020,1,2,3:2:0:0:
440,13,105186,2,0,P|403:19|361:57,1,70,14|2,0:2|0:2,0:0:0:0:
258,146,105519,5,6,3:2:0:0:
275,0,105686,2,0,L|286:69,1,70,2|8,0:2|0:2,0:0:0:0:
176,183,106020,2,0,P|170:149|177:115,1,70,2|0,0:2|3:2,0:0:0:0:
326,146,106353,2,0,P|291:152|257:145,1,70,2|8,3:2|0:2,0:0:0:0:
182,23,106686,1,2,0:2:0:0:
82,129,106853,6,0,L|93:217,1,70,2|0,3:2|0:2,0:0:0:0:
238,240,107186,2,0,P|203:214|155:215,1,70,10|0,0:2|0:2,0:0:0:0:
49,278,107519,1,2,3:2:0:0:
49,278,107603,1,8,0:2:0:0:
49,278,107686,1,0,3:2:0:0:
176,339,107853,2,0,L|246:330,1,70,8|0,0:2|0:2,0:0:0:0:
322,221,108186,5,2,3:2:0:0:
330,371,108353,2,0,P|338:330|331:294,1,70,2|8,0:2|0:2,0:0:0:0:
180,202,108686,2,0,P|211:229|246:241,1,70,2|8,3:2|0:2,0:0:0:0:
377,146,109019,1,2,3:2:0:0:
333,302,109186,1,10,0:2:0:0:
257,156,109353,1,2,0:2:0:0:
443,216,109519,6,0,L|519:220,1,70,14|0,0:2|0:2,0:0:0:0:
407,61,109853,2,0,L|331:65,1,70,10|0,0:3|0:2,0:0:0:0:
249,202,110186,5,2,3:2:0:0:
249,202,110297,2,0,L|260:133,1,46.6666666666667,10|10,0:3|0:3,0:0:0:0:
158,72,110519,5,10,0:3:0:0:
158,72,110631,2,0,L|165:118,1,46.6666666666667,6|6,0:3|0:3,0:0:0:0:
49,181,110853,6,0,B|119:163|101:219|180:199,1,119.000002269745,6|0,3:2|0:2,0:0:0:0:
304,328,111520,2,0,B|268:306|268:306|169:329,1,119.000002269745,2|0,0:2|3:2,0:0:0:0:
384,384,112186,6,0,P|399:326|371:267,1,119.000002269745,2|0,3:2|0:2,0:0:0:0:
196,166,112853,2,0,P|238:207|303:213,1,119.000002269745,2|0,0:2|0:2,0:0:0:0:
512,150,113519,6,0,B|480:179|480:179|397:173,1,119.000002269745,2|0,3:2|0:2,0:0:0:0:
240,58,114186,2,0,B|281:70|281:70|317:145,1,119.000002269745,2|0,0:2|3:2,0:0:0:0:
316,305,114853,6,0,B|305:263|305:263|343:202,1,89.2500017023087,2|0,3:2|0:2,0:0:0:0:
346,202,115186,1,2,0:2:0:0:
411,307,115353,1,2,0:2:0:0:
438,201,115519,2,0,P|436:168|410:134,1,59.5000011348725,10|0,0:2|0:2,0:0:0:0:
315,25,115853,2,0,L|310:135,1,89.2500017023087,2|0,0:2|0:0,0:0:0:0:
282,143,116186,6,0,B|208:136|244:191|147:179,1,119.000002269745,2|10,3:2|0:2,0:0:0:0:
72,130,116686,2,0,L|80:196,1,59.5000011348725,2|0,0:2|3:2,0:0:0:0:
168,275,117019,2,0,L|175:215,1,59.5000011348725,10|0,0:2|3:2,0:0:0:0:
34,266,117353,1,2,0:2:0:0:
119,349,117519,6,0,P|155:364|182:363,1,59.5000011348725,2|8,3:2|0:2,0:0:0:0:
254,254,117853,2,0,P|224:256|197:269,1,59.5000011348725,10|0,0:2|3:2,0:0:0:0:
334,374,118186,2,0,L|339:258,1,89.2500017023087,10|0,0:2|0:2,0:0:0:0:
340,254,118519,1,2,0:2:0:0:
218,96,118853,6,0,B|287:72|276:131|351:105,1,119.000002269745,2|10,3:2|0:2,0:0:0:0:
402,38,119353,1,8,0:2:0:0:
435,180,119519,2,0,L|427:117,1,59.5000011348725,10|8,0:3|0:2,0:0:0:0:
340,254,119853,2,0,L|348:191,1,59.5000011348725,2|0,3:2|0:2,0:0:0:0:
473,304,120186,5,2,0:2:0:0:
347,194,121186,6,0,L|340:255,1,57.7500017623902,12|0,0:3|0:2,0:0:0:0:
344,292,121519,6,0,B|276:278|276:278|233:295|233:295|159:284,1,181.999991668702,14|10,0:2|0:2,0:0:0:0:
90,133,122019,2,0,P|132:153|154:197,1,90.9999958343508,2|8,0:2|0:2,0:0:0:0:
107,384,122352,1,2,3:2:0:0:
59,217,122519,1,10,0:2:0:0:
228,335,122686,6,0,L|320:329,1,90.9999958343508,2|8,3:2|0:2,0:0:0:0:
406,199,123019,1,2,0:2:0:0:
232,248,123185,1,10,0:2:0:0:
367,117,123352,2,0,P|416:108|460:125,1,90.9999958343508,2|8,3:2|0:2,0:0:0:0:
458,376,123686,1,2,3:2:0:0:
406,199,123852,1,10,0:2:0:0:
336,383,124019,1,2,3:2:0:0:
283,168,124185,5,14,0:2:0:0:
467,278,124352,1,2,0:2:0:0:
262,332,124519,1,10,0:2:0:0:
499,267,124686,2,0,L|491:164,1,90.9999958343508,2|8,0:2|0:2,0:0:0:0:
320,65,125019,1,2,3:2:0:0:
491,28,125186,1,10,0:2:0:0:
384,195,125353,1,2,3:2:0:0:
243,19,125519,5,10,0:2:0:0:
291,234,125686,1,2,0:2:0:0:
402,31,125853,1,10,0:2:0:0:
207,185,126019,2,0,L|112:171,1,90.9999958343508,2|8,3:2|0:2,0:0:0:0:
243,19,126352,1,2,3:2:0:0:
291,234,126519,1,10,0:2:0:0:
479,76,126853,5,14,0:2:0:0:
301,139,127020,1,2,0:2:0:0:
466,210,127186,1,10,0:2:0:0:
392,58,127353,2,0,L|385:166,1,90.9999958343508,2|8,0:2|0:2,0:0:0:0:
291,269,127686,1,2,3:2:0:0:
228,93,127853,1,10,0:2:0:0:
159,275,128020,6,0,P|110:282|69:267,1,90.9999958343508,2|8,3:2|0:2,0:0:0:0:
3,83,128353,1,2,0:2:0:0:
121,189,128520,1,10,0:2:0:0:
110,8,128686,2,0,L|84:124,1,90.9999958343508,2|8,3:2|0:2,0:0:0:0:
159,275,129020,1,2,3:2:0:0:
201,94,129186,1,10,0:2:0:0:
39,226,129353,1,2,3:2:0:0:
241,173,129520,6,0,P|285:167|328:181,1,90.9999958343508,14|2,0:2|0:2,0:0:0:0:
442,356,129853,1,10,0:2:0:0:
277,261,130020,1,2,3:2:0:0:
470,212,130186,1,10,0:2:0:0:
312,340,130353,1,2,3:2:0:0:
393,154,130520,1,10,0:2:0:0:
459,377,130686,5,6,3:2:0:0:
243,160,131019,1,10,0:2:0:0:
312,340,131186,1,8,0:2:0:0:
388,175,131353,1,10,0:2:0:0:
388,175,131436,1,8,0:2:0:0:
388,175,131519,1,2,3:2:0:0:
198,238,131686,2,0,P|159:233|129:214,2,45.4999979171754,10|8|8,0:2|0:2|0:3,0:0:0:0:
427,319,132019,1,8,0:2:0:0:
427,319,132103,1,8,0:2:0:0:
427,319,132186,6,0,P|446:276|440:223,1,83.9999974365235,6|2,3:2|0:2,0:0:0:0:
284,349,132519,1,10,0:2:0:0:
247,146,132686,2,0,B|147:134|182:200|72:185,1,167.999994873047,10|2,0:2|3:2,0:0:0:0:
20,279,133186,1,8,0:2:0:0:
204,375,133353,6,0,B|244:342|244:342|219:204,1,167.999994873047,2|2,3:2|3:2,0:0:0:0:
237,21,133853,1,10,0:2:0:0:
333,165,134019,2,0,P|386:170|435:145,1,83.9999974365235,10|0,0:2|0:2,0:0:0:0:
507,17,134353,1,2,3:2:0:0:
497,194,134519,1,10,0:2:0:0:
369,62,134686,1,2,0:2:0:0:
407,254,134853,5,6,3:2:0:0:
512,107,135019,2,0,P|465:108|422:143,1,83.9999974365235,2|10,0:2|0:2,0:0:0:0:
502,277,135353,2,0,L|496:185,1,83.9999974365235,10|0,0:2|0:2,0:0:0:0:
354,92,135686,1,2,3:2:0:0:
407,254,135853,1,10,0:2:0:0:
483,85,136019,1,2,3:2:0:0:
320,200,136186,6,0,L|222:195,1,83.9999974365235,2|2,0:2|3:2,0:0:0:0:
181,87,136519,1,10,0:2:0:0:
153,245,136686,2,0,P|136:198|144:154,1,83.9999974365235,10|0,0:2|0:2,0:0:0:0:
271,98,137019,1,2,3:2:0:0:
78,81,137186,2,0,L|176:76,1,83.9999974365235,10|0,0:2|0:2,0:0:0:0:
297,244,137519,6,0,B|256:214|256:214|272:88,1,167.999994873047,6|10,3:2|0:2,0:0:0:0:
434,133,138019,2,0,P|395:148|337:136,1,83.9999974365235,10|0,0:2|0:2,0:0:0:0:
257,7,138353,1,2,3:2:0:0:
389,56,138519,1,10,0:2:0:0:
220,164,138686,6,0,B|123:178|158:122|50:138,1,167.999994873047,2|2,3:2|3:2,0:0:0:0:
84,225,139186,1,10,0:2:0:0:
193,82,139353,2,0,P|196:39|182:0,1,83.9999974365235,10|0,0:2|0:2,0:0:0:0:
58,136,139686,1,2,3:2:0:0:
220,164,139853,1,10,0:2:0:0:
104,50,140019,1,2,0:2:0:0:
84,225,140186,6,0,P|46:228|-8:205,1,83.9999974365235,6|2,3:2|3:2,0:0:0:0:
123,75,140519,1,10,0:2:0:0:
178,249,140686,1,2,3:2:0:0:
243,55,140853,1,10,0:3:0:0:
60,143,141019,1,10,0:3:0:0:
60,143,141103,1,8,0:3:0:0:
60,143,141186,1,10,0:3:0:0:
276,238,141353,5,6,3:2:0:0:
82,337,141686,5,10,0:2:0:0:
179,152,141853,1,10,0:2:0:0:
225,363,142020,1,10,0:2:0:0:
51,226,142186,2,0,L|60:132,1,83.9999974365235,10|0,0:2|0:2,0:0:0:0:
72,110,142436,1,8,0:2:0:0:
72,110,142519,1,0,3:2:0:0:
278,278,143019,6,0,P|233:281|193:264,2,70,2|2|2,0:2|0:2|0:2,0:0:0:0:
354,123,143519,1,2,0:2:0:0:
266,107,143685,1,2,0:2:0:0:
250,195,143852,1,2,0:2:0:0:
337,210,144019,1,2,0:2:0:0:
173,40,144353,5,10,0:2:0:0:
354,123,144520,1,10,0:2:0:0:
157,183,144686,1,10,0:2:0:0:
328,36,144853,2,0,P|379:35|420:62,1,83.9999974365235,10|0,0:2|3:2,0:0:0:0:
511,217,145186,2,0,L|415:208,1,83.9999974365235,14|0,0:2|0:2,0:0:0:0:
244,143,145519,5,6,3:2:0:0:
316,295,145686,1,2,0:2:0:0:
354,123,145853,1,10,0:2:0:0:
200,233,146019,2,0,L|88:221,1,83.9999974365235,10|0,0:2|0:2,0:0:0:0:
216,65,146353,2,0,P|241:115|240:165,2,83.9999974365235,2|10|2,3:2|0:2|0:2,0:0:0:0:
40,57,146853,5,2,3:2:0:0:
109,194,147019,1,2,3:2:0:0:
138,18,147186,1,10,0:2:0:0:
12,146,147353,2,0,L|28:251,1,83.9999974365235,10|0,0:2|0:2,0:0:0:0:
100,339,147686,1,2,3:2:0:0:
135,173,147853,1,10,0:2:0:0:
201,330,148019,1,2,0:2:0:0:
266,175,148186,6,0,L|361:186,1,83.9999974365235,6|2,3:2|3:2,0:0:0:0:
474,288,148519,2,0,L|379:299,1,83.9999974365235,10|2,0:2|0:2,0:0:0:0:
349,311,148769,1,8,0:3:0:0:
349,311,148853,1,2,3:2:0:0:
463,191,149019,1,2,3:2:0:0:
510,370,149186,2,0,L|415:381,1,83.9999974365235,10|2,0:2|0:2,0:0:0:0:
391,384,149436,1,2,0:2:0:0:
391,384,149519,6,0,P|364:361|306:358,1,83.9999974365235,2|0,3:2|3:2,0:0:0:0:
159,376,149853,2,0,P|192:364|224:315,1,83.9999974365235,10|0,0:2|0:2,0:0:0:0:
238,284,150103,1,8,0:3:0:0:
238,284,150186,1,2,3:2:0:0:
72,326,150353,1,0,3:2:0:0:
181,207,150519,2,0,P|229:190|281:200,1,83.9999974365235,14|0,0:2|0:2,0:0:0:0:
404,328,150853,5,6,3:2:0:0:
238,284,151020,1,2,0:2:0:0:
384,194,151187,1,10,0:2:0:0:
316,349,151353,2,0,L|320:256,1,83.9999974365235,10|0,0:2|0:2,0:0:0:0:
392,106,151687,2,0,P|434:116|468:160,2,83.9999974365235,2|10|2,3:2|0:2|0:2,0:0:0:0:
252,166,152186,5,2,3:2:0:0:
322,25,152353,1,2,3:2:0:0:
384,194,152519,1,10,0:2:0:0:
237,70,152686,2,0,P|196:65|140:93,1,83.9999974365235,10|0,0:2|0:2,0:0:0:0:
115,193,153019,1,2,3:2:0:0:
67,50,153186,1,10,0:2:0:0:
208,153,153353,1,2,0:2:0:0:
83,282,153519,6,0,B|198:293|150:230|277:247,1,167.999994873047,6|8,3:2|0:0,0:0:0:0:
377,351,154019,1,0,0:2:0:0:
377,351,154103,1,8,0:3:0:0:
377,351,154186,2,0,P|346:307|343:255,1,83.9999974365235,0|0,3:2|0:2,0:0:0:0:
488,192,154519,2,0,L|381:194,1,83.9999974365235,10|0,0:2|3:2,0:0:0:0:
236,67,154853,5,14,0:2:0:0:
432,103,155019,1,2,3:2:0:0:
270,187,155186,1,10,0:2:0:0:
328,26,155353,2,0,P|337:82|328:115,1,83.9999974365235,10|8,0:2|0:2,0:0:0:0:
233,277,155686,1,10,0:2:0:0:
267,283,155769,1,8,0:2:0:0:
301,279,155852,1,8,0:2:0:0:
332,261,155936,1,8,0:2:0:0:
362,244,156019,1,10,0:2:0:0:
397,241,156102,1,8,0:2:0:0:
431,246,156186,5,6,3:2:0:0:
270,187,156353,1,2,0:2:0:0:
387,338,156519,1,10,0:2:0:0:
245,167,156686,2,0,P|189:161|137:192,1,90.9999958343508,2|8,0:2|0:2,0:0:0:0:
51,352,157019,1,2,3:2:0:0:
206,249,157186,1,10,0:2:0:0:
142,384,157353,6,0,L|130:293,1,90.9999958343508,2|8,3:2|0:2,0:0:0:0:
85,171,157686,1,2,0:2:0:0:
0,279,157853,1,10,0:2:0:0:
20,92,158019,1,2,3:2:0:0:
172,168,158186,2,0,P|123:158|61:191,1,90.9999958343508,10|0,0:2|3:2,0:0:0:0:
228,334,158519,1,10,0:2:0:0:
280,163,158686,1,2,3:2:0:0:
377,342,158853,6,0,L|380:249,1,90.9999958343508,14|2,0:2|0:2,0:0:0:0:
335,88,159186,1,10,0:2:0:0:
228,245,159353,1,2,0:2:0:0:
409,153,159519,2,0,P|427:111|425:66,1,90.9999958343508,10|0,0:2|3:2,0:0:0:0:
235,81,159853,1,10,0:2:0:0:
409,153,160019,1,2,3:2:0:0:
196,222,160186,5,10,0:2:0:0:
335,88,160353,1,0,3:2:0:0:
148,36,160519,5,10,0:2:0:0:
279,169,160686,1,0,3:2:0:0:
151,303,160853,6,0,B|95:268|95:268|125:136,1,181.999991668702,10|10,0:2|0:2,0:0:0:0:
242,53,161353,1,2,0:2:0:0:
324,246,161519,6,0,L|428:235,1,90.9999958343508,14|0,0:2|0:2,0:0:0:0:
361,90,161853,1,10,0:2:0:0:
242,200,162019,2,0,P|231:246|241:290,1,90.9999958343508,2|8,0:2|0:2,0:0:0:0:
491,283,162353,2,0,P|501:236|491:192,1,90.9999958343508,2|8,3:2|0:2,0:0:0:0:
360,0,162686,6,0,L|360:90,1,90.9999958343508,2|8,3:2|0:2,0:0:0:0:
242,200,163019,1,2,0:2:0:0:
447,127,163186,1,10,0:2:0:0:
208,216,163353,2,0,L|201:109,1,90.9999958343508,2|8,3:2|0:2,0:0:0:0:
396,16,163686,1,2,3:2:0:0:
331,211,163853,1,10,0:2:0:0:
234,27,164019,1,2,3:2:0:0:
419,164,164186,6,0,P|425:223|395:282,1,90.9999958343508,14|2,0:2|0:2,0:0:0:0:
388,286,164436,1,8,0:2:0:0:
388,286,164519,1,2,3:2:0:0:
287,212,164686,2,0,P|319:209|348:218,1,45.4999979171754,10|0,0:3|0:2,0:0:0:0:
413,373,164853,1,10,0:3:0:0:
230,285,165019,1,10,0:2:0:0:
230,285,165103,1,8,0:2:0:0:
230,285,165186,1,10,0:2:0:0:
338,121,165353,6,0,L|329:237,1,90.9999958343508,6|0,3:2|0:2,0:0:0:0:
413,373,165686,1,2,3:2:0:0:
230,285,165853,1,10,0:2:0:0:
439,223,166019,1,2,0:2:0:0:
304,366,166186,5,10,0:2:0:0:
304,366,166297,2,0,L|311:293,1,60.6666638895672,8|8,0:2|0:3,0:0:0:0:
437,194,166519,6,0,P|423:226|341:231,1,121.333327779134,12|8,0:3|0:3,0:0:0:0:
256,192,166853,5,6,3:2:0:0:
185,78,171686,6,0,L|193:134,1,35,2|0,0:2|0:2,0:0:0:0:
255,150,171853,6,0,L|249:231,1,62.9999980773926,10|0,0:3|0:2,0:0:0:0:
204,281,172186,6,0,P|243:295|305:278,1,77.0000023498536,14|0,0:2|0:2,0:0:0:0:
345,180,172519,1,2,3:2:0:0:
351,340,172686,2,0,P|365:301|348:239,1,77.0000023498536,2|0,0:2|3:2,0:0:0:0:
255,150,173019,2,0,L|260:105,2,38.5000011749268,2|0|0,3:2|3:2|3:2,0:0:0:0:
204,281,173353,5,2,3:2:0:0:
204,281,173436,1,8,0:2:0:0:
204,281,173519,1,0,3:2:0:0:
171,140,173686,1,10,0:2:0:0:
171,140,173769,1,8,0:2:0:0:
171,140,173853,2,0,L|177:77,1,38.5000011749268,2|0,3:2|3:2,0:0:0:0:
105,222,174019,2,0,L|108:260,2,38.5000011749268,10|8|8,0:2|0:2|0:2,0:0:0:0:
156,362,174353,5,10,0:2:0:0:
183,371,174436,1,8,0:2:0:0:
211,374,174519,1,10,0:2:0:0:
239,368,174603,1,8,0:2:0:0:
265,355,174686,2,0,L|317:345,1,38.5000011749268,10|8,0:2|0:2,0:0:0:0:
284,228,174853,5,12,0:3:0:0:
284,228,174936,1,0,3:2:0:0:
284,228,175019,2,0,P|303:265|313:274,1,38.5000011749268,10|8,0:3|0:3,0:0:0:0:
407,198,175186,2,0,P|364:196|351:200,1,38.5000011749268,10|8,0:3|0:3,0:0:0:0:
380,314,175353,2,0,P|402:278|405:264,1,38.5000011749268,10|8,0:2|0:2,0:0:0:0:
297,139,175519,5,10,0:3:0:0:
258,142,175602,1,8,0:3:0:0:
222,155,175685,1,8,0:3:0:0:
194,181,175769,1,8,0:3:0:0:
164,205,175852,1,10,0:2:0:0:
127,215,175935,1,8,0:2:0:0:
89,217,176019,1,6,3:2:0:0:
89,217,177019,6,0,P|49:228|4:222,2,77.0000023498536,2|2|2,0:2|0:2|0:2,0:0:0:0:
214,64,177519,5,14,0:2:0:0:
41,137,177685,1,2,0:2:0:0:
224,200,177852,1,10,0:2:0:0:
119,52,178019,2,0,L|133:142,1,90.9999958343508,2|8,0:2|0:2,0:0:0:0:
196,287,178352,1,2,3:2:0:0:
273,127,178519,1,10,0:2:0:0:
326,309,178686,6,0,P|369:321|412:310,1,90.9999958343508,2|8,3:2|0:2,0:0:0:0:
474,143,179019,1,2,0:2:0:0:
311,221,179185,1,10,0:2:0:0:
506,313,179352,2,0,L|513:222,1,90.9999958343508,2|8,3:2|0:2,0:0:0:0:
314,84,179685,1,2,3:2:0:0:
474,143,179852,1,10,0:2:0:0:
284,77,180019,1,2,3:2:0:0:
512,38,180185,5,14,0:2:0:0:
422,225,180352,1,2,0:2:0:0:
362,8,180519,1,10,0:2:0:0:
279,194,180686,2,0,P|236:199|182:171,1,90.9999958343508,2|8,0:2|0:2,0:0:0:0:
59,62,181019,1,2,3:2:0:0:
254,107,181185,1,10,0:2:0:0:
66,190,181352,1,2,3:2:0:0:
179,26,181519,5,10,0:2:0:0:
184,229,181685,1,2,0:2:0:0:
59,62,181852,1,10,0:2:0:0:
24,301,182019,2,0,P|58:277|110:274,1,90.9999958343508,2|8,3:2|0:2,0:0:0:0:
270,327,182352,1,2,3:2:0:0:
92,372,182519,1,10,0:2:0:0:
217,152,182853,5,14,0:2:0:0:
400,231,183020,1,2,0:2:0:0:
240,307,183186,1,10,0:2:0:0:
309,97,183353,2,0,L|316:205,1,90.9999958343508,2|8,0:2|0:2,0:0:0:0:
269,298,183686,1,2,3:2:0:0:
198,100,183853,1,10,0:2:0:0:
129,290,184020,6,0,P|81:297|39:282,1,90.9999958343508,2|8,3:2|0:2,0:0:0:0:
79,101,184353,1,2,0:2:0:0:
144,266,184520,1,10,0:2:0:0:
211,78,184686,2,0,L|300:91,1,90.9999958343508,2|8,3:2|0:2,0:0:0:0:
420,227,185020,1,2,3:2:0:0:
373,38,185186,1,10,0:2:0:0:
297,211,185353,1,2,3:2:0:0:
453,90,185520,6,0,P|467:48|462:3,1,90.9999958343508,14|2,0:2|0:2,0:0:0:0:
289,103,185853,1,10,0:2:0:0:
492,173,186020,1,2,3:2:0:0:
295,243,186186,1,10,0:2:0:0:
295,243,186270,1,8,0:2:0:0:
295,243,186353,1,10,0:3:0:0:
373,38,186520,1,10,0:2:0:0:
430,254,186686,5,6,3:2:0:0:
248,0,187019,5,10,0:2:0:0:
202,191,187185,1,8,0:2:0:0:
343,49,187353,1,10,0:2:0:0:
157,103,187519,1,10,0:3:0:0:
353,176,187686,1,10,0:2:0:0:
353,176,187769,1,8,0:2:0:0:
353,176,187853,1,8,0:2:0:0:
248,0,188019,1,8,0:2:0:0:
248,0,188103,1,8,0:2:0:0:
248,0,188186,5,6,3:2:0:0:
183,191,188353,2,0,P|130:193|87:168,1,83.9999974365235,2|8,0:2|0:2,0:0:0:0:
259,28,188686,2,0,L|274:137,1,83.9999974365235,10|0,0:2|0:2,0:0:0:0:
369,265,189019,2,0,L|380:181,1,83.9999974365235,2|8,3:2|0:2,0:0:0:0:
512,52,189353,6,0,B|408:32|459:104|344:86,1,167.999994873047,2|2,3:2|3:2,0:0:0:0:
215,18,189853,1,10,0:2:0:0:
249,189,190019,2,0,P|266:143|250:79,1,83.9999974365235,10|0,0:2|0:2,0:0:0:0:
196,0,190353,1,0,3:2:0:0:
90,142,190519,2,0,L|182:133,1,83.9999974365235,10|0,0:2|0:2,0:0:0:0:
355,87,190853,5,6,3:2:0:0:
249,189,191019,2,0,P|232:235|248:299,1,83.9999974365235,2|8,0:2|0:2,0:0:0:0:
384,297,191353,2,0,P|352:259|289:241,1,83.9999974365235,10|0,0:2|0:2,0:0:0:0:
225,360,191686,2,0,P|273:351|320:305,1,83.9999974365235,2|8,3:2|0:2,0:0:0:0:
402,161,192019,6,0,B|352:139|352:139|232:167,1,167.999994873047,2|2,3:2|3:2,0:0:0:0:
194,251,192519,1,10,0:2:0:0:
156,81,192686,2,0,L|161:187,1,83.9999974365235,10|0,0:2|3:2,0:0:0:0:
101,275,193019,1,2,3:2:0:0:
0,137,193186,2,0,P|39:115|96:125,1,83.9999974365235,10|0,0:2|0:2,0:0:0:0:
193,281,193519,5,6,3:2:0:0:
244,124,193686,2,0,L|249:230,1,83.9999974365235,2|8,0:2|0:2,0:0:0:0:
415,223,194019,2,0,P|370:205|321:216,1,83.9999974365235,10|0,0:2|0:2,0:0:0:0:
313,353,194353,2,0,P|351:323|366:275,1,83.9999974365235,2|8,3:2|0:2,0:0:0:0:
244,124,194686,6,0,B|200:97|200:97|219:239,1,167.999994873047,2|2,3:2|3:2,0:0:0:0:
175,362,195186,1,10,0:2:0:0:
115,211,195353,2,0,P|75:199|34:208,1,83.9999974365235,10|0,0:2|0:2,0:0:0:0:
157,382,195686,1,2,3:2:0:0:
215,212,195853,1,10,0:2:0:0:
267,384,196019,1,2,0:2:0:0:
320,216,196186,6,0,L|414:222,1,83.9999974365235,6|10,3:2|0:2,0:0:0:0:
434,382,196519,1,10,0:2:0:0:
492,179,196686,1,10,0:3:0:0:
342,327,196853,1,10,0:2:0:0:
412,125,197019,1,8,0:2:0:0:
412,125,197103,1,8,0:2:0:0:
412,125,197186,1,10,0:2:0:0:
512,317,197353,5,6,3:2:0:0:
503,72,197686,5,10,0:2:0:0:
316,158,197853,1,10,0:3:0:0:
506,211,198019,1,10,0:2:0:0:
328,70,198186,2,0,P|267:82|235:123,1,83.9999974365235,14|0,0:2|0:2,0:0:0:0:
258,279,198519,1,8,0:2:0:0:
258,279,198603,1,8,0:2:0:0:
258,279,198686,1,0,3:2:0:0:
23,122,199019,6,0,P|20:167|41:210,2,83.9999974365235,2|2|2,0:2|0:2|0:2,0:0:0:0:
177,44,199519,1,2,0:2:0:0:
106,150,199685,1,2,0:2:0:0:
194,134,199852,1,2,0:2:0:0:
91,63,200019,1,2,0:2:0:0:
107,310,200353,5,10,0:2:0:0:
194,134,200520,1,10,0:2:0:0:
249,366,200686,1,10,0:2:0:0:
61,236,200853,2,0,P|114:220|157:235,1,83.9999974365235,10|0,0:2|3:2,0:0:0:0:
189,256,201103,1,0,3:2:0:0:
189,256,201186,2,0,P|248:230|271:325,1,157.500006008148,14|0,0:2|0:2,0:0:0:0:
249,366,201519,6,0,B|289:334|289:334|428:360,1,175,14|10,0:2|0:2,0:0:0:0:
443,218,202019,2,0,P|407:256|351:262,1,87.5,2|8,0:2|0:2,0:0:0:0:
290,138,202353,2,0,P|340:150|374:195,1,87.5,2|8,3:2|0:2,0:0:0:0:
286,320,202686,6,0,L|282:232,1,87.5,2|8,3:2|0:2,0:0:0:0:
204,116,203019,1,2,0:2:0:0:
155,272,203186,1,10,0:2:0:0:
105,102,203352,2,0,P|64:90|16:102,1,87.5,2|8,3:2|0:2,0:0:0:0:
143,294,203686,1,2,3:2:0:0:
204,116,203852,1,10,0:2:0:0:
51,211,204019,1,2,3:2:0:0:
254,281,204186,6,0,P|236:239|253:174,1,87.5,14|2,0:2|0:2,0:0:0:0:
316,92,204519,1,10,0:2:0:0:
406,238,204686,2,0,L|304:227,1,87.5,2|8,3:2|0:2,0:0:0:0:
404,64,205019,2,0,L|506:53,2,87.5,2|10|2,3:2|0:2|3:2,0:0:0:0:
254,161,205519,5,10,0:2:0:0:
321,0,205686,1,2,0:2:0:0:
390,149,205852,1,10,0:2:0:0:
237,44,206019,2,0,L|144:41,1,87.5,2|8,3:2|0:2,0:0:0:0:
41,81,206352,1,2,3:2:0:0:
146,205,206519,2,0,P|156:153|146:116,1,87.5,10|2,0:2|0:2,0:0:0:0:
2,295,206852,6,0,B|45:269|45:269|171:294,1,175,14|10,0:2|0:2,0:0:0:0:
271,384,207352,2,0,P|248:340|259:288,1,87.5,2|8,0:2|0:2,0:0:0:0:
416,308,207686,2,0,P|372:331|320:320,1,87.5,2|8,3:2|0:2,0:0:0:0:
364,152,208019,6,0,L|361:247,1,87.5,2|8,3:2|0:2,0:0:0:0:
271,384,208352,1,2,0:2:0:0:
234,217,208519,1,10,0:2:0:0:
152,374,208686,2,0,P|94:378|59:356,1,87.5,2|8,3:2|0:2,0:0:0:0:
20,195,209019,1,2,3:2:0:0:
178,287,209186,1,10,0:2:0:0:
0,316,209352,1,2,3:2:0:0:
153,196,209519,6,0,P|198:196|236:219,1,87.5,14|2,0:2|0:2,0:0:0:0:
262,249,209769,1,8,0:2:0:0:
262,249,209852,5,10,0:2:0:0:
332,145,210019,1,10,0:3:0:0:
332,145,210103,1,8,0:3:0:0:
332,145,210186,1,10,0:3:0:0:
178,287,210353,1,10,0:2:0:0:
178,287,210436,1,8,0:2:0:0:
178,287,210519,1,10,0:2:0:0:
388,339,210686,5,6,3:2:0:0:
206,176,211019,5,10,0:2:0:0:
421,116,211185,1,10,0:2:0:0:
292,263,211352,1,10,0:2:0:0:
233,69,211519,2,0,P|174:68|127:110,1,87.5,14|0,0:2|0:2,0:0:0:0:
122,264,211853,1,8,0:2:0:0:
122,264,211936,1,8,0:2:0:0:
122,264,212019,1,0,3:2:0:0:
381,232,212353,6,0,P|381:282|359:326,2,70,2|2|2,0:2|0:2|0:2,0:0:0:0:
258,90,212853,1,2,0:2:0:0:
342,89,213019,1,2,0:2:0:0:
399,150,213186,1,2,0:2:0:0:
381,232,213353,1,2,0:2:0:0:
42,166,213686,5,10,0:2:0:0:
258,90,213853,1,10,0:2:0:0:
71,272,214019,1,10,0:2:0:0:
283,306,214186,1,10,0:2:0:0:
42,166,214519,6,0,B|8:148|-5:118|-5:118|67:68|146:114|146:114|205:208|317:187|317:187|271:83|164:102,1,587.999982055665,14|0,0:2|0:2,0:0:0:0:
