osu file format v14

[General]
AudioFilename: audio.mp3
AudioLeadIn: 0
PreviewTime: 63621
Countdown: 0
SampleSet: None
StackLeniency: 0.7
Mode: 0
LetterboxInBreaks: 0
WidescreenStoryboard: 1

[Editor]
Bookmarks: 33305,53516,74989,86516,87621,88884,126779,150779,160884,161832,162147,164674,165937,166884,170042
DistanceSpacing: 0.9
BeatDivisor: 8
GridSize: 4
TimelineZoom: 3.999999

[Metadata]
Title:Hatsukoi no Ehon feat.Aida Miou(CV:Toyosaki Aki)
TitleUnicode:Hatsukoi no Ehon feat.Aida Miou(CV:Toyosaki Aki)
Artist:HoneyWorks
ArtistUnicode:HoneyWorks
Creator:Tuffiii
Version:hs
Source:
Tags:
BeatmapID:2125587
BeatmapSetID:1010901

[Difficulty]
HPDrainRate:7
CircleSize:3.8
OverallDifficulty:9
ApproachRate:9.1
SliderMultiplier:2
SliderTickRate:1

[Events]
//Background and Video events
0,0,"maxresdefault.jpg",0,0
//Break Periods
2,128242,132511
//Storyboard Layer 0 (Background)
//Storyboard Layer 1 (Fail)
//Storyboard Layer 2 (Pass)
//Storyboard Layer 3 (Foreground)
//Storyboard Sound Samples

[TimingPoints]
940,344.827586206897,4,2,1,50,1,0
940,-166.666666666667,4,2,1,50,0,0
4993,-153.846153846154,4,2,1,50,0,0
9215,-153.846153846154,4,2,1,50,0,0
9905,-153.846153846154,4,2,1,65,0,0
10597,315.789473684211,4,2,1,70,1,0
10912,-222.222222222221,4,2,1,70,0,0
11832,315.789473684211,4,2,1,70,1,0
11832,-105.263157894737,4,2,1,70,0,0
25489,-80,4,2,1,70,0,0
26832,-117.647058823529,4,2,1,65,0,0
26832,-117.647058823529,4,2,1,65,0,0
31647,-111.111111111111,4,2,1,65,0,0
34568,-111.111111111111,4,2,1,65,0,0
34884,-111.111111111111,4,2,1,66,0,0
35200,-111.111111111111,4,2,1,67,0,0
35516,-111.111111111111,4,2,1,68,0,0
35832,-111.111111111111,4,2,1,69,0,0
36147,-111.111111111111,4,2,1,70,0,0
37095,-111.111111111111,4,2,2,65,0,0
42068,-111.111111111111,4,2,1,70,0,0
44674,-105.263157894737,4,2,1,70,0,0
54542,-133.333333333334,4,2,1,70,0,0
58410,-153.846153846155,4,2,1,70,0,0
59989,-153.846153846155,4,2,2,70,0,0
63621,-95.2380952380957,4,2,1,70,0,1
80437,-100,4,2,1,70,0,1
81226,-125,4,2,1,70,0,1
82568,-153.846153846155,4,2,1,70,0,0
87621,-95.2380952380957,4,2,1,70,0,0
95437,-111.111111111111,4,2,1,70,0,0
97016,-105.263157894737,4,2,1,70,0,0
101437,-111.111111111111,4,2,1,70,0,0
106805,-111.111111111111,4,2,2,70,0,0
107121,-111.111111111111,4,2,2,70,0,0
112568,-166.666666666667,4,2,1,60,0,0
117858,-117.647058823529,4,2,1,68,0,0
118965,-117.647058823529,4,2,2,68,0,0
119121,-117.647058823529,4,2,1,68,0,0
119279,-117.647058823529,4,2,2,68,0,0
119437,-117.647058823529,4,2,1,68,0,0
119595,-117.647058823529,4,2,2,68,0,0
119753,-117.647058823529,4,2,1,68,0,0
119910,-117.647058823529,4,2,2,68,0,0
120068,-117.647058823529,4,2,1,68,0,0
120226,-111.111111111111,4,2,2,70,0,0
120424,-111.111111111111,4,2,1,70,0,0
120542,-111.111111111111,4,2,2,70,0,0
120700,-111.111111111111,4,2,1,70,0,0
120858,-111.111111111111,4,2,2,70,0,0
121016,-111.111111111111,4,2,1,70,0,0
121174,-111.111111111111,4,2,2,70,0,0
121332,-111.111111111111,4,2,1,70,0,0
121489,-111.111111111111,4,2,2,70,0,0
121647,-111.111111111111,4,2,1,70,0,0
121805,-111.111111111111,4,2,2,70,0,0
121963,-111.111111111111,4,2,1,70,0,0
122121,-111.111111111111,4,2,2,70,0,0
122318,-111.111111111111,4,2,1,70,0,0
122437,-111.111111111111,4,2,2,70,0,0
122595,-111.111111111111,4,2,1,70,0,0
122753,-111.111111111111,4,2,2,70,0,0
122910,-111.111111111111,4,2,1,70,0,0
122989,-111.111111111111,4,2,1,65,0,0
123621,-111.111111111111,4,2,1,66,0,0
124253,-111.111111111111,4,2,1,68,0,0
124884,-111.111111111111,4,2,1,70,0,0
125437,-111.111111111111,4,2,1,70,0,0
125753,-133.333333333333,4,2,1,70,0,0
133095,-133.333333333333,4,2,1,64,0,0
133726,-133.333333333333,4,2,1,66,0,0
134358,-133.333333333333,4,2,1,68,0,0
134674,-133.333333333333,4,2,1,70,0,0
135542,-133.333333333333,4,2,1,70,0,0
135542,-133.333333333333,4,2,1,55,0,0
135858,-153.846153846153,4,2,1,55,0,0
136174,-181.818181818181,4,2,1,55,0,0
136963,-222.222222222221,4,2,1,55,0,0
139963,-95.2380952380952,4,2,1,70,0,1
165937,-142.857142857143,4,2,1,70,0,1
166095,-142.857142857143,4,2,2,70,0,1
168305,-95.2380952380952,4,2,1,70,0,1
168384,-95.2380952380952,4,2,1,64,0,1
168779,-95.2380952380952,4,2,1,66,0,1
169410,-95.2380952380952,4,2,1,70,0,1
177305,-105.263157894737,4,2,1,70,0,1
178568,-95.2380952380952,4,2,1,70,0,0

[HitObjects]
110,114,11702,5,2,0:0:0:0:
128,117,11781,1,2,0:0:0:0:
369,116,11832,1,6,0:0:0:0:
155,123,12305,1,2,0:0:0:0:
185,115,12463,1,2,0:0:0:0:
161,133,12621,1,2,0:0:0:0:
161,133,12779,1,2,0:0:0:0:
161,133,12937,1,2,0:0:0:0:
457,113,13095,1,4,0:0:0:0:
168,120,13410,1,2,0:0:0:0:
168,120,13726,1,2,0:0:0:0:
168,120,14042,1,2,0:0:0:0:
168,120,14121,1,2,0:0:0:0:
168,120,14358,1,6,0:0:0:0:
168,120,14832,1,2,0:0:0:0:
168,120,14910,1,2,0:0:0:0:
168,120,14989,1,2,0:0:0:0:
168,120,15147,1,2,0:0:0:0:
168,120,15305,1,2,0:0:0:0:
168,120,15463,1,2,0:0:0:0:
168,120,15621,1,6,0:0:0:0:
168,120,15937,1,2,0:0:0:0:
168,120,16253,1,2,0:0:0:0:
171,289,16410,1,8,0:0:0:0:
168,120,16568,1,2,0:0:0:0:
171,289,16726,1,8,0:0:0:0:
168,120,16805,1,2,0:0:0:0:
168,120,16884,1,2,0:0:0:0:
168,120,17200,1,2,0:0:0:0:
168,120,17358,1,2,0:0:0:0:
168,120,17516,1,2,0:0:0:0:
168,120,17674,1,2,0:0:0:0:
168,120,17832,1,2,0:0:0:0:
168,120,17989,1,2,0:0:0:0:
168,120,18068,1,2,0:0:0:0:
168,120,18147,1,6,0:0:0:0:
168,120,18463,1,2,0:0:0:0:
168,120,18779,1,2,0:0:0:0:
352,286,18937,1,4,0:0:0:0:
145,256,19095,1,8,0:0:0:0:
145,256,19253,1,8,0:0:0:0:
145,256,19332,1,8,0:0:0:0:
145,256,19410,1,12,0:0:0:0:
211,264,19726,1,8,0:0:0:0:
211,264,19884,1,8,0:0:0:0:
211,264,20042,1,8,0:0:0:0:
211,264,20200,1,8,0:0:0:0:
211,264,20358,1,8,0:0:0:0:
211,264,20516,1,8,0:0:0:0:
211,264,20674,1,8,0:0:0:0:
211,264,20832,1,8,0:0:0:0:
211,264,20990,1,8,0:0:0:0:
211,264,21148,1,8,0:0:0:0:
211,264,21305,1,8,0:0:0:0:
383,304,21305,1,4,3:0:0:0:
211,264,21621,1,12,0:0:0:0:
191,97,21937,1,2,0:0:0:0:
162,282,24463,1,8,0:0:0:0:
162,282,24621,1,8,0:0:0:0:
162,282,24700,1,8,0:0:0:0:
162,282,24779,1,8,0:0:0:0:
162,282,24937,1,8,0:0:0:0:
162,282,25016,1,8,0:0:0:0:
162,282,25095,1,8,0:0:0:0:
162,282,25253,1,8,0:0:0:0:
162,282,25332,1,8,0:0:0:0:
162,282,25410,1,8,0:0:0:0:
162,282,25568,1,8,0:0:0:0:
162,282,25647,1,8,0:0:0:0:
162,282,25726,1,12,0:0:0:0:
154,132,26989,1,2,0:0:0:0:
154,132,27305,1,2,0:0:0:0:
154,132,27621,1,2,0:0:0:0:
154,132,27937,1,2,0:0:0:0:
154,132,28253,1,2,0:0:0:0:
154,132,28569,1,2,0:0:0:0:
154,132,28885,1,2,0:0:0:0:
154,132,29201,1,2,0:0:0:0:
154,132,29516,1,2,0:0:0:0:
154,132,29832,1,2,0:0:0:0:
154,132,30148,1,2,0:0:0:0:
154,132,30464,1,2,0:0:0:0:
154,132,30779,1,2,0:0:0:0:
154,132,31095,1,2,0:0:0:0:
154,132,31411,1,2,0:0:0:0:
154,132,31727,1,2,0:0:0:0:
154,132,32042,1,2,0:0:0:0:
154,132,32358,1,2,0:0:0:0:
154,132,32674,1,2,0:0:0:0:
154,132,32990,1,2,0:0:0:0:
154,132,33305,1,2,0:0:0:0:
154,132,33621,1,2,0:0:0:0:
154,132,33937,1,2,0:0:0:0:
154,132,34253,1,2,0:0:0:0:
179,258,34568,1,8,0:0:0:0:
179,258,34726,1,8,0:0:0:0:
179,258,34884,1,8,0:0:0:0:
179,258,35042,1,8,0:0:0:0:
179,258,35200,1,8,0:0:0:0:
179,258,35358,1,8,0:0:0:0:
179,258,35516,1,8,0:0:0:0:
179,258,35674,1,8,0:0:0:0:
179,258,35832,1,8,0:0:0:0:
179,258,35990,1,8,0:0:0:0:
179,258,36147,1,8,0:0:0:0:
179,258,36305,1,8,0:0:0:0:
179,258,36463,1,8,0:0:0:0:
179,258,36621,1,8,0:0:0:0:
179,258,36779,1,8,0:0:0:0:
179,258,36937,1,8,0:0:0:0:
354,252,37410,1,2,0:0:0:0:
354,252,38042,1,2,0:0:0:0:
354,252,38674,1,2,0:0:0:0:
354,252,39305,1,2,0:0:0:0:
354,252,39937,1,2,0:0:0:0:
354,252,40569,1,2,0:0:0:0:
354,252,41200,1,2,0:0:0:0:
354,252,41832,1,2,0:0:0:0:
76,266,42147,1,12,0:0:0:0:
76,266,42305,1,8,0:0:0:0:
76,266,42463,1,8,0:0:0:0:
76,266,42621,1,8,0:0:0:0:
76,266,42779,1,8,0:0:0:0:
76,266,42937,1,8,0:0:0:0:
76,266,43095,1,8,0:0:0:0:
76,266,43253,1,8,0:0:0:0:
76,266,43410,1,8,0:0:0:0:
119,106,43568,1,2,0:0:0:0:
119,106,43647,1,2,0:0:0:0:
119,106,43726,1,2,0:0:0:0:
119,106,43805,1,2,0:0:0:0:
119,106,43884,1,2,0:0:0:0:
119,106,43963,1,2,0:0:0:0:
119,106,44042,1,2,0:0:0:0:
119,106,44200,1,2,0:0:0:0:
119,106,44279,1,2,0:0:0:0:
119,106,44358,1,2,0:0:0:0:
119,106,44437,1,2,0:0:0:0:
119,106,44516,1,2,0:0:0:0:
119,106,44595,1,2,0:0:0:0:
119,106,44674,1,2,0:0:0:0:
76,266,44989,1,8,0:0:0:0:
129,93,45305,1,2,0:0:0:0:
76,266,45621,1,8,0:0:0:0:
129,93,45937,1,2,0:0:0:0:
76,266,46253,1,8,0:0:0:0:
129,93,46568,1,2,0:0:0:0:
76,266,46884,1,8,0:0:0:0:
129,93,47200,1,2,0:0:0:0:
76,266,47516,1,8,0:0:0:0:
129,93,47832,1,2,0:0:0:0:
76,266,48148,1,8,0:0:0:0:
129,93,48463,1,2,0:0:0:0:
76,266,48779,1,8,0:0:0:0:
129,93,49095,1,2,0:0:0:0:
76,266,49410,1,8,0:0:0:0:
129,93,49726,1,2,0:0:0:0:
76,266,50042,1,8,0:0:0:0:
129,93,50358,1,2,0:0:0:0:
76,266,50673,1,8,0:0:0:0:
129,93,50989,1,2,0:0:0:0:
76,266,51305,1,8,0:0:0:0:
129,93,51621,1,2,0:0:0:0:
76,266,51937,1,8,0:0:0:0:
129,93,52253,1,2,0:0:0:0:
76,266,52568,1,8,0:0:0:0:
129,93,52884,1,2,0:0:0:0:
76,266,53200,1,8,0:0:0:0:
129,93,53516,1,2,0:0:0:0:
76,266,53832,1,8,0:0:0:0:
129,93,54147,1,2,0:0:0:0:
76,266,54463,1,8,0:0:0:0:
76,266,54779,1,8,0:0:0:0:
76,266,54937,1,8,0:0:0:0:
129,93,55095,1,2,0:0:0:0:
129,93,55410,1,2,0:0:0:0:
129,93,55726,1,2,0:0:0:0:
76,266,56042,1,8,0:0:0:0:
76,266,56200,1,8,0:0:0:0:
129,93,56358,1,2,0:0:0:0:
129,93,56674,1,2,0:0:0:0:
129,93,56989,1,2,0:0:0:0:
76,266,57305,1,8,0:0:0:0:
76,266,57463,1,8,0:0:0:0:
129,93,57621,1,2,0:0:0:0:
129,93,57936,1,2,0:0:0:0:
129,93,58253,1,2,0:0:0:0:
76,266,58568,1,12,0:0:0:0:
129,93,58884,1,2,0:0:0:0:
129,93,59201,1,2,0:0:0:0:
129,93,59516,1,2,0:0:0:0:
129,93,59833,1,6,0:0:0:0:
366,258,60147,1,2,0:0:0:0:
366,258,60779,1,2,0:0:0:0:
366,258,61410,1,2,0:0:0:0:
366,258,62042,1,2,0:0:0:0:
126,117,64884,1,12,0:0:0:0:
126,117,65200,1,8,0:0:0:0:
134,324,65516,1,2,0:0:0:0:
126,117,65832,1,8,0:0:0:0:
134,324,66148,1,2,0:0:0:0:
126,117,66463,1,8,0:0:0:0:
134,324,66779,1,2,0:0:0:0:
126,117,67095,1,8,0:0:0:0:
134,324,67411,1,2,0:0:0:0:
126,117,67726,1,8,0:0:0:0:
134,324,68042,1,2,0:0:0:0:
126,117,68358,1,8,0:0:0:0:
134,324,68674,1,2,0:0:0:0:
126,117,68989,1,8,0:0:0:0:
134,324,69305,1,2,0:0:0:0:
126,117,69621,1,8,0:0:0:0:
134,324,69937,1,2,0:0:0:0:
126,117,70253,1,8,0:0:0:0:
134,324,70569,1,2,0:0:0:0:
126,117,70885,1,8,0:0:0:0:
134,324,71201,1,2,0:0:0:0:
126,117,71516,1,8,0:0:0:0:
134,324,71832,1,2,0:0:0:0:
126,117,72148,1,8,0:0:0:0:
134,324,72464,1,2,0:0:0:0:
126,117,72779,1,8,0:0:0:0:
134,324,73095,1,2,0:0:0:0:
126,117,73411,1,8,0:0:0:0:
134,324,73727,1,2,0:0:0:0:
134,324,73884,1,2,0:0:0:0:
134,324,73963,1,2,0:0:0:0:
134,324,74042,1,2,0:0:0:0:
134,324,74121,1,2,0:0:0:0:
134,324,74200,1,2,0:0:0:0:
134,324,74279,1,2,0:0:0:0:
134,324,74358,1,2,0:0:0:0:
134,324,74437,1,2,0:0:0:0:
134,324,74516,1,2,0:0:0:0:
134,324,74595,1,2,0:0:0:0:
134,324,74674,1,2,0:0:0:0:
134,324,74753,1,2,0:0:0:0:
134,324,74832,1,2,0:0:0:0:
134,324,74911,1,2,0:0:0:0:
134,324,74990,1,6,0:0:0:0:
126,117,75305,1,8,0:0:0:0:
134,324,75621,1,2,0:0:0:0:
126,117,75937,1,8,0:0:0:0:
134,324,76253,1,2,0:0:0:0:
126,117,76568,1,8,0:0:0:0:
134,324,76884,1,2,0:0:0:0:
126,117,77200,1,8,0:0:0:0:
134,324,77516,1,2,0:0:0:0:
126,117,77832,1,8,0:0:0:0:
134,324,78148,1,2,0:0:0:0:
126,117,78463,1,8,0:0:0:0:
134,324,78779,1,2,0:0:0:0:
126,117,79095,1,8,0:0:0:0:
134,324,79411,1,2,0:0:0:0:
126,117,79726,1,8,0:0:0:0:
134,324,80042,1,2,0:0:0:0:
126,117,80358,1,8,0:0:0:0:
134,324,80674,1,2,0:0:0:0:
126,117,80989,1,8,0:0:0:0:
134,324,81147,1,2,0:0:0:0:
134,324,81305,1,6,0:0:0:0:
140,115,85095,1,8,0:0:0:0:
140,115,85410,1,8,0:0:0:0:
140,115,85568,1,8,0:0:0:0:
140,115,85726,1,8,0:0:0:0:
140,115,85884,1,8,0:0:0:0:
140,115,86042,1,8,0:0:0:0:
140,115,86200,1,8,0:0:0:0:
140,115,86358,1,8,0:0:0:0:
151,251,86437,1,2,0:0:0:0:
151,251,86516,1,2,0:0:0:0:
151,251,86595,1,2,0:0:0:0:
151,251,86674,1,2,0:0:0:0:
151,251,86753,1,2,0:0:0:0:
151,251,86832,1,2,0:0:0:0:
151,251,86910,1,2,0:0:0:0:
151,251,86989,1,2,0:0:0:0:
151,251,87068,1,2,0:0:0:0:
151,251,87147,1,2,0:0:0:0:
151,251,87226,1,2,0:0:0:0:
151,251,87305,1,2,0:0:0:0:
151,251,87384,1,2,0:0:0:0:
151,251,87463,1,2,0:0:0:0:
151,251,87542,1,2,0:0:0:0:
151,251,87621,1,6,0:0:0:0:
126,117,87937,1,8,0:0:0:0:
134,324,88253,1,2,0:0:0:0:
126,117,88568,1,8,0:0:0:0:
134,324,88884,1,2,0:0:0:0:
126,117,89200,1,8,0:0:0:0:
134,324,89516,1,2,0:0:0:0:
126,117,89831,1,8,0:0:0:0:
134,324,90147,1,2,0:0:0:0:
126,117,90463,1,8,0:0:0:0:
134,324,90779,1,2,0:0:0:0:
126,117,91094,1,8,0:0:0:0:
134,324,91410,1,2,0:0:0:0:
126,117,91726,1,8,0:0:0:0:
134,324,92042,1,2,0:0:0:0:
126,117,92357,1,8,0:0:0:0:
134,324,92673,1,2,0:0:0:0:
126,117,92989,1,8,0:0:0:0:
134,324,93305,1,2,0:0:0:0:
126,117,93620,1,8,0:0:0:0:
134,324,93936,1,2,0:0:0:0:
126,117,94253,1,8,0:0:0:0:
134,324,94569,1,2,0:0:0:0:
126,117,94884,1,8,0:0:0:0:
134,324,95200,1,2,0:0:0:0:
126,117,95516,1,8,0:0:0:0:
134,324,95832,1,2,0:0:0:0:
126,117,96147,1,8,0:0:0:0:
134,324,96463,1,2,0:0:0:0:
126,117,96779,1,8,0:0:0:0:
134,324,97095,1,2,0:0:0:0:
126,117,97410,1,8,0:0:0:0:
134,324,97726,1,2,0:0:0:0:
126,117,98042,1,8,0:0:0:0:
134,324,98358,1,2,0:0:0:0:
126,117,98673,1,8,0:0:0:0:
134,324,98989,1,2,0:0:0:0:
126,117,99305,1,8,0:0:0:0:
134,324,99621,1,2,0:0:0:0:
126,117,99936,1,8,0:0:0:0:
134,324,100252,1,2,0:0:0:0:
126,117,100568,1,8,0:0:0:0:
134,324,100884,1,2,0:0:0:0:
126,117,101199,1,8,0:0:0:0:
134,324,101515,1,2,0:0:0:0:
126,117,101832,1,8,0:0:0:0:
134,324,102148,1,2,0:0:0:0:
126,117,102463,1,8,0:0:0:0:
134,324,102779,1,2,0:0:0:0:
126,117,103095,1,8,0:0:0:0:
134,324,103411,1,2,0:0:0:0:
126,117,103726,1,8,0:0:0:0:
134,324,104042,1,2,0:0:0:0:
126,117,104358,1,8,0:0:0:0:
134,324,104674,1,2,0:0:0:0:
126,117,104989,1,8,0:0:0:0:
134,324,105305,1,2,0:0:0:0:
126,117,105463,1,8,0:0:0:0:
126,117,105542,1,8,0:0:0:0:
126,117,105621,1,8,0:0:0:0:
126,117,105700,1,8,0:0:0:0:
126,117,105779,1,12,0:0:0:0:
126,117,105937,1,8,0:0:0:0:
134,324,106016,1,2,0:0:0:0:
335,123,106095,1,4,0:0:0:0:
134,324,106253,1,2,0:0:0:0:
126,117,106410,1,8,0:0:0:0:
126,117,106489,1,8,0:0:0:0:
126,117,106568,1,12,0:0:0:0:
134,324,106726,1,2,0:0:0:0:
378,287,106884,1,2,0:0:0:0:
296,246,107042,1,2,0:0:0:0:
126,117,107042,1,8,0:0:0:0:
126,117,107200,1,8,0:0:0:0:
126,117,107358,1,8,0:0:0:0:
126,117,107516,1,8,0:0:0:0:
126,117,107674,1,8,0:0:0:0:
149,103,112568,1,2,0:0:0:0:
149,103,112726,1,2,0:0:0:0:
149,103,112884,1,2,0:0:0:0:
149,103,113200,1,2,0:0:0:0:
149,103,113516,1,2,0:0:0:0:
149,103,113832,1,2,0:0:0:0:
149,103,114147,1,2,0:0:0:0:
149,103,114463,1,2,0:0:0:0:
149,103,114779,1,2,0:0:0:0:
149,103,115095,1,2,0:0:0:0:
149,103,115410,1,2,0:0:0:0:
149,103,115726,1,2,0:0:0:0:
149,103,116042,1,2,0:0:0:0:
149,103,116358,1,2,0:0:0:0:
149,103,116673,1,2,0:0:0:0:
149,103,116989,1,2,0:0:0:0:
149,103,117305,1,2,0:0:0:0:
149,103,117621,1,2,0:0:0:0:
149,103,117779,1,2,0:0:0:0:
149,103,117937,1,2,0:0:0:0:
356,265,117937,1,4,0:3:0:0:
149,103,118253,1,2,0:0:0:0:
149,103,118568,1,2,0:0:0:0:
149,103,118884,1,2,0:0:0:0:
377,255,119042,1,2,0:0:0:0:
149,103,119200,1,2,0:0:0:0:
377,255,119358,1,2,0:0:0:0:
149,103,119516,1,2,0:0:0:0:
377,255,119674,1,2,0:0:0:0:
149,103,119832,1,2,0:0:0:0:
377,255,119989,1,2,0:0:0:0:
149,103,120147,1,2,0:0:0:0:
377,255,120305,1,2,0:0:0:0:
377,255,120384,1,2,0:0:0:0:
149,103,120463,1,2,0:0:0:0:
377,255,120621,1,2,0:0:0:0:
149,103,120779,1,2,0:0:0:0:
377,255,120937,1,2,0:0:0:0:
149,103,121095,1,2,0:0:0:0:
377,255,121253,1,2,0:0:0:0:
149,103,121410,1,2,0:0:0:0:
377,255,121568,1,2,0:0:0:0:
149,103,121726,1,2,0:0:0:0:
377,255,121884,1,2,0:0:0:0:
149,103,122042,1,2,0:0:0:0:
377,255,122200,1,2,0:0:0:0:
377,255,122279,1,2,0:0:0:0:
149,103,122358,1,2,0:0:0:0:
377,255,122516,1,2,0:0:0:0:
149,103,122674,1,2,0:0:0:0:
377,255,122832,1,2,0:0:0:0:
101,264,122989,1,8,0:0:0:0:
101,264,123147,1,8,0:0:0:0:
101,264,123305,1,8,0:0:0:0:
101,264,123463,1,8,0:0:0:0:
101,264,123621,1,8,0:0:0:0:
101,264,123779,1,8,0:0:0:0:
101,264,123937,1,8,0:0:0:0:
101,264,124095,1,8,0:0:0:0:
101,264,124253,1,8,0:0:0:0:
101,264,124410,1,8,0:0:0:0:
101,264,124568,1,8,0:0:0:0:
101,264,124726,1,8,0:0:0:0:
101,264,124884,1,8,0:0:0:0:
101,264,125042,1,8,0:0:0:0:
101,264,125200,1,8,0:0:0:0:
101,264,125358,1,8,0:0:0:0:
101,264,125516,1,8,0:0:0:0:
167,77,125674,1,2,0:0:0:0:
167,77,125753,1,2,0:0:0:0:
101,264,125831,1,10,0:0:0:0:
167,77,125910,1,2,0:0:0:0:
167,77,125989,1,2,0:0:0:0:
167,77,126068,1,2,0:0:0:0:
101,264,126147,1,10,0:0:0:0:
167,77,126226,1,2,0:0:0:0:
167,77,126305,1,2,0:0:0:0:
167,77,126384,1,2,0:0:0:0:
101,264,126463,1,10,0:0:0:0:
167,77,126542,1,2,0:0:0:0:
167,77,126621,1,2,0:0:0:0:
167,77,126700,1,2,0:0:0:0:
101,264,126779,1,8,0:0:0:0:
101,264,126937,1,8,0:0:0:0:
101,264,127095,1,8,0:0:0:0:
101,264,127253,1,8,0:0:0:0:
101,264,127410,1,8,0:0:0:0:
101,264,127568,1,8,0:0:0:0:
101,264,127726,1,8,0:0:0:0:
101,264,127884,1,8,0:0:0:0:
101,264,128042,1,4,0:3:0:0:
135,98,133095,5,8,0:0:0:0:
135,98,133253,5,8,0:0:0:0:
135,98,133410,5,8,0:0:0:0:
135,98,133568,5,8,0:0:0:0:
135,98,133726,5,8,0:0:0:0:
135,98,133884,5,8,0:0:0:0:
135,98,134042,5,8,0:0:0:0:
135,98,134200,5,8,0:0:0:0:
135,98,134358,5,8,0:0:0:0:
135,98,134516,5,8,0:0:0:0:
135,98,134674,5,8,0:0:0:0:
135,98,134832,5,8,0:0:0:0:
135,98,134989,5,8,0:0:0:0:
135,98,135147,5,8,0:0:0:0:
135,98,135305,5,8,0:0:0:0:
135,98,135463,5,8,0:0:0:0:
135,98,140042,5,8,0:0:0:0:
135,98,140200,1,8,0:0:0:0:
340,278,140674,1,6,0:0:0:0:
126,117,140989,1,8,0:0:0:0:
134,324,141305,1,2,0:0:0:0:
126,117,141621,1,8,0:0:0:0:
134,324,141937,1,2,0:0:0:0:
126,117,142253,1,8,0:0:0:0:
134,324,142569,1,2,0:0:0:0:
126,117,142884,1,8,0:0:0:0:
134,324,143200,1,2,0:0:0:0:
126,117,143516,1,8,0:0:0:0:
134,324,143832,1,2,0:0:0:0:
126,117,144147,1,8,0:0:0:0:
134,324,144463,1,2,0:0:0:0:
126,117,144779,1,8,0:0:0:0:
134,324,145095,1,2,0:0:0:0:
126,117,145410,1,8,0:0:0:0:
134,324,145726,1,2,0:0:0:0:
126,117,146042,1,8,0:0:0:0:
134,324,146358,1,2,0:0:0:0:
126,117,146674,1,8,0:0:0:0:
134,324,146990,1,2,0:0:0:0:
126,117,147305,1,8,0:0:0:0:
134,324,147621,1,2,0:0:0:0:
126,117,147937,1,8,0:0:0:0:
134,324,148253,1,2,0:0:0:0:
126,117,148568,1,8,0:0:0:0:
134,324,148884,1,2,0:0:0:0:
126,117,149200,1,8,0:0:0:0:
134,324,149516,1,2,0:0:0:0:
134,324,149674,1,2,0:0:0:0:
134,324,149753,1,2,0:0:0:0:
134,324,149832,1,10,0:0:0:0:
134,324,149910,1,2,0:0:0:0:
134,324,149989,1,2,0:0:0:0:
134,324,150068,1,2,0:0:0:0:
134,324,150147,1,2,0:0:0:0:
134,324,150226,1,2,0:0:0:0:
134,324,150305,1,2,0:0:0:0:
134,324,150384,1,2,0:0:0:0:
134,324,150463,1,2,0:0:0:0:
134,324,150542,1,2,0:0:0:0:
134,324,150621,1,2,0:0:0:0:
134,324,150700,1,2,0:0:0:0:
134,324,150779,1,6,0:0:0:0:
163,88,151095,1,8,0:0:0:0:
134,324,151410,1,2,0:0:0:0:
163,88,151726,1,8,0:0:0:0:
134,324,152042,1,2,0:0:0:0:
163,88,152358,1,8,0:0:0:0:
134,324,152674,1,2,0:0:0:0:
163,88,152990,1,8,0:0:0:0:
134,324,153305,1,2,0:0:0:0:
163,88,153621,1,8,0:0:0:0:
134,324,153937,1,2,0:0:0:0:
163,88,154253,1,8,0:0:0:0:
134,324,154568,1,2,0:0:0:0:
163,88,154884,1,8,0:0:0:0:
134,324,155200,1,2,0:0:0:0:
163,88,155516,1,8,0:0:0:0:
134,324,155832,1,2,0:0:0:0:
163,88,156148,1,8,0:0:0:0:
134,324,156463,1,2,0:0:0:0:
163,88,156779,1,8,0:0:0:0:
134,324,157095,1,2,0:0:0:0:
163,88,157411,1,8,0:0:0:0:
134,324,157726,1,2,0:0:0:0:
163,88,158042,1,8,0:0:0:0:
134,324,158358,1,2,0:0:0:0:
198,276,158674,1,2,0:0:0:0:
198,276,158753,1,2,0:0:0:0:
198,276,158832,1,2,0:0:0:0:
198,276,158910,1,0,0:0:0:0:
198,276,158989,1,6,0:0:0:0:
198,276,159305,1,2,0:0:0:0:
198,276,159384,1,2,0:0:0:0:
198,276,159463,1,2,0:0:0:0:
198,276,159541,1,0,0:0:0:0:
198,276,159620,1,6,0:0:0:0:
198,276,159937,1,2,0:0:0:0:
198,276,160095,1,2,0:0:0:0:
198,276,160174,1,2,0:0:0:0:
198,276,160253,1,2,0:0:0:0:
198,276,160332,1,2,0:0:0:0:
198,276,160410,1,2,0:0:0:0:
198,276,160489,1,2,0:0:0:0:
198,276,160568,1,2,0:0:0:0:
198,276,160647,1,2,0:0:0:0:
198,276,160726,1,2,0:0:0:0:
198,276,160805,1,2,0:0:0:0:
198,276,160884,1,6,0:0:0:0:
93,297,161042,1,2,0:0:0:0:
93,297,161121,1,2,0:0:0:0:
93,297,161200,1,2,0:0:0:0:
93,297,161279,1,2,0:0:0:0:
93,297,161358,1,6,0:0:0:0:
93,297,161516,1,2,0:0:0:0:
93,297,161674,1,2,0:0:0:0:
93,297,161753,1,2,0:0:0:0:
93,297,161832,1,6,0:0:0:0:
93,297,161910,1,2,0:0:0:0:
93,297,161989,1,2,0:0:0:0:
93,297,162068,1,2,0:0:0:0:
93,297,162147,1,6,0:0:0:0:
93,297,162305,1,2,0:0:0:0:
93,297,162384,1,2,0:0:0:0:
93,297,162463,1,2,0:0:0:0:
93,297,162542,1,2,0:0:0:0:
93,297,162621,1,6,0:0:0:0:
93,297,162779,1,2,0:0:0:0:
93,297,162858,1,2,0:0:0:0:
93,297,162937,1,2,0:0:0:0:
93,297,163016,1,2,0:0:0:0:
93,297,163095,1,2,0:0:0:0:
93,297,163174,1,2,0:0:0:0:
93,297,163253,1,2,0:0:0:0:
93,297,163332,1,2,0:0:0:0:
93,297,163410,1,2,0:0:0:0:
93,297,163568,1,2,0:0:0:0:
93,297,163647,1,2,0:0:0:0:
93,297,163726,1,2,0:0:0:0:
93,297,163805,1,2,0:0:0:0:
93,297,163884,1,2,0:0:0:0:
93,297,163963,1,2,0:0:0:0:
93,297,164042,1,2,0:0:0:0:
93,297,164121,1,2,0:0:0:0:
93,297,164200,1,2,0:0:0:0:
93,297,164279,1,2,0:0:0:0:
93,297,164358,1,2,0:0:0:0:
93,297,164437,1,2,0:0:0:0:
93,297,164516,1,2,0:0:0:0:
93,297,164595,1,2,0:0:0:0:
93,297,164674,1,2,0:0:0:0:
93,297,164753,1,2,0:0:0:0:
93,297,164832,1,2,0:0:0:0:
93,297,164911,1,2,0:0:0:0:
93,297,164990,1,2,0:0:0:0:
93,297,165069,1,2,0:0:0:0:
93,297,165148,1,2,0:0:0:0:
93,297,165227,1,2,0:0:0:0:
93,297,165306,1,2,0:0:0:0:
93,297,165385,1,2,0:0:0:0:
93,297,165463,1,2,0:0:0:0:
93,297,165542,1,2,0:0:0:0:
93,297,165621,1,2,0:0:0:0:
93,297,165700,1,2,0:0:0:0:
93,297,165779,1,2,0:0:0:0:
93,297,165858,1,2,0:0:0:0:
93,297,165937,1,6,0:0:0:0:
357,257,166253,1,2,0:0:0:0:
357,257,166884,1,2,0:0:0:0:
357,257,167516,1,2,0:0:0:0:
104,137,168463,1,8,0:0:0:0:
104,137,168621,1,8,0:0:0:0:
104,137,168779,1,8,0:0:0:0:
104,137,168937,1,8,0:0:0:0:
104,137,169095,1,8,0:0:0:0:
104,137,169253,1,8,0:0:0:0:
104,137,169411,1,8,0:0:0:0:
104,137,169569,1,8,0:0:0:0:
104,137,169726,1,8,0:0:0:0:
121,284,169884,1,2,0:0:0:0:
121,284,169963,1,2,0:0:0:0:
121,284,170042,1,2,0:0:0:0:
121,284,170121,1,2,0:0:0:0:
121,284,170200,1,2,0:0:0:0:
121,284,170279,1,2,0:0:0:0:
121,284,170358,1,2,0:0:0:0:
121,284,170437,1,2,0:0:0:0:
121,284,170516,1,2,0:0:0:0:
121,284,170595,1,2,0:0:0:0:
121,284,170674,1,2,0:0:0:0:
121,284,170753,1,2,0:0:0:0:
121,284,170832,1,2,0:0:0:0:
121,284,170911,1,2,0:0:0:0:
121,284,170989,1,6,0:0:0:0:
131,89,171305,1,12,0:0:0:0:
196,291,171621,1,2,0:0:0:0:
131,89,171937,1,8,0:0:0:0:
196,291,172253,1,2,0:0:0:0:
131,89,172569,1,8,0:0:0:0:
196,291,172884,1,2,0:0:0:0:
131,89,173200,1,8,0:0:0:0:
196,291,173516,1,2,0:0:0:0:
131,89,173832,1,8,0:0:0:0:
196,291,174147,1,2,0:0:0:0:
131,89,174463,1,8,0:0:0:0:
196,291,174779,1,2,0:0:0:0:
131,89,175095,1,8,0:0:0:0:
196,291,175410,1,2,0:0:0:0:
131,89,175726,1,8,0:0:0:0:
196,291,176042,1,2,0:0:0:0:
131,89,176358,1,8,0:0:0:0:
196,291,176674,1,2,0:0:0:0:
131,89,176990,1,8,0:0:0:0:
