osu file format v14

[General]
AudioFilename: audio.mp3
AudioLeadIn: 1500
PreviewTime: 138384
Countdown: 0
SampleSet: Soft
StackLeniency: 0.7
Mode: 0
LetterboxInBreaks: 0
WidescreenStoryboard: 1

[Editor]
DistanceSpacing: 1.6
BeatDivisor: 3
GridSize: 4
TimelineZoom: 1.7

[Metadata]
Title:Hatsukoi no Ehon feat. Aida Miou (CV: Toyosaki Aki)
TitleUnicode:初恋の絵本 feat. 合田 美桜 (CV:豊崎 愛生)
Artist:HoneyWorks
ArtistUnicode:HoneyWorks
Creator:No Dap
Version:Setz's Hard
Source:
Tags:告白実行委員会 Kokuhaku Jikkou Iinkai 僕じゃダメですか? Boku ja Dame desuka? moeka momoka shioi scanter anais setz setz206 midorijeon a mystery a_mystery af affirmation neoskylove Japanese Pop JPop J-Pop
BeatmapID:3223927
BeatmapSetID:1575727

[Difficulty]
HPDrainRate:5
CircleSize:3.5
OverallDifficulty:6
ApproachRate:8
SliderMultiplier:1.6
SliderTickRate:1

[Events]
//Background and Video events
0,0,"bg.png",0,0
//Break Periods
2,128240,132343
2,136963,139290
//Storyboard Layer 0 (Background)
//Storyboard Layer 1 (Fail)
//Storyboard Layer 2 (Pass)
//Storyboard Layer 3 (Foreground)
//Storyboard Layer 4 (Overlay)
//Storyboard Sound Samples

[TimingPoints]
236,389.61038961039,4,2,1,50,1,0
625,342.857142857143,4,2,1,50,1,0
967,342.857142857143,4,2,1,50,1,0
967,-200,4,2,1,50,0,0
10567,315.789473684211,4,2,1,50,1,0
10567,-125,4,2,1,50,0,0
11672,-125,4,2,2,80,0,0
12619,-125,4,2,3,80,0,0
13724,-125,4,2,2,80,0,0
15145,-125,4,2,3,80,0,0
16093,-125,4,2,2,80,0,0
17830,-125,4,2,3,80,0,0
18935,-125,4,2,6,80,0,0
19014,-125,4,2,3,80,0,0
19724,-125,4,2,3,30,0,0
19882,-125,4,2,3,35,0,0
20040,-125,4,2,3,40,0,0
20198,-125,4,2,3,45,0,0
20356,-125,4,2,3,50,0,0
20514,-125,4,2,3,55,0,0
20672,-125,4,2,3,60,0,0
20830,-125,4,2,3,65,0,0
20988,-125,4,2,3,70,0,0
21145,-125,4,2,3,77,0,0
21303,-125,4,2,3,80,0,0
21619,-125,4,2,2,80,0,0
24619,-125,4,2,2,40,0,0
24777,-125,4,2,2,80,0,0
24935,-125,4,2,2,40,0,0
25093,-125,4,2,2,80,0,0
25251,-125,4,2,2,40,0,0
25409,-125,4,2,2,80,0,0
25567,-125,4,2,2,40,0,0
25724,-125,4,2,3,80,0,0
26988,-125,4,2,3,60,0,0
34567,-125,4,2,3,40,0,0
34724,-125,4,2,3,35,0,0
34882,-125,4,2,3,30,0,0
35040,-125,4,2,3,35,0,0
35198,-125,4,2,3,40,0,0
35356,-125,4,2,3,45,0,0
35514,-125,4,2,3,50,0,0
35672,-125,4,2,3,55,0,0
35830,-125,4,2,3,60,0,0
35988,-125,4,2,3,65,0,0
36145,-125,4,2,3,70,0,0
36303,-125,4,2,3,75,0,0
36461,-125,4,2,3,80,0,0
37093,-166.666666666667,4,2,3,50,0,0
37409,-166.666666666667,4,2,5,50,0,0
37488,-166.666666666667,4,2,3,50,0,0
38040,-166.666666666667,4,2,5,50,0,0
38119,-166.666666666667,4,2,3,50,0,0
38672,-166.666666666667,4,2,5,50,0,0
38751,-166.666666666667,4,2,3,50,0,0
39303,-166.666666666667,4,2,5,50,0,0
39382,-166.666666666667,4,2,3,50,0,0
39935,-166.666666666667,4,2,5,50,0,0
40014,-166.666666666667,4,2,3,50,0,0
40567,-166.666666666667,4,2,5,50,0,0
40645,-166.666666666667,4,2,3,50,0,0
41198,-166.666666666667,4,2,5,50,0,0
41277,-166.666666666667,4,2,3,50,0,0
41830,-166.666666666667,4,2,5,50,0,0
41909,-166.666666666667,4,2,3,50,0,0
42145,-125,4,2,2,60,0,0
42461,-125,4,2,2,40,0,0
42777,-125,4,2,2,50,0,0
43093,-125,4,2,2,60,0,0
43409,-125,4,2,2,70,0,0
44356,-125,4,2,3,70,0,0
44988,-125,4,2,4,70,0,0
45067,-125,4,2,3,70,0,0
45303,-125,4,2,4,70,0,0
45382,-125,4,2,3,70,0,0
45619,-125,4,2,4,70,0,0
45698,-125,4,2,3,70,0,0
45935,-125,4,2,4,70,0,0
46014,-125,4,2,3,70,0,0
46251,-125,4,2,4,70,0,0
46330,-125,4,2,3,70,0,0
46567,-125,4,2,4,70,0,0
46645,-125,4,2,3,70,0,0
46882,-125,4,2,4,70,0,0
46961,-125,4,2,3,70,0,0
47198,-125,4,2,4,70,0,0
47277,-125,4,2,3,70,0,0
47514,-125,4,2,4,70,0,0
47593,-125,4,2,3,70,0,0
47830,-125,4,2,4,70,0,0
47909,-125,4,2,3,70,0,0
48145,-125,4,2,4,70,0,0
48224,-125,4,2,3,70,0,0
48461,-125,4,2,4,70,0,0
48540,-125,4,2,3,70,0,0
48777,-125,4,2,4,70,0,0
48856,-125,4,2,3,70,0,0
49093,-125,4,2,4,70,0,0
49172,-125,4,2,3,70,0,0
49409,-125,4,2,4,70,0,0
49488,-125,4,2,3,70,0,0
49724,-125,4,2,4,70,0,0
49803,-125,4,2,3,70,0,0
50040,-125,4,2,4,70,0,0
50119,-125,4,2,3,70,0,0
50356,-125,4,2,4,70,0,0
50435,-125,4,2,3,70,0,0
50672,-125,4,2,4,70,0,0
50751,-125,4,2,3,70,0,0
50988,-125,4,2,4,70,0,0
51067,-125,4,2,3,70,0,0
51303,-125,4,2,4,70,0,0
51382,-125,4,2,3,70,0,0
51619,-125,4,2,4,70,0,0
51698,-125,4,2,3,70,0,0
51935,-125,4,2,4,70,0,0
52014,-125,4,2,3,70,0,0
52251,-125,4,2,4,70,0,0
52330,-125,4,2,3,70,0,0
52567,-125,4,2,4,70,0,0
52645,-125,4,2,3,70,0,0
52882,-125,4,2,4,70,0,0
52961,-125,4,2,3,70,0,0
53198,-125,4,2,4,70,0,0
53277,-125,4,2,3,70,0,0
53514,-125,4,2,4,70,0,0
53593,-125,4,2,3,70,0,0
53830,-125,4,2,4,70,0,0
53909,-125,4,2,3,70,0,0
54303,-125,4,2,6,70,0,0
54382,-125,4,2,3,70,0,0
54619,-125,4,2,6,70,0,0
54698,-125,4,2,3,70,0,0
54777,-125,4,2,2,70,0,0
58567,-125,4,2,3,70,0,0
60145,-125,4,2,4,70,0,0
60224,-125,4,2,3,70,0,0
60777,-125,4,2,5,70,0,0
60856,-125,4,2,3,70,0,0
61409,-125,4,2,5,70,0,0
61488,-125,4,2,3,70,0,0
62040,-125,4,2,5,70,0,0
62119,-125,4,2,3,70,0,0
62672,-125,4,2,3,60,0,0
62988,-125,4,2,3,50,0,0
63303,-125,4,2,3,40,0,0
63619,-125,4,2,3,30,0,0
64251,-125,4,2,3,60,0,0
64882,-100,4,2,2,80,0,1
65198,-100,4,2,5,80,0,1
65277,-100,4,2,2,80,0,1
65514,-100,4,2,5,80,0,1
65593,-100,4,2,2,80,0,1
65830,-100,4,2,5,80,0,1
65909,-100,4,2,2,80,0,1
66145,-100,4,2,5,80,0,1
66224,-100,4,2,2,80,0,1
66461,-100,4,2,5,80,0,1
66540,-100,4,2,2,80,0,1
66777,-100,4,2,5,80,0,1
66856,-100,4,2,2,80,0,1
67093,-100,4,2,5,80,0,1
67172,-100,4,2,2,80,0,1
67409,-100,4,2,5,80,0,1
67488,-100,4,2,2,80,0,1
67724,-100,4,2,5,80,0,1
67803,-100,4,2,2,80,0,1
68040,-100,4,2,5,80,0,1
68119,-100,4,2,2,80,0,1
68356,-100,4,2,5,80,0,1
68435,-100,4,2,2,80,0,1
68672,-100,4,2,5,80,0,1
68751,-100,4,2,2,80,0,1
68988,-100,4,2,5,80,0,1
69067,-100,4,2,2,80,0,1
69303,-100,4,2,5,80,0,1
69382,-100,4,2,2,80,0,1
69619,-100,4,2,5,80,0,1
69698,-100,4,2,2,80,0,1
69935,-100,4,2,5,80,0,1
70014,-100,4,2,2,80,0,1
70251,-100,4,2,5,80,0,1
70330,-100,4,2,2,80,0,1
70567,-100,4,2,5,80,0,1
70645,-100,4,2,2,80,0,1
70882,-100,4,2,5,80,0,1
70961,-100,4,2,2,80,0,1
71198,-100,4,2,5,80,0,1
71277,-100,4,2,2,80,0,1
71514,-100,4,2,5,80,0,1
71593,-100,4,2,2,80,0,1
71830,-100,4,2,5,80,0,1
71909,-100,4,2,2,80,0,1
72145,-100,4,2,5,80,0,1
72224,-100,4,2,2,80,0,1
72461,-100,4,2,5,80,0,1
72540,-100,4,2,2,80,0,1
72777,-100,4,2,5,80,0,1
72856,-100,4,2,2,80,0,1
73093,-100,4,2,5,80,0,1
73172,-100,4,2,2,80,0,1
73409,-100,4,2,5,80,0,1
73488,-100,4,2,2,80,0,1
73882,-100,4,2,2,40,0,1
74040,-100,4,2,2,80,0,1
74198,-100,4,2,2,40,0,1
74356,-100,4,2,2,80,0,1
74514,-100,4,2,2,40,0,1
74672,-100,4,2,2,80,0,1
74751,-100,4,2,2,40,0,1
74988,-100,4,2,2,80,0,1
75303,-100,4,2,5,80,0,1
75382,-100,4,2,2,80,0,1
75619,-100,4,2,5,80,0,1
75698,-100,4,2,2,80,0,1
75935,-100,4,2,5,80,0,1
76014,-100,4,2,2,80,0,1
76251,-100,4,2,5,80,0,1
76330,-100,4,2,2,80,0,1
76567,-100,4,2,5,80,0,1
76645,-100,4,2,2,80,0,1
76882,-100,4,2,5,80,0,1
76961,-100,4,2,2,80,0,1
77198,-100,4,2,5,80,0,1
77277,-100,4,2,2,80,0,1
77514,-100,4,2,5,80,0,1
77593,-100,4,2,2,80,0,1
77830,-100,4,2,5,80,0,1
77909,-100,4,2,2,80,0,1
78145,-100,4,2,5,80,0,1
78224,-100,4,2,2,80,0,1
78461,-100,4,2,5,80,0,1
78540,-100,4,2,2,80,0,1
78777,-100,4,2,5,80,0,1
78856,-100,4,2,2,80,0,1
79093,-100,4,2,5,80,0,1
79172,-100,4,2,2,80,0,1
79409,-100,4,2,5,80,0,1
79488,-100,4,2,2,80,0,1
79724,-100,4,2,5,80,0,1
79803,-100,4,2,2,80,0,1
80040,-100,4,2,5,80,0,1
80119,-100,4,2,2,80,0,1
80356,-100,4,2,5,80,0,1
80435,-100,4,2,2,80,0,1
80672,-100,4,2,5,80,0,1
80751,-100,4,2,2,80,0,1
81303,-125,4,2,2,60,0,0
81619,-125,4,2,7,60,0,0
84461,-125,4,2,2,60,0,0
85093,-125,4,2,2,70,0,0
85409,-125,4,2,2,40,0,0
85724,-125,4,2,2,50,0,0
86040,-125,4,2,2,60,0,0
86356,-125,4,2,2,70,0,0
87303,-125,4,2,3,70,0,0
87935,-125,4,2,5,70,0,0
88014,-125,4,2,2,70,0,0
88251,-125,4,2,5,70,0,0
88330,-125,4,2,2,70,0,0
88567,-125,4,2,5,70,0,0
88645,-125,4,2,2,70,0,0
88882,-125,4,2,5,70,0,0
88961,-125,4,2,2,70,0,0
89198,-125,4,2,5,70,0,0
89277,-125,4,2,2,70,0,0
89514,-125,4,2,5,70,0,0
89593,-125,4,2,2,70,0,0
89830,-125,4,2,5,70,0,0
89909,-125,4,2,2,70,0,0
90145,-125,4,2,5,70,0,0
90224,-125,4,2,2,70,0,0
90461,-125,4,2,5,70,0,0
90540,-125,4,2,2,70,0,0
90777,-125,4,2,5,70,0,0
90856,-125,4,2,2,70,0,0
91093,-125,4,2,5,70,0,0
91172,-125,4,2,2,70,0,0
91409,-125,4,2,5,70,0,0
91488,-125,4,2,2,70,0,0
91724,-125,4,2,5,70,0,0
91803,-125,4,2,2,70,0,0
92040,-125,4,2,5,70,0,0
92119,-125,4,2,2,70,0,0
92356,-125,4,2,5,70,0,0
92435,-125,4,2,2,70,0,0
92672,-125,4,2,5,70,0,0
92751,-125,4,2,2,70,0,0
92988,-125,4,2,5,70,0,0
93067,-125,4,2,2,70,0,0
93303,-125,4,2,5,70,0,0
93382,-125,4,2,2,70,0,0
93619,-125,4,2,5,70,0,0
93698,-125,4,2,2,70,0,0
93935,-125,4,2,5,70,0,0
94014,-125,4,2,2,70,0,0
94251,-125,4,2,5,70,0,0
94330,-125,4,2,2,70,0,0
94567,-125,4,2,5,70,0,0
94645,-125,4,2,2,70,0,0
94882,-125,4,2,5,70,0,0
94961,-125,4,2,2,70,0,0
95198,-125,4,2,5,70,0,0
95277,-125,4,2,2,70,0,0
95514,-125,4,2,5,70,0,0
95593,-125,4,2,2,70,0,0
95830,-125,4,2,5,70,0,0
95909,-125,4,2,2,70,0,0
96145,-125,4,2,5,70,0,0
96224,-125,4,2,2,70,0,0
96461,-125,4,2,5,70,0,0
96540,-125,4,2,2,70,0,0
96777,-125,4,2,5,70,0,0
96856,-125,4,2,2,70,0,0
97093,-125,4,2,5,70,0,0
97172,-125,4,2,2,70,0,0
97409,-125,4,2,5,70,0,0
97488,-125,4,2,2,70,0,0
98040,-125,4,2,5,70,0,0
98119,-125,4,2,2,70,0,0
98356,-125,4,2,5,70,0,0
98435,-125,4,2,2,70,0,0
98672,-125,4,2,5,70,0,0
98751,-125,4,2,2,70,0,0
98988,-125,4,2,5,70,0,0
99067,-125,4,2,2,70,0,0
99303,-125,4,2,5,70,0,0
99382,-125,4,2,2,70,0,0
99619,-125,4,2,5,70,0,0
99698,-125,4,2,2,70,0,0
99935,-125,4,2,5,70,0,0
100014,-125,4,2,2,70,0,0
100251,-125,4,2,5,70,0,0
100330,-125,4,2,2,70,0,0
100567,-125,4,2,5,70,0,0
100645,-125,4,2,2,70,0,0
100882,-125,4,2,5,70,0,0
100961,-125,4,2,2,70,0,0
101198,-125,4,2,5,70,0,0
101277,-125,4,2,2,70,0,0
101514,-125,4,2,5,70,0,0
101593,-125,4,2,2,70,0,0
101830,-125,4,2,5,70,0,0
101909,-125,4,2,2,70,0,0
102145,-125,4,2,5,70,0,0
102224,-125,4,2,2,70,0,0
102461,-125,4,2,5,70,0,0
102540,-125,4,2,2,70,0,0
102777,-125,4,2,5,70,0,0
102856,-125,4,2,2,70,0,0
103093,-125,4,2,5,70,0,0
103172,-125,4,2,2,70,0,0
103409,-125,4,2,5,70,0,0
103488,-125,4,2,2,70,0,0
103724,-125,4,2,5,70,0,0
103803,-125,4,2,2,70,0,0
104040,-125,4,2,5,70,0,0
104119,-125,4,2,2,70,0,0
104356,-125,4,2,5,70,0,0
104435,-125,4,2,2,70,0,0
104672,-125,4,2,5,70,0,0
104751,-125,4,2,2,70,0,0
104988,-125,4,2,5,70,0,0
105067,-125,4,2,2,70,0,0
105303,-125,4,2,3,70,0,0
105461,-125,4,2,2,70,0,0
105777,-125,4,2,8,70,0,0
105856,-125,4,2,3,70,0,0
106567,-125,4,2,4,70,0,0
106645,-125,4,2,2,70,0,0
107040,-125,4,2,4,70,0,0
107119,-125,4,2,2,70,0,0
107830,-200,4,2,1,50,0,0
117935,-133.333333333333,4,2,6,60,0,0
122988,-125,4,2,2,60,0,0
123145,-125,4,2,2,30,0,0
123303,-125,4,2,2,35,0,0
123619,-125,4,2,2,40,0,0
123935,-125,4,2,2,45,0,0
124251,-125,4,2,2,50,0,0
124567,-125,4,2,2,55,0,0
124882,-125,4,2,2,60,0,0
125198,-125,4,2,2,65,0,0
125514,-125,4,2,2,70,0,0
125593,-125,4,2,2,30,0,0
125830,-125,4,2,2,70,0,0
125909,-125,4,2,2,30,0,0
126145,-125,4,2,2,70,0,0
126224,-125,4,2,2,30,0,0
126461,-125,4,2,2,70,0,0
126540,-125,4,2,2,30,0,0
126777,-125,4,2,2,70,0,0
126935,-125,4,2,2,45,0,0
127093,-125,4,2,2,50,0,0
127251,-125,4,2,2,55,0,0
127409,-125,4,2,2,60,0,0
127567,-125,4,2,2,65,0,0
127724,-125,4,2,2,70,0,0
128040,-125,4,2,1,50,0,0
133093,-125,4,2,2,30,0,0
133409,-125,4,2,2,40,0,0
133724,-125,4,2,2,50,0,0
134040,-125,4,2,2,60,0,0
134356,-125,4,2,2,70,0,0
134988,-125,4,2,2,80,0,0
135619,-125,4,2,2,45,0,0
140040,-125,4,2,2,80,0,0
140672,-100,4,2,2,80,0,1
140988,-100,4,2,5,80,0,1
141067,-100,4,2,2,80,0,1
141303,-100,4,2,5,80,0,1
141382,-100,4,2,2,80,0,1
141619,-100,4,2,5,80,0,1
141698,-100,4,2,2,80,0,1
141935,-100,4,2,5,80,0,1
142014,-100,4,2,2,80,0,1
142251,-100,4,2,5,80,0,1
142330,-100,4,2,2,80,0,1
142567,-100,4,2,5,80,0,1
142645,-100,4,2,2,80,0,1
142882,-100,4,2,5,80,0,1
142961,-100,4,2,2,80,0,1
143198,-100,4,2,5,80,0,1
143277,-100,4,2,2,80,0,1
143514,-100,4,2,5,80,0,1
143593,-100,4,2,2,80,0,1
143830,-100,4,2,5,80,0,1
143909,-100,4,2,2,80,0,1
144145,-100,4,2,5,80,0,1
144224,-100,4,2,2,80,0,1
144461,-100,4,2,5,80,0,1
144540,-100,4,2,2,80,0,1
144777,-100,4,2,5,80,0,1
144856,-100,4,2,2,80,0,1
145093,-100,4,2,5,80,0,1
145172,-100,4,2,2,80,0,1
145409,-100,4,2,5,80,0,1
145488,-100,4,2,2,80,0,1
145724,-100,4,2,5,80,0,1
145803,-100,4,2,2,80,0,1
146040,-100,4,2,5,80,0,1
146119,-100,4,2,2,80,0,1
146356,-100,4,2,5,80,0,1
146435,-100,4,2,2,80,0,1
146672,-100,4,2,5,80,0,1
146751,-100,4,2,2,80,0,1
146988,-100,4,2,5,80,0,1
147067,-100,4,2,2,80,0,1
147303,-100,4,2,5,80,0,1
147382,-100,4,2,2,80,0,1
147619,-100,4,2,5,80,0,1
147698,-100,4,2,2,80,0,1
147935,-100,4,2,5,80,0,1
148014,-100,4,2,2,80,0,1
148251,-100,4,2,5,80,0,1
148330,-100,4,2,2,80,0,1
148567,-100,4,2,5,80,0,1
148645,-100,4,2,2,80,0,1
148882,-100,4,2,5,80,0,1
148961,-100,4,2,2,80,0,1
149198,-100,4,2,5,80,0,1
149277,-100,4,2,2,80,0,1
149672,-100,4,2,2,40,0,1
149830,-100,4,2,2,80,0,1
149988,-100,4,2,2,40,0,1
150145,-100,4,2,2,80,0,1
150303,-100,4,2,2,40,0,1
150461,-100,4,2,2,80,0,1
150540,-100,4,2,2,40,0,1
150777,-100,4,2,2,80,0,1
151093,-100,4,2,5,80,0,1
151172,-100,4,2,2,80,0,1
151409,-100,4,2,5,80,0,1
151488,-100,4,2,2,80,0,1
151724,-100,4,2,5,80,0,1
151803,-100,4,2,2,80,0,1
152040,-100,4,2,5,80,0,1
152119,-100,4,2,2,80,0,1
152356,-100,4,2,5,80,0,1
152435,-100,4,2,2,80,0,1
152672,-100,4,2,5,80,0,1
152751,-100,4,2,2,80,0,1
152988,-100,4,2,5,80,0,1
153067,-100,4,2,2,80,0,1
153303,-100,4,2,5,80,0,1
153382,-100,4,2,2,80,0,1
153619,-100,4,2,5,80,0,1
153698,-100,4,2,2,80,0,1
153935,-100,4,2,5,80,0,1
154014,-100,4,2,2,80,0,1
154251,-100,4,2,5,80,0,1
154330,-100,4,2,2,80,0,1
154567,-100,4,2,5,80,0,1
154645,-100,4,2,2,80,0,1
154882,-100,4,2,5,80,0,1
154961,-100,4,2,2,80,0,1
155198,-100,4,2,5,80,0,1
155277,-100,4,2,2,80,0,1
155514,-100,4,2,5,80,0,1
155593,-100,4,2,2,80,0,1
155830,-100,4,2,5,80,0,1
155909,-100,4,2,2,80,0,1
156145,-100,4,2,5,80,0,1
156224,-100,4,2,2,80,0,1
156461,-100,4,2,5,80,0,1
156540,-100,4,2,2,80,0,1
156777,-100,4,2,5,80,0,1
156856,-100,4,2,2,80,0,1
157093,-100,4,2,5,80,0,1
157172,-100,4,2,2,80,0,1
158672,-100,4,2,2,60,0,1
158988,-100,4,2,3,80,0,1
159303,-100,4,2,3,60,0,1
159619,-100,4,2,2,80,0,1
159935,-100,4,2,2,50,0,1
160093,-100,4,2,2,55,0,1
160251,-100,4,2,2,60,0,1
160409,-100,4,2,2,65,0,1
160567,-100,4,2,2,70,0,1
160724,-100,4,2,2,75,0,1
160882,-100,4,2,2,80,0,1
161040,-100,4,2,2,60,0,1
161356,-100,4,2,3,80,0,1
161672,-100,4,2,3,60,0,1
161830,-100,4,2,2,80,0,1
161909,-100,4,2,2,60,0,1
162145,-100,4,2,2,80,0,1
162303,-100,4,2,2,60,0,1
162619,-100,4,2,3,80,0,1
162777,-100,4,2,3,60,0,1
162935,-100,4,2,3,70,0,1
163093,-100,4,2,2,80,0,1
163251,-100,4,2,3,80,0,1
163409,-100,4,2,2,80,0,1
163567,-100,4,2,2,40,0,1
163724,-100,4,2,2,50,0,1
163882,-100,4,2,2,40,0,1
164040,-100,4,2,2,60,0,1
164356,-100,4,2,2,70,0,1
164435,-100,4,2,2,40,0,1
164672,-100,4,2,2,80,0,1
164751,-100,4,2,2,40,0,1
164988,-100,4,2,2,80,0,1
165461,-100,4,2,3,80,0,1
165935,-100,4,2,3,80,0,0
166251,-100,4,2,4,60,0,0
168461,-100,4,2,2,80,0,0
168777,-100,4,2,3,50,0,0
169093,-100,4,2,3,60,0,0
169409,-100,4,2,3,70,0,0
169724,-100,4,2,3,80,0,0
169882,-100,4,2,2,80,0,0
170514,-100,4,2,3,80,0,0
170988,-100,4,2,3,80,0,1
171303,-100,4,2,2,80,0,1
171382,-100,4,2,3,80,0,1
171619,-100,4,2,5,80,0,1
171698,-100,4,2,3,80,0,1
171935,-100,4,2,5,80,0,1
172014,-100,4,2,3,80,0,1
172251,-100,4,2,5,80,0,1
172330,-100,4,2,3,80,0,1
172567,-100,4,2,5,80,0,1
172645,-100,4,2,3,80,0,1
172882,-100,4,2,5,80,0,1
172961,-100,4,2,3,80,0,1
173198,-100,4,2,5,80,0,1
173277,-100,4,2,3,80,0,1
173514,-100,4,2,5,80,0,1
173593,-100,4,2,3,80,0,1
173830,-100,4,2,5,80,0,1
173909,-100,4,2,3,80,0,1
174145,-100,4,2,5,80,0,1
174224,-100,4,2,3,80,0,1
174461,-100,4,2,5,80,0,1
174540,-100,4,2,3,80,0,1
174777,-100,4,2,5,80,0,1
174856,-100,4,2,3,80,0,1
175093,-100,4,2,5,80,0,1
175172,-100,4,2,3,80,0,1
175409,-100,4,2,5,80,0,1
175488,-100,4,2,3,80,0,1
175724,-100,4,2,5,80,0,1
175803,-100,4,2,3,80,0,1
176040,-100,4,2,5,80,0,1
176119,-100,4,2,3,80,0,1
176356,-100,4,2,5,80,0,1
176435,-100,4,2,3,80,0,1
176672,-100,4,2,5,80,0,1
176751,-100,4,2,3,80,0,1
176988,-100,4,2,5,80,0,1
177067,-100,4,2,3,80,0,1
177303,-125,4,2,3,60,0,0
177619,-125,4,2,7,60,0,0

[Colours]
Combo1 : 160,80,80
Combo2 : 0,149,191
Combo3 : 255,145,34
Combo4 : 83,83,255
Combo5 : 244,244,0

[HitObjects]
148,281,967,6,0,P|201:331|301:328,1,160,2|2,0:0|0:0,0:0:0:0:
278,69,2338,2,0,L|247:226,1,160,2|2,0:0|0:0,0:0:0:0:
125,266,3367,1,2,0:0:0:0:
267,317,3709,6,0,L|346:306,1,80,2|2,0:0|0:0,0:0:0:0:
436,164,4395,2,0,L|358:178,1,80,2|2,0:0|0:0,0:0:0:0:
260,95,5081,1,2,0:0:0:0:
153,166,5424,1,2,0:0:0:0:
267,223,5767,1,2,0:0:0:0:
260,95,6109,1,2,0:0:0:0:
189,238,6452,6,0,P|192:280|204:320,1,80,2|0,0:0|0:0,0:0:0:0:
323,359,7138,1,2,0:0:0:0:
391,69,7824,1,2,0:0:0:0:
476,164,8167,1,2,0:0:0:0:
365,229,8509,2,0,P|326:230|285:226,1,80,2|2,0:0|0:0,0:0:0:0:
421,298,9195,5,2,0:0:0:0:
256,192,9367,12,0,10567,0:0:0:0:
60,106,11672,5,0,3:2:0:0:
60,106,11751,1,0,3:2:0:0:
60,106,11830,2,0,L|190:114,1,128,6|0,3:2|3:2,0:0:0:0:
271,53,12303,1,10,0:3:0:0:
322,141,12461,2,0,L|385:131,1,64,0|8,3:2|0:3,0:0:0:0:
290,221,12777,2,0,L|227:231,1,64,10|0,0:3|3:2,0:0:0:0:
103,305,13093,6,0,B|154:299|154:299|181:333|251:331,1,128,6|0,3:2|3:2,0:0:0:0:
226,231,13566,1,0,0:0:0:0:
306,294,13724,2,0,L|407:273,2,85.3333333333333,10|4|4,3:3|0:3|0:3,0:0:0:0:
462,209,14356,6,0,B|418:190|418:190|339:206,1,128,6|0,3:2|3:2,0:0:0:0:
250,153,14830,2,0,L|256:104,2,32,10|8|8,0:3|0:3|3:3,0:0:0:0:
134,322,15303,1,4,3:3:0:0:
83,244,15461,1,8,0:0:0:0:
83,244,15540,1,8,0:0:0:0:
83,244,15619,6,0,P|140:229|203:260,1,128,6|2,3:2|3:2,0:0:0:0:
269,333,16093,2,0,P|325:360|386:346,1,128,6|8,2:2|2:2,0:0:0:0:
456,271,16566,1,2,3:2:0:0:
374,208,16724,1,8,2:2:0:0:
413,113,16882,6,0,P|401:82|392:33,2,64,6|2|2,3:2|0:0|3:2,0:0:0:0:
374,208,17356,2,0,P|362:237|355:268,2,64,8|6|4,0:3|3:3|0:3,0:0:0:0:
308,128,17830,1,4,3:3:0:0:
240,204,17987,1,4,0:3:0:0:
174,84,18145,6,0,P|166:117|145:159,1,64,6|2,3:2|0:0,0:0:0:0:
124,242,18461,1,2,3:2:0:0:
240,204,18619,2,0,P|273:203|303:199,2,64,2|0|2,0:0|3:2|0:3,0:0:0:0:
153,144,19093,1,8,3:2:0:0:
68,78,19251,1,8,2:2:0:0:
68,78,19330,1,8,2:2:0:0:
68,78,19408,6,0,P|39:129|53:203,1,128,6|8,3:2|3:2,0:0:0:0:
107,279,19882,2,0,L|98:349,2,64,8|8|8,3:2|3:2|3:2,0:0:0:0:
198,231,20356,2,0,L|263:221,1,64,8|8,3:2|3:2,0:0:0:0:
316,107,20672,6,0,L|253:118,1,64,8|8,3:2|3:2,0:0:0:0:
388,179,20987,2,0,L|456:166,2,64,10|10|6,3:2|3:2|3:2,0:0:0:0:
337,268,21461,1,2,3:2:0:0:
408,341,21619,1,14,2:2:0:0:
256,192,21935,12,0,24145,0:0:0:0:
74,192,24461,5,10,3:2:0:0:
132,106,24619,2,0,L|123:55,2,32,8|8|8,2:2|2:2|2:2,0:0:0:0:
172,200,24935,2,0,L|163:251,2,32,8|8|8,2:2|2:2|2:2,0:0:0:0:
242,123,25251,2,0,L|233:72,2,32,8|8|8,2:2|2:2|2:2,0:0:0:0:
345,169,25566,1,8,2:2:0:0:
345,169,25645,1,8,2:2:0:0:
345,169,25724,6,0,B|395:184|450:159|450:159|489:217|489:217|465:272|465:272|376:307|314:272,1,384,4|2,3:2|0:0,0:0:0:0:
219,99,26987,6,0,B|140:81|140:81|85:103,1,128,2|2,3:2|3:2,0:0:0:0:
174,174,27461,1,2,0:0:0:0:
288,142,27619,2,0,P|320:138|353:130,1,64,2|0,3:2|0:0,0:0:0:0:
428,63,27935,1,2,3:2:0:0:
443,164,28093,1,2,0:0:0:0:
358,222,28251,6,0,L|346:293,1,64,2|0,3:2|0:0,0:0:0:0:
257,202,28566,2,0,L|281:65,1,128,2|0,3:2|3:2,0:0:0:0:
73,80,29198,2,0,L|142:71,1,64,2|0,3:2|0:0,0:0:0:0:
30,170,29514,6,0,B|131:156|131:156|156:176,1,128,2|2,3:2|3:2,0:0:0:0:
84,249,29987,1,2,0:0:0:0:
181,280,30145,2,0,P|188:313|194:347,1,64,2|0,3:2|0:0,0:0:0:0:
294,360,30461,1,2,3:2:0:0:
193,342,30619,1,2,0:0:0:0:
281,282,30777,6,0,B|317:286|317:286|352:308,1,64,2|0,3:2|0:0,0:0:0:0:
242,196,31093,2,0,L|107:177,1,128,2|0,3:2|3:2,0:0:0:0:
308,57,31724,2,0,P|302:88|298:133,1,64,2|0,3:2|0:0,0:0:0:0:
366,249,32040,6,0,P|378:187|388:117,1,128,2|2,3:2|3:2,0:0:0:0:
308,57,32514,1,0,0:0:0:0:
205,59,32672,2,0,P|173:53|142:44,1,64,2|0,3:2|0:0,0:0:0:0:
63,108,32987,2,0,P|95:114|126:123,1,64,2|0,3:2|0:0,0:0:0:0:
150,238,33303,6,0,B|133:205|133:205|44:185,1,128,2|2,3:2|3:2,0:0:0:0:
58,287,33777,2,0,L|40:357,2,64,0|2|0,0:0|3:2|0:0,0:0:0:0:
150,238,34251,2,0,P|182:236|219:226,1,64,2|0,3:2|0:0,0:0:0:0:
293,164,34566,6,0,L|268:82,2,64,10|8|10,3:2|0:0|3:2,0:0:0:0:
366,235,35040,2,0,L|388:306,2,64,8|10|8,0:0|3:2|0:0,0:0:0:0:
418,147,35514,2,0,P|454:153|483:153,1,64,10|8,3:2|0:0,0:0:0:0:
309,107,35830,6,0,P|273:101|244:101,1,64,10|8,3:2|0:0,0:0:0:0:
398,34,36145,2,0,P|434:28|463:28,1,64,10|8,0:0|0:0,0:0:0:0:
493,126,36461,2,0,P|493:158|502:202,1,64,10|8,1:3|1:3,0:0:0:0:
496,292,36777,1,8,1:3:0:0:
413,352,36935,1,8,1:3:0:0:
325,318,37093,6,0,L|261:312,1,47.9999985351563,2|2,0:0|0:0,0:0:0:0:
214,268,37409,2,0,L|166:262,1,47.9999985351563,2|2,0:3|0:0,0:0:0:0:
103,217,37724,2,0,L|42:208,2,47.9999985351563,2|2|2,0:0|0:0|0:3,0:0:0:0:
162,167,38198,1,2,0:0:0:0:
137,94,38356,6,0,P|180:92|228:128,2,95.9999970703126,2|2|2,0:0|0:3|0:0,0:0:0:0:
38,211,39303,1,2,0:3:0:0:
154,350,39619,6,0,B|214:346|214:346|243:324,1,95.9999970703126,2|2,0:0|0:3,0:0:0:0:
90,281,40093,2,0,L|188:274,1,95.9999970703126,2|0,0:0|0:0,0:0:0:0:
249,231,40566,1,2,0:3:0:0:
388,295,40882,6,0,L|369:200,1,95.9999970703126,2|2,0:0|0:3,0:0:0:0:
419,65,41356,2,0,L|437:159,1,95.9999970703126,2|0,0:0|0:0,0:0:0:0:
369,200,41830,1,2,0:3:0:0:
191,53,42145,6,0,B|99:35|99:35|62:49,1,128,6|8,3:2|3:2,0:0:0:0:
133,126,42619,2,0,L|210:141,2,64,8|8|10,2:2|3:2|2:2,0:0:0:0:
47,184,43093,1,10,3:2:0:0:
120,255,43251,1,10,2:2:0:0:
216,223,43409,6,0,L|222:256,2,32,8|8|8,0:0|0:0|0:0,0:0:0:0:
274,137,43724,2,0,L|280:104,2,32,8|8|8,0:3|0:3|0:3,0:0:0:0:
352,204,44040,2,0,L|386:215,2,32,4|4|4,0:3|0:3|0:3,0:0:0:0:
383,105,44356,2,0,L|417:94,2,32,6|4|4,0:3|0:3|0:3,0:0:0:0:
310,31,44672,6,0,P|278:27|246:31,1,64,6|0,3:2|0:0,0:0:0:0:
151,68,44987,1,10,0:0:0:0:
233,128,45145,1,2,0:0:0:0:
185,218,45303,2,0,B|273:234|273:234|314:195,1,128,2|10,3:2|0:0,0:0:0:0:
233,128,45777,1,2,0:0:0:0:
107,218,45935,6,0,B|124:282|124:282|187:294,1,128,2|10,3:2|0:0,0:0:0:0:
290,303,46409,2,0,P|321:298|360:295,1,64,0|0,0:0|3:2,0:0:0:0:
409,216,46724,1,0,0:0:0:0:
344,137,46882,2,0,P|355:104|360:72,1,64,10|0,0:0|0:0,0:0:0:0:
251,166,47198,6,0,P|240:199|235:231,1,64,2|2,3:2|0:0,0:0:0:0:
149,271,47514,2,0,P|116:282|84:287,1,64,10|2,0:0|0:0,0:0:0:0:
217,332,47830,1,2,3:2:0:0:
217,332,47987,1,2,0:0:0:0:
301,285,48145,2,0,P|331:274|362:269,1,64,10|2,0:0|0:0,0:0:0:0:
241,192,48461,6,0,B|149:179|149:179|118:159,1,128,2|10,3:2|0:0,0:0:0:0:
71,60,48935,2,0,B|163:73|163:73|194:93,1,128
241,192,49409,2,0,P|274:203|317:207,1,64,10|0,0:0|0:0,0:0:0:0:
354,123,49724,6,0,P|416:115|470:152,1,128,2|10,3:2|0:0,0:0:0:0:
508,244,50198,1,0,0:0:0:0:
431,311,50356,2,0,P|369:319|315:282,1,128,2|10,3:2|0:0,0:0:0:0:
256,200,50830,1,0,0:0:0:0:
256,200,50987,6,0,L|243:73,1,128,2|10,3:2|0:0,0:0:0:0:
148,31,51461,1,0,0:0:0:0:
94,118,51619,2,0,L|107:245,1,128,2|10,3:2|0:0,0:0:0:0:
173,324,52093,1,0,0:0:0:0:
263,276,52251,6,0,B|312:280|312:280|353:307|402:289,1,128,2|10,3:2|0:0,0:0:0:0:
366,191,52724,1,0,0:0:0:0:
321,98,52882,2,0,B|272:94|272:94|231:67|196:80,1,128,2|10,3:2|0:0,0:0:0:0:
217,181,53356,1,0,0:0:0:0:
129,235,53514,6,0,P|119:204|115:173,1,64,2|0,3:2|0:0,0:0:0:0:
225,291,53830,2,0,P|230:322|239:353,1,64,10|0,0:0|0:0,0:0:0:0:
302,216,54145,2,0,P|292:183|287:147,1,64,2|2,3:2|0:3,0:0:0:0:
197,80,54461,1,8,0:0:0:0:
52,223,54777,5,6,1:3:0:0:
52,223,54935,1,6,1:3:0:0:
54,319,55093,2,0,P|108:348|181:326,2,128,2|2|2,3:2|3:2|3:2,0:0:0:0:
133,150,56040,5,6,1:3:0:0:
133,150,56198,1,4,1:3:0:0:
197,80,56356,2,0,L|187:4,2,64,2|2|2,3:2|0:0|3:2,0:0:0:0:
287,249,56987,2,0,L|278:185,1,64,2|0,3:2|0:0,0:0:0:0:
354,125,57303,5,6,1:3:0:0:
354,125,57461,1,4,1:3:0:0:
446,151,57619,2,0,L|483:288,2,128,2|2|2,3:2|3:2|3:2,0:0:0:0:
277,58,58566,6,0,P|183:22|81:38,2,192,14|2|2,0:0|0:0|3:2,0:0:0:0:
156,208,59830,1,14,3:2:0:0:
13,336,60145,5,2,2:3:0:0:
13,336,60777,1,2,2:3:0:0:
13,336,61408,1,2,2:3:0:0:
13,336,62040,1,2,2:3:0:0:
144,196,62356,6,0,L|160:272,1,64,2|0,0:0|0:0,0:0:0:0:
223,117,62672,2,0,L|207:41,1,64,2|0,0:0|0:0,0:0:0:0:
305,163,62987,2,0,L|321:239,1,64,2|0,0:0|0:0,0:0:0:0:
385,295,63303,2,0,P|419:302|465:306,1,64,2|0,0:0|0:0,0:0:0:0:
505,234,63619,1,2,0:0:0:0:
62,139,64882,6,0,B|98:257|98:257|144:215,1,160,6|8,3:2|3:2,0:0:0:0:
215,187,65356,1,0,0:0:0:0:
215,187,65514,2,0,P|254:181|312:182,1,80,2|0,3:2|0:0,0:0:0:0:
330,270,65830,2,0,L|348:354,1,80,8|0,3:2|0:0,0:0:0:0:
447,256,66145,6,0,B|423:144|423:144|368:115,1,160,2|8,3:2|3:2,0:0:0:0:
294,181,66619,1,0,0:0:0:0:
201,156,66777,2,0,P|201:115|214:65,1,80,2|0,3:2|0:0,0:0:0:0:
101,145,67093,2,0,P|109:184|109:224,1,80,10|0,3:2|0:0,0:0:0:0:
173,309,67408,6,0,P|98:332|30:295,2,160,2|8|2,3:2|3:2|3:2,0:0:0:0:
245,245,68198,1,0,0:0:0:0:
165,191,68356,2,0,P|123:196|83:199,1,80,10|0,3:2|0:0,0:0:0:0:
237,136,68672,6,0,P|239:98|247:57,1,80,2|0,3:2|0:0,0:0:0:0:
341,6,68987,2,0,P|348:46|351:86,1,80,10|0,3:2|0:0,0:0:0:0:
436,131,69303,1,2,3:2:0:0:
361,192,69461,1,0,0:0:0:0:
410,275,69619,2,0,P|371:276|329:282,1,80,10|0,3:2|0:0,0:0:0:0:
238,253,69935,2,0,L|206:86,1,160,2|8,3:2|3:2,0:0:0:0:
156,281,70566,6,0,P|227:333|311:301,1,160,2|8,3:2|3:2,0:0:0:0:
371,258,71040,1,0,0:0:0:0:
307,186,71198,2,0,P|310:146|315:103,1,80,2|0,3:2|0:0,0:0:0:0:
231,34,71514,2,0,P|226:74|223:114,1,80,10|0,3:2|0:0,0:0:0:0:
138,160,71830,2,0,P|97:162|51:167,1,80,2|0,3:2|0:0,0:0:0:0:
20,255,72145,2,0,P|59:260|99:262,1,80,8|0,3:2|0:0,0:0:0:0:
196,267,72461,6,0,B|245:270|245:270|286:216|359:250,2,160,2|10|2,3:2|3:2|3:2,0:0:0:0:
308,314,73251,1,0,0:0:0:0:
402,305,73409,2,0,P|440:298|484:293,1,80,10|0,3:2|0:0,0:0:0:0:
490,198,73724,6,0,L|499:153,3,40,10|0|8|8,3:2|0:0|2:2|2:2,0:0:0:0:
449,155,74040,2,0,L|458:110,3,40,8|0|8|8,2:2|0:0|2:2|2:2,0:0:0:0:
408,113,74356,2,0,L|417:68,3,40,10|0|8|8,2:2|0:0|2:2|2:2,0:0:0:0:
368,85,74672,2,0,L|245:93,1,120,10|8,2:2|2:2,0:0:0:0:
202,77,74987,6,0,L|40:84,1,160,6|8,3:2|3:2,0:0:0:0:
50,278,75619,2,0,P|58:238|62:195,1,80,2|0,3:2|0:0,0:0:0:0:
178,226,75935,2,0,P|162:188|142:149,1,80,10|0,3:2|0:0,0:0:0:0:
136,298,76251,6,0,P|214:301|261:228,1,160,2|8,3:2|3:2,0:0:0:0:
274,145,76724,1,0,0:0:0:0:
259,240,76882,2,0,P|299:246|349:249,1,80,2|0,3:2|0:0,0:0:0:0:
430,219,77198,2,0,P|438:179|441:137,1,80,10|0,3:2|0:0,0:0:0:0:
349,107,77514,6,0,B|362:35|362:35|425:69|460:28,2,160,2|10|2,3:2|3:2|3:2,0:0:0:0:
274,145,78303,1,0,0:0:0:0:
314,232,78461,2,0,P|311:271|312:311,1,80,10|0,3:2|0:0,0:0:0:0:
213,271,78777,6,0,P|189:302|167:336,1,80,2|0,3:2|0:0,0:0:0:0:
137,216,79093,2,0,P|100:229|63:246,1,80,10|0,3:2|0:0,0:0:0:0:
191,129,79409,2,0,P|151:123|112:114,1,80,2|0,3:2|0:0,0:0:0:0:
87,19,79724,2,0,P|126:24|165:33,1,80,10|0,3:2|0:0,0:0:0:0:
250,78,80040,5,2,3:2:0:0:
149,136,80198,2,0,P|146:176|135:228,1,80,2|8,0:0|3:2,0:0:0:0:
275,351,80672,2,0,P|278:311|289:259,1,80,2|0,3:2|0:0,0:0:0:0:
365,218,80987,1,8,3:2:0:0:
278,176,81145,1,8,0:0:0:0:
355,131,81303,5,6,3:2:0:0:
285,271,81619,1,2,2:2:0:0:
217,123,81935,1,2,2:2:0:0:
424,172,82251,1,2,2:2:0:0:
256,192,82408,12,0,83830,0:0:0:0:
50,35,85093,6,0,B|145:20|145:20|179:48,1,128,10|10,3:2|3:2,0:0:0:0:
96,112,85566,2,0,L|11:124,2,64,8|10|8,3:2|3:2|3:2,0:0:0:0:
188,156,86040,1,10,3:2:0:0:
129,240,86198,1,8,3:2:0:0:
223,278,86356,6,0,L|217:309,3,32,10|8|10|8,0:0|0:0|0:0|0:0,0:0:0:0:
269,303,86672,2,0,L|263:334,3,32,10|8|10|8,0:3|0:3|0:3|0:3,0:0:0:0:
313,321,86987,2,0,P|344:318|388:317,1,64,6|4,0:3|0:3,0:0:0:0:
454,248,87303,1,6,0:3:0:0:
394,164,87461,1,6,0:3:0:0:
394,164,87540,1,6,0:3:0:0:
394,164,87619,6,0,P|336:123|257:134,1,128,6|8,3:2|3:2,0:0:0:0:
178,137,88093,2,0,P|144:133|111:126,1,64,2|0,0:0|3:2,0:0:0:0:
54,44,88408,1,2,0:0:0:0:
114,126,88566,2,0,P|108:160|104:196,1,64,10|2,3:2|0:0,0:0:0:0:
17,244,88882,5,0,3:2:0:0:
81,323,89040,1,2,0:0:0:0:
178,292,89198,2,0,L|251:299,1,64,10|2,3:2|0:0,0:0:0:0:
337,336,89514,2,0,L|342:263,1,64,2|2,3:2|0:0,0:0:0:0:
316,172,89830,2,0,L|395:178,1,64,10|2,3:2|0:0,0:0:0:0:
241,112,90145,6,0,P|186:80|121:84,1,128,2|8,3:2|3:2,0:0:0:0:
26,118,90619,2,0,P|24:152|16:185,1,64,2|0,0:0|3:2,0:0:0:0:
80,262,90935,2,0,L|76:303,4,32,2|2|10|2|2,0:0|0:0|3:2|0:0|0:0,0:0:0:0:
162,201,91409,6,0,P|201:196|231:190,1,64,2|2,3:2|0:0,0:0:0:0:
143,128,91724,1,10,3:2:0:0:
202,271,91882,6,0,B|302:255|302:255|297:289,1,128,2|2,0:0|0:0,0:0:0:0:
188,349,92356,2,0,L|220:345,3,32,10|2|2|2,3:2|0:0|0:0|0:0,0:0:0:0:
168,338,92672,6,0,P|110:327|40:368,1,128,2|10,3:2|3:2,0:0:0:0:
107,243,93145,2,0,P|105:208|99:167,1,64,2|0,0:0|3:2,0:0:0:0:
8,133,93461,1,2,0:0:0:0:
95,80,93619,1,10,3:2:0:0:
101,179,93777,1,2,0:0:0:0:
184,95,93935,6,0,P|182:60|176:19,2,64,2|2|10,3:2|0:0|3:2,0:0:0:0:
265,156,94409,2,0,P|298:159|349:168,1,64,2|0,0:0|3:2,0:0:0:0:
408,98,94724,1,2,0:0:0:0:
328,163,94882,1,10,3:2:0:0:
404,231,95040,1,2,0:0:0:0:
305,260,95198,6,0,P|272:257|221:248,1,64,2|2,3:2|0:0,0:0:0:0:
142,279,95514,2,0,P|136:311|122:361,1,64,10|2,3:2|0:0,0:0:0:0:
60,264,95830,2,0,P|52:232|46:201,1,64,2|2,3:2|0:0,0:0:0:0:
64,100,96145,2,0,P|32:104|0:107,1,64,10|2,3:2|0:0,0:0:0:0:
143,170,96461,6,0,P|174:174|206:177,1,64,2|2,3:2|0:0,0:0:0:0:
304,144,96777,2,0,P|309:112|317:81,1,64,10|2,3:2|0:0,0:0:0:0:
420,87,97093,2,0,P|411:56|405:24,1,64,2|2,3:2|0:0,0:0:0:0:
484,168,97409,2,0,P|488:199|496:230,1,64,10|2,3:2|0:0,0:0:0:0:
407,345,97724,6,0,P|393:273|380:205,1,128,6|8,3:2|3:2,0:0:0:0:
300,156,98198,1,0,0:0:0:0:
300,156,98356,2,0,P|264:147|228:142,1,64,2|0,3:2|0:0,0:0:0:0:
157,77,98672,2,0,P|188:71|219:63,1,64,8|0,3:2|0:0,0:0:0:0:
207,214,98987,6,0,B|300:233|300:233|345:221,1,128,2|8,3:2|3:2,0:0:0:0:
430,195,99461,1,0,0:0:0:0:
355,124,99619,2,0,P|352:92|343:44,1,64,2|0,3:2|0:0,0:0:0:0:
437,11,99935,2,0,P|442:42|445:74,1,64,10|0,3:2|0:0,0:0:0:0:
496,209,100251,6,0,P|425:205|380:247,1,128,2|8,3:2|3:2,0:0:0:0:
304,303,100724,1,0,0:0:0:0:
304,303,100882,2,0,P|267:301|232:296,1,64,2|0,3:2|0:0,0:0:0:0:
140,325,101198,2,0,P|147:275|151:224,1,96,10|0,3:2|0:0,0:0:0:0:
105,201,101514,6,0,P|166:207|223:168,1,128,2|8,3:2|3:2,0:0:0:0:
142,108,101987,1,0,0:0:0:0:
224,47,102145,2,0,P|272:50|341:50,1,96,2|2,3:2|0:0,0:0:0:0:
355,67,102461,2,0,P|386:68|425:69,1,64,8|2,3:2|0:0,0:0:0:0:
500,132,102777,6,0,B|496:186|496:186|455:206|494:261,1,128,2|8,3:2|3:2,0:0:0:0:
394,295,103251,2,0,L|384:364,2,64,2|0|0,0:0|3:2|0:0,0:0:0:0:
321,222,103724,1,8,3:2:0:0:
403,161,103882,1,0,0:0:0:0:
337,82,104040,6,0,P|279:54|217:61,1,128,2|8,3:2|3:2,0:0:0:0:
128,113,104514,1,0,0:0:0:0:
192,192,104672,2,0,P|249:219|311:212,1,128,2|8,3:2|3:2,0:0:0:0:
440,52,105303,6,0,L|425:128,1,64,6|8,3:2|2:3,0:0:0:0:
487,198,105619,2,0,L|502:274,1,64,6|10,2:3|2:3,0:0:0:0:
397,244,105935,2,0,L|330:250,1,64,10|6,0:0|3:2,0:0:0:0:
305,150,106251,2,0,L|241:144,1,64,6|4,2:3|0:3,0:0:0:0:
142,171,106566,6,0,L|152:101,1,64,10|0,0:0|3:2,0:0:0:0:
63,52,106882,2,0,L|53:115,1,64,0|8,3:2|0:0,0:0:0:0:
40,217,107198,2,0,P|70:235|117:242,1,64,8|8,0:0|0:0,0:0:0:0:
200,228,107514,1,8,0:0:0:0:
147,317,107672,1,8,0:0:0:0:
147,317,107830,5,10,0:0:0:0:
147,317,109093,1,10,0:0:0:0:
147,317,110356,5,10,0:0:0:0:
147,317,111619,1,10,0:0:0:0:
287,334,112882,6,0,P|212:357|146:316,1,160,10|8,3:2|3:2,0:0:0:0:
181,63,114145,2,0,P|254:39|320:80,1,160,10|8,3:2|3:2,0:0:0:0:
95,202,115408,6,0,P|175:200|262:194,1,160,10|8,3:2|3:2,0:0:0:0:
439,16,116672,2,0,P|440:95|446:175,1,160,10|8,3:2|3:2,0:0:0:0:
65,121,117935,6,0,B|108:113|108:113|150:85|192:105,1,120.000004577637,2|0,3:2|3:2,0:0:0:0:
161,189,118408,1,0,0:0:0:0:
161,189,118566,2,0,L|151:249,1,60.0000022888184,2|0,3:2|0:0,0:0:0:0:
221,304,118882,2,0,L|231:364,1,60.0000022888184,0|0,3:2|0:0,0:0:0:0:
291,252,119198,6,0,P|360:244|407:282,1,120.000004577637,2|0,3:2|3:2,0:0:0:0:
462,206,119672,1,0,0:0:0:0:
465,115,119830,2,0,B|473:100|473:100|371:110,1,120.000004577637,2|0,3:2|3:2,0:0:0:0:
284,131,120303,1,0,0:0:0:0:
303,42,120461,6,0,L|437:28,2,120.000004577637,2|0|2,3:2|3:2|3:2,0:0:0:0:
216,69,121251,1,0,0:0:0:0:
267,142,121409,2,0,P|270:178|276:208,1,60.0000022888184,0|0,3:2|0:0,0:0:0:0:
200,296,121724,6,0,P|190:237|177:170,1,120.000004577637,2|0,3:2|3:2,0:0:0:0:
107,121,122198,1,0,0:0:0:0:
171,57,122356,2,0,P|205:54|237:48,1,60.0000022888184,0|0,3:2|0:0,0:0:0:0:
299,107,122672,2,0,P|333:110|365:116,1,60.0000022888184,0|0,3:2|0:0,0:0:0:0:
409,203,122988,6,0,L|422:270,2,64,10|8|8,3:2|3:2|3:2,0:0:0:0:
334,274,123461,2,0,L|347:341,2,64,8|10|8,3:2|3:2|3:2,0:0:0:0:
236,240,123935,2,0,L|254:176,1,64,8|8,3:2|3:2,0:0:0:0:
144,108,124251,6,0,L|162:172,1,64,10|8,3:2|3:2,0:0:0:0:
301,91,124566,2,0,L|239:74,1,64,8|8,3:2|3:2,0:0:0:0:
247,203,124882,2,0,L|308:186,1,64,10|8,3:2|3:2,0:0:0:0:
397,132,125198,1,8,3:2:0:0:
455,217,125356,1,8,3:2:0:0:
417,312,125514,2,0,L|387:321,7,32,10|8|8|8|8|8|8|8,3:2|2:2|2:2|2:2|3:2|2:2|2:2|2:2,0:0:0:0:
349,310,126145,2,0,L|318:318,7,32,8|8|8|8|8|8|8|8,3:2|2:2|2:2|2:2|3:2|2:2|2:2|2:2,0:0:0:0:
282,302,126777,6,0,L|217:315,1,64,8|8,3:2|0:0,0:0:0:0:
133,257,127093,2,0,P|138:225|143:193,1,64,8|8,0:0|0:0,0:0:0:0:
226,134,127409,2,0,P|230:165|236:197,1,64,8|8,0:0|0:0,0:0:0:0:
333,231,127724,1,10,0:0:0:0:
248,288,127882,1,10,0:0:0:0:
327,352,128040,5,6,0:0:0:0:
446,70,133093,6,0,L|433:199,1,128,10|8,3:2|3:2,0:0:0:0:
335,229,133566,1,8,2:2:0:0:
241,187,133724,2,0,L|250:252,1,64,8|8,3:2|2:2,0:0:0:0:
139,296,134040,2,0,L|148:233,1,64,8|8,3:2|2:2,0:0:0:0:
213,344,134356,6,0,P|247:347|297:349,1,64,8|8,3:2|2:2,0:0:0:0:
364,293,134672,2,0,P|398:290|448:288,1,64,8|8,3:2|2:2,0:0:0:0:
500,215,134987,2,0,L|480:151,1,64,10|8,3:2|2:2,0:0:0:0:
389,107,135303,1,10,3:2:0:0:
500,26,135461,1,8,2:2:0:0:
330,34,140040,5,10,3:2:0:0:
330,34,140198,1,8,3:2:0:0:
295,320,140672,6,0,P|252:327|206:330,1,80,6|0,3:2|0:0,0:0:0:0:
143,266,140987,2,0,L|131:187,1,80,8|0,3:2|0:0,0:0:0:0:
236,114,141303,2,0,L|224:193,1,80,2|0,3:2|0:0,0:0:0:0:
307,242,141619,2,0,P|344:250|391:257,1,80,8|0,3:2|0:0,0:0:0:0:
472,213,141935,6,0,P|504:138|455:84,1,160,2|8,3:2|3:2,0:0:0:0:
365,58,142409,1,0,0:0:0:0:
273,85,142567,2,0,B|232:81|232:81|193:75,1,80,2|0,3:2|0:0,0:0:0:0:
119,135,142882,2,0,B|80:141|80:141|39:145,1,80,10|0,3:2|0:0,0:0:0:0:
178,202,143198,6,0,B|207:249|167:289|167:289|149:361,2,160,2|8|2,3:2|3:2|3:2,0:0:0:0:
247,135,143988,1,0,0:0:0:0:
339,159,144146,2,0,P|331:120|328:79,1,80,10|0,3:2|0:0,0:0:0:0:
429,48,144461,6,0,P|426:87|418:127,1,80,2|0,3:2|0:0,0:0:0:0:
414,224,144777,2,0,P|374:231|334:234,1,80,10|0,3:2|0:0,0:0:0:0:
293,309,145093,1,2,3:2:0:0:
232,234,145251,1,0,0:0:0:0:
149,283,145409,2,0,P|148:244|142:202,1,80,10|0,3:2|0:0,0:0:0:0:
210,134,145725,2,0,B|215:95|215:95|92:125,1,160,2|8,3:2|3:2,0:0:0:0:
67,313,146356,6,0,P|129:360|217:331,1,160,2|8,3:2|3:2,0:0:0:0:
240,251,146830,1,0,0:0:0:0:
330,287,146988,2,0,P|370:290|413:295,1,80,2|0,3:2|0:0,0:0:0:0:
482,211,147304,2,0,P|442:206|402:203,1,80,10|0,3:2|0:0,0:0:0:0:
356,118,147620,2,0,P|354:77|349:31,1,80,2|0,3:2|0:0,0:0:0:0:
261,0,147935,2,0,P|256:39|254:79,1,80,8|0,3:2|0:0,0:0:0:0:
168,168,148251,6,0,P|248:154|308:197,2,160,2|10|2,3:2|3:2|3:2,0:0:0:0:
104,237,149041,1,0,0:0:0:0:
164,310,149198,2,0,P|202:313|250:320,1,80,10|0,3:2|0:0,0:0:0:0:
336,292,149514,6,0,L|383:297,3,40,10|0|8|8,3:2|0:0|2:2|2:2,0:0:0:0:
416,269,149830,2,0,L|469:275,3,40,8|0|8|8,2:2|0:0|2:2|2:2,0:0:0:0:
493,243,150145,2,0,P|495:202|503:159,1,80,10|8,2:2|2:2,0:0:0:0:
417,115,150461,2,0,P|415:74|407:31,1,80,10|8,2:2|2:2,0:0:0:0:
353,175,150777,6,0,B|225:187|225:187|244:149,1,160,6|8,3:2|3:2,0:0:0:0:
46,64,151409,2,0,P|54:104|58:147,1,80,2|0,3:2|0:0,0:0:0:0:
174,116,151724,2,0,P|158:154|138:193,1,80,10|0,3:2|0:0,0:0:0:0:
36,260,152040,6,0,P|114:257|161:330,1,160,2|8,3:2|3:2,0:0:0:0:
246,358,152513,1,0,0:0:0:0:
324,303,152672,2,0,P|366:309|405:309,1,80,2|0,3:2|0:0,0:0:0:0:
486,258,152987,2,0,P|490:218|498:176,1,80,10|0,3:2|0:0,0:0:0:0:
413,131,153303,6,0,B|440:18|440:18|498:59,2,160,2|10|2,3:2|3:2|3:2,0:0:0:0:
331,181,154092,1,0,0:0:0:0:
289,93,154251,6,0,P|246:81|205:74,1,80,10|0,3:2|0:0,0:0:0:0:
139,152,154566,2,0,P|177:158|218:168,1,80,2|0,3:2|0:0,0:0:0:0:
249,260,154883,2,0,P|286:250|332:240,1,80,10|0,3:2|0:0,0:0:0:0:
384,358,155199,6,0,P|344:344|304:332,1,80,2|0,3:2|0:0,0:0:0:0:
401,201,155514,2,0,P|413:240|422:280,1,80,10|0,3:2|0:0,0:0:0:0:
321,144,155830,2,0,P|250:111|178:142,1,160,2|8,3:2|3:2,0:0:0:0:
103,200,156303,1,0,0:0:0:0:
103,200,156461,2,0,L|80:288,1,80,2|0,3:2|0:0,0:0:0:0:
0,135,156777,2,0,L|7:235,1,80,10|0,3:2|0:0,0:0:0:0:
70,65,157093,6,0,B|135:72|135:72|183:49|230:74,1,160,2|10,3:2|3:2,0:0:0:0:
179,156,157566,1,0,0:0:0:0:
273,137,157724,2,0,P|312:134|352:129,1,80,2|0,3:2|0:0,0:0:0:0:
439,87,158040,2,0,P|434:126|433:172,1,80,10|0,3:2|0:0,0:0:0:0:
463,265,158356,6,0,P|420:260|375:251,1,80,6|0,3:2|0:0,0:0:0:0:
294,290,158672,2,0,L|232:281,3,40,8|8|8|8,2:2|2:2|2:2|2:2,0:0:0:0:
220,250,158987,2,0,P|177:245|132:236,1,80,6|0,3:2|0:0,0:0:0:0:
52,198,159303,2,0,L|61:160,3,40,8|8|8|8,2:2|2:2|2:2|2:2,0:0:0:0:
31,121,159619,6,0,P|35:81|45:42,1,80,6|0,3:2|0:0,0:0:0:0:
142,30,159935,2,0,L|136:70,3,40,8|8|8|8,2:2|2:2|2:2|2:2,0:0:0:0:
184,74,160251,2,0,L|178:114,3,40,10|8|8|8,2:2|2:2|2:2|2:2,0:0:0:0:
226,113,160566,2,0,L|220:153,3,40,8|8|8|8,2:2|2:2|2:2|2:2,0:0:0:0:
268,146,160882,6,0,B|399:159|399:159|378:187,1,160,4|8,3:2|2:2,0:0:0:0:
300,258,161356,2,0,B|168:244|168:244|190:217,1,160,4|8,3:2|2:2,0:0:0:0:
225,325,161830,2,0,L|325:335,1,80,6|8,3:2|2:2,0:0:0:0:
396,305,162145,6,0,B|407:236|407:236|379:193|441:143,1,160,6|10,3:2|2:2,0:0:0:0:
507,67,162619,2,0,B|495:133|495:133|524:176|477:213,1,160,4|8,3:2|2:2,0:0:0:0:
368,229,163093,2,0,L|328:225,3,40,10|8|8|8,2:3|2:3|2:3|2:3,0:0:0:0:
287,199,163409,6,0,L|207:187,1,80,6|8,3:2|2:2,0:0:0:0:
119,147,163724,2,0,L|114:56,1,80,8|8,2:2|2:2,0:0:0:0:
208,8,164040,2,0,L|203:87,1,80,10|8,2:2|2:2,0:0:0:0:
308,58,164356,2,0,P|351:64|389:66,1,80,8|8,2:2|2:2,0:0:0:0:
433,150,164672,6,0,L|442:203,3,40,10|8|8|8,3:2|0:0|0:0|0:0,0:0:0:0:
391,191,164988,2,0,L|400:244,3,40,8|8|8|8,0:0|0:0|0:3|0:3,0:0:0:0:
350,241,165303,2,0,L|359:294,3,40,6|4|8|8,0:3|0:3|2:3|2:3,0:0:0:0:
310,266,165619,2,0,P|234:280|162:231,1,160,4|6,2:3|3:2,0:0:0:0:
261,70,166251,5,2,2:3:0:0:
261,70,166882,1,2,2:3:0:0:
261,70,167514,1,2,2:3:0:0:
261,70,168145,1,2,2:3:0:0:
82,141,168461,6,0,B|108:25|108:25|151:70,1,160,6|8,3:2|1:3,0:0:0:0:
195,131,168935,2,0,L|173:228,2,80,8|10|8,1:3|1:3|1:3,0:0:0:0:
289,111,169408,1,8,1:3:0:0:
211,54,169566,1,8,1:3:0:0:
259,181,169724,6,0,L|227:343,1,160,14|8,2:2|2:2,0:0:0:0:
314,380,170198,1,4,0:3:0:0:
401,341,170356,2,0,L|464:349,3,40,10|8|0|0,0:3|0:3|3:2|3:2,0:0:0:0:
465,304,170672,2,0,L|528:312,3,40,8|8|4|4,0:3|0:3|0:3|0:3,0:0:0:0:
493,262,170987,6,0,P|470:182|502:110,1,160,4|12,3:2|0:0,0:0:0:0:
418,59,171461,1,0,0:0:0:0:
418,59,171619,2,0,P|378:50|338:45,1,80,2|0,3:2|0:0,0:0:0:0:
243,115,171935,2,0,P|281:123|321:128,1,80,10|0,3:2|0:0,0:0:0:0:
168,166,172251,6,0,B|209:190|209:190|270:206|321:210,1,160,2|10,3:2|3:2,0:0:0:0:
409,176,172724,1,0,0:0:0:0:
474,245,172882,2,0,P|486:282|496:331,1,80,2|0,3:2|0:0,0:0:0:0:
368,371,173198,2,0,P|376:331|388:293,1,80,10|0,3:2|0:0,0:0:0:0:
408,175,173514,6,0,P|351:119|266:132,1,160,2|10,3:2|3:2,0:0:0:0:
186,158,173987,1,0,0:0:0:0:
95,189,174145,2,0,L|106:107,1,80,2|0,3:2|0:0,0:0:0:0:
5,51,174461,2,0,L|15:130,1,80,10|0,3:2|0:0,0:0:0:0:
91,7,174777,6,0,L|260:26,2,160,2|10|2,3:2|3:2|3:2,0:0:0:0:
5,51,175566,1,0,0:0:0:0:
70,121,175724,2,0,L|84:200,1,80,10|0,3:2|0:0,0:0:0:0:
34,313,176040,6,0,P|103:271|196:300,1,160,2|8,3:2|3:2,0:0:0:0:
258,338,176514,1,0,0:0:0:0:
346,301,176672,2,0,P|386:310|427:314,1,80,2|0,3:2|0:0,0:0:0:0:
493,217,176987,2,0,P|453:221|414:229,1,80,10|0,3:2|0:0,0:0:0:0:
325,157,177303,6,0,P|387:142|451:133,2,128,2|2|2,3:2|0:0|0:0,0:0:0:0:
153,270,178251,1,2,0:0:0:0:
256,192,178566,12,0,180461,0:0:0:0:
