osu file format v14

[General]
AudioFilename: audio.mp3
AudioLeadIn: 1500
PreviewTime: 138384
Countdown: 0
SampleSet: Soft
StackLeniency: 0.7
Mode: 0
LetterboxInBreaks: 0
WidescreenStoryboard: 0

[Editor]
Bookmarks: 62200,87068,104674
DistanceSpacing: 0.7
BeatDivisor: 4
GridSize: 4
TimelineZoom: 2.5

[Metadata]
Title:Hatsukoi no Ehon feat. Aida Miou (CV: Toyosaki Aki)
TitleUnicode:初恋の絵本 feat. 合田 美桜 (CV:豊崎 愛生)
Artist:HoneyWorks
ArtistUnicode:HoneyWorks
Creator:No Dap
Version:Extra
Source:
Tags:告白実行委員会 Kokuhaku Jikkou Iinkai 僕じゃダメですか? Boku ja Dame desuka? moeka momoka shioi scanter anais setz setz206 midorijeon a mystery a_mystery af affirmation neoskylove Japanese Pop JPop J-Pop
BeatmapID:3217085
BeatmapSetID:1575727

[Difficulty]
HPDrainRate:6
CircleSize:4
OverallDifficulty:9
ApproachRate:9.3
SliderMultiplier:1.8
SliderTickRate:1

[Events]
//Background and Video events
0,0,"bg.png",0,0
//Break Periods
2,136963,139486
//Storyboard Layer 0 (Background)
//Storyboard Layer 1 (Fail)
//Storyboard Layer 2 (Pass)
//Storyboard Layer 3 (Foreground)
//Storyboard Layer 4 (Overlay)
//Storyboard Sound Samples

[TimingPoints]
236,389.61038961039,4,2,1,50,1,0
625,342.857142857143,4,2,1,50,1,0
967,342.857142857143,4,2,1,50,1,0
967,-200,4,2,1,50,0,0
10567,315.789473684211,4,2,1,50,1,0
11672,-100,4,2,2,80,0,0
12619,-100,4,2,3,80,0,0
13724,-100,4,2,2,80,0,0
15145,-100,4,2,3,80,0,0
16093,-100,4,2,2,80,0,0
17830,-100,4,2,3,80,0,0
18935,-100,4,2,6,80,0,0
19014,-100,4,2,3,80,0,0
19724,-100,4,2,3,30,0,0
19882,-100,4,2,3,35,0,0
20040,-100,4,2,3,40,0,0
20198,-100,4,2,3,45,0,0
20356,-100,4,2,3,50,0,0
20514,-100,4,2,3,55,0,0
20672,-100,4,2,3,60,0,0
20830,-100,4,2,3,65,0,0
20988,-100,4,2,3,70,0,0
21145,-100,4,2,3,77,0,0
21303,-100,4,2,3,80,0,0
21619,-100,4,2,2,80,0,0
24619,-100,4,2,2,40,0,0
24777,-100,4,2,2,80,0,0
24935,-100,4,2,2,40,0,0
25093,-100,4,2,2,80,0,0
25251,-100,4,2,2,40,0,0
25409,-100,4,2,2,80,0,0
25567,-100,4,2,2,40,0,0
25724,-100,4,2,3,80,0,0
26988,-111.111111111111,4,2,3,60,0,0
34567,-100,4,2,3,40,0,0
34724,-100,4,2,3,35,0,0
34882,-100,4,2,3,30,0,0
35040,-100,4,2,3,35,0,0
35198,-100,4,2,3,40,0,0
35356,-100,4,2,3,45,0,0
35514,-100,4,2,3,50,0,0
35672,-100,4,2,3,55,0,0
35830,-100,4,2,3,60,0,0
35988,-100,4,2,3,65,0,0
36145,-100,4,2,3,70,0,0
36303,-100,4,2,3,75,0,0
36461,-100,4,2,3,80,0,0
37093,-125,4,2,3,50,0,0
37409,-125,4,2,5,50,0,0
37488,-125,4,2,3,50,0,0
38040,-125,4,2,5,50,0,0
38119,-125,4,2,3,50,0,0
38672,-125,4,2,5,50,0,0
38751,-125,4,2,3,50,0,0
39303,-125,4,2,5,50,0,0
39382,-125,4,2,3,50,0,0
39935,-125,4,2,5,50,0,0
40014,-125,4,2,3,50,0,0
40567,-125,4,2,5,50,0,0
40645,-125,4,2,3,50,0,0
41198,-125,4,2,5,50,0,0
41277,-125,4,2,3,50,0,0
41830,-125,4,2,5,50,0,0
41909,-125,4,2,3,50,0,0
42145,-100,4,2,2,60,0,0
42461,-100,4,2,2,40,0,0
42777,-100,4,2,2,50,0,0
43093,-100,4,2,2,60,0,0
43409,-100,4,2,2,70,0,0
44356,-100,4,2,3,70,0,0
44988,-100,4,2,4,70,0,0
45067,-100,4,2,3,70,0,0
45303,-100,4,2,4,70,0,0
45382,-100,4,2,3,70,0,0
45619,-100,4,2,4,70,0,0
45698,-100,4,2,3,70,0,0
45935,-100,4,2,4,70,0,0
46014,-100,4,2,3,70,0,0
46251,-100,4,2,4,70,0,0
46330,-100,4,2,3,70,0,0
46567,-100,4,2,4,70,0,0
46645,-100,4,2,3,70,0,0
46882,-100,4,2,4,70,0,0
46961,-100,4,2,3,70,0,0
47198,-100,4,2,4,70,0,0
47277,-100,4,2,3,70,0,0
47514,-100,4,2,4,70,0,0
47593,-100,4,2,3,70,0,0
47830,-100,4,2,4,70,0,0
47909,-100,4,2,3,70,0,0
48145,-100,4,2,4,70,0,0
48224,-100,4,2,3,70,0,0
48461,-100,4,2,4,70,0,0
48540,-100,4,2,3,70,0,0
48777,-100,4,2,4,70,0,0
48856,-100,4,2,3,70,0,0
49093,-100,4,2,4,70,0,0
49172,-100,4,2,3,70,0,0
49409,-100,4,2,4,70,0,0
49488,-100,4,2,3,70,0,0
49724,-100,4,2,4,70,0,0
49803,-100,4,2,3,70,0,0
50040,-100,4,2,4,70,0,0
50119,-100,4,2,3,70,0,0
50356,-100,4,2,4,70,0,0
50435,-100,4,2,3,70,0,0
50672,-100,4,2,4,70,0,0
50751,-100,4,2,3,70,0,0
50988,-100,4,2,4,70,0,0
51067,-100,4,2,3,70,0,0
51303,-100,4,2,4,70,0,0
51382,-100,4,2,3,70,0,0
51619,-100,4,2,4,70,0,0
51698,-100,4,2,3,70,0,0
51935,-100,4,2,4,70,0,0
52014,-100,4,2,3,70,0,0
52251,-100,4,2,4,70,0,0
52330,-100,4,2,3,70,0,0
52567,-100,4,2,4,70,0,0
52645,-100,4,2,3,70,0,0
52882,-100,4,2,4,70,0,0
52961,-100,4,2,3,70,0,0
53198,-100,4,2,4,70,0,0
53277,-100,4,2,3,70,0,0
53514,-100,4,2,4,70,0,0
53593,-100,4,2,3,70,0,0
53830,-100,4,2,4,70,0,0
53909,-100,4,2,3,70,0,0
54303,-100,4,2,6,70,0,0
54382,-100,4,2,3,70,0,0
54619,-100,4,2,6,70,0,0
54698,-100,4,2,3,70,0,0
54777,-100,4,2,2,70,0,0
58567,-125,4,2,3,70,0,0
60145,-125,4,2,4,70,0,0
60224,-125,4,2,3,70,0,0
60777,-125,4,2,5,70,0,0
60856,-125,4,2,3,70,0,0
61409,-125,4,2,5,70,0,0
61488,-125,4,2,3,70,0,0
62040,-125,4,2,5,70,0,0
62119,-125,4,2,3,70,0,0
62672,-125,4,2,3,60,0,0
62988,-125,4,2,3,50,0,0
63303,-125,4,2,3,40,0,0
63619,-125,4,2,3,30,0,0
64251,-125,4,2,3,60,0,0
64882,-100,4,2,2,80,0,1
65198,-100,4,2,5,80,0,1
65277,-100,4,2,2,80,0,1
65514,-100,4,2,5,80,0,1
65593,-100,4,2,2,80,0,1
65830,-100,4,2,5,80,0,1
65909,-100,4,2,2,80,0,1
66145,-100,4,2,5,80,0,1
66224,-100,4,2,2,80,0,1
66461,-100,4,2,5,80,0,1
66540,-100,4,2,2,80,0,1
66777,-100,4,2,5,80,0,1
66856,-100,4,2,2,80,0,1
67093,-100,4,2,5,80,0,1
67172,-100,4,2,2,80,0,1
67409,-100,4,2,5,80,0,1
67488,-100,4,2,2,80,0,1
67724,-100,4,2,5,80,0,1
67803,-100,4,2,2,80,0,1
68040,-100,4,2,5,80,0,1
68119,-100,4,2,2,80,0,1
68356,-100,4,2,5,80,0,1
68435,-100,4,2,2,80,0,1
68672,-100,4,2,5,80,0,1
68751,-100,4,2,2,80,0,1
68988,-100,4,2,5,80,0,1
69067,-100,4,2,2,80,0,1
69303,-100,4,2,5,80,0,1
69382,-100,4,2,2,80,0,1
69619,-100,4,2,5,80,0,1
69698,-100,4,2,2,80,0,1
69935,-100,4,2,5,80,0,1
70014,-100,4,2,2,80,0,1
70251,-100,4,2,5,80,0,1
70330,-100,4,2,2,80,0,1
70567,-100,4,2,5,80,0,1
70645,-100,4,2,2,80,0,1
70882,-100,4,2,5,80,0,1
70961,-100,4,2,2,80,0,1
71198,-100,4,2,5,80,0,1
71277,-100,4,2,2,80,0,1
71514,-100,4,2,5,80,0,1
71593,-100,4,2,2,80,0,1
71830,-100,4,2,5,80,0,1
71909,-100,4,2,2,80,0,1
72145,-100,4,2,5,80,0,1
72224,-100,4,2,2,80,0,1
72461,-100,4,2,5,80,0,1
72540,-100,4,2,2,80,0,1
72777,-100,4,2,5,80,0,1
72856,-100,4,2,2,80,0,1
73093,-100,4,2,5,80,0,1
73172,-100,4,2,2,80,0,1
73409,-100,4,2,5,80,0,1
73488,-100,4,2,2,80,0,1
73882,-100,4,2,2,40,0,1
74040,-100,4,2,2,80,0,1
74198,-100,4,2,2,40,0,1
74356,-100,4,2,2,80,0,1
74514,-100,4,2,2,40,0,1
74672,-100,4,2,2,80,0,1
74751,-100,4,2,2,40,0,1
74988,-100,4,2,2,80,0,1
75303,-100,4,2,5,80,0,1
75382,-100,4,2,2,80,0,1
75619,-100,4,2,5,80,0,1
75698,-100,4,2,2,80,0,1
75935,-100,4,2,5,80,0,1
76014,-100,4,2,2,80,0,1
76251,-100,4,2,5,80,0,1
76330,-100,4,2,2,80,0,1
76567,-100,4,2,5,80,0,1
76645,-100,4,2,2,80,0,1
76882,-100,4,2,5,80,0,1
76961,-100,4,2,2,80,0,1
77198,-100,4,2,5,80,0,1
77277,-100,4,2,2,80,0,1
77514,-100,4,2,5,80,0,1
77593,-100,4,2,2,80,0,1
77830,-100,4,2,5,80,0,1
77909,-100,4,2,2,80,0,1
78145,-100,4,2,5,80,0,1
78224,-100,4,2,2,80,0,1
78461,-100,4,2,5,80,0,1
78540,-100,4,2,2,80,0,1
78777,-100,4,2,5,80,0,1
78856,-100,4,2,2,80,0,1
79093,-100,4,2,5,80,0,1
79172,-100,4,2,2,80,0,1
79409,-100,4,2,5,80,0,1
79488,-100,4,2,2,80,0,1
79724,-100,4,2,5,80,0,1
79803,-100,4,2,2,80,0,1
80040,-100,4,2,5,80,0,1
80119,-100,4,2,2,80,0,1
80356,-100,4,2,5,80,0,1
80435,-100,4,2,2,80,0,1
80672,-100,4,2,5,80,0,1
80751,-100,4,2,2,80,0,1
81303,-125,4,2,2,60,0,0
81619,-125,4,2,7,60,0,0
84461,-125,4,2,2,60,0,0
85093,-100,4,2,2,70,0,0
85409,-100,4,2,2,40,0,0
85724,-100,4,2,2,50,0,0
86040,-100,4,2,2,60,0,0
86356,-100,4,2,2,70,0,0
87303,-100,4,2,3,70,0,0
87935,-100,4,2,5,70,0,0
88014,-100,4,2,2,70,0,0
88251,-100,4,2,5,70,0,0
88330,-100,4,2,2,70,0,0
88567,-100,4,2,5,70,0,0
88645,-100,4,2,2,70,0,0
88882,-100,4,2,5,70,0,0
88961,-100,4,2,2,70,0,0
89198,-100,4,2,5,70,0,0
89277,-100,4,2,2,70,0,0
89514,-100,4,2,5,70,0,0
89593,-100,4,2,2,70,0,0
89830,-100,4,2,5,70,0,0
89909,-100,4,2,2,70,0,0
90145,-100,4,2,5,70,0,0
90224,-100,4,2,2,70,0,0
90461,-100,4,2,5,70,0,0
90540,-100,4,2,2,70,0,0
90777,-100,4,2,5,70,0,0
90856,-100,4,2,2,70,0,0
91093,-100,4,2,5,70,0,0
91172,-100,4,2,2,70,0,0
91409,-100,4,2,5,70,0,0
91488,-100,4,2,2,70,0,0
91724,-100,4,2,5,70,0,0
91803,-100,4,2,2,70,0,0
92040,-100,4,2,5,70,0,0
92119,-100,4,2,2,70,0,0
92356,-100,4,2,5,70,0,0
92435,-100,4,2,2,70,0,0
92672,-100,4,2,5,70,0,0
92751,-100,4,2,2,70,0,0
92988,-100,4,2,5,70,0,0
93067,-100,4,2,2,70,0,0
93303,-100,4,2,5,70,0,0
93382,-100,4,2,2,70,0,0
93619,-100,4,2,5,70,0,0
93698,-100,4,2,2,70,0,0
93935,-100,4,2,5,70,0,0
94014,-100,4,2,2,70,0,0
94251,-100,4,2,5,70,0,0
94330,-100,4,2,2,70,0,0
94567,-100,4,2,5,70,0,0
94645,-100,4,2,2,70,0,0
94882,-100,4,2,5,70,0,0
94961,-100,4,2,2,70,0,0
95198,-100,4,2,5,70,0,0
95277,-100,4,2,2,70,0,0
95514,-100,4,2,5,70,0,0
95593,-100,4,2,2,70,0,0
95830,-100,4,2,5,70,0,0
95909,-100,4,2,2,70,0,0
96145,-100,4,2,5,70,0,0
96224,-100,4,2,2,70,0,0
96461,-100,4,2,5,70,0,0
96540,-100,4,2,2,70,0,0
96777,-100,4,2,5,70,0,0
96856,-100,4,2,2,70,0,0
97093,-100,4,2,5,70,0,0
97172,-100,4,2,2,70,0,0
97409,-100,4,2,5,70,0,0
97488,-100,4,2,2,70,0,0
98040,-100,4,2,5,70,0,0
98119,-100,4,2,2,70,0,0
98356,-100,4,2,5,70,0,0
98435,-100,4,2,2,70,0,0
98672,-100,4,2,5,70,0,0
98751,-100,4,2,2,70,0,0
98988,-100,4,2,5,70,0,0
99067,-100,4,2,2,70,0,0
99303,-100,4,2,5,70,0,0
99382,-100,4,2,2,70,0,0
99619,-100,4,2,5,70,0,0
99698,-100,4,2,2,70,0,0
99935,-100,4,2,5,70,0,0
100014,-100,4,2,2,70,0,0
100251,-100,4,2,5,70,0,0
100330,-100,4,2,2,70,0,0
100567,-100,4,2,5,70,0,0
100645,-100,4,2,2,70,0,0
100882,-100,4,2,5,70,0,0
100961,-100,4,2,2,70,0,0
101198,-100,4,2,5,70,0,0
101277,-100,4,2,2,70,0,0
101514,-100,4,2,5,70,0,0
101593,-100,4,2,2,70,0,0
101830,-100,4,2,5,70,0,0
101909,-100,4,2,2,70,0,0
102145,-100,4,2,5,70,0,0
102224,-100,4,2,2,70,0,0
102461,-100,4,2,5,70,0,0
102540,-100,4,2,2,70,0,0
102777,-100,4,2,5,70,0,0
102856,-100,4,2,2,70,0,0
103093,-100,4,2,5,70,0,0
103172,-100,4,2,2,70,0,0
103409,-100,4,2,5,70,0,0
103488,-100,4,2,2,70,0,0
103724,-100,4,2,5,70,0,0
103803,-100,4,2,2,70,0,0
104040,-100,4,2,5,70,0,0
104119,-100,4,2,2,70,0,0
104356,-100,4,2,5,70,0,0
104435,-100,4,2,2,70,0,0
104672,-100,4,2,5,70,0,0
104751,-100,4,2,2,70,0,0
104988,-100,4,2,5,70,0,0
105067,-100,4,2,2,70,0,0
105303,-100,4,2,3,70,0,0
105461,-100,4,2,2,70,0,0
105777,-100,4,2,8,70,0,0
105856,-100,4,2,3,70,0,0
106567,-100,4,2,4,70,0,0
106645,-100,4,2,2,70,0,0
107040,-100,4,2,4,70,0,0
107119,-100,4,2,2,70,0,0
107830,-125,4,2,1,50,0,0
112567,-111.111111111111,4,2,1,50,0,0
117935,-111.111111111111,4,2,6,60,0,0
122988,-100,4,2,2,60,0,0
123145,-100,4,2,2,30,0,0
123303,-100,4,2,2,35,0,0
123619,-100,4,2,2,40,0,0
123935,-100,4,2,2,45,0,0
124251,-100,4,2,2,50,0,0
124567,-100,4,2,2,55,0,0
124882,-100,4,2,2,60,0,0
125198,-100,4,2,2,65,0,0
125514,-100,4,2,2,70,0,0
125593,-100,4,2,2,30,0,0
125830,-100,4,2,2,70,0,0
125909,-100,4,2,2,30,0,0
126145,-100,4,2,2,70,0,0
126224,-100,4,2,2,30,0,0
126461,-100,4,2,2,70,0,0
126540,-100,4,2,2,30,0,0
126777,-100,4,2,2,70,0,0
126935,-100,4,2,2,45,0,0
127093,-100,4,2,2,50,0,0
127251,-100,4,2,2,55,0,0
127409,-100,4,2,2,60,0,0
127567,-100,4,2,2,65,0,0
127724,-100,4,2,2,70,0,0
128040,-125,4,2,1,50,0,0
133093,-100,4,2,2,30,0,0
133409,-100,4,2,2,40,0,0
133724,-100,4,2,2,50,0,0
134040,-100,4,2,2,60,0,0
134356,-100,4,2,2,70,0,0
134988,-100,4,2,2,80,0,0
135619,-100,4,2,2,45,0,0
140040,-66.6666666666667,4,2,2,45,0,0
140672,-100,4,2,2,80,0,1
140988,-100,4,2,5,80,0,1
141067,-100,4,2,2,80,0,1
141303,-100,4,2,5,80,0,1
141382,-100,4,2,2,80,0,1
141619,-100,4,2,5,80,0,1
141698,-100,4,2,2,80,0,1
141935,-100,4,2,5,80,0,1
142014,-100,4,2,2,80,0,1
142251,-100,4,2,5,80,0,1
142330,-100,4,2,2,80,0,1
142567,-100,4,2,5,80,0,1
142645,-100,4,2,2,80,0,1
142882,-100,4,2,5,80,0,1
142961,-100,4,2,2,80,0,1
143198,-100,4,2,5,80,0,1
143277,-100,4,2,2,80,0,1
143514,-100,4,2,5,80,0,1
143593,-100,4,2,2,80,0,1
143830,-100,4,2,5,80,0,1
143909,-100,4,2,2,80,0,1
144145,-100,4,2,5,80,0,1
144224,-100,4,2,2,80,0,1
144461,-100,4,2,5,80,0,1
144540,-100,4,2,2,80,0,1
144777,-100,4,2,5,80,0,1
144856,-100,4,2,2,80,0,1
145093,-100,4,2,5,80,0,1
145172,-100,4,2,2,80,0,1
145409,-100,4,2,5,80,0,1
145488,-100,4,2,2,80,0,1
145724,-100,4,2,5,80,0,1
145803,-100,4,2,2,80,0,1
146040,-100,4,2,5,80,0,1
146119,-100,4,2,2,80,0,1
146356,-100,4,2,5,80,0,1
146435,-100,4,2,2,80,0,1
146672,-100,4,2,5,80,0,1
146751,-100,4,2,2,80,0,1
146988,-100,4,2,5,80,0,1
147067,-100,4,2,2,80,0,1
147303,-100,4,2,5,80,0,1
147382,-100,4,2,2,80,0,1
147619,-100,4,2,5,80,0,1
147698,-100,4,2,2,80,0,1
147935,-100,4,2,5,80,0,1
148014,-100,4,2,2,80,0,1
148251,-100,4,2,5,80,0,1
148330,-100,4,2,2,80,0,1
148567,-100,4,2,5,80,0,1
148645,-100,4,2,2,80,0,1
148882,-100,4,2,5,80,0,1
148961,-100,4,2,2,80,0,1
149198,-100,4,2,5,80,0,1
149277,-100,4,2,2,80,0,1
149672,-100,4,2,2,40,0,1
149830,-100,4,2,2,80,0,1
149988,-100,4,2,2,40,0,1
150145,-100,4,2,2,80,0,1
150303,-100,4,2,2,40,0,1
150461,-100,4,2,2,80,0,1
150540,-100,4,2,2,40,0,1
150777,-100,4,2,2,80,0,1
151093,-100,4,2,5,80,0,1
151172,-100,4,2,2,80,0,1
151409,-100,4,2,5,80,0,1
151488,-100,4,2,2,80,0,1
151724,-100,4,2,5,80,0,1
151803,-100,4,2,2,80,0,1
152040,-100,4,2,5,80,0,1
152119,-100,4,2,2,80,0,1
152356,-100,4,2,5,80,0,1
152435,-100,4,2,2,80,0,1
152672,-100,4,2,5,80,0,1
152751,-100,4,2,2,80,0,1
152988,-100,4,2,5,80,0,1
153067,-100,4,2,2,80,0,1
153303,-100,4,2,5,80,0,1
153382,-100,4,2,2,80,0,1
153619,-100,4,2,5,80,0,1
153698,-100,4,2,2,80,0,1
153935,-100,4,2,5,80,0,1
154014,-100,4,2,2,80,0,1
154251,-100,4,2,5,80,0,1
154330,-100,4,2,2,80,0,1
154567,-100,4,2,5,80,0,1
154645,-100,4,2,2,80,0,1
154882,-100,4,2,5,80,0,1
154961,-100,4,2,2,80,0,1
155198,-100,4,2,5,80,0,1
155277,-100,4,2,2,80,0,1
155514,-100,4,2,5,80,0,1
155593,-100,4,2,2,80,0,1
155830,-100,4,2,5,80,0,1
155909,-100,4,2,2,80,0,1
156145,-100,4,2,5,80,0,1
156224,-100,4,2,2,80,0,1
156461,-100,4,2,5,80,0,1
156540,-100,4,2,2,80,0,1
156777,-100,4,2,5,80,0,1
156856,-100,4,2,2,80,0,1
157093,-100,4,2,5,80,0,1
157172,-100,4,2,2,80,0,1
158672,-100,4,2,2,60,0,1
158988,-100,4,2,3,80,0,1
159303,-100,4,2,3,60,0,1
159619,-100,4,2,2,80,0,1
159935,-100,4,2,2,50,0,1
160093,-100,4,2,2,55,0,1
160251,-100,4,2,2,60,0,1
160409,-100,4,2,2,65,0,1
160567,-100,4,2,2,70,0,1
160724,-100,4,2,2,75,0,1
160882,-100,4,2,2,80,0,1
161040,-100,4,2,2,60,0,1
161356,-100,4,2,3,80,0,1
161672,-100,4,2,3,60,0,1
161830,-100,4,2,2,80,0,1
161909,-100,4,2,2,60,0,1
162145,-100,4,2,2,80,0,1
162303,-100,4,2,2,60,0,1
162619,-100,4,2,3,80,0,1
162777,-100,4,2,3,60,0,1
162935,-100,4,2,3,70,0,1
163093,-100,4,2,2,80,0,1
163251,-100,4,2,3,80,0,1
163409,-100,4,2,2,80,0,1
163567,-100,4,2,2,40,0,1
163724,-100,4,2,2,50,0,1
163882,-100,4,2,2,40,0,1
164040,-100,4,2,2,60,0,1
164356,-100,4,2,2,70,0,1
164435,-100,4,2,2,40,0,1
164672,-100,4,2,2,80,0,1
164751,-100,4,2,2,40,0,1
164988,-100,4,2,2,80,0,1
165461,-100,4,2,3,80,0,1
165935,-125,4,2,3,80,0,0
166251,-100,4,2,4,60,0,0
168461,-100,4,2,2,80,0,0
168777,-100,4,2,3,50,0,0
169093,-100,4,2,3,60,0,0
169409,-100,4,2,3,70,0,0
169724,-100,4,2,3,80,0,0
169882,-100,4,2,2,80,0,0
170514,-100,4,2,3,80,0,0
170988,-100,4,2,3,80,0,1
171303,-100,4,2,2,80,0,1
171382,-100,4,2,3,80,0,1
171619,-100,4,2,5,80,0,1
171698,-100,4,2,3,80,0,1
171935,-100,4,2,5,80,0,1
172014,-100,4,2,3,80,0,1
172251,-100,4,2,5,80,0,1
172330,-100,4,2,3,80,0,1
172567,-100,4,2,5,80,0,1
172645,-100,4,2,3,80,0,1
172882,-100,4,2,5,80,0,1
172961,-100,4,2,3,80,0,1
173198,-100,4,2,5,80,0,1
173277,-100,4,2,3,80,0,1
173514,-100,4,2,5,80,0,1
173593,-100,4,2,3,80,0,1
173830,-100,4,2,5,80,0,1
173909,-100,4,2,3,80,0,1
174145,-100,4,2,5,80,0,1
174224,-100,4,2,3,80,0,1
174461,-100,4,2,5,80,0,1
174540,-100,4,2,3,80,0,1
174777,-100,4,2,5,80,0,1
174856,-100,4,2,3,80,0,1
175093,-100,4,2,5,80,0,1
175172,-100,4,2,3,80,0,1
175409,-100,4,2,5,80,0,1
175488,-100,4,2,3,80,0,1
175724,-100,4,2,5,80,0,1
175803,-100,4,2,3,80,0,1
176040,-100,4,2,5,80,0,1
176119,-100,4,2,3,80,0,1
176356,-100,4,2,5,80,0,1
176435,-100,4,2,3,80,0,1
176672,-100,4,2,5,80,0,1
176751,-100,4,2,3,80,0,1
176988,-100,4,2,5,80,0,1
177067,-100,4,2,3,80,0,1
177303,-125,4,2,3,60,0,0
177619,-125,4,2,7,60,0,0

[Colours]
Combo1 : 160,80,80
Combo2 : 0,149,191
Combo3 : 255,145,34
Combo4 : 83,83,255
Combo5 : 244,244,0

[HitObjects]
339,160,967,6,0,P|349:211|351:260,1,90,2|0,0:0|0:0,0:0:0:0:
215,347,1652,2,0,P|205:296|203:247,1,90,2|0,0:0|0:0,0:0:0:0:
322,82,2338,2,0,P|276:80|231:74,1,90,2|0,0:0|0:0,0:0:0:0:
17,196,3024,2,0,P|63:194|108:188,1,90,2|2,0:0|0:0,0:0:0:0:
218,152,3709,1,2,0:0:0:0:
287,246,4052,1,2,0:0:0:0:
219,341,4395,1,2,0:0:0:0:
107,305,4738,1,2,0:0:0:0:
106,188,5081,6,0,P|111:138|119:84,1,90,2|2,0:0|0:0,0:0:0:0:
275,40,5767,2,0,P|270:90|262:144,1,90,2|2,0:0|0:0,0:0:0:0:
163,272,6452,2,0,P|217:263|253:256,1,90,2|0,0:0|0:0,0:0:0:0:
350,143,7138,1,2,0:0:0:0:
114,81,7824,5,2,0:0:0:0:
31,163,8167,1,2,0:0:0:0:
79,269,8509,1,2,0:0:0:0:
191,235,8852,1,2,0:0:0:0:
279,311,9195,1,2,0:0:0:0:
256,192,9538,12,0,10567,0:0:0:0:
186,227,11672,5,0,3:2:0:0:
186,227,11751,1,0,3:2:0:0:
186,227,11830,2,0,P|199:129|221:14,1,180,6|0,3:2|3:2,0:0:0:0:
102,207,12303,2,0,P|55:224|-2:230,1,90,10|0,0:3|3:2,0:0:0:0:
188,316,12619,1,8,0:3:0:0:
102,207,12777,2,0,P|108:162|124:120,1,90,10|0,0:3|3:2,0:0:0:0:
345,167,13093,6,0,P|272:215|190:187,1,180,6|0,3:2|3:2,0:0:0:0:
405,93,13566,1,0,0:0:0:0:
456,171,13724,2,0,P|445:233|439:293,2,120,10|4|4,3:3|0:3|0:3,0:0:0:0:
279,40,14356,6,0,P|207:63|157:171,1,180,6|0,3:2|3:2,0:0:0:0:
225,265,14830,1,10,0:3:0:0:
225,265,14908,1,8,0:3:0:0:
225,265,14987,1,8,3:3:0:0:
268,145,15145,1,8,0:3:0:0:
129,230,15303,1,4,3:3:0:0:
347,345,15461,1,8,0:0:0:0:
347,345,15540,1,8,0:0:0:0:
346,345,15619,6,0,P|400:290|389:179,1,180,6|2,3:2|3:2,0:0:0:0:
277,51,16093,2,0,P|229:65|176:73,1,90,6|0,2:2|3:2,0:0:0:0:
173,174,16408,1,8,2:2:0:0:
277,51,16566,1,2,3:2:0:0:
126,15,16724,1,8,2:2:0:0:
281,142,16882,6,0,P|368:119|456:99,1,180,6|2,3:2|3:2,0:0:0:0:
451,318,17356,1,8,0:3:0:0:
353,217,17514,1,6,3:3:0:0:
315,327,17672,1,4,0:3:0:0:
450,218,17830,1,4,3:3:0:0:
330,120,17987,1,4,0:3:0:0:
162,220,18145,6,0,P|128:298|177:369,1,180,6|2,3:2|3:2,0:0:0:0:
237,170,18619,1,2,0:0:0:0:
315,270,18777,2,0,P|262:284|195:292,1,90,0|2,3:2|0:3,0:0:0:0:
128,237,19093,1,8,3:2:0:0:
256,36,19251,1,8,2:2:0:0:
256,36,19330,1,8,2:2:0:0:
256,36,19408,6,0,P|244:105|235:185,1,135,6|0,3:2|0:0,0:0:0:0:
221,261,19724,1,8,3:2:0:0:
345,170,19882,1,8,3:2:0:0:
146,197,20040,1,8,3:2:0:0:
329,271,20198,1,8,3:2:0:0:
244,94,20356,5,8,3:2:0:0:
192,326,20514,1,8,3:2:0:0:
353,82,20672,1,8,3:2:0:0:
102,252,20830,1,8,3:2:0:0:
405,225,20987,5,10,3:2:0:0:
96,139,21145,1,10,3:2:0:0:
297,345,21303,1,6,3:2:0:0:
225,58,21461,1,2,3:2:0:0:
225,58,21540,1,0,3:2:0:0:
225,58,21619,6,0,B|176:98|176:98|222:229,1,180,14|2,2:2|3:2,0:0:0:0:
256,192,22014,12,10,24461,3:2:0:0:
256,192,24619,5,8,2:2:0:0:
256,192,24698,1,8,2:2:0:0:
256,192,24777,1,8,2:2:0:0:
307,330,24935,1,8,2:2:0:0:
307,330,25014,1,8,2:2:0:0:
307,330,25093,1,8,2:2:0:0:
114,227,25251,1,8,2:2:0:0:
114,227,25330,1,8,2:2:0:0:
114,227,25409,1,8,2:2:0:0:
259,62,25566,1,8,2:2:0:0:
259,62,25645,1,8,2:2:0:0:
259,62,25724,6,0,B|300:85|382:78|423:22|423:22|369:117|437:189|437:189|504:266|430:355,1,540,4|2,3:2|0:0,0:0:0:0:
416,336,26988,6,0,P|335:325|255:311,1,161.999995056153,2|2,3:2|3:2,0:0:0:0:
205,223,27461,1,2,0:0:0:0:
301,154,27619,2,0,P|309:195|305:234,1,80.9999975280763,2|0,3:2|0:0,0:0:0:0:
165,126,27935,2,0,P|157:85|161:46,1,80.9999975280763,2|2,3:2|0:0,0:0:0:0:
334,69,28251,2,0,P|388:125|377:202,2,161.999995056153,2|2|0,3:2|3:2|3:2,0:0:0:0:
241,86,29040,1,0,0:0:0:0:
301,154,29198,2,0,P|295:197|277:248,1,80.9999975280763,2|0,3:2|0:0,0:0:0:0:
156,170,29514,6,0,P|90:128|17:156,1,161.999995056153,2|2,3:2|3:2,0:0:0:0:
156,170,29987,1,2,0:0:0:0:
88,294,30145,2,0,P|83:254|82:208,1,80.9999975280763,2|0,3:2|0:0,0:0:0:0:
263,252,30461,2,0,P|222:264|180:253,1,80.9999975280763,2|2,3:2|0:0,0:0:0:0:
367,210,30777,2,0,P|371:249|373:296,1,80.9999975280763,2|0,3:2|0:0,0:0:0:0:
278,140,31093,2,0,P|310:116|349:91,1,80.9999975280763,2|0,3:2|0:0,0:0:0:0:
263,252,31409,2,0,P|226:235|185:214,1,80.9999975280763,0|0,3:2|0:0,0:0:0:0:
41,99,31724,2,0,P|121:88|171:56,1,121.499996292114,2|0,3:2|0:0,0:0:0:0:
177,34,32040,6,0,P|218:47|274:57,1,80.9999975280763,2|0,3:2|0:0,0:0:0:0:
349,121,32356,2,0,P|391:111|444:92,1,80.9999975280763,2|0,3:2|0:0,0:0:0:0:
267,183,32672,2,0,P|254:221|245:261,1,80.9999975280763,2|0,3:2|0:0,0:0:0:0:
408,362,32987,2,0,P|434:306|422:211,1,121.499996292114,2|0,3:2|0:0,0:0:0:0:
421,211,33303,2,0,P|383:231|345:249,1,80.9999975280763,2|0,3:2|0:0,0:0:0:0:
203,347,33619,2,0,P|219:307|228:264,1,80.9999975280763,2|0,3:2|0:0,0:0:0:0:
159,137,33935,2,0,P|143:174|134:213,1,80.9999975280763,2|0,3:2|0:0,0:0:0:0:
253,77,34251,2,0,P|205:37|140:34,1,121.499996292114,2|0,3:2|0:0,0:0:0:0:
116,58,34566,5,10,3:2:0:0:
159,137,34724,1,8,0:0:0:0:
253,77,34882,1,10,3:2:0:0:
205,219,35040,1,8,0:0:0:0:
66,147,35198,5,10,3:2:0:0:
141,315,35356,1,8,0:0:0:0:
277,112,35514,1,10,3:2:0:0:
112,224,35672,1,8,0:0:0:0:
290,302,35830,5,10,3:2:0:0:
159,137,35987,1,8,0:0:0:0:
341,176,36145,1,10,0:0:0:0:
169,325,36303,1,8,0:0:0:0:
384,295,36461,5,10,1:3:0:0:
126,105,36619,1,8,1:3:0:0:
387,107,36777,1,8,1:3:0:0:
199,349,36935,1,8,1:3:0:0:
271,252,37093,6,0,P|265:181|249:111,1,144,2|2,0:0|0:3,0:0:0:0:
178,67,37566,1,2,0:0:0:0:
94,179,37724,2,0,P|129:173|164:165,1,72,2|2,0:0|0:0,0:0:0:0:
141,263,38040,2,0,P|105:268|70:276,1,72,2|2,0:3|0:0,0:0:0:0:
271,352,38356,2,0,P|284:279|304:206,2,144,2|2|2,0:0|0:3|0:0,0:0:0:0:
444,253,39303,1,2,0:3:0:0:
339,103,39619,6,0,P|273:112|191:93,1,144,2|2,0:0|0:3,0:0:0:0:
126,24,40093,1,2,0:0:0:0:
13,300,40566,1,2,0:3:0:0:
116,350,40882,2,0,P|191:339|291:319,1,144,2|2,0:0|0:3,0:0:0:0:
379,246,41356,2,0,P|307:236|236:222,1,144,2|0,0:0|0:0,0:0:0:0:
108,128,41830,1,2,0:3:0:0:
360,21,42145,6,0,L|336:173,1,135,6|0,3:2|0:0,0:0:0:0:
325,228,42461,5,8,3:2:0:0:
252,69,42619,1,8,2:2:0:0:
437,144,42777,1,8,3:2:0:0:
360,21,42935,1,10,2:2:0:0:
237,184,43093,1,10,3:2:0:0:
44,110,43251,1,10,2:2:0:0:
148,80,43409,5,8,0:0:0:0:
144,110,43487,1,8,0:0:0:0:
141,141,43566,1,8,0:0:0:0:
138,172,43645,1,8,0:0:0:0:
135,203,43724,1,8,0:3:0:0:
131,234,43803,1,8,0:3:0:0:
128,264,43882,1,8,0:3:0:0:
125,295,43961,1,8,0:3:0:0:
147,336,44040,5,4,0:3:0:0:
183,358,44118,1,4,0:3:0:0:
226,368,44197,1,4,0:3:0:0:
269,363,44276,1,4,0:3:0:0:
308,344,44355,1,6,0:3:0:0:
339,312,44434,1,4,0:3:0:0:
358,272,44513,1,4,0:3:0:0:
361,228,44592,1,4,0:3:0:0:
350,183,44672,6,0,P|286:99|180:111,1,180,6|10,3:2|0:0,0:0:0:0:
81,211,45145,1,2,0:0:0:0:
179,269,45303,2,0,P|186:338|184:378,1,90,2|0,3:2|0:0,0:0:0:0:
106,82,45619,1,10,0:0:0:0:
81,211,45777,1,2,0:0:0:0:
219,121,45935,6,0,P|226:76|227:27,1,90,2|0,3:2|0:0,0:0:0:0:
81,211,46251,2,0,P|82:255|89:300,1,90,10|0,0:0|0:0,0:0:0:0:
278,192,46566,1,0,3:2:0:0:
179,259,46724,1,0,0:0:0:0:
383,350,46882,1,10,0:0:0:0:
259,285,47040,1,0,0:0:0:0:
444,217,47198,5,2,3:2:0:0:
278,192,47356,1,2,0:0:0:0:
367,269,47514,1,10,0:0:0:0:
283,99,47672,1,2,0:0:0:0:
259,285,47830,1,2,3:2:0:0:
444,217,47987,1,2,0:0:0:0:
418,96,48145,2,0,P|411:52|394:7,1,90,10|2,0:0|0:0,0:0:0:0:
283,99,48461,6,0,P|214:132|135:68,1,180,2|10,3:2|0:0,0:0:0:0:
283,99,48935,1,0,0:0:0:0:
183,213,49093,2,0,P|166:254|157:298,1,90,0|0,3:2|0:0,0:0:0:0:
449,232,49408,1,10,0:0:0:0:
306,234,49566,1,0,0:0:0:0:
283,99,49724,6,0,P|365:72|437:121,1,180,2|10,3:2|0:0,0:0:0:0:
246,201,50198,1,0,0:0:0:0:
356,151,50356,2,0,P|363:195|365:240,1,90,2|0,3:2|0:0,0:0:0:0:
153,248,50672,1,10,0:0:0:0:
243,116,50830,1,0,0:0:0:0:
287,312,50987,6,0,P|252:341|213:364,1,90,2|0,3:2|0:0,0:0:0:0:
344,178,51303,2,0,P|386:193|426:215,1,90,10|0,0:0|0:0,0:0:0:0:
233,223,51619,2,0,P|225:178|234:85,1,135,2|0,3:2|0:0,0:0:0:0:
138,199,51935,2,0,P|146:244|147:289,1,90,10|0,0:0|0:0,0:0:0:0:
430,338,52251,6,0,P|375:270|288:272,1,180,2|10,3:2|0:0,0:0:0:0:
170,307,52724,1,0,0:0:0:0:
236,190,52882,2,0,P|247:138|250:79,1,90,2|0,3:2|0:0,0:0:0:0:
42,146,53198,1,10,0:0:0:0:
133,28,53356,1,0,0:0:0:0:
146,181,53514,6,0,P|188:189|238:189,1,90,2|0,3:2|0:0,0:0:0:0:
348,48,53830,2,0,P|324:86|312:139,1,90,10|0,0:0|0:0,0:0:0:0:
327,340,54145,1,2,3:2:0:0:
275,221,54303,1,2,0:3:0:0:
404,269,54461,1,8,0:0:0:0:
439,137,54619,1,2,0:3:0:0:
188,74,54777,5,6,1:3:0:0:
237,330,54935,1,6,1:3:0:0:
98,170,55093,1,2,3:2:0:0:
86,156,55408,5,2,3:2:0:0:
75,142,55724,5,2,3:2:0:0:
63,128,56040,5,6,1:3:0:0:
302,31,56198,1,4,1:3:0:0:
227,221,56356,1,2,3:2:0:0:
220,238,56671,5,2,3:2:0:0:
213,254,56987,5,2,3:2:0:0:
206,271,57303,5,6,1:3:0:0:
135,20,57461,1,4,1:3:0:0:
316,138,57619,1,2,3:2:0:0:
330,149,57934,5,2,3:2:0:0:
343,160,58250,5,2,3:2:0:0:
358,171,58567,6,0,P|347:233|336:323,1,144,14|2,0:0|3:2,0:0:0:0:
422,344,59040,1,2,0:0:0:0:
261,275,59198,2,0,P|197:295|134:348,1,144,0|2,3:2|3:2,0:0:0:0:
254,154,59830,6,0,P|239:83|221:13,1,144,14|2,3:2|2:3,0:0:0:0:
53,124,60777,1,2,2:3:0:0:
191,269,61408,1,2,2:3:0:0:
370,177,62040,1,2,2:3:0:0:
243,73,62198,5,0,0:0:0:0:
215,68,62277,1,0,0:0:0:0:
188,78,62355,1,2,0:0:0:0:
168,98,62434,1,0,0:0:0:0:
160,125,62513,1,0,0:0:0:0:
167,153,62592,1,0,0:0:0:0:
186,174,62671,1,2,0:0:0:0:
213,183,62750,1,0,0:0:0:0:
241,178,62829,1,0,0:0:0:0:
263,160,62908,1,0,0:0:0:0:
273,133,62987,6,0,P|274:98|267:36,1,72,2|0,0:0|0:0,0:0:0:0:
127,253,63303,2,0,P|126:288|133:350,1,72,2|0,0:0|0:0,0:0:0:0:
308,304,63619,2,0,B|347:324|389:292|398:248|383:212|310:184|253:215|221:291,1,288,2|2,0:0|0:0,0:0:0:0:
228,277,64566,1,2,0:0:0:0:
93,186,64882,6,0,P|71:102|70:63,1,90,6|0,3:2|0:0,0:0:0:0:
228,277,65198,2,0,P|220:321|205:363,1,90,8|0,3:2|0:0,0:0:0:0:
227,174,65514,1,2,3:2:0:0:
112,309,65672,1,0,0:0:0:0:
321,239,65830,2,0,P|371:259|403:290,1,90,8|0,3:2|0:0,0:0:0:0:
112,309,66145,6,0,P|71:230|88:143,1,180,2|8,3:2|3:2,0:0:0:0:
136,43,66619,1,0,0:0:0:0:
252,181,66777,2,0,P|296:172|339:160,1,90,2|0,3:2|0:0,0:0:0:0:
168,127,67093,1,10,3:2:0:0:
207,290,67251,1,0,0:0:0:0:
27,205,67409,6,0,P|71:214|114:226,1,90,2|0,3:2|0:0,0:0:0:0:
311,348,67724,2,0,P|298:304|289:260,1,90,8|0,3:2|0:0,0:0:0:0:
400,107,68040,1,2,3:2:0:0:
272,195,68198,1,0,0:0:0:0:
401,271,68356,1,10,3:2:0:0:
320,75,68514,1,0,0:0:0:0:
482,147,68672,6,0,P|398:189|335:160,1,135,2|0,3:2|0:0,0:0:0:0:
272,195,68987,2,0,P|260:142|236:79,1,90,10|0,3:2|0:0,0:0:0:0:
391,17,69303,2,0,P|395:61|407:105,1,90,2|0,3:2|0:0,0:0:0:0:
254,221,69619,2,0,P|210:209|165:204,1,90,10|0,3:2|0:0,0:0:0:0:
27,87,69935,6,0,P|71:81|115:70,1,90,2|0,3:2|0:0,0:0:0:0:
165,204,70251,1,8,3:2:0:0:
256,80,70408,1,0,0:0:0:0:
83,255,70566,2,0,P|155:300|252:247,1,180,2|8,3:2|3:2,0:0:0:0:
255,176,71040,1,0,0:0:0:0:
164,372,71198,6,0,P|157:327|161:282,1,90,2|0,3:2|0:0,0:0:0:0:
255,176,71514,1,10,3:2:0:0:
278,339,71672,1,0,0:0:0:0:
90,254,71830,2,0,P|51:265|8:292,1,90,2|0,3:2|0:0,0:0:0:0:
164,372,72145,1,8,3:2:0:0:
107,166,72303,1,0,0:0:0:0:
164,372,72461,6,0,P|203:361|246:334,1,90,2|0,3:2|0:0,0:0:0:0:
301,141,72777,2,0,P|291:180|292:231,1,90,10|0,3:2|0:0,0:0:0:0:
439,357,73093,2,0,P|409:328|365:304,1,90,2|0,3:2|0:0,0:0:0:0:
125,290,73408,2,0,P|165:227|158:153,1,135,10|0,3:2|0:0,0:0:0:0:
116,87,73724,5,10,3:2:0:0:
301,341,73882,1,8,2:2:0:0:
301,341,73961,1,8,2:2:0:0:
301,341,74040,1,8,2:2:0:0:
473,85,74198,1,8,2:2:0:0:
473,85,74277,1,8,2:2:0:0:
473,85,74356,1,10,2:2:0:0:
219,28,74514,5,8,2:2:0:0:
199,68,74592,1,8,2:2:0:0:
199,112,74671,1,10,2:2:0:0:
221,151,74750,1,8,2:2:0:0:
241,191,74829,1,8,2:2:0:0:
245,236,74908,1,8,2:2:0:0:
232,279,74987,6,0,P|188:269|146:254,1,90,6|0,3:2|0:0,0:0:0:0:
356,358,75303,2,0,P|365:313|380:271,1,90,8|0,3:2|0:0,0:0:0:0:
304,161,75619,1,2,3:2:0:0:
232,279,75777,1,0,0:0:0:0:
392,110,75935,1,10,3:2:0:0:
379,271,76093,1,0,0:0:0:0:
218,202,76251,6,0,P|162:126|192:48,1,180,2|8,3:2|3:2,0:0:0:0:
291,13,76724,1,0,0:0:0:0:
54,129,76882,2,0,P|95:145|139:153,1,90,2|0,3:2|0:0,0:0:0:0:
270,112,77198,1,10,3:2:0:0:
121,69,77356,1,0,0:0:0:0:
104,235,77514,6,0,P|105:278|118:321,1,90,2|0,3:2|0:0,0:0:0:0:
347,159,77830,2,0,P|345:114|332:71,1,90,10|0,3:2|0:0,0:0:0:0:
225,265,78145,1,2,3:2:0:0:
161,143,78303,1,0,0:0:0:0:
318,238,78461,2,0,P|316:282|303:325,1,90,10|0,3:2|0:0,0:0:0:0:
133,59,78777,6,0,P|177:61|255:117,1,135,2|0,3:2|0:0,0:0:0:0:
339,101,79093,2,0,P|351:57|348:13,1,90,10|0,3:2|0:0,0:0:0:0:
381,266,79409,2,0,P|338:256|281:230,1,90,2|0,3:2|0:0,0:0:0:0:
100,255,79724,1,10,3:2:0:0:
230,176,79882,1,0,0:0:0:0:
186,346,80040,5,2,3:2:0:0:
142,130,80198,1,2,0:0:0:0:
30,186,80356,2,0,P|12:227|1:271,1,90,8|0,3:2|0:0,0:0:0:0:
186,243,80672,2,0,P|230:254|273:272,1,90,2|0,3:2|0:0,0:0:0:0:
401,328,80987,1,8,3:2:0:0:
238,167,81145,1,8,0:0:0:0:
368,26,81303,6,0,P|353:101|342:174,1,144,6|2,3:2|2:2,0:0:0:0:
274,294,81935,1,2,2:2:0:0:
137,246,82251,6,0,B|46:240|95:88|254:99|320:274|244:326|153:408|85:351|5:326|-36:240|4:120|83:75|192:108,1,720,2|0,2:2|0:0,0:0:0:0:
277,41,85093,6,0,L|298:204,1,135,10|0,3:2|0:0,0:0:0:0:
305,256,85408,5,10,3:2:0:0:
409,133,85566,1,8,3:2:0:0:
320,347,85724,1,10,3:2:0:0:
168,161,85882,1,8,3:2:0:0:
479,240,86040,1,10,3:2:0:0:
146,293,86198,1,8,3:2:0:0:
276,78,86356,5,10,0:0:0:0:
295,113,86435,1,8,0:0:0:0:
307,151,86514,1,10,0:0:0:0:
310,191,86593,1,8,0:0:0:0:
297,229,86672,1,10,0:3:0:0:
269,258,86751,1,8,0:3:0:0:
231,272,86830,1,10,0:3:0:0:
192,262,86908,1,8,0:3:0:0:
161,234,86987,5,6,0:3:0:0:
145,196,87066,1,4,0:3:0:0:
153,156,87145,1,4,0:3:0:0:
177,123,87224,1,4,0:3:0:0:
190,84,87303,1,6,0:3:0:0:
172,47,87382,1,6,0:3:0:0:
134,32,87461,1,6,0:3:0:0:
94,41,87540,1,6,0:3:0:0:
77,77,87619,6,0,P|63:122|37:183,1,90,6|0,3:2|0:0,0:0:0:0:
157,338,87935,1,8,3:2:0:0:
17,275,88093,2,0,P|59:259|103:250,1,90,2|0,0:0|3:2,0:0:0:0:
330,229,88408,1,2,0:0:0:0:
233,318,88566,1,10,3:2:0:0:
163,190,88724,2,0,P|152:146|147:101,1,90,2|0,0:0|3:2,0:0:0:0:
359,49,89040,5,2,0:0:0:0:
235,109,89198,1,10,3:2:0:0:
349,187,89356,1,2,0:0:0:0:
264,13,89514,1,2,3:2:0:0:
250,213,89672,1,2,0:0:0:0:
430,125,89830,1,10,3:2:0:0:
264,13,89987,1,2,0:0:0:0:
64,130,90145,6,0,B|108:155|148:121|148:121|191:86|245:117,1,180,2|8,3:2|3:2,0:0:0:0:
101,51,90619,1,2,0:0:0:0:
209,189,90777,1,0,3:2:0:0:
367,41,90935,1,2,0:0:0:0:
401,45,91013,1,2,0:0:0:0:
432,59,91092,1,10,3:2:0:0:
458,84,91171,1,2,0:0:0:0:
473,114,91250,1,2,0:0:0:0:
479,149,91329,1,2,0:0:0:0:
472,181,91409,6,0,P|439:226|376:243,1,90,2|2,3:2|0:0,0:0:0:0:
320,128,91724,1,10,3:2:0:0:
334,282,91882,2,0,P|332:329|325:375,1,90,2|0,0:0|3:2,0:0:0:0:
136,316,92198,1,2,0:0:0:0:
106,295,92276,1,2,0:0:0:0:
84,268,92355,1,10,3:2:0:0:
72,234,92434,1,2,0:0:0:0:
71,198,92513,1,2,0:0:0:0:
80,165,92592,1,2,0:0:0:0:
101,135,92672,6,0,P|90:81|71:12,1,90,2|2,3:2|0:0,0:0:0:0:
178,221,92987,1,10,3:2:0:0:
320,119,93145,2,0,P|365:128|422:144,1,90,2|0,0:0|3:2,0:0:0:0:
296,235,93461,1,2,0:0:0:0:
226,88,93619,1,10,3:2:0:0:
254,307,93777,1,2,0:0:0:0:
388,227,93935,5,2,3:2:0:0:
218,179,94093,1,2,0:0:0:0:
347,67,94251,1,10,3:2:0:0:
278,272,94408,1,2,0:0:0:0:
467,189,94566,1,0,3:2:0:0:
292,146,94724,1,2,0:0:0:0:
494,332,94882,1,10,3:2:0:0:
476,161,95040,1,2,0:0:0:0:
333,349,95198,1,2,3:2:0:0:
148,200,95356,5,2,0:0:0:0:
123,219,95434,1,2,0:0:0:0:
107,246,95513,1,10,3:2:0:0:
102,277,95592,1,0,0:0:0:0:
109,307,95671,1,2,0:0:0:0:
126,333,95750,1,2,0:0:0:0:
152,351,95829,1,2,3:2:0:0:
182,358,95908,1,0,0:0:0:0:
213,354,95987,1,2,0:0:0:0:
240,339,96066,1,2,0:0:0:0:
260,314,96145,1,10,3:2:0:0:
270,285,96224,1,0,0:0:0:0:
268,253,96303,1,2,0:0:0:0:
259,222,96382,1,2,0:0:0:0:
241,201,96461,5,2,3:2:0:0:
218,169,96540,1,0,0:0:0:0:
202,134,96619,1,2,0:0:0:0:
197,95,96697,1,2,0:0:0:0:
207,59,96776,1,10,3:2:0:0:
230,29,96855,1,0,0:0:0:0:
261,9,96934,1,2,0:0:0:0:
298,2,97013,1,2,0:0:0:0:
333,16,97092,5,2,3:2:0:0:
371,41,97171,1,2,0:0:0:0:
400,77,97250,1,2,0:0:0:0:
414,121,97329,1,2,0:0:0:0:
408,169,97408,1,10,3:2:0:0:
388,210,97487,1,2,0:0:0:0:
353,241,97566,1,2,0:0:0:0:
305,248,97645,1,2,0:0:0:0:
259,233,97724,6,0,P|188:120|116:103,1,180,6|8,3:2|3:2,0:0:0:0:
50,247,98198,1,0,0:0:0:0:
165,294,98356,2,0,P|161:249|150:205,1,90,2|0,3:2|0:0,0:0:0:0:
49,52,98672,2,0,P|37:95|34:140,1,90,8|0,3:2|0:0,0:0:0:0:
39,340,98987,2,0,B|80:314|121:317|121:317|162:337|212:328,2,180,2|8|2,3:2|3:2|3:2,0:0:0:0:
295,289,99777,1,0,0:0:0:0:
181,240,99935,2,0,P|159:167|160:133,1,90,10|0,3:2|0:0,0:0:0:0:
408,146,100251,6,0,P|316:201|244:160,1,180,2|8,3:2|3:2,0:0:0:0:
322,95,100724,1,0,0:0:0:0:
435,247,100882,2,0,P|443:291|447:335,1,90,2|0,3:2|0:0,0:0:0:0:
269,263,101198,2,0,P|260:218|256:174,1,90,10|0,3:2|0:0,0:0:0:0:
90,342,101514,2,0,B|135:295|135:227|135:227|88:162,1,180,2|8,3:2|3:2,0:0:0:0:
46,82,101987,1,0,0:0:0:0:
209,225,102145,2,0,P|278:212|329:139,1,135,2|2,3:2|0:0,0:0:0:0:
332,125,102461,1,8,3:2:0:0:
255,26,102619,1,2,0:0:0:0:
462,83,102777,6,0,P|439:178|425:274,1,180,2|8,3:2|3:2,0:0:0:0:
483,341,103251,1,2,0:0:0:0:
344,241,103409,2,0,P|300:252|258:269,1,90,0|0,3:2|0:0,0:0:0:0:
100,269,103724,1,8,3:2:0:0:
207,342,103882,1,0,0:0:0:0:
155,202,104040,2,0,P|155:157|164:112,1,90,2|0,3:2|0:0,0:0:0:0:
334,41,104356,2,0,P|332:85|324:129,1,90,8|0,3:2|0:0,0:0:0:0:
248,21,104672,1,2,3:2:0:0:
407,111,104830,1,0,0:0:0:0:
262,217,104987,1,8,3:2:0:0:
183,86,105145,1,0,0:0:0:0:
90,180,105303,5,6,3:2:0:0:
71,212,105382,1,8,0:3:0:0:
68,249,105460,1,8,2:3:0:0:
81,284,105539,1,8,2:3:0:0:
107,310,105618,1,6,2:3:0:0:
142,323,105697,1,4,2:3:0:0:
179,319,105777,2,0,P|194:295|203:258,1,45,10|8,2:3|2:3,0:0:0:0:
266,133,105935,5,10,0:0:0:0:
266,133,106014,1,0,3:2:0:0:
266,133,106093,2,0,P|273:154|285:173,1,45,6|0,3:2|3:2,0:0:0:0:
337,329,106251,2,0,P|344:307|356:288,1,45,6|4,2:3|0:3,0:0:0:0:
434,151,106408,1,4,0:3:0:0:
434,151,106487,1,4,0:3:0:0:
434,151,106566,6,0,P|417:99|385:57,1,90,10|0,0:0|3:2,0:0:0:0:
267,250,106882,1,0,3:2:0:0:
352,145,107040,1,8,0:0:0:0:
122,190,107198,1,8,0:0:0:0:
407,245,107356,1,8,0:0:0:0:
246,50,107514,1,8,0:0:0:0:
318,349,107672,1,8,0:0:0:0:
171,312,107830,6,0,P|192:245|211:152,1,144,10|8,0:0|0:0,0:0:0:0:
139,80,108461,2,0,P|117:146|99:240,1,144,8|8,0:0|0:0,0:0:0:0:
171,312,109093,2,0,P|241:323|319:326,2,144,10|8|8,0:0|0:0|0:0,0:0:0:0:
102,219,110040,1,8,0:0:0:0:
186,140,110356,6,0,P|129:98|61:111,1,144,10|8,0:0|0:0,0:0:0:0:
102,219,110987,1,8,0:0:0:0:
205,270,111303,1,8,0:0:0:0:
270,175,111619,2,0,P|284:97|293:11,2,144,10|8|8,0:0|0:0|0:0,0:0:0:0:
162,221,112567,2,0,P|158:261|148:300,1,80.9999975280763,8|0,3:2|3:0,0:0:0:0:
69,354,112882,6,0,P|116:341|259:337,1,161.999995056153,10|8,3:2|3:2,0:0:0:0:
392,350,113514,2,0,P|373:271|371:190,1,161.999995056153,8|8,3:2|3:2,0:0:0:0:
201,138,114145,2,0,P|220:217|222:298,1,161.999995056153,10|8,3:2|3:2,0:0:0:0:
51,292,114777,2,0,P|32:213|30:132,1,161.999995056153,8|8,3:2|3:2,0:0:0:0:
177,57,115408,5,10,3:2:0:0:
116,196,115724,1,8,3:2:0:0:
255,257,116040,1,8,3:2:0:0:
316,118,116356,1,8,3:2:0:0:
101,101,116672,5,10,3:2:0:0:
159,253,116987,1,8,3:2:0:0:
311,194,117304,1,8,3:2:0:0:
252,44,117620,1,8,3:2:0:0:
206,149,117777,1,0,3:2:0:0:
311,194,117935,6,0,P|357:189|408:162,1,80.9999975280763,2|0,3:2|0:0,0:0:0:0:
365,282,118251,2,0,P|319:287|268:314,1,80.9999975280763,0|0,3:2|0:0,0:0:0:0:
184,356,118566,2,0,P|198:318|202:278,1,80.9999975280763,2|0,3:2|0:0,0:0:0:0:
133,213,118882,2,0,P|118:250|114:290,1,80.9999975280763,0|0,3:2|0:0,0:0:0:0:
213,187,119198,6,0,P|161:132|81:149,1,161.999995056153,2|0,3:2|3:2,0:0:0:0:
133,213,119672,1,0,0:0:0:0:
250,104,119830,2,0,P|247:64|239:24,1,80.9999975280763,2|0,3:2|0:0,0:0:0:0:
328,174,120145,2,0,P|320:213|316:254,1,80.9999975280763,0|0,3:2|0:0,0:0:0:0:
367,338,120461,6,0,P|326:341|286:349,1,80.9999975280763,2|0,3:2|0:0,0:0:0:0:
156,293,120777,2,0,P|196:289|236:281,1,80.9999975280763,0|0,3:2|0:0,0:0:0:0:
78,260,121093,1,2,3:2:0:0:
37,179,121251,1,0,0:0:0:0:
19,328,121408,1,0,3:2:0:0:
141,358,121566,1,0,0:0:0:0:
161,231,121724,6,0,P|146:174|104:67,1,161.999995056153,2|0,3:2|3:2,0:0:0:0:
20,27,122198,1,0,0:0:0:0:
202,89,122356,2,0,P|240:78|271:53,1,80.9999975280763,0|0,3:2|0:0,0:0:0:0:
109,77,122672,2,0,P|70:88|39:113,1,80.9999975280763,0|0,3:2|0:0,0:0:0:0:
160,246,122987,5,10,3:2:0:0:
88,162,123145,1,8,3:2:0:0:
292,82,123303,1,8,3:2:0:0:
182,162,123461,1,8,3:2:0:0:
292,82,123619,5,10,3:2:0:0:
247,268,123777,1,8,3:2:0:0:
168,129,123935,1,8,3:2:0:0:
391,182,124093,1,8,3:2:0:0:
168,129,124251,5,10,3:2:0:0:
319,319,124408,1,8,3:2:0:0:
351,41,124566,1,8,3:2:0:0:
164,228,124724,1,8,3:2:0:0:
451,117,124882,5,10,3:2:0:0:
358,344,125040,1,8,3:2:0:0:
227,63,125198,1,8,3:2:0:0:
486,239,125356,1,8,3:2:0:0:
248,339,125514,6,0,P|238:318|233:296,1,45,10|8,3:2|2:2,0:0:0:0:
347,137,125672,1,8,2:2:0:0:
347,137,125751,1,8,2:2:0:0:
347,137,125830,2,0,P|341:158|332:179,1,45,8|8,3:2|2:2,0:0:0:0:
140,183,125987,1,8,2:2:0:0:
140,183,126066,1,8,2:2:0:0:
140,183,126145,2,0,P|161:188|182:197,1,45,8|8,3:2|2:2,0:0:0:0:
344,281,126303,1,8,2:2:0:0:
387,293,126382,1,8,2:2:0:0:
431,288,126461,1,8,3:2:0:0:
465,259,126540,1,8,2:2:0:0:
481,216,126619,1,8,2:2:0:0:
481,170,126698,1,8,2:2:0:0:
461,129,126777,5,8,3:2:0:0:
503,329,126935,1,8,0:0:0:0:
381,100,127093,1,8,0:0:0:0:
221,164,127251,1,8,0:0:0:0:
403,233,127408,5,8,0:0:0:0:
241,32,127566,1,8,0:0:0:0:
158,255,127724,1,10,0:0:0:0:
306,118,127882,1,10,0:0:0:0:
82,53,128040,6,0,P|34:126|59:197,1,144,6|2,0:0|0:0,0:0:0:0:
204,211,128514,1,2,0:0:0:0:
130,134,128672,1,2,0:0:0:0:
101,241,128830,2,0,P|86:273|79:309,1,72,2|2,0:0|0:0,0:0:0:0:
44,177,129145,1,2,0:0:0:0:
204,211,129303,5,2,0:0:0:0:
281,137,129461,1,2,0:0:0:0:
207,60,129619,1,2,0:0:0:0:
130,134,129777,1,2,0:0:0:0:
289,221,129935,2,0,P|324:216|362:202,1,72,2|2,0:0|0:0,0:0:0:0:
489,327,130251,1,2,0:0:0:0:
430,253,130408,5,2,0:0:0:0:
326,333,130566,2,0,P|256:319|184:313,1,144,2|0,0:0|0:0,0:0:0:0:
45,294,131040,1,0,0:0:0:0:
81,132,131198,2,0,P|130:181|123:250,1,144,2|0,0:0|0:0,0:0:0:0:
81,132,131672,1,0,0:0:0:0:
177,27,131830,6,0,P|174:65|165:103,1,72,2|2,0:0|0:0,0:0:0:0:
81,132,132145,1,2,0:0:0:0:
251,88,132303,2,0,P|286:90|321:98,1,72,2|0,0:0|0:0,0:0:0:0:
388,174,132619,1,2,0:0:0:0:
289,195,132777,1,2,0:0:0:0:
321,98,132935,1,2,0:0:0:0:
365,302,133093,5,10,3:2:0:0:
365,302,133408,5,8,3:2:0:0:
307,208,133566,1,8,2:2:0:0:
174,341,133724,1,8,3:2:0:0:
225,235,133882,1,8,2:2:0:0:
106,209,134040,1,8,3:2:0:0:
262,313,134198,1,8,2:2:0:0:
219,94,134356,5,8,3:2:0:0:
145,302,134514,1,8,2:2:0:0:
397,211,134672,1,8,3:2:0:0:
106,209,134830,1,8,2:2:0:0:
302,43,134987,1,10,3:2:0:0:
257,353,135145,1,8,2:2:0:0:
84,100,135303,1,10,3:2:0:0:
452,141,135461,1,8,2:2:0:0:
258,161,140040,5,10,3:2:0:0:
316,230,140198,2,0,P|282:76|173:193,1,337.500012874604,8|0,3:2|0:0,0:0:0:0:
148,217,140672,6,0,L|178:342,1,90,6|0,3:2|0:0,0:0:0:0:
11,176,140987,2,0,L|32:88,1,90,8|0,3:2|0:0,0:0:0:0:
57,266,141303,1,2,3:2:0:0:
170,141,141461,1,0,0:0:0:0:
270,306,141619,1,8,3:2:0:0:
158,242,141777,1,0,0:0:0:0:
285,109,141935,6,0,P|280:153|269:200,1,90,2|0,3:2|0:0,0:0:0:0:
48,164,142251,2,0,P|53:120|64:73,1,90,8|0,3:2|0:0,0:0:0:0:
269,197,142566,1,2,3:2:0:0:
109,261,142724,1,0,0:0:0:0:
167,141,142882,1,10,3:2:0:0:
227,319,143040,1,0,0:0:0:0:
308,161,143198,6,0,P|301:116|286:70,1,90,2|0,3:2|0:0,0:0:0:0:
40,129,143514,2,0,P|82:142|127:149,1,90,8|0,3:2|0:0,0:0:0:0:
308,161,143830,1,2,3:2:0:0:
227,319,143987,1,0,0:0:0:0:
209,180,144145,2,0,P|218:137|236:96,1,90,10|0,3:2|0:0,0:0:0:0:
510,193,144461,6,0,P|436:145|362:164,1,135,2|0,3:2|0:0,0:0:0:0:
323,71,144777,2,0,P|279:80|236:94,1,90,10|0,3:2|0:0,0:0:0:0:
236,292,145093,2,0,P|230:247|223:202,1,90,2|0,3:2|0:0,0:0:0:0:
80,273,145409,2,0,P|85:317|92:362,1,90,10|0,3:2|0:0,0:0:0:0:
359,348,145724,6,0,P|381:262|350:179,2,180,2|8|2,3:2|3:2|3:2,0:0:0:0:
350,179,146514,1,0,0:0:0:0:
190,261,146672,2,0,P|165:297|163:342,1,90,8|0,3:2|0:0,0:0:0:0:
350,179,146987,6,0,P|375:142|377:98,1,90,2|0,3:2|0:0,0:0:0:0:
276,235,147303,1,10,3:2:0:0:
451,158,147461,1,0,0:0:0:0:
465,332,147619,2,0,P|416:322|375:316,1,90,2|0,3:2|0:0,0:0:0:0:
129,160,147935,2,0,P|173:153|275:123,1,135,8|0,3:2|0:0,0:0:0:0:
376,97,148251,6,0,P|405:39|404:-6,1,90,2|0,3:2|0:0,0:0:0:0:
261,129,148566,1,10,3:2:0:0:
187,254,148724,1,0,0:0:0:0:
363,320,148882,2,0,P|355:275|332:237,1,90,2|0,3:2|0:0,0:0:0:0:
133,347,149198,1,10,3:2:0:0:
283,304,149356,1,0,0:0:0:0:
193,55,149514,5,10,3:2:0:0:
470,219,149672,1,8,2:2:0:0:
470,219,149751,1,8,2:2:0:0:
470,219,149830,1,8,2:2:0:0:
219,363,149987,1,8,2:2:0:0:
219,363,150066,1,8,2:2:0:0:
219,363,150145,1,10,2:2:0:0:
48,196,150303,5,8,2:2:0:0:
89,212,150382,1,8,2:2:0:0:
133,205,150461,1,10,2:2:0:0:
170,180,150540,1,8,2:2:0:0:
192,140,150619,1,8,2:2:0:0:
196,89,150698,1,8,2:2:0:0:
187,50,150777,6,0,L|311:34,1,90,6|0,3:2|0:0,0:0:0:0:
443,187,151093,2,0,L|353:175,1,90,8|0,3:2|0:0,0:0:0:0:
286,313,151408,1,2,3:2:0:0:
231,170,151566,1,0,0:0:0:0:
99,326,151724,1,10,3:2:0:0:
201,253,151882,1,0,0:0:0:0:
95,144,152040,6,0,P|99:188|106:233,1,90,2|0,3:2|0:0,0:0:0:0:
291,108,152356,2,0,P|287:64|280:19,1,90,8|0,3:2|0:0,0:0:0:0:
226,230,152672,1,2,3:2:0:0:
386,161,152830,1,0,0:0:0:0:
225,230,152987,2,0,P|181:227|135:213,1,90,10|0,3:2|0:0,0:0:0:0:
319,336,153303,6,0,P|387:330|450:308,1,135,2|0,3:2|0:0,0:0:0:0:
499,215,153619,2,0,L|476:104,1,90,10|0,3:2|0:0,0:0:0:0:
289,81,153935,2,0,L|307:169,1,90,2|0,3:2|0:0,0:0:0:0:
271,274,154251,1,10,3:2:0:0:
392,157,154408,1,0,0:0:0:0:
218,24,154566,6,0,P|136:51|118:135,1,180,2|10,3:2|3:2,0:0:0:0:
321,63,155040,1,0,0:0:0:0:
231,213,155198,2,0,L|222:123,1,90,2|0,3:2|0:0,0:0:0:0:
181,298,155514,1,10,3:2:0:0:
310,142,155672,1,0,0:0:0:0:
141,222,155830,6,0,P|97:215|55:202,1,90,2|0,3:2|0:0,0:0:0:0:
310,142,156145,2,0,P|354:149|396:162,1,90,8|0,3:2|0:0,0:0:0:0:
299,339,156461,1,2,3:2:0:0:
251,213,156619,1,0,0:0:0:0:
453,224,156777,1,10,3:2:0:0:
335,265,156935,1,0,0:0:0:0:
313,98,157093,6,0,L|419:77,1,90,2|0,3:2|0:0,0:0:0:0:
177,35,157409,2,0,L|88:52,1,90,10|0,3:2|0:0,0:0:0:0:
173,284,157724,1,2,3:2:0:0:
105,157,157882,1,0,0:0:0:0:
22,346,158040,1,10,3:2:0:0:
90,244,158198,1,0,0:0:0:0:
263,332,158356,6,0,P|310:325|370:313,1,90,6|0,3:2|0:0,0:0:0:0:
403,197,158672,1,8,2:2:0:0:
409,162,158750,1,8,2:2:0:0:
416,129,158829,1,8,2:2:0:0:
422,96,158908,1,8,2:2:0:0:
429,63,158987,2,0,P|377:48|328:42,1,90,6|0,3:2|0:0,0:0:0:0:
73,71,159303,5,8,2:2:0:0:
67,106,159381,1,8,2:2:0:0:
60,139,159460,1,8,2:2:0:0:
54,172,159539,1,8,2:2:0:0:
47,205,159619,2,0,P|99:220|146:226,1,90,6|0,3:2|0:0,0:0:0:0:
236,324,159936,5,8,2:2:0:0:
269,331,160014,1,8,2:2:0:0:
302,327,160093,1,8,2:2:0:0:
333,314,160172,1,8,2:2:0:0:
359,292,160251,2,0,L|402:282,1,45,10|8,2:2|2:2,0:0:0:0:
474,157,160409,2,0,L|430:147,1,45,8|8,2:2|2:2,0:0:0:0:
360,37,160566,1,8,2:2:0:0:
316,28,160644,1,8,2:2:0:0:
272,38,160723,1,8,2:2:0:0:
238,67,160802,1,8,2:2:0:0:
219,107,160882,6,0,L|112:91,1,90,4|8,3:2|2:2,0:0:0:0:
44,146,161119,1,8,2:2:0:0:
44,146,161198,2,0,L|59:200,1,45,8|8,2:2|2:2,0:0:0:0:
63,334,161356,2,0,L|107:340,1,45,4|0,3:2|0:0,0:0:0:0:
258,235,161514,2,0,L|213:241,1,45,2|0,0:0|0:0,0:0:0:0:
306,350,161672,1,8,2:2:0:0:
340,336,161750,1,8,2:2:0:0:
368,311,161829,1,6,3:2:0:0:
385,278,161908,1,8,2:2:0:0:
390,241,161987,1,8,2:2:0:0:
381,205,162066,1,8,2:2:0:0:
360,174,162145,6,0,L|302:161,1,45,6|0,3:2|0:0,0:0:0:0:
116,81,162303,2,0,L|159:71,1,45,8|8,2:2|2:2,0:0:0:0:
357,20,162461,1,10,2:2:0:0:
357,20,162540,1,8,2:2:0:0:
357,20,162619,2,0,L|351:89,1,45,4|0,3:2|0:0,0:0:0:0:
233,228,162777,5,10,2:2:0:0:
194,239,162856,1,8,2:2:0:0:
153,238,162935,1,8,2:2:0:0:
115,221,163014,1,8,2:2:0:0:
90,188,163093,1,10,2:3:0:0:
78,149,163172,1,8,2:3:0:0:
84,108,163251,1,8,2:3:0:0:
108,75,163330,1,8,2:3:0:0:
145,60,163409,6,0,L|196:78,1,45,6|0,3:2|0:0,0:0:0:0:
379,148,163566,1,8,2:2:0:0:
379,148,163645,1,8,2:2:0:0:
379,148,163724,2,0,L|336:162,1,45,8|0,2:2|0:0,0:0:0:0:
203,298,163882,1,8,2:2:0:0:
203,298,163961,1,8,2:2:0:0:
203,298,164040,2,0,L|213:233,1,45,10|0,2:2|0:0,0:0:0:0:
268,50,164198,1,8,2:2:0:0:
308,38,164277,1,8,2:2:0:0:
350,36,164356,1,8,2:2:0:0:
391,47,164435,1,8,2:2:0:0:
424,72,164514,1,8,2:2:0:0:
446,107,164593,1,8,2:2:0:0:
446,146,164672,5,10,3:2:0:0:
427,192,164751,1,8,0:0:0:0:
397,230,164830,1,8,0:0:0:0:
353,254,164908,1,8,0:0:0:0:
304,259,164988,1,8,0:0:0:0:
255,250,165067,1,8,0:0:0:0:
214,224,165145,1,8,0:3:0:0:
179,187,165224,1,8,0:3:0:0:
133,172,165302,5,6,0:3:0:0:
83,178,165381,1,4,0:3:0:0:
43,206,165460,1,8,2:3:0:0:
20,250,165540,1,8,2:3:0:0:
19,298,165619,1,4,2:3:0:0:
40,343,165697,1,4,2:3:0:0:
79,373,165776,1,4,2:3:0:0:
127,381,165856,1,4,2:3:0:0:
174,367,165935,6,0,L|191:197,1,144,6|2,3:2|2:3,0:0:0:0:
351,43,166882,5,2,2:3:0:0:
104,76,167514,5,2,2:3:0:0:
137,323,168145,5,2,2:3:0:0:
233,128,168461,6,0,L|245:283,1,135,6|0,3:2|0:0,0:0:0:0:
251,341,168777,1,8,1:3:0:0:
364,196,168935,1,8,1:3:0:0:
119,188,169093,1,10,1:3:0:0:
349,302,169251,1,8,1:3:0:0:
113,292,169408,1,8,1:3:0:0:
367,101,169566,1,8,1:3:0:0:
105,74,169724,1,14,2:2:0:0:
204,192,169882,5,4,2:3:0:0:
204,192,169961,1,4,2:3:0:0:
204,192,170040,5,8,2:2:0:0:
211,224,170120,1,8,2:2:0:0:
218,257,170198,1,4,0:3:0:0:
226,290,170276,1,4,0:3:0:0:
233,323,170356,5,10,0:3:0:0:
272,345,170435,1,8,0:3:0:0:
316,351,170514,1,0,3:2:0:0:
360,339,170593,1,0,3:2:0:0:
395,312,170672,1,8,0:3:0:0:
417,273,170751,1,8,0:3:0:0:
423,229,170830,1,4,0:3:0:0:
412,186,170909,1,4,0:3:0:0:
385,150,170987,6,0,P|295:160|201:177,1,180,4|12,3:2|0:0,0:0:0:0:
48,197,171461,1,0,0:0:0:0:
161,89,171619,2,0,P|156:45|138:4,1,90,2|0,3:2|0:0,0:0:0:0:
48,197,171935,2,0,P|52:241|70:282,1,90,10|0,3:2|0:0,0:0:0:0:
281,203,172251,5,2,3:2:0:0:
132,232,172408,1,0,0:0:0:0:
232,329,172566,1,10,3:2:0:0:
184,136,172724,1,0,0:0:0:0:
368,209,172882,2,0,P|366:253|358:298,1,90,2|0,3:2|0:0,0:0:0:0:
184,136,173198,2,0,P|176:91|173:46,1,90,10|0,3:2|0:0,0:0:0:0:
402,52,173514,6,0,P|337:92|261:63,1,135,2|0,3:2|0:0,0:0:0:0:
184,136,173830,2,0,P|141:121|98:109,1,90,10|0,3:2|0:0,0:0:0:0:
399,256,174145,2,0,L|385:159,1,90,2|0,3:2|0:0,0:0:0:0:
168,300,174461,1,10,3:2:0:0:
325,345,174619,1,0,0:0:0:0:
242,86,174777,5,2,3:2:0:0:
282,264,174935,1,0,0:0:0:0:
387,167,175093,1,10,3:2:0:0:
198,198,175251,1,0,0:0:0:0:
387,166,175409,2,0,P|383:122|367:79,1,90,2|0,3:2|0:0,0:0:0:0:
135,36,175724,2,0,P|138:80|154:122,1,90,10|0,3:2|0:0,0:0:0:0:
280,305,176040,6,0,P|207:256|120:278,1,180,2|8,3:2|3:2,0:0:0:0:
368,339,176514,1,0,0:0:0:0:
316,214,176672,2,0,P|298:172|290:128,1,90,2|0,3:2|0:0,0:0:0:0:
458,38,176987,2,0,P|449:82|432:123,1,90,10|0,3:2|0:0,0:0:0:0:
290,128,177303,6,0,P|219:121|148:107,1,144,2|2,3:2|0:0,0:0:0:0:
236,32,177935,5,2,0:0:0:0:
256,192,178251,5,2,0:0:0:0:
256,192,178330,12,0,180461,0:0:0:0:
