osu file format v14

[General]
AudioFilename: audio.mp3
AudioLeadIn: 1500
PreviewTime: 138384
Countdown: 0
SampleSet: Soft
StackLeniency: 0.7
Mode: 0
LetterboxInBreaks: 0
WidescreenStoryboard: 1

[Editor]
DistanceSpacing: 0.9
BeatDivisor: 2
GridSize: 16
TimelineZoom: 1.7

[Metadata]
Title:Hatsukoi no Ehon feat. Aida Miou (CV: Toyosaki Aki)
TitleUnicode:初恋の絵本 feat. 合田 美桜 (CV:豊崎 愛生)
Artist:HoneyWorks
ArtistUnicode:HoneyWorks
Creator:No Dap
Version:AF's Normal
Source:
Tags:告白実行委員会 Kokuhaku Jikkou Iinkai 僕じゃダメですか? Boku ja Dame desuka? moeka momoka shioi scanter anais setz setz206 midorijeon a mystery a_mystery af affirmation neoskylove Japanese Pop JPop J-Pop
BeatmapID:3424940
BeatmapSetID:1575727

[Difficulty]
HPDrainRate:3.9
CircleSize:3.3
OverallDifficulty:3.8
ApproachRate:5.2
SliderMultiplier:1
SliderTickRate:1

[Events]
//Background and Video events
0,0,"bg.png",0,0
//Break Periods
2,22135,23291
2,60030,61186
2,108030,116765
2,128240,131923
2,135819,138145
//Storyboard Layer 0 (Background)
//Storyboard Layer 1 (Fail)
//Storyboard Layer 2 (Pass)
//Storyboard Layer 3 (Foreground)
//Storyboard Layer 4 (Overlay)
//Storyboard Sound Samples

[TimingPoints]
236,389.61038961039,4,2,1,50,1,0
625,342.857142857143,4,2,1,50,1,0
967,342.857142857143,4,2,1,50,1,0
10567,315.789473684211,4,2,1,50,1,0
11672,-100,4,2,2,80,0,0
11830,-90.9090909090909,4,2,2,80,0,0
12619,-90.9090909090909,4,2,3,80,0,0
13724,-90.9090909090909,4,2,2,80,0,0
15145,-90.9090909090909,4,2,3,80,0,0
16093,-90.9090909090909,4,2,2,80,0,0
17830,-90.9090909090909,4,2,3,80,0,0
18935,-90.9090909090909,4,2,6,80,0,0
19014,-90.9090909090909,4,2,3,80,0,0
19724,-90.9090909090909,4,2,3,30,0,0
19882,-90.9090909090909,4,2,3,35,0,0
20040,-90.9090909090909,4,2,3,40,0,0
20198,-90.9090909090909,4,2,3,45,0,0
20356,-90.9090909090909,4,2,3,50,0,0
20514,-90.9090909090909,4,2,3,55,0,0
20672,-90.9090909090909,4,2,3,60,0,0
20830,-90.9090909090909,4,2,3,65,0,0
20988,-90.9090909090909,4,2,3,70,0,0
21145,-90.9090909090909,4,2,3,77,0,0
21303,-90.9090909090909,4,2,3,80,0,0
21619,-90.9090909090909,4,2,2,80,0,0
24619,-90.9090909090909,4,2,2,40,0,0
24777,-90.9090909090909,4,2,2,80,0,0
24935,-90.9090909090909,4,2,2,40,0,0
25093,-90.9090909090909,4,2,2,80,0,0
25251,-90.9090909090909,4,2,2,40,0,0
25409,-90.9090909090909,4,2,2,80,0,0
25567,-90.9090909090909,4,2,2,40,0,0
25724,-90.9090909090909,4,2,3,80,0,0
26988,-90.9090909090909,4,2,3,60,0,0
34567,-90.9090909090909,4,2,3,40,0,0
34724,-90.9090909090909,4,2,3,35,0,0
34882,-90.9090909090909,4,2,3,30,0,0
35040,-90.9090909090909,4,2,3,35,0,0
35198,-90.9090909090909,4,2,3,40,0,0
35356,-90.9090909090909,4,2,3,45,0,0
35514,-90.9090909090909,4,2,3,50,0,0
35672,-90.9090909090909,4,2,3,55,0,0
35830,-90.9090909090909,4,2,3,60,0,0
35988,-90.9090909090909,4,2,3,65,0,0
36145,-90.9090909090909,4,2,3,70,0,0
36303,-90.9090909090909,4,2,3,75,0,0
36461,-90.9090909090909,4,2,3,80,0,0
37093,-90.9090909090909,4,2,3,50,0,0
37409,-90.9090909090909,4,2,5,50,0,0
37488,-90.9090909090909,4,2,3,50,0,0
38040,-90.9090909090909,4,2,5,50,0,0
38119,-90.9090909090909,4,2,3,50,0,0
38672,-90.9090909090909,4,2,5,50,0,0
38751,-90.9090909090909,4,2,3,50,0,0
39303,-90.9090909090909,4,2,5,50,0,0
39382,-90.9090909090909,4,2,3,50,0,0
39935,-90.9090909090909,4,2,5,50,0,0
40014,-90.9090909090909,4,2,3,50,0,0
40567,-90.9090909090909,4,2,5,50,0,0
40645,-90.9090909090909,4,2,3,50,0,0
41198,-90.9090909090909,4,2,5,50,0,0
41277,-90.9090909090909,4,2,3,50,0,0
41830,-90.9090909090909,4,2,5,50,0,0
41909,-90.9090909090909,4,2,3,50,0,0
42145,-90.9090909090909,4,2,2,60,0,0
42461,-90.9090909090909,4,2,2,40,0,0
42777,-90.9090909090909,4,2,2,50,0,0
43093,-90.9090909090909,4,2,2,60,0,0
43409,-90.9090909090909,4,2,2,70,0,0
44356,-90.9090909090909,4,2,3,70,0,0
44988,-90.9090909090909,4,2,4,70,0,0
45067,-90.9090909090909,4,2,3,70,0,0
45303,-90.9090909090909,4,2,4,70,0,0
45382,-90.9090909090909,4,2,3,70,0,0
45619,-90.9090909090909,4,2,4,70,0,0
45698,-90.9090909090909,4,2,3,70,0,0
45935,-90.9090909090909,4,2,4,70,0,0
46014,-90.9090909090909,4,2,3,70,0,0
46251,-90.9090909090909,4,2,4,70,0,0
46330,-90.9090909090909,4,2,3,70,0,0
46567,-90.9090909090909,4,2,4,70,0,0
46645,-90.9090909090909,4,2,3,70,0,0
46882,-90.9090909090909,4,2,4,70,0,0
46961,-90.9090909090909,4,2,3,70,0,0
47198,-90.9090909090909,4,2,4,70,0,0
47277,-90.9090909090909,4,2,3,70,0,0
47514,-90.9090909090909,4,2,4,70,0,0
47593,-90.9090909090909,4,2,3,70,0,0
47830,-90.9090909090909,4,2,4,70,0,0
47909,-90.9090909090909,4,2,3,70,0,0
48145,-90.9090909090909,4,2,4,70,0,0
48224,-90.9090909090909,4,2,3,70,0,0
48461,-90.9090909090909,4,2,4,70,0,0
48540,-90.9090909090909,4,2,3,70,0,0
48777,-90.9090909090909,4,2,4,70,0,0
48856,-90.9090909090909,4,2,3,70,0,0
49093,-90.9090909090909,4,2,4,70,0,0
49172,-90.9090909090909,4,2,3,70,0,0
49409,-90.9090909090909,4,2,4,70,0,0
49488,-90.9090909090909,4,2,3,70,0,0
49724,-90.9090909090909,4,2,4,70,0,0
49803,-90.9090909090909,4,2,3,70,0,0
50040,-90.9090909090909,4,2,4,70,0,0
50119,-90.9090909090909,4,2,3,70,0,0
50356,-90.9090909090909,4,2,4,70,0,0
50435,-90.9090909090909,4,2,3,70,0,0
50672,-90.9090909090909,4,2,4,70,0,0
50751,-90.9090909090909,4,2,3,70,0,0
50988,-90.9090909090909,4,2,4,70,0,0
51067,-90.9090909090909,4,2,3,70,0,0
51303,-90.9090909090909,4,2,4,70,0,0
51382,-90.9090909090909,4,2,3,70,0,0
51619,-90.9090909090909,4,2,4,70,0,0
51698,-90.9090909090909,4,2,3,70,0,0
51935,-90.9090909090909,4,2,4,70,0,0
52014,-90.9090909090909,4,2,3,70,0,0
52251,-90.9090909090909,4,2,4,70,0,0
52330,-90.9090909090909,4,2,3,70,0,0
52567,-90.9090909090909,4,2,4,70,0,0
52645,-90.9090909090909,4,2,3,70,0,0
52882,-90.9090909090909,4,2,4,70,0,0
52961,-90.9090909090909,4,2,3,70,0,0
53198,-90.9090909090909,4,2,4,70,0,0
53277,-90.9090909090909,4,2,3,70,0,0
53514,-90.9090909090909,4,2,4,70,0,0
53593,-90.9090909090909,4,2,3,70,0,0
53830,-90.9090909090909,4,2,4,70,0,0
53909,-90.9090909090909,4,2,3,70,0,0
54303,-90.9090909090909,4,2,6,70,0,0
54382,-90.9090909090909,4,2,3,70,0,0
54619,-90.9090909090909,4,2,6,70,0,0
54698,-90.9090909090909,4,2,3,70,0,0
54777,-90.9090909090909,4,2,2,70,0,0
58567,-90.9090909090909,4,2,3,70,0,0
60145,-90.9090909090909,4,2,4,70,0,0
60224,-90.9090909090909,4,2,3,70,0,0
60777,-90.9090909090909,4,2,5,70,0,0
60856,-90.9090909090909,4,2,3,70,0,0
61409,-90.9090909090909,4,2,5,70,0,0
61488,-90.9090909090909,4,2,3,70,0,0
62040,-90.9090909090909,4,2,5,70,0,0
62119,-90.9090909090909,4,2,3,70,0,0
62672,-90.9090909090909,4,2,3,60,0,0
62988,-90.9090909090909,4,2,3,50,0,0
63303,-90.9090909090909,4,2,3,40,0,0
63619,-90.9090909090909,4,2,3,30,0,0
64251,-90.9090909090909,4,2,3,60,0,0
64882,-90.9090909090909,4,2,2,80,0,1
65198,-90.9090909090909,4,2,5,80,0,1
65277,-90.9090909090909,4,2,2,80,0,1
65514,-90.9090909090909,4,2,5,80,0,1
65593,-90.9090909090909,4,2,2,80,0,1
65830,-90.9090909090909,4,2,5,80,0,1
65909,-90.9090909090909,4,2,2,80,0,1
66145,-90.9090909090909,4,2,5,80,0,1
66224,-90.9090909090909,4,2,2,80,0,1
66461,-90.9090909090909,4,2,5,80,0,1
66540,-90.9090909090909,4,2,2,80,0,1
66777,-90.9090909090909,4,2,5,80,0,1
66856,-90.9090909090909,4,2,2,80,0,1
67093,-90.9090909090909,4,2,5,80,0,1
67172,-90.9090909090909,4,2,2,80,0,1
67409,-90.9090909090909,4,2,5,80,0,1
67488,-90.9090909090909,4,2,2,80,0,1
67724,-90.9090909090909,4,2,5,80,0,1
67803,-90.9090909090909,4,2,2,80,0,1
68040,-90.9090909090909,4,2,5,80,0,1
68119,-90.9090909090909,4,2,2,80,0,1
68356,-90.9090909090909,4,2,5,80,0,1
68435,-90.9090909090909,4,2,2,80,0,1
68672,-90.9090909090909,4,2,5,80,0,1
68751,-90.9090909090909,4,2,2,80,0,1
68988,-90.9090909090909,4,2,5,80,0,1
69067,-90.9090909090909,4,2,2,80,0,1
69303,-90.9090909090909,4,2,5,80,0,1
69382,-90.9090909090909,4,2,2,80,0,1
69619,-90.9090909090909,4,2,5,80,0,1
69698,-90.9090909090909,4,2,2,80,0,1
69935,-90.9090909090909,4,2,5,80,0,1
70014,-90.9090909090909,4,2,2,80,0,1
70251,-90.9090909090909,4,2,5,80,0,1
70330,-90.9090909090909,4,2,2,80,0,1
70567,-90.9090909090909,4,2,5,80,0,1
70645,-90.9090909090909,4,2,2,80,0,1
70882,-90.9090909090909,4,2,5,80,0,1
70961,-90.9090909090909,4,2,2,80,0,1
71198,-90.9090909090909,4,2,5,80,0,1
71277,-90.9090909090909,4,2,2,80,0,1
71514,-90.9090909090909,4,2,5,80,0,1
71593,-90.9090909090909,4,2,2,80,0,1
71830,-90.9090909090909,4,2,5,80,0,1
71909,-90.9090909090909,4,2,2,80,0,1
72145,-90.9090909090909,4,2,5,80,0,1
72224,-90.9090909090909,4,2,2,80,0,1
72461,-90.9090909090909,4,2,5,80,0,1
72540,-90.9090909090909,4,2,2,80,0,1
72777,-90.9090909090909,4,2,5,80,0,1
72856,-90.9090909090909,4,2,2,80,0,1
73093,-90.9090909090909,4,2,5,80,0,1
73172,-90.9090909090909,4,2,2,80,0,1
73409,-90.9090909090909,4,2,5,80,0,1
73488,-90.9090909090909,4,2,2,80,0,1
73882,-90.9090909090909,4,2,2,40,0,1
74040,-90.9090909090909,4,2,2,80,0,1
74198,-90.9090909090909,4,2,2,40,0,1
74356,-90.9090909090909,4,2,2,80,0,1
74514,-90.9090909090909,4,2,2,40,0,1
74672,-90.9090909090909,4,2,2,80,0,1
74751,-90.9090909090909,4,2,2,40,0,1
74988,-90.9090909090909,4,2,2,80,0,1
75303,-90.9090909090909,4,2,5,80,0,1
75382,-90.9090909090909,4,2,2,80,0,1
75619,-90.9090909090909,4,2,5,80,0,1
75698,-90.9090909090909,4,2,2,80,0,1
75935,-90.9090909090909,4,2,5,80,0,1
76014,-90.9090909090909,4,2,2,80,0,1
76251,-90.9090909090909,4,2,5,80,0,1
76330,-90.9090909090909,4,2,2,80,0,1
76567,-90.9090909090909,4,2,5,80,0,1
76645,-90.9090909090909,4,2,2,80,0,1
76882,-90.9090909090909,4,2,5,80,0,1
76961,-90.9090909090909,4,2,2,80,0,1
77198,-90.9090909090909,4,2,5,80,0,1
77277,-90.9090909090909,4,2,2,80,0,1
77514,-90.9090909090909,4,2,5,80,0,1
77593,-90.9090909090909,4,2,2,80,0,1
77830,-90.9090909090909,4,2,5,80,0,1
77909,-90.9090909090909,4,2,2,80,0,1
78145,-90.9090909090909,4,2,5,80,0,1
78224,-90.9090909090909,4,2,2,80,0,1
78461,-90.9090909090909,4,2,5,80,0,1
78540,-90.9090909090909,4,2,2,80,0,1
78777,-90.9090909090909,4,2,5,80,0,1
78856,-90.9090909090909,4,2,2,80,0,1
79093,-90.9090909090909,4,2,5,80,0,1
79172,-90.9090909090909,4,2,2,80,0,1
79409,-90.9090909090909,4,2,5,80,0,1
79488,-90.9090909090909,4,2,2,80,0,1
79724,-90.9090909090909,4,2,5,80,0,1
79803,-90.9090909090909,4,2,2,80,0,1
80040,-90.9090909090909,4,2,5,80,0,1
80119,-90.9090909090909,4,2,2,80,0,1
80356,-90.9090909090909,4,2,5,80,0,1
80435,-90.9090909090909,4,2,2,80,0,1
80672,-90.9090909090909,4,2,5,80,0,1
80751,-90.9090909090909,4,2,2,80,0,1
81303,-90.9090909090909,4,2,2,60,0,0
81619,-90.9090909090909,4,2,7,60,0,0
84461,-90.9090909090909,4,2,2,60,0,0
85093,-90.9090909090909,4,2,2,70,0,0
85409,-90.9090909090909,4,2,2,40,0,0
85724,-90.9090909090909,4,2,2,50,0,0
86040,-90.9090909090909,4,2,2,60,0,0
86356,-90.9090909090909,4,2,2,70,0,0
87303,-90.9090909090909,4,2,3,70,0,0
87935,-90.9090909090909,4,2,5,70,0,0
88014,-90.9090909090909,4,2,2,70,0,0
88251,-90.9090909090909,4,2,5,70,0,0
88330,-90.9090909090909,4,2,2,70,0,0
88567,-90.9090909090909,4,2,5,70,0,0
88645,-90.9090909090909,4,2,2,70,0,0
88882,-90.9090909090909,4,2,5,70,0,0
88961,-90.9090909090909,4,2,2,70,0,0
89198,-90.9090909090909,4,2,5,70,0,0
89277,-90.9090909090909,4,2,2,70,0,0
89514,-90.9090909090909,4,2,5,70,0,0
89593,-90.9090909090909,4,2,2,70,0,0
89830,-90.9090909090909,4,2,5,70,0,0
89909,-90.9090909090909,4,2,2,70,0,0
90145,-90.9090909090909,4,2,5,70,0,0
90224,-90.9090909090909,4,2,2,70,0,0
90461,-90.9090909090909,4,2,5,70,0,0
90540,-90.9090909090909,4,2,2,70,0,0
90777,-90.9090909090909,4,2,5,70,0,0
90856,-90.9090909090909,4,2,2,70,0,0
91093,-90.9090909090909,4,2,5,70,0,0
91172,-90.9090909090909,4,2,2,70,0,0
91409,-90.9090909090909,4,2,5,70,0,0
91488,-90.9090909090909,4,2,2,70,0,0
91724,-90.9090909090909,4,2,5,70,0,0
91803,-90.9090909090909,4,2,2,70,0,0
92040,-90.9090909090909,4,2,5,70,0,0
92119,-90.9090909090909,4,2,2,70,0,0
92356,-90.9090909090909,4,2,5,70,0,0
92435,-90.9090909090909,4,2,2,70,0,0
92672,-90.9090909090909,4,2,5,70,0,0
92751,-90.9090909090909,4,2,2,70,0,0
92988,-90.9090909090909,4,2,5,70,0,0
93067,-90.9090909090909,4,2,2,70,0,0
93303,-90.9090909090909,4,2,5,70,0,0
93382,-90.9090909090909,4,2,2,70,0,0
93619,-90.9090909090909,4,2,5,70,0,0
93698,-90.9090909090909,4,2,2,70,0,0
93935,-90.9090909090909,4,2,5,70,0,0
94014,-90.9090909090909,4,2,2,70,0,0
94251,-90.9090909090909,4,2,5,70,0,0
94330,-90.9090909090909,4,2,2,70,0,0
94567,-90.9090909090909,4,2,5,70,0,0
94645,-90.9090909090909,4,2,2,70,0,0
94882,-90.9090909090909,4,2,5,70,0,0
94961,-90.9090909090909,4,2,2,70,0,0
95198,-90.9090909090909,4,2,5,70,0,0
95277,-90.9090909090909,4,2,2,70,0,0
95514,-90.9090909090909,4,2,5,70,0,0
95593,-90.9090909090909,4,2,2,70,0,0
95830,-90.9090909090909,4,2,5,70,0,0
95909,-90.9090909090909,4,2,2,70,0,0
96145,-90.9090909090909,4,2,5,70,0,0
96224,-90.9090909090909,4,2,2,70,0,0
96461,-90.9090909090909,4,2,5,70,0,0
96540,-90.9090909090909,4,2,2,70,0,0
96777,-90.9090909090909,4,2,5,70,0,0
96856,-90.9090909090909,4,2,2,70,0,0
97093,-90.9090909090909,4,2,5,70,0,0
97172,-90.9090909090909,4,2,2,70,0,0
97409,-90.9090909090909,4,2,5,70,0,0
97488,-90.9090909090909,4,2,2,70,0,0
98040,-90.9090909090909,4,2,5,70,0,0
98119,-90.9090909090909,4,2,2,70,0,0
98356,-90.9090909090909,4,2,5,70,0,0
98435,-90.9090909090909,4,2,2,70,0,0
98672,-90.9090909090909,4,2,5,70,0,0
98751,-90.9090909090909,4,2,2,70,0,0
98988,-90.9090909090909,4,2,5,70,0,0
99067,-90.9090909090909,4,2,2,70,0,0
99303,-90.9090909090909,4,2,5,70,0,0
99382,-90.9090909090909,4,2,2,70,0,0
99619,-90.9090909090909,4,2,5,70,0,0
99698,-90.9090909090909,4,2,2,70,0,0
99935,-90.9090909090909,4,2,5,70,0,0
100014,-90.9090909090909,4,2,2,70,0,0
100251,-90.9090909090909,4,2,5,70,0,0
100330,-90.9090909090909,4,2,2,70,0,0
100567,-90.9090909090909,4,2,5,70,0,0
100645,-90.9090909090909,4,2,2,70,0,0
100882,-90.9090909090909,4,2,5,70,0,0
100961,-90.9090909090909,4,2,2,70,0,0
101198,-90.9090909090909,4,2,5,70,0,0
101277,-90.9090909090909,4,2,2,70,0,0
101514,-90.9090909090909,4,2,5,70,0,0
101593,-90.9090909090909,4,2,2,70,0,0
101830,-90.9090909090909,4,2,5,70,0,0
101909,-90.9090909090909,4,2,2,70,0,0
102145,-90.9090909090909,4,2,5,70,0,0
102224,-90.9090909090909,4,2,2,70,0,0
102461,-90.9090909090909,4,2,5,70,0,0
102540,-90.9090909090909,4,2,2,70,0,0
102777,-90.9090909090909,4,2,5,70,0,0
102856,-90.9090909090909,4,2,2,70,0,0
103093,-90.9090909090909,4,2,5,70,0,0
103172,-90.9090909090909,4,2,2,70,0,0
103409,-90.9090909090909,4,2,5,70,0,0
103488,-90.9090909090909,4,2,2,70,0,0
103724,-90.9090909090909,4,2,5,70,0,0
103803,-90.9090909090909,4,2,2,70,0,0
104040,-90.9090909090909,4,2,5,70,0,0
104119,-90.9090909090909,4,2,2,70,0,0
104356,-90.9090909090909,4,2,5,70,0,0
104435,-90.9090909090909,4,2,2,70,0,0
104672,-90.9090909090909,4,2,5,70,0,0
104751,-90.9090909090909,4,2,2,70,0,0
104988,-90.9090909090909,4,2,5,70,0,0
105067,-90.9090909090909,4,2,2,70,0,0
105303,-90.9090909090909,4,2,3,70,0,0
105461,-90.9090909090909,4,2,2,70,0,0
105777,-90.9090909090909,4,2,8,70,0,0
105856,-90.9090909090909,4,2,3,70,0,0
106567,-90.9090909090909,4,2,4,70,0,0
106645,-90.9090909090909,4,2,2,70,0,0
107040,-90.9090909090909,4,2,4,70,0,0
107119,-90.9090909090909,4,2,2,70,0,0
107830,-90.9090909090909,4,2,1,50,0,0
117935,-90.9090909090909,4,2,6,60,0,0
122988,-90.9090909090909,4,2,2,60,0,0
123145,-90.9090909090909,4,2,2,30,0,0
123303,-90.9090909090909,4,2,2,35,0,0
123619,-90.9090909090909,4,2,2,40,0,0
123935,-90.9090909090909,4,2,2,45,0,0
124251,-90.9090909090909,4,2,2,50,0,0
124567,-90.9090909090909,4,2,2,55,0,0
124882,-90.9090909090909,4,2,2,60,0,0
125198,-90.9090909090909,4,2,2,65,0,0
125514,-90.9090909090909,4,2,2,70,0,0
125593,-90.9090909090909,4,2,2,30,0,0
125830,-90.9090909090909,4,2,2,70,0,0
125909,-90.9090909090909,4,2,2,30,0,0
126145,-90.9090909090909,4,2,2,70,0,0
126224,-90.9090909090909,4,2,2,30,0,0
126461,-90.9090909090909,4,2,2,70,0,0
126540,-90.9090909090909,4,2,2,30,0,0
126777,-90.9090909090909,4,2,2,70,0,0
126935,-90.9090909090909,4,2,2,45,0,0
127093,-90.9090909090909,4,2,2,50,0,0
127251,-90.9090909090909,4,2,2,55,0,0
127409,-90.9090909090909,4,2,2,60,0,0
127567,-90.9090909090909,4,2,2,65,0,0
127724,-90.9090909090909,4,2,2,70,0,0
128040,-90.9090909090909,4,2,1,50,0,0
133093,-90.9090909090909,4,2,2,30,0,0
133409,-90.9090909090909,4,2,2,40,0,0
133724,-90.9090909090909,4,2,2,50,0,0
134040,-90.9090909090909,4,2,2,60,0,0
134356,-90.9090909090909,4,2,2,70,0,0
134988,-90.9090909090909,4,2,2,80,0,0
135619,-90.9090909090909,4,2,2,45,0,0
140040,-90.9090909090909,4,2,2,45,0,0
140672,-90.9090909090909,4,2,2,80,0,1
140988,-90.9090909090909,4,2,5,80,0,1
141067,-90.9090909090909,4,2,2,80,0,1
141303,-90.9090909090909,4,2,5,80,0,1
141382,-90.9090909090909,4,2,2,80,0,1
141619,-90.9090909090909,4,2,5,80,0,1
141698,-90.9090909090909,4,2,2,80,0,1
141935,-90.9090909090909,4,2,5,80,0,1
142014,-90.9090909090909,4,2,2,80,0,1
142251,-90.9090909090909,4,2,5,80,0,1
142330,-90.9090909090909,4,2,2,80,0,1
142567,-90.9090909090909,4,2,5,80,0,1
142645,-90.9090909090909,4,2,2,80,0,1
142882,-90.9090909090909,4,2,5,80,0,1
142961,-90.9090909090909,4,2,2,80,0,1
143198,-90.9090909090909,4,2,5,80,0,1
143277,-90.9090909090909,4,2,2,80,0,1
143514,-90.9090909090909,4,2,5,80,0,1
143593,-90.9090909090909,4,2,2,80,0,1
143830,-90.9090909090909,4,2,5,80,0,1
143909,-90.9090909090909,4,2,2,80,0,1
144145,-90.9090909090909,4,2,5,80,0,1
144224,-90.9090909090909,4,2,2,80,0,1
144461,-90.9090909090909,4,2,5,80,0,1
144540,-90.9090909090909,4,2,2,80,0,1
144777,-90.9090909090909,4,2,5,80,0,1
144856,-90.9090909090909,4,2,2,80,0,1
145093,-90.9090909090909,4,2,5,80,0,1
145172,-90.9090909090909,4,2,2,80,0,1
145409,-90.9090909090909,4,2,5,80,0,1
145488,-90.9090909090909,4,2,2,80,0,1
145724,-90.9090909090909,4,2,5,80,0,1
145803,-90.9090909090909,4,2,2,80,0,1
146040,-90.9090909090909,4,2,5,80,0,1
146119,-90.9090909090909,4,2,2,80,0,1
146356,-90.9090909090909,4,2,5,80,0,1
146435,-90.9090909090909,4,2,2,80,0,1
146672,-90.9090909090909,4,2,5,80,0,1
146751,-90.9090909090909,4,2,2,80,0,1
146988,-90.9090909090909,4,2,5,80,0,1
147067,-90.9090909090909,4,2,2,80,0,1
147303,-90.9090909090909,4,2,5,80,0,1
147382,-90.9090909090909,4,2,2,80,0,1
147619,-90.9090909090909,4,2,5,80,0,1
147698,-90.9090909090909,4,2,2,80,0,1
147935,-90.9090909090909,4,2,5,80,0,1
148014,-90.9090909090909,4,2,2,80,0,1
148251,-90.9090909090909,4,2,5,80,0,1
148330,-90.9090909090909,4,2,2,80,0,1
148567,-90.9090909090909,4,2,5,80,0,1
148645,-90.9090909090909,4,2,2,80,0,1
148882,-90.9090909090909,4,2,5,80,0,1
148961,-90.9090909090909,4,2,2,80,0,1
149198,-90.9090909090909,4,2,5,80,0,1
149277,-90.9090909090909,4,2,2,80,0,1
149672,-90.9090909090909,4,2,2,40,0,1
149830,-90.9090909090909,4,2,2,80,0,1
149988,-90.9090909090909,4,2,2,40,0,1
150145,-90.9090909090909,4,2,2,80,0,1
150303,-90.9090909090909,4,2,2,40,0,1
150461,-90.9090909090909,4,2,2,80,0,1
150540,-90.9090909090909,4,2,2,40,0,1
150777,-90.9090909090909,4,2,2,80,0,1
151093,-90.9090909090909,4,2,5,80,0,1
151172,-90.9090909090909,4,2,2,80,0,1
151409,-90.9090909090909,4,2,5,80,0,1
151488,-90.9090909090909,4,2,2,80,0,1
151724,-90.9090909090909,4,2,5,80,0,1
151803,-90.9090909090909,4,2,2,80,0,1
152040,-90.9090909090909,4,2,5,80,0,1
152119,-90.9090909090909,4,2,2,80,0,1
152356,-90.9090909090909,4,2,5,80,0,1
152435,-90.9090909090909,4,2,2,80,0,1
152672,-90.9090909090909,4,2,5,80,0,1
152751,-90.9090909090909,4,2,2,80,0,1
152988,-90.9090909090909,4,2,5,80,0,1
153067,-90.9090909090909,4,2,2,80,0,1
153303,-90.9090909090909,4,2,5,80,0,1
153382,-90.9090909090909,4,2,2,80,0,1
153619,-90.9090909090909,4,2,5,80,0,1
153698,-90.9090909090909,4,2,2,80,0,1
153935,-90.9090909090909,4,2,5,80,0,1
154014,-90.9090909090909,4,2,2,80,0,1
154251,-90.9090909090909,4,2,5,80,0,1
154330,-90.9090909090909,4,2,2,80,0,1
154567,-90.9090909090909,4,2,5,80,0,1
154645,-90.9090909090909,4,2,2,80,0,1
154882,-90.9090909090909,4,2,5,80,0,1
154961,-90.9090909090909,4,2,2,80,0,1
155198,-90.9090909090909,4,2,5,80,0,1
155277,-90.9090909090909,4,2,2,80,0,1
155514,-90.9090909090909,4,2,5,80,0,1
155593,-90.9090909090909,4,2,2,80,0,1
155830,-90.9090909090909,4,2,5,80,0,1
155909,-90.9090909090909,4,2,2,80,0,1
156145,-90.9090909090909,4,2,5,80,0,1
156224,-90.9090909090909,4,2,2,80,0,1
156461,-90.9090909090909,4,2,5,80,0,1
156540,-90.9090909090909,4,2,2,80,0,1
156777,-90.9090909090909,4,2,5,80,0,1
156856,-90.9090909090909,4,2,2,80,0,1
157093,-90.9090909090909,4,2,5,80,0,1
157172,-90.9090909090909,4,2,2,80,0,1
158672,-90.9090909090909,4,2,2,60,0,1
158988,-90.9090909090909,4,2,3,80,0,1
159303,-90.9090909090909,4,2,3,60,0,1
159619,-90.9090909090909,4,2,2,80,0,1
159935,-90.9090909090909,4,2,2,50,0,1
160093,-90.9090909090909,4,2,2,55,0,1
160251,-90.9090909090909,4,2,2,60,0,1
160409,-90.9090909090909,4,2,2,65,0,1
160567,-90.9090909090909,4,2,2,70,0,1
160724,-90.9090909090909,4,2,2,75,0,1
160882,-90.9090909090909,4,2,2,80,0,0
161040,-90.9090909090909,4,2,2,60,0,0
161356,-90.9090909090909,4,2,3,80,0,0
161672,-90.9090909090909,4,2,3,60,0,0
161830,-90.9090909090909,4,2,2,80,0,0
161909,-90.9090909090909,4,2,2,60,0,0
162145,-90.9090909090909,4,2,2,80,0,0
162303,-90.9090909090909,4,2,2,60,0,0
162619,-90.9090909090909,4,2,3,80,0,0
162777,-90.9090909090909,4,2,3,60,0,0
162935,-90.9090909090909,4,2,3,70,0,0
163093,-90.9090909090909,4,2,2,80,0,0
163251,-90.9090909090909,4,2,3,80,0,0
163409,-90.9090909090909,4,2,2,80,0,0
163567,-90.9090909090909,4,2,2,40,0,0
163724,-90.9090909090909,4,2,2,50,0,0
163882,-90.9090909090909,4,2,2,40,0,0
164040,-90.9090909090909,4,2,2,60,0,0
164356,-90.9090909090909,4,2,2,70,0,0
164435,-90.9090909090909,4,2,2,40,0,0
164672,-90.9090909090909,4,2,2,80,0,0
164751,-90.9090909090909,4,2,2,40,0,0
164988,-90.9090909090909,4,2,2,80,0,0
165461,-90.9090909090909,4,2,3,80,0,0
166251,-90.9090909090909,4,2,4,60,0,0
168461,-90.9090909090909,4,2,2,80,0,0
168777,-90.9090909090909,4,2,3,50,0,0
169093,-90.9090909090909,4,2,3,60,0,0
169409,-90.9090909090909,4,2,3,70,0,0
169724,-90.9090909090909,4,2,3,80,0,0
169882,-90.9090909090909,4,2,2,80,0,0
170514,-90.9090909090909,4,2,3,80,0,0
170988,-90.9090909090909,4,2,3,80,0,1
171303,-90.9090909090909,4,2,2,80,0,1
171382,-90.9090909090909,4,2,3,80,0,1
171619,-90.9090909090909,4,2,5,80,0,1
171698,-90.9090909090909,4,2,3,80,0,1
171935,-90.9090909090909,4,2,5,80,0,1
172014,-90.9090909090909,4,2,3,80,0,1
172251,-90.9090909090909,4,2,5,80,0,1
172330,-90.9090909090909,4,2,3,80,0,1
172567,-90.9090909090909,4,2,5,80,0,1
172645,-90.9090909090909,4,2,3,80,0,1
172882,-90.9090909090909,4,2,5,80,0,1
172961,-90.9090909090909,4,2,3,80,0,1
173198,-90.9090909090909,4,2,5,80,0,1
173277,-90.9090909090909,4,2,3,80,0,1
173514,-90.9090909090909,4,2,5,80,0,1
173593,-90.9090909090909,4,2,3,80,0,1
173830,-90.9090909090909,4,2,5,80,0,1
173909,-90.9090909090909,4,2,3,80,0,1
174145,-90.9090909090909,4,2,5,80,0,1
174224,-90.9090909090909,4,2,3,80,0,1
174461,-90.9090909090909,4,2,5,80,0,1
174540,-90.9090909090909,4,2,3,80,0,1
174777,-90.9090909090909,4,2,5,80,0,1
174856,-90.9090909090909,4,2,3,80,0,1
175093,-90.9090909090909,4,2,5,80,0,1
175172,-90.9090909090909,4,2,3,80,0,1
175409,-90.9090909090909,4,2,5,80,0,1
175488,-90.9090909090909,4,2,3,80,0,1
175724,-90.9090909090909,4,2,5,80,0,1
175803,-90.9090909090909,4,2,3,80,0,1
176040,-90.9090909090909,4,2,5,80,0,1
176119,-90.9090909090909,4,2,3,80,0,1
176356,-90.9090909090909,4,2,5,80,0,1
176435,-90.9090909090909,4,2,3,80,0,1
176672,-90.9090909090909,4,2,5,80,0,1
176751,-90.9090909090909,4,2,3,80,0,1
176988,-90.9090909090909,4,2,5,80,0,1
177067,-90.9090909090909,4,2,3,80,0,1
177303,-90.9090909090909,4,2,3,60,0,0
177619,-90.9090909090909,4,2,7,60,0,0

[Colours]
Combo1 : 160,80,80
Combo2 : 0,149,191
Combo3 : 255,145,34
Combo4 : 83,83,255
Combo5 : 244,244,0

[HitObjects]
12,99,11830,6,0,P|60:37|136:55,1,165.000005035401,6|10,3:2|0:3,0:0:0:0:
208,123,12619,2,0,L|205:177,1,55.0000016784668,8|10,0:3|0:3,0:0:0:0:
156,264,13093,2,0,L|265:259,1,110.000003356934,6|0,3:2|3:2,0:0:0:0:
310,236,13567,1,2,0:0:0:0:
401,272,13882,1,2,0:0:0:0:
499,161,14356,6,0,P|420:164|375:99,1,165.000005035401,6|10,3:2|0:3,0:0:0:0:
394,53,14988,2,0,L|448:55,2,55.0000016784668,8|8|4,3:3|0:3|3:3,0:0:0:0:
300,17,15619,2,0,P|263:55|209:60,1,110.000003356934,6|2,3:2|3:2,0:0:0:0:
158,54,16093,1,6,2:2:0:0:
188,148,16409,1,8,2:2:0:0:
109,273,16882,5,6,3:2:0:0:
191,327,17198,2,0,L|245:321,1,55.0000016784668,2|8,3:2|0:3,0:0:0:0:
290,299,17514,2,0,P|285:326|287:353,2,55.0000016784668,6|4|4,3:3|0:3|3:3,0:0:0:0:
349,220,18145,2,0,P|360:166|341:115,1,110.000003356934,6|2,3:2|3:2,0:0:0:0:
306,80,18619,2,0,L|196:91,1,110.000003356934,2|2,0:0|0:3,0:0:0:0:
148,79,19093,1,8,3:2:0:0:
76,147,19409,5,6,3:2:0:0:
162,192,19724,2,0,P|167:219|165:247,1,55.0000016784668,8|8,3:2|3:2,0:0:0:0:
139,289,20040,2,0,L|84:285,2,55.0000016784668,8|8|8,3:2|3:2|3:2,0:0:0:0:
229,331,20672,2,0,L|283:327,1,55.0000016784668,8|8,3:2|3:2,0:0:0:0:
307,283,20988,2,0,L|361:286,1,55.0000016784668,10|10,3:2|3:2,0:0:0:0:
396,321,21303,2,0,P|391:347|394:374,2,55.0000016784668,6|2|14,3:2|3:2|2:2,0:0:0:0:
446,234,21935,5,2,3:2:0:0:
269,69,24461,5,10,3:2:0:0:
273,167,24777,1,8,2:2:0:0:
371,163,25093,1,8,2:2:0:0:
367,65,25409,1,8,2:2:0:0:
269,69,25724,1,4,3:2:0:0:
269,68,26988,6,0,P|224:100|170:98,1,110.000003356934,2|2,3:2|3:2,0:0:0:0:
80,56,27619,2,0,L|77:165,1,110.000003356934,2|2,3:2|3:2,0:0:0:0:
39,198,28093,1,2,0:0:0:0:
39,198,28251,2,0,L|41:307,1,110.000003356934,2|2,3:2|3:2,0:0:0:0:
229,370,29197,1,2,3:2:0:0:
277,283,29514,6,0,P|331:275|386:269,1,110.000003356934,2|2,3:2|3:2,0:0:0:0:
354,176,30145,2,0,P|299:183|244:189,1,110.000003356934,2|2,3:2|3:2,0:0:0:0:
197,174,30619,1,2,0:0:0:0:
197,174,30777,2,0,P|160:212|165:266,1,110.000003356934,2|2,3:2|3:2,0:0:0:0:
334,368,31725,1,2,3:2:0:0:
421,321,32040,6,0,L|430:211,1,110.000003356934,2|2,3:2|3:2,0:0:0:0:
339,252,32672,2,0,L|348:142,1,110.000003356934,2|2,3:2|3:2,0:0:0:0:
257,183,33303,2,0,L|266:73,1,110.000003356934,2|2,3:2|3:2,0:0:0:0:
175,114,33935,2,0,L|184:4,1,110.000003356934,2|2,3:2|3:2,0:0:0:0:
84,0,34567,6,0,P|74:26|72:54,1,55.0000016784668,10|8,3:2|0:0,0:0:0:0:
90,100,34882,2,0,P|87:127|78:153,1,55.0000016784668,10|8,3:2|0:0,0:0:0:0:
41,186,35198,1,10,3:2:0:0:
67,281,35514,1,10,3:2:0:0:
158,244,35830,2,0,P|184:238|211:245,1,55.0000016784668,10|8,3:2|0:0,0:0:0:0:
255,268,36145,2,0,P|281:274|308:269,1,55.0000016784668,10|8,0:0|0:0,0:0:0:0:
349,240,36461,2,0,L|344:185,2,55.0000016784668,10|8|8,1:3|1:3|1:3,0:0:0:0:
425,303,37093,6,0,L|445:83,1,220.000006713867,2|2,0:0|0:0,0:0:0:0:
367,21,38040,1,2,0:3:0:0:
281,71,38356,2,0,P|229:87|178:69,2,110.000003356934,2|2|2,0:0|0:3|0:0,0:0:0:0:
353,138,39303,1,2,0:3:0:0:
282,208,39619,6,0,B|266:251|272:297|297:277|303:323|287:366,2,165.000005035401,2|2|2,0:0|0:0|0:3,0:0:0:0:
353,138,40882,2,0,P|410:192|487:173,1,165.000005035401,2|2,0:0|0:0,0:0:0:0:
391,59,41830,1,2,0:3:0:0:
293,74,42145,6,0,L|183:71,1,110.000003356934,6|8,3:2|3:2,0:0:0:0:
133,72,42619,1,8,2:2:0:0:
133,72,42777,2,0,P|130:44|138:18,2,55.0000016784668,8|10|10,3:2|2:2|3:2,0:0:0:0:
177,160,43409,2,0,P|179:187|171:213,1,55.0000016784668,8|8,0:0|0:0,0:0:0:0:
143,254,43724,2,0,L|88:249,1,55.0000016784668,8|8,0:3|0:3,0:0:0:0:
57,288,44040,2,0,L|2:292,2,55.0000016784668,4|4|6,0:3|0:3|0:3,0:0:0:0:
130,354,44672,5,6,3:2:0:0:
216,306,44988,2,0,P|243:303|270:308,1,55.0000016784668,10|2,0:0|0:0,0:0:0:0:
314,331,45303,2,0,L|307:221,1,110.000003356934,2|10,3:2|0:0,0:0:0:0:
307,171,45777,1,2,0:0:0:0:
307,171,45935,2,0,P|353:201|406:194,1,110.000003356934,2|10,3:2|0:0,0:0:0:0:
279,40,46882,1,10,0:0:0:0:
192,88,47198,6,0,L|137:83,1,55.0000016784668,2|2,3:2|0:0,0:0:0:0:
93,106,47514,2,0,L|97:160,1,55.0000016784668,10|2,0:0|0:0,0:0:0:0:
77,206,47830,2,0,L|22:201,2,55.0000016784668,2|2|10,3:2|0:0|0:0,0:0:0:0:
140,282,48461,2,0,L|250:272,1,110.000003356934,2|10,3:2|0:0,0:0:0:0:
432,194,49409,1,10,0:0:0:0:
471,286,49724,5,2,3:2:0:0:
379,325,50040,1,10,0:0:0:0:
340,233,50356,2,0,L|343:123,1,110.000003356934,2|10,3:2|0:0,0:0:0:0:
329,24,50988,1,2,3:2:0:0:
229,38,51303,1,10,0:0:0:0:
240,139,51619,2,0,L|236:248,1,110.000003356934,2|10,3:2|0:0,0:0:0:0:
285,334,52251,6,0,P|231:346|180:329,1,110.000003356934,2|10,3:2|0:0,0:0:0:0:
109,259,52882,2,0,L|113:150,1,110.000003356934,2|10,3:2|0:0,0:0:0:0:
82,54,53514,1,2,3:2:0:0:
178,23,53830,1,10,0:0:0:0:
209,119,54145,2,0,P|262:130|312:111,1,110.000003356934,2|8,3:2|0:0,0:0:0:0:
404,74,54777,6,0,P|411:101|410:129,1,55.0000016784668,6|6,1:3|1:3,0:0:0:0:
385,172,55093,2,0,B|432:157|432:157|488:179,2,110.000003356934,2|2|2,3:2|3:2|3:2,0:0:0:0:
312,239,56040,2,0,L|316:293,1,55.0000016784668,6|4,1:3|1:3,0:0:0:0:
334,340,56356,2,0,L|224:331,1,110.000003356934,2|2,3:2|3:2,0:0:0:0:
141,276,56988,1,2,3:2:0:0:
211,207,57303,6,0,P|214:179|211:152,1,55.0000016784668,6|4,1:3|1:3,0:0:0:0:
180,113,57619,2,0,L|70:122,2,110.000003356934,2|2|2,3:2|3:2|3:2,0:0:0:0:
252,46,58567,2,0,P|305:32|353:55,1,110.000003356934,14|2,0:0|3:2,0:0:0:0:
386,92,59040,2,0,P|379:174|373:256,1,165.000005035401,2|2,0:0|3:2,0:0:0:0:
436,333,59830,5,14,3:2:0:0:
256,192,62356,12,2,63619,0:0:0:0:
211,109,64251,5,2,0:0:0:0:
308,92,64567,1,2,0:0:0:0:
404,74,64882,6,0,P|416:127|410:181,1,110.000003356934,6|8,3:2|3:2,0:0:0:0:
354,264,65514,2,0,L|244:253,1,110.000003356934,2|8,3:2|3:2,0:0:0:0:
176,325,66145,1,2,3:2:0:0:
83,288,66461,2,0,P|75:261|75:234,1,55.0000016784668,8|0,3:2|0:0,0:0:0:0:
108,196,66777,2,0,P|111:141|91:90,1,110.000003356934,2|10,3:2|3:2,0:0:0:0:
27,14,67409,6,0,L|136:4,1,110.000003356934,2|8,3:2|3:2,0:0:0:0:
215,64,68040,1,2,3:2:0:0:
300,13,68356,1,10,3:2:0:0:
384,62,68672,2,0,P|392:89|391:116,1,55.0000016784668,2|0,3:2|0:0,0:0:0:0:
360,155,68988,2,0,L|469:164,2,110.000003356934,10|2|10,3:2|3:2|3:2,0:0:0:0:
261,150,69935,6,0,P|239:199|256:249,1,110.000003356934,2|8,3:2|3:2,0:0:0:0:
295,281,70409,1,0,0:0:0:0:
284,329,70567,2,0,B|240:360|240:360|184:348,1,110.000003356934,2|8,3:2|3:2,0:0:0:0:
129,266,71198,1,2,3:2:0:0:
63,340,71514,1,10,3:2:0:0:
6,259,71830,2,0,L|14:149,1,110.000003356934,2|8,3:2|3:2,0:0:0:0:
70,67,72461,6,0,B|115:96|115:96|168:77,1,110.000003356934,2|10,3:2|3:2,0:0:0:0:
212,54,72935,1,0,0:0:0:0:
255,30,73093,2,0,B|308:11|308:11|353:40,1,110.000003356934,2|10,3:2|3:2,0:0:0:0:
432,99,73724,2,0,P|425:126|419:153,1,55.0000016784668,10|8,3:2|2:2,0:0:0:0:
374,173,74040,2,0,P|380:199|386:226,1,55.0000016784668,8|8,2:2|2:2,0:0:0:0:
406,272,74356,2,0,L|460:277,2,55.0000016784668,10|8|10,2:2|2:2|2:2,0:0:0:0:
321,323,74988,6,0,P|269:340|220:320,1,110.000003356934,6|8,3:2|3:2,0:0:0:0:
148,251,75619,1,2,3:2:0:0:
83,325,75935,1,10,3:2:0:0:
20,248,76251,2,0,L|25:138,1,110.000003356934,2|8,3:2|3:2,0:0:0:0:
104,79,76882,1,2,3:2:0:0:
184,136,77198,1,10,3:2:0:0:
263,77,77514,6,0,B|299:72|299:72|333:85|333:85|369:81,1,110.000003356934,2|10,3:2|3:2,0:0:0:0:
446,17,78145,1,2,3:2:0:0:
481,109,78461,1,10,3:2:0:0:
405,172,78777,2,0,P|396:199|396:226,1,55.0000016784668,2|0,3:2|0:0,0:0:0:0:
396,276,79093,2,0,P|449:286|484:326,2,110.000003356934,10|2|10,3:2|3:2|3:2,0:0:0:0:
318,337,80040,6,0,L|263:330,1,55.0000016784668,2|2,3:2|0:0,0:0:0:0:
220,305,80356,1,8,3:2:0:0:
133,354,80672,2,0,B|115:302|115:302|141:253,1,110.000003356934,2|8,3:2|3:2,0:0:0:0:
172,215,81145,1,8,0:0:0:0:
157,167,81303,5,6,3:2:0:0:
256,192,81461,12,0,83830,0:0:0:0:
265,142,85093,6,0,L|374:150,1,110.000003356934,10|10,3:2|3:2,0:0:0:0:
414,120,85567,1,8,3:2:0:0:
414,120,85724,2,0,P|409:92|414:65,2,55.0000016784668,10|8|10,3:2|3:2|3:2,0:0:0:0:
467,203,86356,2,0,P|471:230|466:257,1,55.0000016784668,10|10,0:0|0:0,0:0:0:0:
431,292,86672,2,0,L|376:287,1,55.0000016784668,10|10,0:3|0:3,0:0:0:0:
340,252,86988,2,0,L|230:260,1,110.000003356934,6|6,0:3|0:3,0:0:0:0:
149,317,87619,6,0,B|125:268|125:268|144:216,1,110.000003356934,6|8,3:2|3:2,0:0:0:0:
171,174,88093,1,2,0:0:0:0:
130,83,88409,2,0,L|124:28,2,55.0000016784668,2|10|2,0:0|3:2|0:0,0:0:0:0:
229,85,89040,2,0,P|257:86|283:79,1,55.0000016784668,2|10,0:0|3:2,0:0:0:0:
327,54,89356,1,2,0:0:0:0:
327,54,89514,2,0,P|323:108|323:163,1,110.000003356934,2|10,3:2|3:2,0:0:0:0:
372,249,90145,6,0,B|320:273|320:273|270:253,1,110.000003356934,2|8,3:2|3:2,0:0:0:0:
230,224,90619,1,2,0:0:0:0:
150,282,90935,1,2,0:0:0:0:
150,282,91093,2,0,L|95:275,1,55.0000016784668,10|2,3:2|0:0,0:0:0:0:
46,284,91409,2,0,L|59:174,1,110.000003356934,2|10,3:2|3:2,0:0:0:0:
52,125,91882,2,0,P|105:132|154:108,1,110.000003356934,2|2,0:0|0:0,0:0:0:0:
180,65,92356,1,10,3:2:0:0:
262,119,92672,6,0,L|256:228,1,110.000003356934,2|10,3:2|3:2,0:0:0:0:
281,271,93145,1,2,0:0:0:0:
374,241,93461,2,0,P|378:269|375:296,2,55.0000016784668,2|10|2,0:0|3:2|0:0,0:0:0:0:
360,194,93935,2,0,B|413:210|413:210|463:190,1,110.000003356934,2|10,3:2|3:2,0:0:0:0:
498,154,94409,1,2,0:0:0:0:
441,72,94724,2,0,P|437:44|441:17,2,55.0000016784668,2|10|2,0:0|3:2|0:0,0:0:0:0:
403,104,95198,6,0,L|293:101,1,110.000003356934,2|10,3:2|3:2,0:0:0:0:
197,75,95830,2,0,P|176:124|195:175,1,110.000003356934,2|10,3:2|3:2,0:0:0:0:
267,243,96461,2,0,P|285:293|265:343,1,110.000003356934,2|10,3:2|3:2,0:0:0:0:
171,311,97093,1,2,3:2:0:0:
84,358,97409,1,10,3:2:0:0:
20,282,97724,6,0,L|24:172,1,110.000003356934,6|8,3:2|3:2,0:0:0:0:
95,101,98356,2,0,P|145:81|196:98,1,110.000003356934,2|8,3:2|3:2,0:0:0:0:
260,174,98988,2,0,P|311:190|361:171,1,110.000003356934,2|8,3:2|3:2,0:0:0:0:
434,104,99619,1,2,3:2:0:0:
488,186,99935,1,10,3:2:0:0:
415,252,100251,6,0,B|385:296|385:296|399:350,1,110.000003356934,2|8,3:2|3:2,0:0:0:0:
303,323,100882,1,2,3:2:0:0:
212,364,101198,1,10,3:2:0:0:
148,288,101514,2,0,P|142:234|172:189,1,110.000003356934,2|8,3:2|3:2,0:0:0:0:
215,100,102145,2,0,P|160:93|107:80,1,110.000003356934,2|8,3:2|3:2,0:0:0:0:
62,58,102619,1,2,0:0:0:0:
62,58,102777,6,0,P|51:167|43:277,1,220.000006713867,2|0,3:2|3:2,0:0:0:0:
103,356,103724,1,8,3:2:0:0:
179,292,104040,2,0,B|235:273|291:292|272:329|328:348|384:329,1,220.000006713867,2|2,3:2|3:2,0:0:0:0:
462,266,104988,1,8,3:2:0:0:
388,200,105303,6,0,L|389:90,1,110.000003356934,6|6,3:2|2:3,0:0:0:0:
404,42,105777,2,0,B|356:68|356:68|304:48,1,110.000003356934,10|6,2:3|3:2,0:0:0:0:
263,20,106251,1,6,2:3:0:0:
179,71,106567,2,0,P|172:98|179:125,1,55.0000016784668,10|0,0:0|3:2,0:0:0:0:
206,166,106882,2,0,P|212:192|206:219,1,55.0000016784668,0|8,3:2|0:0,0:0:0:0:
173,256,107198,2,0,L|118:251,2,55.0000016784668,8|8|8,0:0|0:0|0:0,0:0:0:0:
251,316,107830,5,10,0:0:0:0:
251,316,117935,6,0,P|244:261|252:207,1,110.000003356934,2|0,3:2|3:2,0:0:0:0:
283,113,118567,2,0,P|228:120|174:112,1,110.000003356934,2|0,3:2|3:2,0:0:0:0:
80,81,119198,2,0,P|87:136|79:190,1,110.000003356934,2|0,3:2|3:2,0:0:0:0:
48,284,119830,2,0,P|103:277|157:285,1,110.000003356934,2|0,3:2|3:2,0:0:0:0:
251,316,120461,5,2,3:2:0:0:
338,268,120777,1,0,3:2:0:0:
422,320,121093,2,0,B|442:266|442:266|427:215,1,110.000003356934,2|0,3:2|3:2,0:0:0:0:
383,126,121724,2,0,L|492:118,2,110.000003356934,2|0|0,3:2|3:2|3:2,0:0:0:0:
285,147,122672,2,0,P|275:121|274:93,1,55.0000016784668,0|0,3:2|0:0,0:0:0:0:
294,48,122988,5,10,3:2:0:0:
197,27,123303,1,8,3:2:0:0:
109,73,123619,1,10,3:2:0:0:
71,164,123935,1,8,3:2:0:0:
137,237,124251,2,0,L|191:231,1,55.0000016784668,10|8,3:2|3:2,0:0:0:0:
227,197,124567,2,0,L|281:202,1,55.0000016784668,8|8,3:2|3:2,0:0:0:0:
311,241,124882,2,0,L|305:295,2,55.0000016784668,10|8|8,3:2|3:2|3:2,0:0:0:0:
376,166,125514,5,10,3:2:0:0:
256,192,125672,12,6,128040,0:0:0:0:
433,137,133093,6,0,B|454:187|454:187|430:237,1,110.000003356934,10|8,3:2|3:2,0:0:0:0:
353,300,133724,1,8,3:2:0:0:
272,242,134040,1,8,3:2:0:0:
207,317,134356,2,0,P|180:322|153:317,1,55.0000016784668,8|8,3:2|2:2,0:0:0:0:
119,280,134672,2,0,L|123:225,1,55.0000016784668,8|8,3:2|2:2,0:0:0:0:
153,185,134988,2,0,L|148:130,2,55.0000016784668,10|8|10,3:2|2:2|3:2,0:0:0:0:
247,213,135619,5,0,0:0:0:0:
271,121,140040,5,10,3:2:0:0:
271,121,140198,1,8,3:2:0:0:
127,81,140672,6,0,B|95:128|95:128|113:177,1,110.000003356934,6|8,3:2|3:2,0:0:0:0:
167,261,141304,2,0,L|277:250,1,110.000003356934,2|8,3:2|3:2,0:0:0:0:
339,326,141935,1,2,3:2:0:0:
429,288,142251,2,0,P|437:261|437:234,1,55.0000016784668,8|0,3:2|0:0,0:0:0:0:
410,192,142567,2,0,P|396:140|428:97,1,110.000003356934,2|10,3:2|3:2,0:0:0:0:
486,16,143199,6,0,L|377:6,1,110.000003356934,2|8,3:2|3:2,0:0:0:0:
292,59,143830,1,2,3:2:0:0:
210,2,144146,1,10,3:2:0:0:
125,53,144462,2,0,P|117:80|118:107,1,55.0000016784668,2|0,3:2|0:0,0:0:0:0:
149,146,144777,2,0,L|40:155,2,110.000003356934,10|2|10,3:2|3:2|3:2,0:0:0:0:
247,149,145724,6,0,P|261:201|245:253,1,110.000003356934,2|8,3:2|3:2,0:0:0:0:
215,292,146198,1,0,0:0:0:0:
226,340,146357,2,0,L|335:331,1,110.000003356934,2|8,3:2|3:2,0:0:0:0:
421,379,146988,1,2,3:2:0:0:
484,302,147304,1,10,3:2:0:0:
405,241,147620,2,0,P|381:193|401:143,1,110.000003356934,2|8,3:2|3:2,0:0:0:0:
406,45,148251,6,0,B|361:74|361:74|308:55,1,110.000003356934,2|10,3:2|3:2,0:0:0:0:
264,32,148725,1,0,0:0:0:0:
221,8,148883,2,0,B|168:-11|168:-11|123:18,1,110.000003356934,2|10,3:2|3:2,0:0:0:0:
65,99,149514,2,0,P|72:126|78:153,1,55.0000016784668,10|8,3:2|2:2,0:0:0:0:
123,173,149830,2,0,P|117:199|111:226,1,55.0000016784668,8|8,2:2|2:2,0:0:0:0:
74,261,150146,2,0,L|20:256,2,55.0000016784668,10|8|10,2:2|2:2|2:2,0:0:0:0:
151,322,150777,6,0,P|203:339|252:319,1,110.000003356934,6|8,3:2|3:2,0:0:0:0:
321,247,151409,1,2,3:2:0:0:
398,308,151725,1,10,3:2:0:0:
468,238,152040,2,0,B|485:185|485:185|461:135,1,110.000003356934,2|8,3:2|3:2,0:0:0:0:
389,67,152672,1,2,3:2:0:0:
309,125,152988,1,10,3:2:0:0:
233,61,153303,6,0,L|123:57,1,110.000003356934,2|10,3:2|3:2,0:0:0:0:
57,131,153935,1,2,3:2:0:0:
141,182,154251,1,10,3:2:0:0:
65,246,154567,2,0,P|64:273|70:300,1,55.0000016784668,2|0,3:2|0:0,0:0:0:0:
101,338,154882,2,0,P|47:350|3:383,2,110.000003356934,10|2|10,3:2|3:2|3:2,0:0:0:0:
193,374,155830,6,0,L|248:367,1,55.0000016784668,2|0,3:2|0:0,0:0:0:0:
291,342,156146,1,8,3:2:0:0:
383,377,156462,2,0,B|401:325|401:325|375:276,1,110.000003356934,2|10,3:2|3:2,0:0:0:0:
343,238,156935,1,0,0:0:0:0:
311,200,157093,6,0,L|201:210,1,110.000003356934,2|10,3:2|3:2,0:0:0:0:
133,282,157724,1,2,3:2:0:0:
72,203,158040,1,10,3:2:0:0:
140,132,158356,5,6,3:2:0:0:
102,40,158672,2,0,L|156:29,1,55.0000016784668,8|8,2:2|2:2,0:0:0:0:
197,57,158988,1,6,3:2:0:0:
289,23,159303,2,0,L|343:12,1,55.0000016784668,8|8,2:2|2:2,0:0:0:0:
384,40,159619,1,6,3:2:0:0:
373,138,159935,2,0,L|318:127,1,55.0000016784668,8|8,2:2|2:2,0:0:0:0:
276,154,160251,2,0,B|253:206|253:206|276:255,1,110.000003356934,10|8,2:2|2:2,0:0:0:0:
320,343,160882,6,0,P|265:334|211:327,1,110.000003356934,4|8,3:2|2:2,0:0:0:0:
183,285,161356,2,0,P|128:293|74:300,1,110.000003356934,4|8,3:2|2:2,0:0:0:0:
30,324,161830,1,6,3:2:0:0:
18,225,162145,2,0,P|28:171|58:126,1,110.000003356934,6|10,3:2|2:2,0:0:0:0:
105,144,162619,2,0,P|150:113|203:102,1,110.000003356934,4|8,3:2|2:2,0:0:0:0:
223,148,163093,1,10,2:3:0:0:
309,98,163409,5,6,3:2:0:0:
393,149,163724,2,0,P|400:175|397:202,1,55.0000016784668,8|8,2:2|2:2,0:0:0:0:
365,240,164040,2,0,B|328:237|328:237|295:252|295:252|259:249,1,110.000003356934,10|8,2:2|2:2,0:0:0:0:
173,301,164672,2,0,L|118:295,1,55.0000016784668,10|8,3:2|0:0,0:0:0:0:
91,253,164988,2,0,L|96:198,1,55.0000016784668,8|8,0:0|0:3,0:0:0:0:
57,167,165303,2,0,L|46:57,1,110.000003356934,6|4,0:3|2:3,0:0:0:0:
132,8,165935,5,6,3:2:0:0:
195,84,166251,2,0,P|300:100|380:31,2,220.000006713867,2|2|2,2:3|2:3|2:3,0:0:0:0:
91,253,168145,1,2,2:3:0:0:
165,318,168461,5,6,3:2:0:0:
247,262,168777,2,0,P|273:256|300:262,1,55.0000016784668,8|8,1:3|1:3,0:0:0:0:
346,281,169093,2,0,L|342:335,2,55.0000016784668,10|8|8,1:3|1:3|1:3,0:0:0:0:
421,217,169724,2,0,L|414:107,1,110.000003356934,14|8,2:2|2:2,0:0:0:0:
428,59,170198,1,4,0:3:0:0:
392,24,170356,2,0,P|339:12|292:38,1,110.000003356934,10|8,0:3|0:3,0:0:0:0:
222,107,170988,6,0,P|169:119|122:93,1,110.000003356934,4|12,3:2|0:0,0:0:0:0:
47,158,171619,1,2,3:2:0:0:
105,238,171935,2,0,P|103:265|99:292,1,55.0000016784668,10|0,3:2|0:0,0:0:0:0:
66,329,172251,2,0,P|119:339|174:349,1,110.000003356934,2|10,3:2|3:2,0:0:0:0:
269,376,172882,2,0,P|278:321|289:267,1,110.000003356934,2|10,3:2|3:2,0:0:0:0:
366,205,173514,5,2,3:2:0:0:
432,278,173830,1,10,3:2:0:0:
498,205,174145,2,0,P|513:152|492:102,1,110.000003356934,2|10,3:2|3:2,0:0:0:0:
400,67,174777,2,0,L|345:69,1,55.0000016784668,2|0,3:2|0:0,0:0:0:0:
299,89,175093,2,0,B|282:140|282:140|313:187,2,110.000003356934,10|2|10,3:2|3:2|3:2,0:0:0:0:
228,18,176040,6,0,L|119:25,1,110.000003356934,2|8,3:2|3:2,0:0:0:0:
50,97,176672,2,0,L|58:206,1,110.000003356934,2|10,3:2|3:2,0:0:0:0:
128,276,177303,1,2,3:2:0:0:
202,211,177619,1,2,0:0:0:0:
300,226,177935,1,2,0:0:0:0:
351,311,178251,1,2,0:0:0:0:
256,192,178409,12,0,180777,0:0:0:0:
