osu file format v14

[General]
AudioFilename: audio.mp3
AudioLeadIn: 0
PreviewTime: 268652
Countdown: 0
SampleSet: Soft
StackLeniency: 0.4
Mode: 0
LetterboxInBreaks: 0
WidescreenStoryboard: 0

[Editor]
Bookmarks: 17358,28652,39946,51240,56887,62181,80887,95005,120417,131711,137358,142652,161358,175475,181122,192417,197711,210769,237416,244652,250299,260181,285593,296887
DistanceSpacing: 1.2
BeatDivisor: 4
GridSize: 4
TimelineZoom: 1.6

[Metadata]
Title:Daikirai na Hazu Datta. feat. Hanae Natsuki, Asakura Momo
TitleUnicode:大嫌いなはずだった。 feat. 花江夏樹・麻倉もも
Artist:HoneyWorks
ArtistUnicode:HoneyWorks
Creator:aundy
Version:Love Story
Source:
Tags:Dudamesh dora- doraemonelf Enomoto Kotaro Setoguchi Hina 榎本虎太朗 瀬戸口雛 乃木坂46 Nogizaka46 Gom ゴム shito Male Female Vocal Cover Japanese Pop J-Pop JPop 好きになるその瞬間を。~告白実行委員会~ Suki ni Naru Sono Shunkan wo Kokuhaku Jikkou Iinkai The Moment You Fall in Love 好きすぎてやばい。〜告白実行委員会キャラクターソング集〜 Sukisugite Yabai Character Song Collection
BeatmapID:3264855
BeatmapSetID:1598592

[Difficulty]
HPDrainRate:6
CircleSize:4
OverallDifficulty:8.5
ApproachRate:9
SliderMultiplier:1.6
SliderTickRate:1

[Events]
//Background and Video events
0,0,"bg.jpg",0,0
Video,0,"Video.mp4"
//Break Periods
//Storyboard Layer 0 (Background)
//Storyboard Layer 1 (Fail)
//Storyboard Layer 2 (Pass)
//Storyboard Layer 3 (Foreground)
//Storyboard Layer 4 (Overlay)
//Storyboard Sound Samples

[TimingPoints]
417,352.941176470588,4,2,1,40,1,0
417,-133.333333333333,4,2,1,40,0,0
5887,-133.333333333333,4,2,99,5,0,0
6064,-133.333333333333,4,2,1,50,0,0
6416,-133.333333333333,4,2,2,50,0,0
11358,-76.9230769230769,4,2,2,50,0,0
11711,-100,4,2,3,65,0,0
12064,-100,4,2,2,65,0,0
13828,-100,4,2,1,75,0,0
15240,-100,4,2,2,75,0,0
15416,-100,4,2,1,75,0,0
15769,-166.666666666667,4,2,1,75,0,0
17005,-166.666666666667,4,2,2,75,0,0
17358,-90.9090909090909,4,2,4,80,0,0
27946,-90.9090909090909,4,2,5,80,0,0
28034,-90.9090909090909,4,2,1,80,0,0
28564,-90.9090909090909,4,2,1,5,0,0
28652,-117.647058823529,4,2,6,60,0,0
29181,-117.647058823529,4,2,2,60,0,0
30064,-117.647058823529,4,2,1,60,0,0
30240,-117.647058823529,4,2,2,60,0,0
31475,-117.647058823529,4,2,1,60,0,0
31652,-117.647058823529,4,2,2,60,0,0
32887,-117.647058823529,4,2,1,60,0,0
33064,-117.647058823529,4,2,2,60,0,0
34299,-117.647058823529,4,2,1,60,0,0
34475,-117.647058823529,4,2,2,60,0,0
35711,-117.647058823529,4,2,1,60,0,0
35887,-117.647058823529,4,2,2,60,0,0
37122,-117.647058823529,4,2,1,60,0,0
37299,-117.647058823529,4,2,2,60,0,0
38534,-117.647058823529,4,2,1,60,0,0
38711,-117.647058823529,4,2,2,60,0,0
38887,-117.647058823529,4,2,1,60,0,0
39064,-117.647058823529,4,2,2,60,0,0
39240,-117.647058823529,4,2,1,60,0,0
39769,-100,4,2,1,60,0,0
39946,-105.263157894737,4,2,7,70,0,0
40475,-105.263157894737,4,2,2,70,0,0
41358,-105.263157894737,4,2,1,70,0,0
41534,-105.263157894737,4,2,2,70,0,0
42769,-105.263157894737,4,2,1,70,0,0
42946,-105.263157894737,4,2,2,70,0,0
44181,-105.263157894737,4,2,1,70,0,0
47005,-100,4,2,1,70,0,0
49475,-100,4,2,8,70,0,0
50005,-100,4,2,1,70,0,0
51240,-125,4,2,1,55,0,0
52299,-125,4,2,2,55,0,0
52652,-125,4,2,1,55,0,0
53711,-125,4,2,2,55,0,0
54064,-125,4,2,1,55,0,0
54416,-125,4,2,2,55,0,0
55475,-125,4,2,1,55,0,0
55828,-125,4,2,2,55,0,0
56887,-125,4,2,1,55,0,0
57946,-125,4,2,2,55,0,0
58299,-125,4,2,1,55,0,0
59358,-125,4,2,2,55,0,0
59711,-125,4,2,1,55,0,0
60064,-125,4,2,2,55,0,0
61122,-125,4,2,1,55,0,0
62181,-125,4,2,2,55,0,0
62534,-142.857142857143,4,2,1,60,0,0
63593,-142.857142857143,4,2,2,60,0,0
63946,-133.333333333333,4,2,2,60,0,0
65358,-125,4,2,2,60,0,0
66416,-125,4,2,7,60,0,0
66769,-125,4,2,7,70,0,0
67122,-125,4,2,1,70,0,0
68181,-125,4,2,9,70,0,0
68358,-125,4,2,1,70,0,0
68711,-125,4,2,9,70,0,0
68887,-125,4,2,5,70,0,0
69593,-90.9090909090909,4,2,10,85,0,1
70122,-90.9090909090909,4,2,1,85,0,1
71887,-90.9090909090909,4,2,11,85,0,1
72240,-90.9090909090909,4,2,1,85,0,1
74711,-90.9090909090909,4,2,11,85,0,1
75240,-90.9090909090909,4,2,1,85,0,1
80887,-90.9090909090909,4,2,7,85,0,1
81416,-90.9090909090909,4,2,1,85,0,1
83181,-90.9090909090909,4,2,11,85,0,1
83534,-90.9090909090909,4,2,1,85,0,1
86005,-90.9090909090909,4,2,11,85,0,1
86534,-90.9090909090909,4,2,1,85,0,1
89358,-90.9090909090909,4,2,12,85,0,1
89887,-90.9090909090909,4,2,1,85,0,1
91828,-90.9090909090909,4,2,5,85,0,1
92181,-166.666666666667,4,2,13,65,0,0
94475,-166.666666666667,4,2,1,65,0,0
94916,-166.666666666667,4,2,1,5,0,0
95005,-90.9090909090909,4,2,4,80,0,0
105593,-90.9090909090909,4,2,5,80,0,0
105681,-90.9090909090909,4,2,1,80,0,0
106299,-100,4,2,3,55,0,0
106652,-100,4,2,1,55,0,0
109122,-111.111111111111,4,2,6,60,0,0
109652,-111.111111111111,4,2,2,60,0,0
110534,-111.111111111111,4,2,1,60,0,0
110711,-111.111111111111,4,2,2,60,0,0
111946,-111.111111111111,4,2,1,60,0,0
112122,-111.111111111111,4,2,2,60,0,0
113358,-111.111111111111,4,2,1,60,0,0
113887,-111.111111111111,4,2,2,60,0,0
114769,-111.111111111111,4,2,1,60,0,0
115122,-111.111111111111,4,2,2,60,0,0
116181,-111.111111111111,4,2,1,60,0,0
116358,-111.111111111111,4,2,2,60,0,0
117593,-111.111111111111,4,2,1,60,0,0
117946,-111.111111111111,4,2,2,60,0,0
119005,-111.111111111111,4,2,1,60,0,0
119181,-111.111111111111,4,2,2,60,0,0
119358,-111.111111111111,4,2,1,60,0,0
119534,-111.111111111111,4,2,2,60,0,0
119711,-111.111111111111,4,2,1,60,0,0
120416,-111.111111111111,4,2,7,70,0,0
120593,-111.111111111111,4,2,2,70,0,0
121828,-111.111111111111,4,2,1,70,0,0
122005,-111.111111111111,4,2,2,70,0,0
123240,-111.111111111111,4,2,1,70,0,0
123416,-111.111111111111,4,2,2,70,0,0
124652,-111.111111111111,4,2,1,70,0,0
129593,-111.111111111111,4,2,8,70,0,0
129769,-111.111111111111,4,2,1,70,0,0
131622,-111.111111111111,4,2,1,5,0,0
131711,-125,4,2,1,55,0,0
132769,-125,4,2,2,55,0,0
133122,-125,4,2,1,55,0,0
134181,-125,4,2,2,55,0,0
134534,-125,4,2,1,55,0,0
134887,-125,4,2,2,55,0,0
135946,-125,4,2,1,55,0,0
136299,-125,4,2,2,55,0,0
137358,-125,4,2,1,55,0,0
138240,-125,4,2,2,55,0,0
138769,-125,4,2,1,55,0,0
139828,-125,4,2,2,55,0,0
140181,-125,4,2,1,55,0,0
140534,-125,4,2,2,55,0,0
141593,-125,4,2,1,55,0,0
142652,-125,4,2,2,55,0,0
143005,-142.857142857143,4,2,1,60,0,0
144064,-142.857142857143,4,2,2,60,0,0
145828,-125,4,2,2,60,0,0
146887,-125,4,2,7,60,0,0
147240,-111.111111111111,4,2,7,70,0,0
147593,-111.111111111111,4,2,1,70,0,0
148652,-111.111111111111,4,2,9,70,0,0
148828,-111.111111111111,4,2,1,70,0,0
149181,-111.111111111111,4,2,9,70,0,0
149358,-111.111111111111,4,2,5,70,0,0
150064,-90.9090909090909,4,2,10,85,0,1
150593,-90.9090909090909,4,2,1,85,0,1
152358,-90.9090909090909,4,2,11,85,0,1
152711,-90.9090909090909,4,2,1,85,0,1
155181,-90.9090909090909,4,2,11,85,0,1
155711,-90.9090909090909,4,2,1,85,0,1
161358,-90.9090909090909,4,2,7,85,0,1
161887,-90.9090909090909,4,2,1,85,0,1
163652,-90.9090909090909,4,2,11,85,0,1
164005,-90.9090909090909,4,2,1,85,0,1
166475,-90.9090909090909,4,2,11,85,0,1
167005,-90.9090909090909,4,2,1,85,0,1
172122,-90.9090909090909,4,2,14,85,0,1
172211,-90.9090909090909,4,2,1,85,0,1
172299,-90.9090909090909,4,2,11,85,0,1
172652,-100,4,2,15,85,0,0
172828,-100,4,2,1,85,0,0
173181,-100,4,2,9,85,0,0
173358,-100,4,2,1,85,0,0
173711,-100,4,2,9,85,0,0
173887,-133.333333333333,4,2,1,85,0,0
174152,-133.333333333333,4,2,1,5,0,0
174240,-100,4,2,1,60,0,0
174769,-100,4,2,1,75,0,0
175475,-454.545454545455,4,2,4,75,0,0
181034,-454.545454545455,4,2,99,5,0,0
181122,-166.666666666667,4,2,13,50,0,0
186064,-142.857142857143,4,2,13,50,0,0
186769,-142.857142857143,4,2,1,50,0,0
187828,-142.857142857143,4,2,2,50,0,0
192416,-117.647058823529,4,2,6,55,0,0
192769,-117.647058823529,4,2,1,55,0,0
193475,-117.647058823529,4,2,2,55,0,0
194181,-117.647058823529,4,2,1,55,0,0
194887,-117.647058823529,4,2,2,55,0,0
195593,-117.647058823529,4,2,1,55,0,0
196299,-117.647058823529,4,2,2,55,0,0
197005,-117.647058823529,4,2,1,55,0,0
197711,-117.647058823529,4,2,2,55,0,0
200887,-153.846153846153,4,2,1,55,0,0
201593,-153.846153846153,4,2,2,55,0,0
202299,-153.846153846153,4,2,1,65,0,0
203711,-153.846153846153,4,2,1,75,0,0
205122,-153.846153846153,4,2,3,75,0,0
205475,-153.846153846153,4,2,2,40,0,0
210416,-117.647058823529,4,2,2,40,0,0
210769,-105.263157894737,4,2,1,65,0,0
214299,-105.263157894737,4,2,2,65,0,0
214475,-105.263157894737,4,2,1,65,0,0
216064,-86.9565217391304,4,2,1,65,0,0
216416,-90.9090909090909,4,2,10,75,0,0
216769,-90.9090909090909,4,2,2,75,0,0
218887,-90.9090909090909,4,2,1,75,0,0
219593,-90.9090909090909,4,2,2,75,0,0
227711,-90.9090909090909,4,2,16,75,0,0
228240,-90.9090909090909,4,2,4,75,0,0
237240,-90.9090909090909,4,2,18,75,0,0
238122,-90.9090909090909,4,2,4,75,0,0
238740,-90.9090909090909,4,2,1,75,0,0
239005,-125,4,2,1,55,0,0
240064,-125,4,2,2,55,0,0
240416,-125,4,2,1,55,0,0
241475,-125,4,2,2,55,0,0
241828,-125,4,2,1,55,0,0
242181,-125,4,2,2,55,0,0
243240,-125,4,2,1,55,0,0
243593,-125,4,2,2,55,0,0
244652,-125,4,2,1,55,0,0
245711,-125,4,2,2,55,0,0
246064,-125,4,2,1,55,0,0
247122,-125,4,2,2,55,0,0
247475,-125,4,2,1,55,0,0
247828,-125,4,2,2,55,0,0
248887,-125,4,2,1,55,0,0
249946,-125,4,2,2,55,0,0
250299,-142.857142857143,4,2,1,60,0,0
251358,-142.857142857143,4,2,2,60,0,0
251711,-125,4,2,2,60,0,0
253122,-111.111111111111,4,2,2,60,0,0
254181,-111.111111111111,4,2,7,60,0,0
254534,-111.111111111111,4,2,7,70,0,0
254887,-111.111111111111,4,2,1,70,0,0
255946,-111.111111111111,4,2,9,70,0,0
256122,-111.111111111111,4,2,1,70,0,0
256475,-111.111111111111,4,2,9,70,0,0
256652,-111.111111111111,4,2,5,70,0,0
257358,-111.111111111111,4,2,1,55,0,0
259299,-83.3333333333333,4,2,1,55,0,0
259475,-117.647058823529,4,2,1,55,0,0
259828,-117.647058823529,4,2,1,75,0,0
260181,-83.3333333333333,4,2,10,85,0,1
260358,-83.3333333333333,4,2,1,85,0,1
262475,-83.3333333333333,4,2,11,85,0,1
263005,-83.3333333333333,4,2,1,85,0,1
268652,-83.3333333333333,4,2,7,85,0,1
269181,-83.3333333333333,4,2,1,85,0,1
270946,-83.3333333333333,4,2,11,85,0,1
271299,-83.3333333333333,4,2,1,85,0,1
273769,-83.3333333333333,4,2,11,85,0,1
274299,-83.3333333333333,4,2,1,85,0,1
279416,-83.3333333333333,4,2,14,85,0,1
279505,-83.3333333333333,4,2,1,85,0,1
279593,-83.3333333333333,4,2,11,85,0,1
279946,-76.9230769230769,4,2,9,85,0,1
280122,-76.9230769230769,4,2,1,85,0,1
280211,-76.9230769230769,4,2,1,5,0,1
280299,-76.9230769230769,4,2,1,85,0,1
280475,-100,4,2,9,85,0,0
280652,-100,4,2,1,85,0,0
281005,-100,4,2,9,85,0,0
281181,-100,4,2,1,85,0,0
281446,-100,4,2,1,5,0,0
281534,-100,4,2,1,85,0,0
282769,-100,4,2,17,85,0,0
285240,-100,4,2,2,85,0,0
285593,-90.9090909090909,4,2,4,80,0,0
294064,-90.9090909090909,4,2,18,80,0,0
294593,-90.9090909090909,4,2,4,80,0,0
296181,-90.9090909090909,4,2,5,80,0,0
296269,-90.9090909090909,4,2,1,80,0,0
296887,-277.777777777778,4,2,3,60,0,0
302534,-277.777777777778,4,2,19,60,0,0

[Colours]
Combo1 : 255,159,113
Combo2 : 74,74,255
Combo3 : 255,128,128
Combo4 : 151,255,151
Combo5 : 255,255,128
Combo6 : 160,66,255
Combo7 : 128,255,255
Combo8 : 239,52,146

[HitObjects]
256,192,417,12,0,5887,2:2:0:0:
91,58,6064,6,0,L|81:120,1,60.0000022888184,6|0,2:2|0:0,0:0:0:0:
168,92,6416,1,2,2:2:0:0:
168,92,6593,2,0,L|174:154,1,60.0000022888184,2|0,2:2|0:0,0:0:0:0:
251,104,6946,2,0,L|273:162,1,60.0000022888184,2|0,2:2|0:0,0:0:0:0:
406,125,7299,22,0,P|366:120|336:130,1,60.0000022888184,2|0,2:2|0:0,0:0:0:0:
340,209,7652,2,0,L|332:271,2,60.0000022888184,2|2|2,2:2|2:2|2:2,0:0:0:0:
418,308,8181,2,0,P|360:305|311:360,1,120.000004577637,2|0,2:2|0:0,0:0:0:0:
240,321,8711,85,2,2:2:0:0:
240,321,8887,2,0,L|247:261,2,60.0000022888184,2|2|2,2:2|2:2|2:2,0:0:0:0:
162,341,9416,2,0,L|151:278,1,60.0000022888184,2|0,2:2|0:0,0:0:0:0:
92,384,9769,2,0,L|60:327,1,60.0000022888184,2|0,2:2|0:0,0:0:0:0:
14,266,10122,22,0,P|47:250|81:251,1,60.0000022888184,2|0,2:2|0:0,0:0:0:0:
122,183,10475,1,2,2:2:0:0:
122,183,10652,2,0,P|89:167|55:168,1,60.0000022888184,2|0,2:2|0:0,0:0:0:0:
16,100,11005,2,0,P|49:84|83:85,1,60.0000022888184,2|0,2:2|0:0,0:0:0:0:
214,4,11358,22,0,P|179:36|178:109,1,103.999995239258,0|8,0:0|2:3,0:0:0:0:
185,110,11622,1,4,2:3:0:0:
185,110,11711,2,0,L|276:120,1,80,6|0,3:2|0:0,0:0:0:0:
331,65,12064,1,2,3:2:0:0:
401,117,12240,2,0,L|411:208,1,80,2|0,2:2|3:3,0:0:0:0:
477,252,12593,2,0,P|495:210|492:171,1,80,2|0,2:2|3:3,0:0:0:0:
316,277,12946,22,0,L|396:283,1,80,2|0,2:2|3:3,0:0:0:0:
191,234,13299,1,2,2:2:0:0:
266,342,13475,1,2,3:2:0:0:
269,210,13652,1,2,2:2:0:0:
190,316,13828,2,0,P|153:309|123:281,1,80,2|0,3:2|0:0,0:0:0:0:
111,115,14181,85,2,3:2:0:0:
48,243,14358,1,2,2:2:0:0:
186,152,14534,2,0,P|194:113|184:75,1,80,2|0,3:2|0:0,0:0:0:0:
106,33,14887,1,2,3:2:0:0:
117,198,15064,22,0,P|151:227|188:234,1,80,2|4,2:2|3:2,0:0:0:0:
320,157,15416,2,0,P|277:171|253:200,1,80,2|0,2:2|3:3,0:0:0:0:
409,339,15769,2,0,B|338:376|326:314|255:353|255:353|272:315|251:276,1,240,2|2,2:2|2:2,0:0:0:0:
305,77,17005,101,2,2:2:0:0:
359,266,17181,1,2,2:2:0:0:
89,214,17358,22,0,P|53:237|10:231,1,88.000002685547,14|0,1:2|0:0,0:0:0:0:
0,129,17711,1,10,1:2:0:0:
140,36,17887,2,0,L|135:123,1,88.000002685547,2|8,2:2|1:2,0:0:0:0:
10,231,18240,2,0,L|15:326,1,88.000002685547,2|8,3:2|1:2,0:0:0:0:
163,213,18593,86,0,P|199:189|245:198,1,88.000002685547,2|8,3:2|1:2,0:0:0:0:
325,240,18946,1,2,2:2:0:0:
168,313,19122,1,10,1:2:0:0:
212,95,19299,1,2,3:2:0:0:
338,248,19475,2,0,L|333:343,1,88.000002685547,10|0,1:2|3:3,0:0:0:0:
462,203,19828,2,0,L|422:125,1,88.000002685547,8|0,1:2|3:3,0:0:0:0:
324,117,20181,21,10,1:2:0:0:
511,78,20358,1,2,2:2:0:0:
416,260,20534,1,10,1:2:0:0:
386,55,20711,2,0,P|355:33|303:31,1,88.000002685547,2|8,2:2|1:2,0:0:0:0:
233,188,21064,2,0,L|237:100,1,88.000002685547,2|8,3:2|1:2,0:0:0:0:
231,320,21416,86,0,P|195:344|149:335,1,88.000002685547,2|8,3:2|1:2,0:0:0:0:
63,288,21769,1,2,2:2:0:0:
163,186,21946,2,0,P|186:221|181:264,1,88.000002685547,10|0,1:2|3:3,0:0:0:0:
3,156,22299,2,0,L|-1:68,1,88.000002685547,10|0,1:2|3:3,0:0:0:0:
59,375,22652,2,0,L|63:287,1,88.000002685547,8|0,1:2|0:0,0:0:0:0:
146,108,23005,22,0,P|170:144|161:190,1,88.000002685547,10|0,1:2|0:0,0:0:0:0:
75,50,23358,1,10,1:2:0:0:
253,22,23534,2,0,L|165:26,1,88.000002685547,2|8,2:2|1:2,0:0:0:0:
325,92,23887,2,0,P|352:51|346:2,1,88.000002685547,2|8,3:2|1:2,0:0:0:0:
236,118,24240,86,0,P|258:161|303:181,1,88.000002685547,2|8,3:2|1:2,0:0:0:0:
392,174,24593,1,2,2:2:0:0:
512,49,24769,1,10,1:2:0:0:
491,149,24946,1,2,3:2:0:0:
321,4,25122,2,0,L|325:92,1,88.000002685547,10|0,1:2|3:3,0:0:0:0:
332,265,25475,1,10,1:2:0:0:
416,78,25652,1,2,3:2:0:0:
280,186,25828,22,0,P|243:164|225:125,1,88.000002685547,10|0,1:2|0:0,0:0:0:0:
254,29,26181,1,10,1:2:0:0:
93,68,26358,2,0,P|130:46|173:51,1,88.000002685547,2|8,3:2|1:2,0:0:0:0:
280,186,26711,2,0,P|242:207|199:202,1,88.000002685547,2|8,3:2|1:2,0:0:0:0:
131,384,27064,86,0,P|176:365|224:375,1,88.000002685547,2|8,3:2|1:2,0:0:0:0:
82,239,27416,2,0,P|37:220|-11:230,1,88.000002685547,2|8,3:2|1:2,0:0:0:0:
226,145,27769,1,2,3:2:0:0:
64,25,27946,21,14,2:2:0:0:
62,46,28034,1,8,2:3:0:0:
60,68,28122,1,0,1:1:0:0:
58,90,28210,1,0,1:1:0:0:
56,112,28299,2,0,B|105:131|152:124|152:124|125:147,1,132.00000402832,0|0,1:1|0:0,0:0:0:0:
68,208,28652,6,0,L|58:281,1,68.0000012969971,6|0,3:2|0:0,0:0:0:0:
150,228,29005,1,2,3:2:0:0:
150,228,29181,2,0,L|140:301,1,68.0000012969971,2|0,2:2|3:3,0:0:0:0:
232,248,29534,2,0,L|222:321,1,68.0000012969971,2|0,2:2|3:3,0:0:0:0:
370,288,29887,21,2,2:2:0:0:
370,288,30064,2,0,P|337:279|304:285,2,68.0000012969971,2|2|2,3:2|2:2|3:2,0:0:0:0:
448,255,30593,2,0,L|457:187,1,68.0000012969971,2|2,2:2|3:2,0:0:0:0:
468,107,30946,1,2,2:2:0:0:
393,137,31122,1,0,3:3:0:0:
330,88,31299,1,0,0:0:0:0:
309,235,31475,86,0,L|318:167,2,68.0000012969971,2|2|2,3:2|2:2|3:2,0:0:0:0:
231,194,32005,1,2,2:2:0:0:
174,257,32181,2,0,P|140:261|103:244,2,68.0000012969971,2|2|2,3:2|2:2|3:2,0:0:0:0:
59,181,32711,1,2,2:2:0:0:
25,255,32887,22,0,L|14:325,1,68.0000012969971,2|2,3:2|2:2,0:0:0:0:
0,117,33240,1,2,3:2:0:0:
98,181,33416,2,0,L|109:251,1,68.0000012969971,2|2,2:2|3:2,0:0:0:0:
148,51,33769,1,2,2:2:0:0:
22,98,33946,2,0,L|11:168,1,68.0000012969971,2|0,3:2|0:0,0:0:0:0:
170,136,34299,86,0,P|203:144|241:136,1,68.0000012969971,10|2,3:2|2:2,0:0:0:0:
291,77,34652,1,2,3:2:0:0:
372,102,34828,2,0,L|378:179,1,68.0000012969971,2|2,2:2|3:2,0:0:0:0:
426,276,35181,1,2,2:2:0:0:
455,198,35358,1,2,3:2:0:0:
348,247,35534,1,2,2:2:0:0:
509,263,35711,22,0,P|506:306|486:339,1,68.0000012969971,2|2,3:2|2:2,0:0:0:0:
419,359,36064,2,0,L|344:355,1,68.0000012969971,2|2,3:2|2:2,0:0:0:0:
238,327,36416,2,0,P|267:352|277:384,1,68.0000012969971,2|2,3:2|2:2,0:0:0:0:
158,325,36769,2,0,P|165:287|187:262,1,68.0000012969971,2|0,3:2|0:0,0:0:0:0:
295,185,37122,86,0,L|220:193,1,68.0000012969971,2|2,3:2|2:2,0:0:0:0:
91,162,37475,1,2,3:2:0:0:
170,128,37652,1,2,2:2:0:0:
99,247,37828,2,0,P|61:245|31:224,1,68.0000012969971,2|2,3:2|2:2,0:0:0:0:
34,102,38181,1,2,3:2:0:0:
168,79,38358,69,2,2:2:0:0:
169,104,38446,1,2,2:2:0:0:
170,128,38534,1,2,3:2:0:0:
227,192,38711,1,2,2:2:0:0:
305,157,38887,1,10,3:2:0:0:
362,221,39064,1,2,2:2:0:0:
369,100,39240,1,10,3:3:0:0:
284,256,39416,21,0,1:1:0:0:
274,277,39504,1,0,1:1:0:0:
270,301,39592,1,0,1:1:0:0:
271,324,39680,1,0,1:1:0:0:
278,347,39769,2,0,L|328:345,1,40,8|0,2:3|0:0,0:0:0:0:
476,307,39946,22,0,P|444:309|396:313,1,75.9999979705811,6|0,3:2|0:0,0:0:0:0:
437,177,40299,2,0,P|469:179|517:183,1,75.9999979705811,0|2,1:1|2:2,0:0:0:0:
362,116,40652,1,2,2:2:0:0:
363,221,40828,1,2,3:2:0:0:
434,55,41005,2,0,P|466:57|514:61,1,75.9999979705811,2|0,1:2|0:0,0:0:0:0:
344,12,41358,21,2,3:2:0:0:
362,116,41534,1,2,2:2:0:0:
263,83,41711,1,2,1:2:0:0:
165,190,41887,2,0,L|169:115,1,75.9999979705811,2|0,2:2|0:0,0:0:0:0:
123,30,42240,1,0,3:3:0:0:
63,112,42416,2,0,L|66:187,1,75.9999979705811,0|0,1:1|0:0,0:0:0:0:
73,366,42769,85,2,3:2:0:0:
73,366,42946,1,2,2:2:0:0:
16,287,43122,1,2,1:2:0:0:
113,278,43299,1,2,2:2:0:0:
167,119,43475,2,0,P|167:161|170:194,1,75.9999979705811,2|2,2:2|3:2,0:0:0:0:
71,155,43828,2,0,P|71:113|67:79,1,75.9999979705811,2|2,1:2|2:2,0:0:0:0:
153,21,44181,21,2,3:2:0:0:
244,53,44358,1,0,3:3:0:0:
167,119,44534,1,0,1:1:0:0:
264,149,44711,1,0,1:1:0:0:
264,149,44799,1,0,1:1:0:0:
264,149,44887,2,0,P|310:132|330:102,1,75.9999979705811,2|0,3:2|3:3,0:0:0:0:
167,119,45240,2,0,P|158:167|174:199,1,75.9999979705811,2|0,1:2|0:0,0:0:0:0:
233,266,45593,86,0,L|229:351,1,75.9999979705811,2|0,3:2|0:0,0:0:0:0:
351,254,45946,1,0,1:1:0:0:
351,254,46122,2,0,L|354:329,1,75.9999979705811
429,197,46475,1,2,3:2:0:0:
342,160,46652,1,2,1:2:0:0:
266,218,46828,1,2,2:2:0:0:
167,223,47005,22,0,P|177:280|173:322,1,80,2|0,3:2|0:0,0:0:0:0:
214,146,47358,2,0,P|214:106|223:67,1,80,0|0,1:1|0:0,0:0:0:0:
300,22,47711,2,0,P|338:13|378:27,1,80,2|0,2:2|3:3,0:0:0:0:
174,0,48064,2,0,P|136:-9|96:5,1,80,2|0,1:2|0:0,0:0:0:0:
37,65,48416,2,0,B|43:133|38:196|38:196|49:179|57:168,1,160,2|0,3:2|1:1,0:0:0:0:
155,73,48946,1,2,2:2:0:0:
222,238,49122,85,2,2:2:0:0:
209,150,49299,1,2,3:2:0:0:
296,138,49475,1,6,1:2:0:0:
309,225,49652,1,2,2:2:0:0:
142,234,49828,54,0,L|234:238,1,80,0|0,1:1|3:3,0:0:0:0:
229,373,50181,2,0,L|278:295,1,80,0|0,1:1|3:3,0:0:0:0:
395,374,50534,2,0,L|352:292,1,80,8|4,2:3|2:3,0:0:0:0:
347,273,50799,21,0,1:1:0:0:
338,234,50887,1,0,1:1:0:0:
358,200,50975,1,0,1:1:0:0:
395,188,51064,2,0,L|438:195,1,40,4|0,2:3|0:0,0:0:0:0:
491,91,51240,6,0,L|503:161,1,64,6|0,3:2|0:0,0:0:0:0:
411,47,51593,2,0,L|399:117,1,64,0|0,3:3|0:0,0:0:0:0:
310,66,51946,2,0,L|322:136,1,64,0|0,3:3|0:0,0:0:0:0:
236,38,52299,2,0,L|224:108,1,64,2|2,3:2|2:2,0:0:0:0:
148,136,52652,22,0,P|114:134|83:146,1,64,2|0,3:2|0:0,0:0:0:0:
4,128,53005,2,0,P|2:162|14:193,1,64,0|0,3:3|0:0,0:0:0:0:
0,276,53358,2,0,P|34:274|63:261,1,64,0|0,3:3|0:0,0:0:0:0:
137,218,53711,2,0,P|149:247|150:279,1,64,2|2,3:2|2:2,0:0:0:0:
276,321,54064,86,0,P|244:322|214:334,1,64,2|0,3:2|0:0,0:0:0:0:
341,274,54416,2,0,P|317:252|287:240,1,64,2|0,3:2|0:0,0:0:0:0:
420,286,54769,2,0,P|418:254|406:224,1,64,2|0,3:2|0:0,0:0:0:0:
467,350,55122,2,0,P|488:326|500:296,1,64,2|0,3:2|0:0,0:0:0:0:
495,152,55475,22,0,L|485:224,1,64,2|0,3:2|0:0,0:0:0:0:
351,90,55828,2,0,L|361:162,1,64,2|0,3:2|0:0,0:0:0:0:
506,73,56181,1,2,3:2:0:0:
418,37,56358,1,2,2:2:0:0:
362,178,56534,2,0,P|333:187|292:181,1,64,2|0,3:2|0:0,0:0:0:0:
219,94,56887,102,0,L|222:158,1,64,6|0,3:2|0:0,0:0:0:0:
141,228,57240,2,0,L|125:158,1,64,0|0,3:3|0:0,0:0:0:0:
33,108,57593,2,0,L|36:179,1,64,0|0,3:3|0:0,0:0:0:0:
103,7,57946,2,0,L|116:69,1,64,2|2,3:2|2:2,0:0:0:0:
166,150,58299,22,0,P|135:145|105:156,1,64,2|0,3:2|0:0,0:0:0:0:
253,175,58652,2,0,P|257:143|247:113,1,64,0|0,3:3|0:0,0:0:0:0:
231,260,59005,2,0,P|262:264|292:254,1,64,0|0,3:3|0:0,0:0:0:0:
147,298,59358,2,0,P|137:268|142:237,1,64,2|2,3:2|2:2,0:0:0:0:
245,361,59711,86,0,P|294:355|319:354,1,64,2|0,3:2|0:0,0:0:0:0:
315,258,60064,2,0,P|346:260|378:264,1,64,2|0,3:2|0:0,0:0:0:0:
426,130,60416,2,0,P|423:161|419:193,1,64,2|0,3:2|0:0,0:0:0:0:
449,331,60769,2,0,P|453:299|456:268,1,64,2|0,3:2|0:0,0:0:0:0:
507,200,61122,53,10,3:3:0:0:
420,194,61299,1,8,0:3:0:0:
456,268,61475,1,8,3:3:0:0:
468,121,61652,21,8,0:3:0:0:
445,108,61740,1,8,0:3:0:0:
422,95,61828,1,4,3:3:0:0:
346,56,62005,1,4,3:3:0:0:
285,116,62181,1,6,2:3:0:0:
323,192,62358,1,6,2:3:0:0:
261,252,62534,6,0,L|197:247,1,55.9999982910157,6|0,2:3|0:0,0:0:0:0:
128,277,62887,2,0,P|148:308|165:321,1,55.9999982910157,4|0,2:3|0:0,0:0:0:0:
141,197,63240,2,0,P|104:198|84:207,1,55.9999982910157,4|0,2:3|0:0,0:0:0:0:
219,164,63593,2,0,P|199:132|182:120,1,55.9999982910157,6|0,2:3|0:0,0:0:0:0:
57,161,63946,22,0,L|66:231,1,60.0000022888184,6|0,2:3|0:0,0:0:0:0:
212,307,64299,2,0,L|204:247,1,60.0000022888184,6|0,2:3|0:0,0:0:0:0:
40,299,64652,2,0,P|87:301|110:288,1,60.0000022888184,6|0,2:3|0:0,0:0:0:0:
228,171,65005,2,0,P|181:169|158:182,1,60.0000022888184,4|0,2:3|0:0,0:0:0:0:
221,336,65358,86,0,L|285:323,1,64,2|0,3:2|0:0,0:0:0:0:
446,350,65711,2,0,L|433:286,1,64,0|0,3:3|0:0,0:0:0:0:
460,125,66064,2,0,L|396:138,1,64,0|0,3:3|0:0,0:0:0:0:
235,111,66416,2,0,L|248:175,1,64,2|0,3:2|0:0,0:0:0:0:
283,323,66769,21,6,1:2:0:0:
325,253,66946,1,0,0:0:0:0:
243,251,67122,1,6,2:3:0:0:
365,325,67299,1,4,2:3:0:0:
367,183,67475,1,6,1:3:0:0:
283,323,67652,1,4,1:3:0:0:
446,326,67828,1,4,1:3:0:0:
327,111,68005,1,4,1:3:0:0:
201,321,68181,85,6,1:2:0:0:
297,136,68358,1,0,3:3:0:0:
89,146,68534,1,0,3:3:0:0:
121,373,68711,21,4,1:2:0:0:
296,260,68888,1,0,3:3:0:0:
111,165,69064,1,0,3:3:0:0:
298,368,69240,85,4,1:2:0:0:
298,368,69593,22,0,L|392:374,1,88.000002685547,14|0,1:2|0:0,0:0:0:0:
346,214,69946,1,10,1:2:0:0:
200,270,70122,2,0,P|180:310|185:356,1,88.000002685547,2|8,2:2|1:2,0:0:0:0:
259,201,70475,2,0,P|255:157|226:117,1,88.000002685547,2|8,3:2|1:2,0:0:0:0:
84,172,70828,86,0,L|171:186,1,88.000002685547,2|8,3:2|1:2,0:0:0:0:
288,54,71181,1,2,2:2:0:0:
346,214,71358,1,10,1:2:0:0:
375,67,71534,1,2,3:2:0:0:
259,201,71711,2,0,P|261:244|290:285,1,88.000002685547,10|4,1:2|3:2,0:0:0:0:
460,313,72064,2,0,P|421:293|371:297,1,88.000002685547,12|2,1:2|3:2,0:0:0:0:
230,349,72416,21,10,1:2:0:0:
172,188,72593,1,2,2:2:0:0:
346,214,72769,1,10,1:2:0:0:
117,257,72946,2,0,L|24:247,1,88.000002685547,2|8,2:2|1:2,0:0:0:0:
227,119,73299,86,0,P|253:155|261:200,1,88.000002685547,2|8,3:2|1:2,0:0:0:0:
88,173,73652,2,0,P|106:132|141:103,1,88.000002685547,2|8,3:2|1:2,0:0:0:0:
283,49,74005,1,2,2:2:0:0:
346,214,74181,2,0,L|438:216,1,88.000002685547,10|0,1:2|3:3,0:0:0:0:
458,72,74534,21,10,1:2:0:0:
312,131,74711,1,4,3:2:0:0:
380,298,74887,1,12,1:2:0:0:
402,143,75064,1,4,2:2:0:0:
256,202,75240,86,0,L|167:189,1,88.000002685547,10|0,1:2|0:0,0:0:0:0:
133,106,75593,1,10,1:2:0:0:
200,273,75769,2,0,L|287:285,1,88.000002685547,2|8,2:2|1:2,0:0:0:0:
393,146,76122,2,0,P|358:173|343:214,1,88.000002685547,2|8,3:2|1:2,0:0:0:0:
410,381,76475,22,0,L|399:291,1,88.000002685547,2|8,3:2|1:2,0:0:0:0:
254,201,76828,1,2,2:2:0:0:
321,369,77005,1,10,1:2:0:0:
343,213,77181,1,2,3:2:0:0:
232,357,77358,86,0,L|138:343,1,88.000002685547,10|0,1:2|3:3,0:0:0:0:
76,176,77711,1,10,1:2:0:0:
55,332,77887,1,2,3:2:0:0:
165,188,78064,2,0,P|159:139|135:104,1,88.000002685547,10|0,1:2|0:0,0:0:0:0:
42,92,78416,21,10,1:2:0:0:
109,259,78593,2,0,P|148:278|192:275,1,88.000002685547,2|8,3:2|1:2,0:0:0:0:
310,137,78946,2,0,P|274:161|254:200,1,88.000002685547,2|8,3:2|1:2,0:0:0:0:
375,297,79299,2,0,P|371:253|347:217,1,88.000002685547,2|8,3:2|1:2,0:0:0:0:
236,353,79652,2,0,P|275:372|319:369,1,88.000002685547,2|8,3:2|1:2,0:0:0:0:
409,382,80005,1,2,2:2:0:0:
310,137,80181,85,10,2:3:0:0:
143,345,80358,1,0,1:1:0:0:
221,125,80534,1,0,1:1:0:0:
320,370,80711,1,0,0:0:0:0:
148,215,80887,6,0,L|244:211,1,88.000002685547,14|0,1:2|0:0,0:0:0:0:
98,113,81240,1,10,1:2:0:0:
62,291,81416,2,0,L|58:195,1,88.000002685547,2|8,2:2|1:2,0:0:0:0:
187,10,81769,2,0,L|183:97,1,88.000002685547,2|8,3:2|1:2,0:0:0:0:
13,110,82122,22,0,P|59:122|101:111,1,88.000002685547,2|8,3:2|1:2,0:0:0:0:
187,10,82475,1,2,2:2:0:0:
233,164,82652,1,10,1:2:0:0:
59,38,82828,1,2,3:2:0:0:
257,75,83005,2,0,L|344:69,1,88.000002685547,10|4,1:2|3:2,0:0:0:0:
261,259,83358,2,0,L|173:253,1,88.000002685547,4|2,1:2|3:2,0:0:0:0:
377,175,83711,85,10,1:2:0:0:
320,359,83887,1,2,2:2:0:0:
233,164,84064,1,10,1:2:0:0:
426,259,84240,2,0,P|381:274|330:259,1,88.000002685547,2|8,2:2|1:2,0:0:0:0:
329,105,84593,2,0,P|364:136|377:188,1,88.000002685547,2|8,3:2|1:2,0:0:0:0:
173,265,84946,22,0,L|278:257,1,88.000002685547,2|8,3:2|1:2,0:0:0:0:
293,180,85299,1,2,2:2:0:0:
407,365,85475,2,0,L|319:358,1,88.000002685547,10|0,1:2|3:3,0:0:0:0:
487,237,85828,85,10,1:2:0:0:
512,384,86005,1,4,3:2:0:0:
375,130,86181,1,12,1:2:0:0:
350,277,86358,1,4,2:2:0:0:
423,60,86534,22,0,P|378:45|327:60,1,88.000002685547,10|0,1:2|0:0,0:0:0:0:
259,100,86887,1,10,1:2:0:0:
411,210,87064,2,0,L|498:203,1,88.000002685547,2|8,2:2|1:2,0:0:0:0:
355,371,87416,2,0,L|267:364,1,88.000002685547,2|8,3:2|1:2,0:0:0:0:
132,299,87769,86,0,P|117:339|124:382,1,88.000002685547,2|8,3:2|1:2,0:0:0:0:
224,221,88122,1,2,2:2:0:0:
46,243,88299,1,10,1:2:0:0:
215,347,88475,1,2,3:2:0:0:
136,94,88652,2,0,L|129:182,1,88.000002685547,10|0,1:2|3:3,0:0:0:0:
56,382,89005,1,10,1:2:0:0:
131,298,89181,1,2,3:2:0:0:
0,169,89358,22,0,P|40:154|83:161,1,88.000002685547,14|0,1:2|0:0,0:0:0:0:
176,210,89711,1,10,1:2:0:0:
306,29,89887,2,0,P|265:14|222:21,1,88.000002685547,2|8,3:2|1:2,0:0:0:0:
400,83,90240,2,0,P|414:42|407:0,1,88.000002685547,2|8,3:2|1:2,0:0:0:0:
257,97,90593,86,0,L|253:184,1,88.000002685547,2|8,3:2|1:2,0:0:0:0:
417,265,90946,2,0,L|413:177,1,88.000002685547,2|8,3:2|1:2,0:0:0:0:
306,29,91299,1,2,2:2:0:0:
306,29,91387,1,0,1:1:0:0:
306,29,91475,2,0,L|253:19,1,44.0000013427735,10|8,2:3|2:3,0:0:0:0:
173,89,91652,1,0,1:1:0:0:
213,103,91740,1,0,1:1:0:0:
256,96,91828,2,0,L|262:192,1,88.000002685547,4|0,3:2|0:0,0:0:0:0:
256,316,92181,22,0,P|205:311|160:340,1,95.9999970703126,6|2,2:2|2:2,0:0:0:0:
62,363,92711,2,0,P|57:312|86:267,1,95.9999970703126,2|2,2:2|2:2,0:0:0:0:
194,198,93416,2,0,B|139:226|118:199|96:172|41:199|41:199|57:157|45:119,1,239.999992675781,2|2,2:2|2:2,0:0:0:0:
201,20,94475,21,2,2:2:0:0:
201,20,94564,1,2,2:2:0:0:
201,20,94652,2,0,L|194:105,1,71.9999978027344,2|0,2:2|0:0,0:0:0:0:
194,121,95005,22,0,P|234:116|281:138,1,88.000002685547,14|0,1:2|0:0,0:0:0:0:
335,199,95358,1,10,1:2:0:0:
447,98,95534,2,0,L|361:115,1,88.000002685547,2|8,2:2|1:2,0:0:0:0:
394,263,95887,2,0,P|417:226|418:174,1,88.000002685547,2|8,3:2|1:2,0:0:0:0:
250,218,96240,86,0,L|243:318,1,88.000002685547,2|8,3:2|1:2,0:0:0:0:
73,345,96593,1,2,2:2:0:0:
125,177,96769,1,10,1:2:0:0:
243,305,96946,1,2,3:2:0:0:
151,93,97122,22,0,P|101:94|57:124,1,88.000002685547,10|0,1:2|3:3,0:0:0:0:
99,261,97475,2,0,P|149:260|193:230,1,88.000002685547,8|0,1:2|3:3,0:0:0:0:
236,73,97828,85,10,1:2:0:0:
381,118,98005,1,2,2:2:0:0:
266,221,98181,1,10,1:2:0:0:
322,55,98358,2,0,P|361:36|406:37,1,88.000002685547,2|8,2:2|1:2,0:0:0:0:
207,158,98711,2,0,P|168:133|147:92,1,88.000002685547,2|8,3:2|1:2,0:0:0:0:
351,201,99064,22,0,L|361:293,1,88.000002685547,2|8,3:2|1:2,0:0:0:0:
370,372,99416,1,2,2:2:0:0:
436,181,99593,2,0,P|416:142|376:118,1,88.000002685547,10|0,1:2|3:3,0:0:0:0:
207,158,99946,85,10,1:2:0:0:
322,55,100122,1,0,3:3:0:0:
266,221,100299,1,8,1:2:0:0:
173,11,100475,1,0,0:0:0:0:
351,201,100652,22,0,P|350:249|328:284,1,88.000002685547,10|0,1:2|0:0,0:0:0:0:
182,241,101005,1,10,1:2:0:0:
292,139,101181,2,0,P|336:116|381:119,1,88.000002685547,2|8,2:2|1:2,0:0:0:0:
245,302,101534,2,0,P|214:323|164:327,1,88.000002685547,2|8,3:2|1:2,0:0:0:0:
171,153,101887,86,0,L|182:241,1,88.000002685547,2|8,3:2|1:2,0:0:0:0:
329,282,102240,1,2,2:2:0:0:
292,139,102416,1,10,1:2:0:0:
245,302,102593,1,2,3:2:0:0:
349,200,102769,22,0,P|373:159|373:118,1,88.000002685547,10|0,1:2|3:3,0:0:0:0:
233,77,103122,1,10,1:2:0:0:
266,221,103299,1,2,3:2:0:0:
317,57,103475,86,0,P|359:37|405:40,1,88.000002685547,10|0,1:2|0:0,0:0:0:0:
457,99,103828,1,10,1:2:0:0:
292,139,104005,2,0,L|203:125,1,88.000002685547,2|8,3:2|1:2,0:0:0:0:
61,58,104358,2,0,P|104:51|146:63,1,88.000002685547,2|8,3:2|1:2,0:0:0:0:
181,208,104711,22,0,L|186:301,1,88.000002685547,2|8,3:2|1:2,0:0:0:0:
36,368,105064,2,0,P|61:333|101:315,1,88.000002685547,2|8,3:2|1:2,0:0:0:0:
244,357,105416,1,2,3:2:0:0:
285,368,105504,1,0,0:0:0:0:
325,352,105592,1,14,2:2:0:0:
347,315,105680,1,4,2:3:0:0:
341,272,105768,1,4,2:3:0:0:
310,242,105858,85,0,1:1:0:0:
317,267,105946,1,0,1:1:0:0:
334,287,106034,1,8,2:3:0:0:
357,299,106122,1,4,2:3:0:0:
383,302,106210,1,4,2:3:0:0:
408,293,106299,22,0,L|420:212,1,80,4|0,3:2|3:3,0:0:0:0:
453,73,106652,2,0,P|405:97|390:128,1,80,4|0,1:3|0:0,0:0:0:0:
389,144,106916,1,4,2:3:0:0:
389,144,107005,2,0,L|294:138,1,80,0|0,3:3|3:3,0:0:0:0:
162,113,107358,2,0,P|210:137|225:168,1,80,4|0,1:3|3:3,0:0:0:0:
231,187,107622,85,0,1:1:0:0:
228,210,107710,1,4,3:3:0:0:
226,234,107798,1,4,3:3:0:0:
223,257,107887,1,4,2:3:0:0:
221,281,107975,1,4,3:3:0:0:
218,304,108064,2,0,L|211:361,3,40,0|0|0|0,1:1|3:3|3:3|1:1,0:0:0:0:
140,274,108416,21,0,3:3:0:0:
110,285,108504,1,0,3:3:0:0:
80,276,108592,1,0,1:1:0:0:
60,252,108680,1,0,1:1:0:0:
59,220,108769,2,0,L|71:175,3,40,0|8|8|8,1:1|2:3|2:3|2:3,0:0:0:0:
74,142,109122,6,0,L|2:148,1,71.9999978027344,6|0,3:2|0:0,0:0:0:0:
109,59,109475,1,2,3:2:0:0:
109,59,109652,2,0,L|181:65,1,71.9999978027344,2|0,2:2|3:3,0:0:0:0:
327,106,110005,2,0,L|255:112,1,71.9999978027344,2|0,2:2|3:3,0:0:0:0:
416,2,110358,21,2,2:2:0:0:
416,2,110534,2,0,L|406:76,2,71.9999978027344,2|2|2,3:2|2:2|3:2,0:0:0:0:
462,137,111064,2,0,P|481:172|477:214,1,71.9999978027344,2|0,2:2|3:3,0:0:0:0:
433,272,111416,1,0,0:0:0:0:
433,272,111593,2,0,L|354:266,1,71.9999978027344,2|0,3:2|0:0,0:0:0:0:
288,299,111946,86,0,P|292:334|281:368,2,71.9999978027344,2|2|2,3:2|2:2|3:2,0:0:0:0:
238,233,112475,1,2,2:2:0:0:
166,272,112652,2,0,L|87:277,2,71.9999978027344,2|2|2,3:2|2:2|3:2,0:0:0:0:
41,210,113181,1,2,2:2:0:0:
9,289,113358,22,0,L|4:366,1,71.9999978027344,2|0,3:2|0:0,0:0:0:0:
94,276,113711,1,0,3:3:0:0:
41,210,113887,1,2,2:2:0:0:
71,131,114064,2,0,B|148:135,1,71.9999978027344,2|0,3:2|0:0,0:0:0:0:
203,79,114416,2,0,B|274:75,1,71.9999978027344,2|0,3:2|0:0,0:0:0:0:
406,23,114769,86,0,P|367:58|367:145,1,143.999995605469,10|2,3:2|3:2,0:0:0:0:
434,192,115299,1,0,0:0:0:0:
501,240,115475,2,0,L|513:312,1,71.9999978027344,0|2,3:3|2:2,0:0:0:0:
443,362,115828,1,2,3:2:0:0:
368,328,116005,1,0,0:0:0:0:
300,375,116181,22,0,L|227:363,1,71.9999978027344,2|2,3:2|2:2,0:0:0:0:
173,298,116534,2,0,L|101:309,1,71.9999978027344,0|2,3:3|2:2,0:0:0:0:
18,288,116887,2,0,P|39:252|64:233,1,71.9999978027344,2|0,3:2|0:0,0:0:0:0:
126,177,117240,2,0,P|95:156|58:151,1,71.9999978027344,2|0,3:2|0:0,0:0:0:0:
0,59,117593,86,0,B|45:73|45:73|148:57,1,143.999995605469,2|2,3:2|3:2,0:0:0:0:
221,103,118122,1,2,2:2:0:0:
221,103,118299,2,0,L|299:93,2,71.9999978027344,2|2|2,3:2|2:2|3:2,0:0:0:0:
369,110,118828,69,2,2:2:0:0:
363,131,118916,1,2,2:2:0:0:
357,152,119005,1,2,3:2:0:0:
310,7,119181,1,2,2:2:0:0:
441,126,119358,1,10,3:2:0:0:
292,93,119534,1,2,2:2:0:0:
278,95,119622,1,0,1:1:0:0:
263,97,119710,1,2,1:2:0:0:
420,216,119887,21,8,2:3:0:0:
432,233,119975,1,0,1:1:0:0:
438,254,120063,1,0,1:1:0:0:
437,275,120151,1,0,1:1:0:0:
429,295,120239,1,4,2:3:0:0:
415,311,120328,1,4,2:3:0:0:
395,321,120416,22,0,L|303:327,1,71.9999978027344,6|2,3:2|2:2,0:0:0:0:
240,285,120769,2,0,L|168:280,1,71.9999978027344,2|2,1:2|2:2,0:0:0:0:
128,194,121122,1,2,2:2:0:0:
13,300,121299,1,2,3:2:0:0:
107,345,121475,1,2,1:2:0:0:
37,205,121652,1,2,2:2:0:0:
132,122,121828,22,0,L|127:193,1,71.9999978027344,2|2,3:2|2:2,0:0:0:0:
52,81,122181,1,2,1:2:0:0:
204,0,122358,2,0,L|208:71,1,71.9999978027344,2|2,2:2|2:2,0:0:0:0:
244,157,122711,1,0,3:3:0:0:
364,88,122887,2,0,P|330:78|283:88,1,71.9999978027344,2|0,1:2|0:0,0:0:0:0:
416,161,123240,85,2,3:2:0:0:
451,68,123416,1,2,2:2:0:0:
325,168,123593,1,2,1:2:0:0:
308,18,123769,1,2,2:2:0:0:
416,161,123946,2,0,L|420:232,1,71.9999978027344,2|2,2:2|3:2,0:0:0:0:
508,332,124299,2,0,L|512:260,1,71.9999978027344,2|2,1:2|2:2,0:0:0:0:
340,274,124652,21,2,3:2:0:0:
373,384,124828,1,0,3:3:0:0:
254,368,125005,2,0,L|249:296,1,71.9999978027344,0|0,1:1|0:0,0:0:0:0:
249,261,125269,1,0,1:1:0:0:
249,261,125358,2,0,P|256:222|283:196,1,71.9999978027344,2|0,3:2|3:3,0:0:0:0:
407,267,125711,2,0,P|369:280|333:270,1,71.9999978027344,2|0,1:2|0:0,0:0:0:0:
343,57,126064,86,0,B|376:85|376:85|369:186,1,143.999995605469,2|0,3:2|1:1,0:0:0:0:
221,140,126593,2,0,L|292:135,1,71.9999978027344
118,128,126946,1,2,3:2:0:0:
155,218,127122,1,2,1:2:0:0:
179,54,127299,1,2,2:2:0:0:
23,64,127475,22,0,P|31:99|36:135,1,71.9999978027344,2|0,3:2|0:0,0:0:0:0:
63,225,127828,2,0,P|55:260|50:295,1,71.9999978027344,0|0,1:1|0:0,0:0:0:0:
109,384,128181,2,0,L|186:381,1,71.9999978027344,2|0,2:2|3:3,0:0:0:0:
269,292,128534,2,0,L|192:289,1,71.9999978027344,2|0,1:2|0:0,0:0:0:0:
329,355,128887,86,0,P|352:328|357:293,1,71.9999978027344,2|0,3:2|0:0,0:0:0:0:
339,155,129240,2,0,P|315:181|310:216,1,71.9999978027344,2|0,1:2|0:0,0:0:0:0:
427,129,129593,1,6,2:2:0:0:
264,108,129769,1,2,3:2:0:0:
396,216,129946,1,2,1:2:0:0:
357,66,130122,1,2,2:2:0:0:
193,210,130299,54,0,L|270:207,1,71.9999978027344,2|10,1:2|2:3,0:0:0:0:
291,205,130564,1,0,1:1:0:0:
291,205,130652,1,0,1:1:0:0:
146,296,130828,1,10,2:3:0:0:
151,127,131005,1,4,2:3:0:0:
248,292,131181,21,2,1:2:0:0:
248,292,131269,1,0,1:1:0:0:
248,292,131358,2,0,P|304:306|352:279,1,107.999996704102,0|0,1:1|0:0,0:0:0:0:
373,258,131711,6,0,L|361:193,1,64,6|0,3:2|0:0,0:0:0:0:
425,132,132064,2,0,L|362:109,1,64,0|0,3:3|0:0,0:0:0:0:
341,23,132416,2,0,L|290:65,1,64,0|0,3:3|0:0,0:0:0:0:
204,41,132769,2,0,L|215:105,1,64,2|2,3:2|2:2,0:0:0:0:
211,189,133122,22,0,L|151:168,1,64,2|0,3:2|0:0,0:0:0:0:
19,230,133475,2,0,L|79:208,1,64,0|0,3:3|0:0,0:0:0:0:
210,272,133828,2,0,L|149:250,1,64,0|0,3:3|0:0,0:0:0:0:
17,312,134181,2,0,L|77:290,1,64,2|2,3:2|2:2,0:0:0:0:
218,352,134534,86,0,P|244:346|277:321,1,64,2|0,3:2|0:0,0:0:0:0:
291,182,134887,2,0,P|283:207|288:248,1,64,2|0,3:2|0:0,0:0:0:0:
415,303,135240,2,0,P|389:295|348:300,1,64,2|0,3:2|0:0,0:0:0:0:
490,340,135593,2,0,P|497:314|492:273,1,64,2|0,3:2|0:0,0:0:0:0:
436,160,135946,22,0,L|431:232,1,64,2|0,3:2|0:0,0:0:0:0:
491,94,136299,2,0,P|451:76|428:76,1,64,2|0,3:2|0:0,0:0:0:0:
303,127,136652,1,2,3:2:0:0:
348,53,136828,1,2,2:2:0:0:
357,192,137005,2,0,P|326:207|292:209,1,64,2|0,3:2|0:0,0:0:0:0:
214,101,137358,102,0,P|214:138|219:175,1,64,6|0,3:2|0:0,0:0:0:0:
123,136,137711,2,0,P|127:104|126:73,1,64,0|0,3:3|0:0,0:0:0:0:
146,228,138064,2,0,P|146:265|151:302,1,64,0|2,3:3|2:2,0:0:0:0:
52,267,138416,2,0,P|56:235|55:204,1,64,2|2,3:2|2:2,0:0:0:0:
118,370,138769,22,0,P|153:380|188:364,1,64,2|0,3:2|0:0,0:0:0:0:
233,292,139122,2,0,P|263:283|293:293,1,64,0|0,3:3|0:0,0:0:0:0:
341,369,139475,2,0,P|376:379|411:363,1,64,0|0,3:3|0:0,0:0:0:0:
448,295,139828,2,0,P|478:286|508:296,1,64,2|2,3:2|2:2,0:0:0:0:
404,160,140181,86,0,L|400:234,1,64,2|0,3:2|0:0,0:0:0:0:
263,139,140534,2,0,L|267:213,1,64,2|0,3:2|0:0,0:0:0:0:
348,12,140887,2,0,L|344:86,1,64,2|0,3:2|0:0,0:0:0:0:
160,52,141240,2,0,L|164:126,1,64,2|0,3:2|0:0,0:0:0:0:
177,224,141593,53,10,3:3:0:0:
155,318,141769,1,8,0:3:0:0:
273,200,141946,1,8,3:3:0:0:
251,297,142122,21,8,0:3:0:0:
252,322,142210,1,8,0:3:0:0:
253,346,142298,1,4,3:3:0:0:
341,269,142475,1,4,3:3:0:0:
273,200,142652,1,6,2:3:0:0:
177,224,142828,1,6,2:3:0:0:
356,173,143005,6,0,L|426:169,1,55.9999982910157,6|0,2:3|0:0,0:0:0:0:
445,250,143358,2,0,L|375:254,1,55.9999982910157,4|0,2:3|0:0,0:0:0:0:
373,337,143711,2,0,L|436:333,1,55.9999982910157,4|0,2:3|0:0,0:0:0:0:
307,285,144064,2,0,P|288:326|290:361,1,55.9999982910157,6|0,2:3|0:0,0:0:0:0:
197,367,144416,22,0,P|170:330|139:314,1,55.9999982910157,6|0,2:3|0:0,0:0:0:0:
62,318,144769,2,0,P|89:281|94:247,1,55.9999982910157,6|0,2:3|0:0,0:0:0:0:
66,174,145122,2,0,P|108:188|143:182,1,55.9999982910157,6|0,2:3|0:0,0:0:0:0:
204,133,145475,2,0,P|203:178|219:209,1,55.9999982910157,4|0,2:3|0:0,0:0:0:0:
227,275,145828,86,0,P|253:257|285:251,1,64,2|0,3:2|0:0,0:0:0:0:
451,305,146181,2,0,P|432:278|426:247,1,64,0|0,3:3|0:0,0:0:0:0:
480,81,146534,2,0,P|453:99|422:105,1,64,0|0,3:3|0:0,0:0:0:0:
256,52,146887,2,0,P|274:78|280:109,1,64,2|0,3:2|0:0,0:0:0:0:
229,323,147240,21,6,1:2:0:0:
187,253,147417,1,0,0:0:0:0:
269,251,147593,1,6,2:3:0:0:
147,325,147770,1,4,2:3:0:0:
145,183,147946,1,6,1:3:0:0:
229,323,148123,1,4,1:3:0:0:
66,326,148299,1,4,1:3:0:0:
185,111,148476,1,4,1:3:0:0:
311,321,148652,85,6,1:2:0:0:
405,130,148828,1,0,3:3:0:0:
200,131,149005,1,0,3:3:0:0:
217,378,149181,21,4,1:2:0:0:
393,259,149357,1,0,3:3:0:0:
215,157,149534,1,0,3:3:0:0:
412,345,149711,85,4,1:2:0:0:
412,345,150064,22,0,L|320:353,1,88.000002685547,14|0,1:2|0:0,0:0:0:0:
153,220,150416,1,10,1:2:0:0:
316,178,150593,2,0,P|354:191|385:227,1,88.000002685547,2|8,2:2|1:2,0:0:0:0:
214,353,150946,2,0,P|176:340|145:304,1,88.000002685547,2|8,3:2|1:2,0:0:0:0:
213,98,151299,86,0,L|228:191,1,88.000002685547,2|8,3:2|1:2,0:0:0:0:
76,255,151652,1,2,2:2:0:0:
145,49,151828,1,10,1:2:0:0:
153,220,152005,1,2,3:2:0:0:
68,84,152181,2,0,P|63:40|80:-3,1,88.000002685547,10|4,1:2|3:2,0:0:0:0:
231,32,152534,2,0,L|144:48,1,88.000002685547,12|2,1:2|3:2,0:0:0:0:
8,206,152887,21,10,1:2:0:0:
145,304,153064,1,2,2:2:0:0:
136,133,153240,1,10,1:2:0:0:
68,339,153416,2,0,P|99:372|151:385,1,88.000002685547,2|8,2:2|1:2,0:0:0:0:
297,230,153769,2,0,P|252:240|215:278,1,88.000002685547,2|8,3:2|1:2,0:0:0:0:
357,366,154122,86,0,P|370:322|355:271,1,88.000002685547,2|8,3:2|1:2,0:0:0:0:
305,146,154475,1,2,2:2:0:0:
454,177,154652,2,0,L|369:197,1,88.000002685547,10|0,1:2|3:3,0:0:0:0:
160,133,155005,21,10,1:2:0:0:
297,230,155181,1,4,3:2:0:0:
389,26,155358,1,12,1:2:0:0:
237,98,155534,1,4,2:2:0:0:
379,196,155711,86,0,P|383:239|366:279,1,88.000002685547,10|0,1:2|0:0,0:0:0:0:
289,314,156064,1,10,1:2:0:0:
305,146,156240,2,0,P|339:116|384:106,1,88.000002685547,2|8,2:2|1:2,0:0:0:0:
221,266,156593,2,0,L|132:254,1,88.000002685547,2|8,3:2|1:2,0:0:0:0:
32,127,156946,22,0,P|58:161|63:205,1,88.000002685547,2|8,3:2|1:2,0:0:0:0:
125,338,157299,1,2,2:2:0:0:
140,168,157475,1,10,1:2:0:0:
56,289,157652,1,2,3:2:0:0:
209,218,157828,86,0,L|303:229,1,88.000002685547,10|0,1:2|3:3,0:0:0:0:
441,241,158181,1,10,1:2:0:0:
305,146,158358,1,2,3:2:0:0:
365,277,158534,22,0,P|395:313|439:327,1,88.000002685547,10|0,1:2|0:0,0:0:0:0:
449,157,158887,1,10,1:2:0:0:
297,230,159064,2,0,L|271:321,1,88.000002685547,2|8,3:2|1:2,0:0:0:0:
380,108,159416,2,0,P|350:77|296:65,1,88.000002685547,2|8,3:2|1:2,0:0:0:0:
142,168,159769,86,0,L|229:182,1,88.000002685547,2|8,3:2|1:2,0:0:0:0:
297,320,160122,2,0,L|210:306,1,88.000002685547,2|8,3:2|1:2,0:0:0:0:
127,291,160475,1,2,2:2:0:0:
305,146,160652,21,10,2:3:0:0:
367,368,160828,1,0,1:1:0:0:
381,110,161005,1,0,1:1:0:0:
297,320,161181,1,0,0:0:0:0:
471,148,161358,102,0,P|478:105|464:64,1,88.000002685547,14|0,1:2|0:0,0:0:0:0:
386,4,161711,1,10,1:2:0:0:
305,153,161887,2,0,L|298:256,1,88.000002685547,2|8,2:2|1:2,0:0:0:0:
135,173,162240,2,0,L|128:70,1,88.000002685547,2|8,3:2|1:2,0:0:0:0:
237,7,162593,22,0,L|230:110,1,88.000002685547,2|8,3:2|1:2,0:0:0:0:
162,261,162946,1,2,2:2:0:0:
130,86,163122,1,10,1:2:0:0:
247,198,163299,1,2,3:2:0:0:
0,184,163475,2,0,L|87:178,1,88.000002685547,10|4,1:2|3:2,0:0:0:0:
132,371,163828,2,0,L|44:365,1,88.000002685547,12|2,1:2|3:2,0:0:0:0:
166,170,164181,85,10,1:2:0:0:
249,289,164358,1,2,2:2:0:0:
68,282,164534,1,10,1:2:0:0:
247,198,164711,2,0,P|252:148|219:106,1,88.000002685547,2|8,2:2|1:2,0:0:0:0:
89,141,165064,2,0,P|129:170|182:162,1,88.000002685547,2|8,3:2|1:2,0:0:0:0:
293,15,165416,22,0,L|205:20,1,88.000002685547,2|8,3:2|1:2,0:0:0:0:
149,86,165769,1,2,2:2:0:0:
340,175,165946,2,0,L|345:87,1,88.000002685547,10|0,1:2|3:3,0:0:0:0:
248,209,166299,85,10,1:2:0:0:
417,256,166475,1,4,3:2:0:0:
345,87,166652,1,12,1:2:0:0:
320,292,166828,1,4,2:2:0:0:
512,140,167005,22,0,L|424:145,1,88.000002685547,10|0,1:2|0:0,0:0:0:0:
340,175,167358,1,10,1:2:0:0:
338,0,167534,2,0,P|386:1|419:27,1,88.000002685547,2|8,2:2|1:2,0:0:0:0:
267,233,167887,2,0,P|243:190|249:149,1,88.000002685547,2|8,3:2|1:2,0:0:0:0:
352,266,168240,86,0,P|327:307|288:322,1,88.000002685547,2|8,3:2|1:2,0:0:0:0:
204,306,168593,1,2,2:2:0:0:
339,174,168769,1,10,1:2:0:0:
346,384,168946,1,2,3:2:0:0:
154,212,169122,2,0,L|242:207,1,88.000002685547,8|0,1:2|3:3,0:0:0:0:
439,140,169475,1,10,1:2:0:0:
352,266,169652,1,2,3:2:0:0:
359,81,169828,22,0,P|335:36|297:18,1,88.000002685547,10|0,1:2|0:0,0:0:0:0:
205,23,170181,1,10,1:2:0:0:
111,167,170358,2,0,L|116:255,1,88.000002685547,2|8,3:2|1:2,0:0:0:0:
280,197,170711,2,0,L|277:297,1,88.000002685547,2|8,3:2|1:2,0:0:0:0:
244,123,171064,86,0,P|285:113|328:130,1,88.000002685547,2|8,3:2|1:2,0:0:0:0:
471,358,171416,2,0,L|468:270,1,88.000002685547,2|0,3:2|1:1,0:0:0:0:
401,200,171769,53,2,1:2:0:0:
401,200,171858,1,0,1:1:0:0:
401,200,171946,2,0,L|396:243,1,44.0000013427735,2|0,1:2|0:0,0:0:0:0:
481,181,172122,1,12,2:2:0:0:
461,142,172210,1,8,2:3:0:0:
423,121,172299,2,0,L|331:125,1,88.000002685547,4|4,1:2|3:2,0:0:0:0:
236,247,172652,54,0,P|233:184|234:151,1,80,6|0,1:2|3:3,0:0:0:0:
246,71,173005,1,2,3:2:0:0:
113,319,173181,2,0,P|115:279|117:240,1,80,6|0,1:2|3:3,0:0:0:0:
29,384,173534,1,2,3:2:0:0:
217,316,173711,1,4,1:2:0:0:
70,168,173887,2,0,P|113:148|161:164,1,90.0000034332277,2|0,3:2|0:0,0:0:0:0:
181,178,174240,21,2,1:2:0:0:
246,71,174416,1,0,1:1:0:0:
296,177,174593,1,2,1:2:0:0:
134,82,174769,1,2,1:2:0:0:
345,87,174946,1,4,1:3:0:0:
238,263,175122,1,4,1:3:0:0:
179,0,175299,1,4,1:3:0:0:
388,166,175475,22,0,B|472:215|461:329|461:329|393:361|332:300|332:300|324:368|324:368|251:310|187:373,1,554.400016918946,4|0,3:2|2:2,0:0:0:0:
174,384,181122,38,0,L|116:379,1,47.9999985351563,4|2,2:2|2:2,0:0:0:0:
144,301,181475,2,0,L|86:290,1,47.9999985351563,2|0,2:2|0:0,0:0:0:0:
133,218,181828,2,0,L|78:198,1,47.9999985351563,2|2,2:2|2:2,0:0:0:0:
134,135,182181,2,0,L|89:97,1,47.9999985351563,2|0,2:2|0:0,0:0:0:0:
167,58,182534,22,0,L|173:10,2,47.9999985351563,2|2|2,2:2|2:2|2:2,0:0:0:0:
244,94,183064,1,2,2:2:0:0:
244,94,183240,2,0,L|304:90,1,47.9999985351563,2|2,2:2|2:2,0:0:0:0:
356,37,183593,2,0,L|403:40,1,47.9999985351563,2|0,2:2|0:0,0:0:0:0:
512,119,183946,86,0,P|473:106|415:133,1,95.9999970703126,2|2,2:2|2:2,0:0:0:0:
363,185,184475,2,0,L|370:244,1,47.9999985351563,2|0,2:2|0:0,0:0:0:0:
429,290,184828,2,0,L|421:341,1,47.9999985351563,2|0,2:2|0:0,0:0:0:0:
347,373,185181,1,2,2:2:0:0:
347,373,185358,2,0,B|294:369|294:369|265:339|265:339|210:333,1,143.999995605469
157,276,186064,22,0,P|180:259|210:250,1,55.9999982910157,2|0,2:2|0:0,0:0:0:0:
79,253,186416,2,0,P|90:226|111:203,1,55.9999982910157,2|0,2:2|0:0,0:0:0:0:
5,306,186769,2,0,P|-12:247|8:193,1,111.999996582031,2|0,2:2|0:0,0:0:0:0:
46,114,187299,2,0,L|30:50,2,55.9999982910157
142,129,187828,2,0,L|199:121,1,55.9999982910157,2|2,2:2|2:2,0:0:0:0:
281,74,188181,85,2,2:2:0:0:
281,74,188358,2,0,P|329:82|376:41,1,111.999996582031,2|0,2:2|0:0,0:0:0:0:
456,28,188887,2,0,L|465:84,1,55.9999982910157
424,155,189240,2,0,L|428:218,1,55.9999982910157,2|2,2:2|2:2,0:0:0:0:
462,283,189593,22,0,P|434:293|403:288,1,55.9999982910157,2|0,2:2|0:0,0:0:0:0:
347,236,189946,2,0,P|319:233|293:243,1,55.9999982910157
227,342,190299,2,0,L|219:282,1,55.9999982910157,2|0,2:2|0:0,0:0:0:0:
157,234,190652,2,0,L|165:174,1,55.9999982910157,2|0,2:2|0:0,0:0:0:0:
249,157,191005,86,0,P|301:164|354:130,1,111.999996582031,2|0,2:2|0:0,0:0:0:0:
417,62,191534,1,0,0:0:0:0:
476,144,191711,2,0,L|456:201,1,55.9999982910157
448,299,192064,1,2,2:2:0:0:
498,370,192240,1,2,2:2:0:0:
365,325,192416,2,0,L|294:336,1,68.0000012969971,6|0,3:2|0:0,0:0:0:0:
215,384,192769,5,2,3:2:0:0:
215,292,192946,1,2,2:2:0:0:
69,331,193122,2,0,L|136:337,1,68.0000012969971,2|0,3:2|0:0,0:0:0:0:
298,244,193475,101,2,3:2:0:0:
298,336,193652,1,2,2:2:0:0:
444,283,193828,2,0,L|376:289,1,68.0000012969971,2|0,3:2|0:0,0:0:0:0:
215,292,194181,5,2,3:2:0:0:
215,200,194358,1,2,2:2:0:0:
69,239,194534,2,0,L|148:246,1,68.0000012969971,2|0,3:2|0:0,0:0:0:0:
298,152,194887,101,2,3:2:0:0:
298,244,195064,1,2,2:2:0:0:
444,191,195240,2,0,L|365:198,1,68.0000012969971,2|0,3:2|0:0,0:0:0:0:
215,200,195593,5,2,3:2:0:0:
215,108,195770,1,2,2:2:0:0:
69,147,195946,2,0,L|148:154,1,68.0000012969971,2|0,3:2|0:0,0:0:0:0:
298,60,196299,101,2,3:2:0:0:
298,152,196476,1,2,2:2:0:0:
444,99,196652,2,0,L|365:106,1,68.0000012969971,2|0,3:2|0:0,0:0:0:0:
215,108,197005,5,2,3:2:0:0:
215,16,197182,1,2,2:2:0:0:
69,55,197358,2,0,L|148:62,1,68.0000012969971,2|0,3:2|0:0,0:0:0:0:
298,152,197711,5,2,3:2:0:0:
215,16,197887,1,2,2:2:0:0:
137,153,198064,2,0,B|117:193|117:193|141:290,1,136.000002593994,2|0,3:2|3:3,0:0:0:0:
220,263,198593,1,0,0:0:0:0:
261,335,198769,2,0,L|335:330,1,68.0000012969971,0|0,3:3|0:0,0:0:0:0:
471,208,199122,85,2,3:2:0:0:
416,384,199299,1,2,2:2:0:0:
382,190,199475,2,0,P|407:140|484:117,1,136.000002593994,2|0,3:2|3:3,0:0:0:0:
432,34,200005,1,0,0:0:0:0:
352,54,200181,2,0,L|278:42,1,68.0000012969971,0|0,3:3|0:0,0:0:0:0:
209,0,200534,22,0,P|195:30|198:64,1,68.0000012969971,2|0,3:2|0:0,0:0:0:0:
311,194,200887,2,0,L|296:133,1,51.999997619629,2|0,3:2|0:0,0:0:0:0:
172,201,201240,2,0,L|187:140,1,51.999997619629,8|0,3:2|0:0,0:0:0:0:
326,343,201593,2,0,L|311:282,1,51.999997619629,10|0,3:2|0:0,0:0:0:0:
144,344,201946,2,0,L|159:283,1,51.999997619629,8|0,3:2|0:0,0:0:0:0:
358,228,202299,85,2,1:2:0:0:
314,293,202475,1,0,0:0:0:0:
279,222,202652,1,4,2:3:0:0:
393,299,202828,1,4,2:3:0:0:
401,162,203005,1,4,2:3:0:0:
314,293,203181,1,4,2:3:0:0:
472,305,203358,1,4,2:3:0:0:
401,162,203534,1,4,2:3:0:0:
349,364,203711,21,4,2:3:0:0:
322,156,203887,1,4,2:3:0:0:
192,353,204064,1,4,2:3:0:0:
87,140,204240,1,4,1:3:0:0:
113,347,204416,1,4,1:3:0:0:
209,80,204593,1,4,1:3:0:0:
271,359,204769,1,4,1:3:0:0:
365,90,204946,1,4,1:3:0:0:
201,217,205122,86,0,L|149:208,1,51.999997619629,4|0,3:2|0:0,0:0:0:0:
107,144,205475,1,2,2:2:0:0:
107,144,205652,2,0,L|49:151,1,51.999997619629,2|0,2:2|0:0,0:0:0:0:
68,69,206005,2,0,L|119:62,1,51.999997619629,2|0,2:2|0:0,0:0:0:0:
220,27,206358,22,0,P|201:68|219:134,1,103.999995239258,2|2,2:2|2:2,0:0:0:0:
286,166,206887,1,2,2:2:0:0:
361,123,207064,1,2,2:2:0:0:
361,123,207240,2,0,B|398:129|398:129|465:112,1,103.999995239258
512,180,207769,85,2,2:2:0:0:
512,180,207946,2,0,L|506:245,1,51.999997619629,2|2,2:2|2:2,0:0:0:0:
456,292,208299,1,2,2:2:0:0:
456,292,208475,2,0,P|439:270|430:240,1,51.999997619629,2|0,2:2|0:0,0:0:0:0:
320,271,208828,2,0,P|345:281|368:303,1,51.999997619629,2|0,2:2|0:0,0:0:0:0:
295,351,209181,2,0,P|270:363|239:367,1,51.999997619629,2|0,2:2|0:0,0:0:0:0:
189,316,209534,21,2,2:2:0:0:
189,316,209711,2,0,L|131:308,1,51.999997619629,2|0,2:2|0:0,0:0:0:0:
62,276,210064,2,0,P|80:251|101:237,1,51.999997619629,2|0,2:2|0:0,0:0:0:0:
74,162,210416,2,0,P|89:127|80:92,1,68.0000012969971,0|0,0:0|1:1,0:0:0:0:
69,62,210681,101,0,1:1:0:0:
69,62,210769,2,0,L|149:66,1,75.9999979705811,2|0,3:2|0:0,0:0:0:0:
232,34,211122,1,2,3:2:0:0:
282,153,211299,2,0,P|293:113|318:92,1,75.9999979705811,2|0,2:2|3:3,0:0:0:0:
370,24,211652,2,0,P|399:53|404:85,1,75.9999979705811,2|0,2:2|3:3,0:0:0:0:
374,238,212005,2,0,L|365:163,1,75.9999979705811,2|0,2:2|3:3,0:0:0:0:
343,327,212358,21,2,2:2:0:0:
464,228,212534,1,10,3:2:0:0:
284,253,212711,1,2,2:2:0:0:
447,382,212887,2,0,L|437:306,1,75.9999979705811,10|0,3:2|0:0,0:0:0:0:
365,162,213240,85,10,3:2:0:0:
343,327,213416,1,2,2:2:0:0:
208,264,213593,2,0,L|282:252,1,75.9999979705811,2|0,1:2|0:0,0:0:0:0:
374,238,213946,1,2,3:2:0:0:
195,183,214122,2,0,P|160:195|133:228,1,75.9999979705811,2|4,1:2|2:2,0:0:0:0:
135,383,214475,2,0,P|142:346|127:306,1,75.9999979705811,10|8,2:3|2:3,0:0:0:0:
0,232,214828,22,0,P|27:256|69:263,1,75.9999979705811,2|0,1:2|0:0,0:0:0:0:
273,295,215181,2,0,P|245:270|203:263,1,75.9999979705811,10|8,2:3|2:3,0:0:0:0:
129,310,215534,1,10,2:3:0:0:
133,138,215711,1,2,1:2:0:0:
65,263,215887,1,0,1:1:0:0:
65,263,215975,1,0,1:1:0:0:
65,263,216064,1,0,1:1:0:0:
250,174,216240,85,0,1:1:0:0:
250,174,216328,1,4,2:3:0:0:
250,174,216416,2,0,L|253:87,1,88.000002685547,14|0,1:2|0:0,0:0:0:0:
283,259,216769,1,10,1:2:0:0:
335,58,216946,2,0,P|312:16|268:-1,1,88.000002685547,2|8,2:2|1:2,0:0:0:0:
319,144,217299,2,0,P|366:145|403:115,1,88.000002685547,2|8,3:2|1:2,0:0:0:0:
512,37,217652,22,0,L|419:34,1,88.000002685547,2|8,3:2|1:2,0:0:0:0:
335,58,218005,1,2,2:2:0:0:
453,194,218181,2,0,P|476:157|474:114,1,88.000002685547,10|2,1:2|3:2,0:0:0:0:
424,34,218534,1,10,1:2:0:0:
358,223,218711,1,0,3:3:0:0:
335,58,218887,1,10,1:2:0:0:
453,194,219064,1,0,3:3:0:0:
286,161,219240,86,0,P|262:198|264:241,1,88.000002685547,10|0,1:2|0:0,0:0:0:0:
358,223,219593,1,10,1:2:0:0:
466,310,219769,2,0,L|373:307,1,88.000002685547,2|8,2:2|1:2,0:0:0:0:
227,367,220122,2,0,L|320:364,1,88.000002685547,2|8,3:2|1:2,0:0:0:0:
159,305,220475,22,0,P|135:341|137:384,1,88.000002685547,2|8,3:2|1:2,0:0:0:0:
81,251,220828,1,2,2:2:0:0:
243,276,221005,2,0,P|266:239|264:196,1,88.000002685547,10|0,1:2|3:3,0:0:0:0:
203,38,221358,1,10,1:2:0:0:
180,222,221534,1,0,3:3:0:0:
104,68,221711,1,10,1:2:0:0:
271,120,221887,1,0,0:0:0:0:
90,174,222064,21,10,1:2:0:0:
203,38,222240,1,2,2:2:0:0:
17,19,222416,1,10,1:2:0:0:
191,142,222593,2,0,P|234:144|270:120,1,88.000002685547,2|8,2:2|1:2,0:0:0:0:
377,6,222946,2,0,P|333:3|297:27,1,88.000002685547,2|8,3:2|1:2,0:0:0:0:
355,178,223299,22,0,L|352:85,1,88.000002685547,2|8,3:2|1:2,0:0:0:0:
268,214,223652,1,2,2:2:0:0:
435,294,223828,2,0,L|438:207,1,88.000002685547,10|0,1:2|3:3,0:0:0:0:
430,384,224181,85,10,1:2:0:0:
512,248,224358,1,0,3:3:0:0:
345,340,224534,1,10,1:2:0:0:
512,343,224711,1,0,3:3:0:0:
438,207,224887,21,10,1:2:0:0:
430,384,225064,1,2,2:2:0:0:
340,257,225240,1,10,1:2:0:0:
498,120,225416,2,0,L|411:117,1,88.000002685547,2|8,3:2|1:2,0:0:0:0:
323,114,225769,85,2,3:2:0:0:
438,207,225946,1,10,1:2:0:0:
415,41,226122,1,2,2:2:0:0:
395,17,226210,1,0,1:1:0:0:
369,1,226298,1,0,3:3:0:0:
339,0,226386,1,0,3:3:0:0:
309,0,226475,2,0,L|261:24,1,44.0000013427735,2|0,1:2|0:0,0:0:0:0:
220,92,226652,2,0,L|180:72,1,44.0000013427735,0|0,3:3|1:1,0:0:0:0:
107,31,226828,1,10,2:3:0:0:
79,208,227005,21,2,1:2:0:0:
79,208,227093,1,0,1:1:0:0:
79,208,227181,2,0,L|84:251,1,44.0000013427735,0|0,1:1|1:1,0:0:0:0:
5,336,227358,1,2,1:2:0:0:
5,336,227446,1,8,2:3:0:0:
5,336,227534,2,0,L|-2:387,1,44.0000013427735,8|4,2:3|2:3,0:0:0:0:
77,365,227711,86,0,P|117:379|159:368,1,88.000002685547,14|0,1:2|0:0,0:0:0:0:
233,327,228064,1,10,1:2:0:0:
114,213,228240,2,0,L|119:301,1,88.000002685547,2|8,2:2|1:2,0:0:0:0:
286,162,228593,2,0,L|281:257,1,88.000002685547,2|8,3:2|1:2,0:0:0:0:
157,135,228946,22,0,P|110:120|68:136,1,88.000002685547,2|8,3:2|1:2,0:0:0:0:
3,189,229299,1,2,2:2:0:0:
187,235,229475,1,10,1:2:0:0:
160,38,229652,1,2,3:2:0:0:
100,231,229828,2,0,P|110:279|145:307,1,88.000002685547,10|0,1:2|3:3,0:0:0:0:
269,238,230181,2,0,P|221:223|179:239,1,88.000002685547,8|0,1:2|3:3,0:0:0:0:
355,274,230534,86,0,B|360:228|360:228|342:186,1,88.000002685547,10|0,1:2|2:1,0:0:0:0:
265,130,230887,1,10,1:2:0:0:
120,304,231064,2,0,L|115:216,1,88.000002685547,2|8,3:2|1:2,0:0:0:0:
175,39,231416,2,0,L|170:126,1,88.000002685547,2|8,3:2|1:2,0:0:0:0:
348,135,231769,22,0,P|300:120|258:136,1,88.000002685547,2|8,3:2|1:2,0:0:0:0:
204,209,232122,1,2,3:2:0:0:
303,329,232299,1,10,1:2:0:0:
326,340,232387,1,8,0:3:0:0:
352,343,232475,1,8,3:3:0:0:
377,337,232563,1,4,3:3:0:0:
400,322,232652,2,0,L|395:234,1,88.000002685547,10|0,1:2|3:3,0:0:0:0:
263,55,233005,2,0,B|244:93|244:93|249:138,1,88.000002685547,10|2,1:2|2:2,0:0:0:0:
266,230,233358,85,10,1:2:0:0:
359,75,233534,1,2,2:2:0:0:
176,140,233711,1,10,1:2:0:0:
359,264,233887,2,0,L|358:175,1,88.000002685547,2|8,2:2|1:2,0:0:0:0:
359,75,234240,21,2,3:2:0:0:
482,156,234416,1,10,1:2:0:0:
266,230,234593,2,0,P|259:180|282:141,1,88.000002685547,2|8,3:2|1:2,0:0:0:0:
359,75,234946,1,2,2:2:0:0:
358,253,235122,2,0,P|338:299|299:321,1,88.000002685547,10|0,1:2|3:3,0:0:0:0:
183,219,235475,2,0,P|232:212|271:235,1,88.000002685547,10|0,1:2|3:3,0:0:0:0:
246,384,235828,2,0,P|215:344|216:299,1,88.000002685547,10|0,1:2|3:3,0:0:0:0:
96,108,236181,86,0,L|96:196,1,88.000002685547,10|0,1:2|0:0,0:0:0:0:
96,280,236534,1,10,1:2:0:0:
186,78,236711,2,0,P|166:39|128:18,1,88.000002685547,2|8,2:2|1:2,0:0:0:0:
167,163,237064,2,0,P|210:165|247:143,1,88.000002685547,2|4,2:2|1:2,0:0:0:0:
336,16,237416,22,0,L|327:103,1,88.000002685547,2|0,1:2|0:0,0:0:0:0:
320,189,237769,1,2,1:2:0:0:
478,230,237946,2,0,L|390:238,1,88.000002685547,2|2,1:2|2:2,0:0:0:0:
365,319,238211,1,0,1:1:0:0:
365,319,238299,2,0,L|313:327,1,44.0000013427735,2|0,3:2|0:0,0:0:0:0:
255,374,238475,2,0,L|203:365,1,44.0000013427735,0|0,1:1|1:1,0:0:0:0:
129,351,238652,1,0,1:1:0:0:
120,330,238740,1,8,2:3:0:0:
117,309,238828,1,8,2:3:0:0:
119,287,238916,1,4,2:3:0:0:
127,266,239005,6,0,L|62:272,1,64,6|0,3:2|0:0,0:0:0:0:
87,185,239358,2,0,L|49:131,1,64,0|0,3:3|0:0,0:0:0:0:
137,109,239711,2,0,L|164:49,1,64,0|0,3:3|0:0,0:0:0:0:
227,114,240064,2,0,L|292:107,1,64,2|2,3:2|2:2,0:0:0:0:
267,195,240416,22,0,L|304:248,1,64,2|0,3:2|0:0,0:0:0:0:
384,117,240769,2,0,L|356:176,1,64,0|0,3:3|0:0,0:0:0:0:
510,179,241122,2,0,L|445:185,1,64,0|0,3:3|0:0,0:0:0:0:
508,322,241475,2,0,L|470:268,1,64,2|2,3:2|2:2,0:0:0:0:
407,328,241828,86,0,P|377:316|346:321,1,64,2|0,3:2|0:0,0:0:0:0:
345,212,242181,2,0,P|315:224|297:250,1,64,2|0,3:2|0:0,0:0:0:0:
219,173,242534,2,0,P|207:202|212:233,1,64,2|0,3:2|0:0,0:0:0:0:
102,234,242887,2,0,P|114:263|140:281,1,64,2|0,3:2|0:0,0:0:0:0:
21,355,243240,22,0,L|32:284,1,64,2|0,3:2|0:0,0:0:0:0:
92,170,243593,2,0,L|101:233,1,64,2|0,3:2|0:0,0:0:0:0:
117,326,243946,1,2,3:2:0:0:
30,291,244122,1,2,2:2:0:0:
190,271,244299,2,0,P|227:279|255:297,1,64,2|0,3:2|0:0,0:0:0:0:
334,384,244652,102,0,L|339:318,1,64,6|0,3:2|0:0,0:0:0:0:
451,327,245005,2,0,L|456:261,1,64,0|0,3:3|0:0,0:0:0:0:
347,233,245358,2,0,L|352:167,1,64,0|0,3:3|0:0,0:0:0:0:
462,177,245711,2,0,L|467:111,1,64,2|2,3:2|2:2,0:0:0:0:
320,98,246064,22,0,P|350:89|383:97,1,64,2|0,3:2|0:0,0:0:0:0:
236,134,246416,2,0,P|227:104|235:71,1,64,0|0,3:3|0:0,0:0:0:0:
268,212,246769,2,0,P|238:221|205:213,1,64,0|0,3:3|0:0,0:0:0:0:
346,182,247122,2,0,P|355:212|347:245,1,64,2|2,3:2|2:2,0:0:0:0:
283,298,247475,86,0,L|279:362,1,64,2|0,3:2|0:0,0:0:0:0:
133,252,247828,2,0,L|138:316,1,64,2|0,3:2|0:0,0:0:0:0:
272,148,248181,2,0,L|268:212,1,64,2|0,3:2|0:0,0:0:0:0:
112,106,248534,2,0,L|117:170,1,64,2|0,3:2|0:0,0:0:0:0:
224,0,248887,53,10,3:3:0:0:
199,91,249064,1,8,0:3:0:0:
130,25,249240,1,8,3:3:0:0:
292,70,249416,21,8,0:3:0:0:
292,96,249504,1,8,0:3:0:0:
292,122,249592,1,4,3:3:0:0:
217,182,249769,1,4,3:3:0:0:
250,267,249946,1,6,2:3:0:0:
345,266,250122,1,6,2:3:0:0:
363,176,250299,6,0,P|395:167|426:175,1,55.9999982910157,6|0,2:3|0:0,0:0:0:0:
437,248,250652,2,0,P|455:275|457:307,1,55.9999982910157,4|0,2:3|0:0,0:0:0:0:
391,340,251005,2,0,P|370:366|340:377,1,55.9999982910157,4|0,2:3|0:0,0:0:0:0:
289,324,251358,2,0,P|257:312|237:287,1,55.9999982910157,6|0,2:3|0:0,0:0:0:0:
288,162,251711,22,0,P|272:190|271:221,1,64,6|0,2:3|0:0,0:0:0:0:
194,307,252064,2,0,P|193:275|177:247,1,64,6|0,2:3|0:0,0:0:0:0:
88,107,252416,2,0,P|82:138|92:168,1,64,6|0,2:3|0:0,0:0:0:0:
92,329,252769,2,0,P|80:299|56:278,1,64,4|0,2:3|0:0,0:0:0:0:
20,129,253122,86,0,L|93:138,1,71.9999978027344,2|0,3:2|0:0,0:0:0:0:
246,43,253475,2,0,L|237:116,1,71.9999978027344,0|0,3:3|0:0,0:0:0:0:
332,269,253828,2,0,L|259:260,1,71.9999978027344,0|0,3:3|0:0,0:0:0:0:
106,355,254181,2,0,L|115:282,1,71.9999978027344,2|0,3:2|0:0,0:0:0:0:
237,114,254534,21,6,1:2:0:0:
287,182,254711,1,0,0:0:0:0:
321,105,254887,1,6,2:3:0:0:
203,191,255064,1,4,2:3:0:0:
187,46,255240,1,6,1:3:0:0:
404,95,255416,1,4,1:3:0:0:
253,259,255593,1,4,1:3:0:0:
271,37,255769,1,4,1:3:0:0:
169,268,255946,85,6,1:2:0:0:
48,104,256122,1,0,3:3:0:0:
235,68,256299,1,0,3:3:0:0:
187,309,256475,21,4,1:2:0:0:
0,227,256651,1,0,3:3:0:0:
144,102,256828,1,0,3:3:0:0:
107,351,257005,85,4,1:2:0:0:
370,214,259299,70,0,L|375:181,2,23.9999992675781,4|4|4,2:3|2:3|2:3,0:0:0:0:
365,238,259475,2,0,B|298:246|298:246|253:232,1,102.000001945496,4|4,2:3|2:3,0:0:0:0:
241,222,259828,1,0,1:1:0:0:
251,190,259916,1,0,1:1:0:0:
245,157,260004,1,0,1:1:0:0:
225,131,260092,1,0,1:1:0:0:
194,117,260181,102,0,L|98:130,1,95.9999970703126,14|2,3:2|2:2,0:0:0:0:
12,143,260534,1,10,1:2:0:0:
106,333,260711,2,0,L|119:237,1,95.9999970703126,2|8,2:2|1:2,0:0:0:0:
0,48,261064,2,0,L|13:144,1,95.9999970703126,2|8,3:2|1:2,0:0:0:0:
244,43,261416,2,0,P|198:25|151:40,1,95.9999970703126,2|8,3:2|1:2,0:0:0:0:
82,88,261769,1,2,2:2:0:0:
181,212,261946,2,0,L|194:116,1,95.9999970703126,10|0,1:2|3:3,0:0:0:0:
79,269,262299,21,10,1:2:0:0:
285,234,262475,1,4,3:2:0:0:
88,162,262652,1,12,1:2:0:0:
192,323,262828,1,4,2:2:0:0:
315,136,263005,2,0,L|219:123,1,95.9999970703126,10|0,1:2|0:0,0:0:0:0:
394,72,263358,1,10,1:2:0:0:
368,285,263534,2,0,P|386:239|371:192,1,95.9999970703126,2|8,2:2|1:2,0:0:0:0:
287,333,263887,2,0,P|317:371|366:382,1,95.9999970703126,2|8,3:2|1:2,0:0:0:0:
497,175,264240,86,0,L|484:271,1,95.9999970703126,2|8,3:2|1:2,0:0:0:0:
469,366,264593,1,2,2:2:0:0:
416,166,264769,1,10,1:2:0:0:
361,382,264946,1,2,3:2:0:0:
497,175,265122,2,0,P|489:126|453:92,1,95.9999970703126,10|0,1:2|3:3,0:0:0:0:
326,160,265475,2,0,P|371:178|418:163,1,95.9999970703126,10|2,1:2|3:2,0:0:0:0:
253,0,265828,22,0,L|240:96,1,95.9999970703126,10|0,1:2|0:0,0:0:0:0:
221,214,266181,1,10,1:2:0:0:
39,125,266358,2,0,L|135:138,1,95.9999970703126,2|8,3:2|1:2,0:0:0:0:
191,327,266711,2,0,L|95:340,1,95.9999970703126,2|8,3:2|1:2,0:0:0:0:
303,287,267064,85,0,1:1:0:0:
304,306,267152,1,0,1:1:0:0:
306,324,267240,2,0,L|309:374,5,47.9999985351563,4|4|4|8|0|0,2:3|2:3|2:3|2:3|1:1|1:1,0:0:0:0:
403,320,267770,1,0,1:1:0:0:
404,301,267858,1,0,1:1:0:0:
406,283,267946,2,0,L|409:233,1,47.9999985351563,0|0,3:3|0:0,0:0:0:0:
346,149,268122,21,0,1:1:0:0:
333,184,268210,1,0,1:1:0:0:
304,209,268298,1,8,2:3:0:0:
268,216,268386,1,8,2:3:0:0:
231,205,268474,1,4,2:3:0:0:
206,176,268563,1,4,2:3:0:0:
199,139,268652,86,0,L|206:39,1,95.9999970703126,14|0,1:2|0:0,0:0:0:0:
104,173,269005,1,10,1:2:0:0:
29,14,269181,2,0,L|35:109,1,95.9999970703126,2|8,2:2|1:2,0:0:0:0:
98,268,269534,2,0,L|104:172,1,95.9999970703126,2|8,3:2|1:2,0:0:0:0:
41,348,269887,22,0,P|91:367|151:349,1,95.9999970703126,2|8,3:2|1:2,0:0:0:0:
250,216,270240,1,2,2:2:0:0:
243,384,270416,1,10,1:2:0:0:
98,268,270593,1,2,3:2:0:0:
256,120,270769,2,0,L|249:215,1,95.9999970703126,10|4,1:2|3:2,0:0:0:0:
395,327,271122,2,0,L|388:231,1,95.9999970703126,12|2,1:2|3:2,0:0:0:0:
384,104,271475,85,10,1:2:0:0:
500,261,271652,1,2,2:2:0:0:
293,281,271828,1,10,1:2:0:0:
473,162,272005,2,0,P|492:112|474:52,1,95.9999970703126,2|8,2:2|1:2,0:0:0:0:
297,44,272358,2,0,P|278:94|296:154,1,95.9999970703126,2|8,3:2|1:2,0:0:0:0:
395,327,272711,22,0,L|388:231,1,95.9999970703126,2|8,3:2|1:2,0:0:0:0:
384,104,273064,1,2,2:2:0:0:
202,269,273240,2,0,P|252:288|312:270,1,95.9999970703126,10|0,1:2|3:3,0:0:0:0:
381,84,273593,1,10,1:2:0:0:
400,248,273769,1,4,3:2:0:0:
298,22,273946,1,12,1:2:0:0:
263,185,274122,1,4,2:2:0:0:
123,86,274299,86,0,L|219:93,1,95.9999970703126,10|0,1:2|0:0,0:0:0:0:
332,102,274652,1,10,1:2:0:0:
292,281,274828,2,0,P|245:287|202:269,1,95.9999970703126,2|8,2:2|1:2,0:0:0:0:
48,332,275181,2,0,P|66:288|103:259,1,95.9999970703126,2|8,3:2|1:2,0:0:0:0:
123,86,275534,22,0,P|151:123|157:170,1,95.9999970703126,2|8,3:2|1:2,0:0:0:0:
33,18,275887,1,2,2:2:0:0:
244,57,276064,1,10,1:2:0:0:
50,167,276240,1,2,3:2:0:0:
157,0,276416,86,0,L|150:96,1,95.9999970703126,10|0,1:2|3:3,0:0:0:0:
344,187,276769,2,0,L|337:91,1,95.9999970703126,10|2,1:2|3:2,0:0:0:0:
162,227,277122,2,0,P|205:245|252:239,1,95.9999970703126,10|0,1:2|0:0,0:0:0:0:
408,104,277475,1,10,1:2:0:0:
227,55,277652,2,0,L|220:151,1,95.9999970703126,2|8,3:2|1:2,0:0:0:0:
342,381,278005,2,0,L|335:285,1,95.9999970703126,2|8,3:2|1:2,0:0:0:0:
408,104,278358,22,0,P|365:86|318:92,1,95.9999970703126,2|8,3:2|1:2,0:0:0:0:
454,197,278711,2,0,P|491:168|509:125,1,95.9999970703126,2|0,3:2|1:1,0:0:0:0:
356,185,279064,85,2,1:2:0:0:
356,185,279152,1,0,1:1:0:0:
356,185,279240,2,0,L|351:250,1,47.9999985351563,2|0,1:2|0:0,0:0:0:0:
321,269,279416,1,12,2:2:0:0:
274,281,279504,1,8,2:3:0:0:
228,272,279592,1,4,1:2:0:0:
182,259,279680,1,4,2:3:0:0:
135,267,279769,2,0,L|141:215,1,47.9999985351563,4|0,3:2|0:0,0:0:0:0:
153,67,279946,22,0,B|190:84|226:63|226:63|235:78|235:78|271:60|314:72,1,155.999992858887,6|0,1:2|0:0,0:0:0:0:
324,70,280299,1,2,3:2:0:0:
486,214,280475,2,0,L|478:134,1,80,6|0,1:2|3:3,0:0:0:0:
216,274,280828,2,0,L|208:363,1,80,2|4,3:2|1:2,0:0:0:0:
278,212,281181,2,0,P|230:184|164:206,1,120,2|0,3:2|0:0,0:0:0:0:
145,220,281534,85,2,1:2:0:0:
371,95,281711,1,0,1:1:0:0:
344,354,281887,1,2,1:2:0:0:
224,119,282064,1,6,1:3:0:0:
204,105,282152,1,0,1:1:0:0:
180,101,282240,1,4,1:3:0:0:
157,105,282328,1,0,1:1:0:0:
137,118,282416,1,4,1:3:0:0:
123,137,282505,1,0,1:1:0:0:
117,160,282593,1,4,1:3:0:0:
121,184,282681,1,0,1:1:0:0:
133,204,282769,69,4,2:2:0:0:
403,130,285593,54,0,L|397:226,1,88.000002685547,14|0,1:2|0:0,0:0:0:0:
392,305,285946,1,10,1:2:0:0:
490,139,286122,2,0,P|482:91|452:58,1,88.000002685547,2|8,2:2|1:2,0:0:0:0:
316,112,286475,2,0,L|406:130,1,88.000002685547,2|8,3:2|1:2,0:0:0:0:
265,44,286828,22,0,P|238:78|232:121,1,88.000002685547,2|8,3:2|1:2,0:0:0:0:
248,268,287181,1,2,2:2:0:0:
147,129,287358,1,10,1:2:0:0:
282,190,287534,1,2,3:2:0:0:
113,207,287711,2,0,P|78:181|61:134,1,88.000002685547,10|0,1:2|3:3,0:0:0:0:
248,268,288064,2,0,L|243:364,1,88.000002685547,8|0,1:2|3:3,0:0:0:0:
147,129,288416,85,10,1:2:0:0:
163,276,288593,1,2,2:2:0:0:
282,190,288769,1,10,1:2:0:0:
113,207,288946,2,0,P|80:256|79:288,1,88.000002685547,2|8,2:2|1:2,0:0:0:0:
232,121,289299,2,0,L|216:27,1,88.000002685547,2|8,3:2|1:2,0:0:0:0:
363,178,289652,22,0,P|313:197|277:187,1,88.000002685547,2|8,3:2|1:2,0:0:0:0:
232,121,290005,1,2,2:2:0:0:
398,102,290181,2,0,P|435:134|448:174,1,88.000002685547,10|0,1:2|3:3,0:0:0:0:
376,322,290534,85,10,1:2:0:0:
316,113,290711,1,0,3:3:0:0:
244,261,290887,1,8,1:2:0:0:
447,169,291064,1,0,0:0:0:0:
292,329,291240,22,0,P|251:346|202:336,1,88.000002685547,10|0,1:2|0:0,0:0:0:0:
160,271,291593,1,10,1:2:0:0:
254,173,291769,2,0,L|243:265,1,88.000002685547,2|8,2:2|1:2,0:0:0:0:
76,278,292122,2,0,P|89:229|116:202,1,88.000002685547,2|8,3:2|1:2,0:0:0:0:
338,168,292475,86,0,P|289:181|252:171,1,88.000002685547,2|8,3:2|1:2,0:0:0:0:
157,36,292828,1,2,2:2:0:0:
170,179,293005,1,10,1:2:0:0:
239,28,293181,1,2,3:2:0:0:
122,111,293358,22,0,P|92:154|88:199,1,88.000002685547,10|0,1:2|3:3,0:0:0:0:
265,314,293711,1,10,1:2:0:0:
170,179,293887,1,2,3:2:0:0:
100,331,294064,86,0,P|56:346|11:335,1,88.000002685547,14|0,1:2|0:0,0:0:0:0:
4,195,294416,1,10,1:2:0:0:
100,331,294593,1,2,3:2:0:0:
102,97,294769,21,8,1:2:0:0:
218,247,294945,1,2,3:2:0:0:
52,261,295122,1,8,1:2:0:0:
217,115,295299,86,0,P|257:98|300:106,1,88.000002685547,2|8,3:2|1:2,0:0:0:0:
133,201,295652,1,2,3:2:0:0:
197,0,295828,1,8,1:2:0:0:
311,229,296005,1,2,3:2:0:0:
102,97,296181,21,14,2:2:0:0:
73,108,296269,1,8,2:3:0:0:
49,127,296357,1,0,1:1:0:0:
32,153,296445,1,0,1:1:0:0:
23,182,296533,1,0,1:1:0:0:
23,213,296622,1,4,2:3:0:0:
32,242,296710,1,4,2:3:0:0:
48,268,296798,1,4,2:3:0:0:
67,291,296887,86,0,B|120:243|193:221|244:267|220:324|326:347|366:309|395:273|395:273|406:227|431:226|449:198|449:198|482:152|466:88|406:63|357:106|357:106|283:47|207:125|237:193|274:223|320:231,1,921.600022500001,4|6,2:2|2:2,0:0:0:0:
