osu file format v14

[General]
AudioFilename: audio.mp3
AudioLeadIn: 0
PreviewTime: 69665
Countdown: 0
SampleSet: Soft
StackLeniency: 0.3
Mode: 0
LetterboxInBreaks: 0
EpilepsyWarning: 1
WidescreenStoryboard: 1

[Editor]
Bookmarks: 27034,40297,172297,180981,192507,201192,225350
DistanceSpacing: 1.1
BeatDivisor: 4
GridSize: 32
TimelineZoom: 2.6

[Metadata]
Title:Boku ga Namae o Yobu Hi feat.Mochizuki Souta (CV:Kaji Yuki)
TitleUnicode:僕が名前を呼ぶ日 feat.望月蒼太(CV:梶裕貴)
Artist:HoneyWorks
ArtistUnicode:HoneyWorks
Creator:Haruto
Version:Confession
Source:
Tags:haruto_aizawa sytarno kalibe megpoid gumi cover shito gom hayasaka akari 早坂あかり kana asumi 阿澄佳奈 the day when i called your name zutto mae kara suki deshita nando datte, suki. - kokuhaku jikko iinkai character song album
BeatmapID:1213586
BeatmapSetID:572790

[Difficulty]
HPDrainRate:5
CircleSize:3.7
OverallDifficulty:8.6
ApproachRate:9.3
SliderMultiplier:1.78
SliderTickRate:1

[Events]
//Background and Video events
0,0,"a032.jpg",0,0
//Break Periods
//Storyboard Layer 0 (Background)
//Storyboard Layer 1 (Fail)
//Storyboard Layer 2 (Pass)
//Storyboard Layer 3 (Foreground)
//Storyboard Sound Samples

[TimingPoints]
942,337.078651685393,4,2,1,40,1,0
942,-142.857142857143,4,2,1,40,0,0
3638,365.853658536585,4,2,1,40,1,0
3638,-142.857142857143,4,2,1,40,0,0
4186,335.195530726257,4,2,1,40,1,0
4186,-142.857142857143,4,2,1,40,0,0
4856,315.789473684211,4,2,1,40,1,0
4856,-142.857142857143,4,2,1,40,0,0
5329,352.941176470588,4,2,1,40,1,0
5329,-142.857142857143,4,2,1,40,0,0
5681,340.909090909091,4,2,1,40,1,0
5681,-142.857142857143,4,2,1,40,0,0
6362,348.837209302326,4,2,1,46,1,0
6362,-142.857142857143,4,2,1,46,0,0
7059,337.078651685393,4,2,1,46,1,0
7059,-142.857142857143,4,2,1,46,0,0
7564,357.142857142857,4,2,1,46,1,0
7742,340.909090909091,4,2,1,46,1,0
7742,-133.333333333333,4,2,1,46,0,0
9105,348.837209302326,4,2,1,47,1,0
9105,-142.857142857143,4,2,1,47,0,0
9628,322.58064516129,4,2,1,47,1,0
9628,-142.857142857143,4,2,1,47,0,0
10918,344.827586206897,4,2,1,47,1,0
10918,-142.857142857143,4,2,1,47,0,0
11607,319.148936170213,4,2,1,47,1,0
11766,327.868852459016,4,2,1,50,1,0
11766,-133.333333333333,4,2,1,50,0,0
13077,348.837209302326,4,2,1,50,1,0
13077,-128.205128205128,4,2,1,50,0,0
13600,329.67032967033,4,2,1,50,1,0
13600,-128.205128205128,4,2,1,50,0,0
14094,307.692307692308,4,2,1,50,1,0
14403,315.789473684211,4,2,1,52,1,0
16929,315.789473684211,4,2,1,65,1,0
27034,-125,4,2,1,47,0,0
31613,-125,4,2,0,27,0,0
31692,-125,4,2,1,47,0,0
36823,-125,4,2,1,27,0,0
36902,-125,4,2,1,47,0,0
37139,-100,4,2,1,60,0,0
39507,-100,4,2,1,50,0,0
39586,-100,4,2,1,60,0,0
39665,-100,4,2,1,50,0,0
49771,-142.857142857143,4,2,1,46,0,0
54823,-125,4,2,1,50,0,0
57034,-125,4,2,0,50,0,0
57429,-125,4,2,1,50,0,0
59718,-125,4,2,0,50,0,0
59876,-100,4,2,1,55,0,0
64297,-100,4,2,1,50,0,0
64507,-100,4,2,1,50,0,0
64929,-100,4,2,1,50,0,0
67455,-200,4,2,1,40,0,0
69981,-100,4,2,1,70,0,1
72744,-100,4,2,1,20,0,1
72823,-100,4,2,1,70,0,1
76534,-100,4,2,1,20,0,1
76613,-100,4,2,1,70,0,1
77797,-100,4,2,1,20,0,1
77876,-100,4,2,1,70,0,1
87902,-100,4,2,1,20,0,1
87981,-100,4,2,1,70,0,1
92244,-100,4,2,0,70,0,1
92718,-100,4,2,1,70,0,0
93981,-100,4,2,1,70,0,1
104086,-125,4,2,1,45,0,0
114192,-105.263157894737,4,2,1,55,0,0
116718,-99.9999999999999,4,2,1,50,0,0
126823,-125,4,2,1,40,0,0
128323,-125,4,2,1,5,0,0
128402,-125,4,2,1,45,0,0
135586,-125,4,2,1,5,0,0
135665,-103.092783505155,4,2,1,50,0,0
136929,-99.9999999999999,4,2,1,55,0,0
141981,-133.333333333333,4,2,1,50,0,0
143086,-133.333333333333,4,2,1,25,0,0
143165,-133.333333333333,4,2,1,45,0,0
144507,-200,4,2,1,40,0,0
145613,-200,4,2,1,25,0,0
145692,-200,4,2,1,40,0,0
147034,-100,4,2,1,70,0,1
153586,-100,4,2,1,5,0,1
153665,-100,4,2,1,70,0,1
164955,-100,4,2,1,5,0,1
165034,-100,4,2,1,70,0,1
166850,-100,4,2,1,5,0,1
166929,-100,4,2,1,70,0,1
169771,-95.2380952380952,4,2,1,40,0,0
171034,-133.333333333333,4,2,1,50,0,1
172297,-136.986301369863,4,2,1,40,0,0
181139,-133.333333333333,4,2,1,35,0,0
182402,-107.52688172043,4,2,1,50,0,0
187455,-153.846153846154,4,2,1,45,0,0
201192,-153.846153846154,4,2,1,25,0,0
201350,-107.52688172043,4,2,1,40,0,0
202613,-100,4,2,1,50,0,0
203718,-100,4,2,1,25,0,0
203876,-100,4,2,1,50,0,0
206244,-100,4,2,1,30,0,0
206402,-100,4,2,1,55,0,0
212086,-100,4,2,1,70,0,0
212718,-100,4,2,1,60,0,1
217771,-100,4,2,1,65,0,1
220139,-100,4,2,1,75,0,1
220297,-100,4,2,1,65,0,1
220534,-100,4,2,1,5,0,1
220613,-100,4,2,1,65,0,1
222823,-100,4,2,1,60,0,1
225350,-100,4,2,1,65,0,1
227876,-100,4,2,1,60,0,1
230639,-100,4,2,1,5,0,1
230718,-100,4,2,1,60,0,1
231823,-100,4,2,1,65,0,1
232929,-138.888888888889,4,2,1,45,0,0
237981,-121.951219512195,4,2,1,50,0,0
243034,-100,4,2,1,55,0,0
247455,-100,4,2,1,40,0,0
247613,-100,4,2,1,20,0,0
247665,-100,4,2,1,40,0,0
248086,-200,4,2,1,50,0,0
253139,-98.0392156862745,4,2,1,70,0,1
275560,-89.2857142857143,4,2,1,75,0,1
275876,-100,4,2,1,70,0,0
277139,-98.0392156862745,4,2,1,65,0,0
281876,-98.0392156862745,4,2,1,75,0,0
282192,-98.0392156862745,4,2,1,65,0,0
287244,-98.0392156862745,4,2,1,50,0,0
287560,-98.0392156862745,4,2,1,65,0,0
291665,-98.0392156862745,4,2,1,75,0,0
291744,-98.0392156862745,4,2,1,65,0,0
291981,-98.0392156862745,4,2,1,75,0,0
292060,-98.0392156862745,4,2,1,65,0,0
297350,307.692307692308,4,2,8,40,1,0
297350,-270.27027027027,4,2,8,40,0,0
297426,-270.27027027027,4,2,8,20,0,0
298196,-270.27027027027,4,2,8,10,0,0
298273,461.538461538462,4,2,8,40,1,0
298273,-125,4,2,8,40,0,0
298619,-100,4,2,8,10,0,0
298734,333.333333333333,4,2,8,40,1,0
298734,-166.666666666667,4,2,8,40,0,0
298817,-166.666666666667,4,2,8,10,0,0
299067,-166.666666666667,4,2,8,10,0,0
299234,296.296296296296,4,2,8,40,1,0
299234,-166.666666666667,4,2,8,40,0,0
299382,-133.333333333333,4,2,8,20,0,0
299678,560.747663551402,4,2,8,35,1,0
299818,-100,4,2,8,40,0,0
300098,-100,4,2,8,10,0,0
300238,375,4,2,8,40,1,0
300238,-200,4,2,8,40,0,0
300331,-200,4,2,8,40,0,0
300613,-200,4,2,8,20,0,0
300800,-200,4,2,8,40,0,0
301363,995.850622406639,4,2,8,40,1,0
302234,-100,4,2,8,5,0,0
302358,750,4,2,1,25,1,0
302358,-142.857142857143,4,2,1,25,0,0
303670,-142.857142857143,4,2,1,5,0,0

[Colours]
Combo1 : 192,103,222
Combo2 : 211,219,77
Combo3 : 222,154,86
Combo4 : 75,142,224

[HitObjects]
72,104,942,6,0,P|128:80|200:104,1,124.59999619751,2|0,0:0|0:0,0:0:0:0:
256,156,1447,1,0,0:0:0:0:
145,229,1616,2,0,P|139:198|136:168,1,62.2999980987549,2|0,0:0|0:0,0:0:0:0:
256,248,1953,2,0,P|252:278|246:309,1,62.2999980987549,0|2,0:0|0:0,0:0:0:0:
336,204,2290,6,0,B|408:196|380:244|472:232,1,124.59999619751,2|0,0:0|0:0,0:0:0:0:
448,140,2795,1,2,0:0:0:0:
336,204,2964,2,0,P|342:265|349:328,1,124.59999619751,2|2,0:0|0:0,0:0:0:0:
454,234,3470,1,0,0:0:0:0:
323,80,3638,6,0,P|329:142|336:204,1,124.59999619751,2|2,0:0|0:0,0:0:0:0:
349,328,4186,2,0,P|292:283|237:289,1,124.59999619751,2|0,0:0|0:0,0:0:0:0:
156,314,4688,1,2,0:0:0:0:
269,370,4856,1,0,0:0:0:0:
156,314,5013,6,0,P|156:258|175:229,1,62.2999980987549,2|0,0:0|0:0,0:0:0:0:
105,123,5329,2,0,P|153:151|168:182,1,62.2999980987549,2|0,0:0|0:0,0:0:0:0:
290,172,5681,2,0,P|241:200|212:198,1,62.2999980987549,2|0,0:0|0:0,0:0:0:0:
78,213,6021,1,2,0:0:0:0:
51,55,6192,1,0,0:0:0:0:
51,55,6277,1,0,0:0:0:0:
50,55,6362,6,0,B|82:50|99:22|99:22|126:41|160:35,1,124.59999619751,2|0,0:0|0:0,0:0:0:0:
249,3,6885,1,2,0:0:0:0:
402,100,7059,2,0,B|369:94|342:113|342:113|324:85|291:80,1,124.59999619751,2|0,0:0|0:0,0:0:0:0:
160,35,7564,1,2,0:0:0:0:
162,158,7742,6,0,P|172:244|180:316,1,133.500005092621,2|0,0:0|0:0,0:0:0:0:
177,290,8253,1,2,0:0:0:0:
256,240,8423,2,0,P|252:206|248:173,1,66.7500025463105,2|0,0:0|0:0,0:0:0:0:
264,332,8764,1,2,0:0:0:0:
426,319,8935,1,0,0:0:0:0:
441,311,9020,1,0,0:0:0:0:
454,305,9105,6,0,P|402:272|341:279,1,124.59999619751,2|0,0:0|0:0,0:0:0:0:
177,290,9628,2,0,P|128:328|67:322,1,124.59999619751,2|0,0:0|0:0,0:0:0:0:
41,186,10111,1,0,0:0:0:0:
104,244,10273,1,2,0:0:0:0:
134,94,10434,6,0,P|122:162|118:182,1,62.2999980987549,2|0,0:0|0:0,0:0:0:0:
12,102,10757,2,0,P|24:34|28:14,1,62.2999980987549,2|0,0:0|0:0,0:0:0:0:
199,19,11090,2,0,P|230:58|237:86,1,62.2999980987549,2|0,0:0|0:0,0:0:0:0:
142,155,11435,2,0,P|138:124|134:94,1,62.2999980987549,2|0,0:0|0:0,0:0:0:0:
250,181,11766,6,0,P|264:281|178:343,1,200.250007638932,2|0,0:0|0:0,0:0:0:0:
169,244,12421,1,2,0:0:0:0:
358,323,12585,2,0,P|351:280|345:236,2,66.7500025463105,0|2|2,0:0|0:0|0:0,0:0:0:0:
384,173,13077,6,0,B|301:147|319:200|241:178,1,138.840004660767,2|0,0:0|0:0,0:0:0:0:
143,37,13600,2,0,P|211:43|259:91,1,138.840004660767,2|0,0:0|0:0,0:0:0:0:
173,237,14094,1,2,0:0:0:0:
173,237,14403,6,0,P|159:161|175:122,1,89,2|0,0:0|0:0,0:0:0:0:
325,132,14718,2,0,P|339:208|323:247,1,89,2|0,0:0|0:0,0:0:0:0:
260,270,15034,2,0,P|252:198|245:148,1,89,2|0,0:0|0:0,0:0:0:0:
417,244,15350,2,0,P|411:288|407:333,1,89,2|0,0:0|0:0,0:0:0:0:
184,326,15666,5,2,0:0:0:0:
256,192,15745,12,0,16771,0:0:0:0:
176,290,16929,6,0,P|170:238|160:173,1,89,4|0,0:0|0:0,0:0:0:0:
140,22,17244,1,10,0:0:0:0:
287,95,17402,1,0,3:0:0:0:
287,95,17481,1,0,3:0:0:0:
287,95,17560,2,0,P|222:109|178:94,1,89,10|0,3:2|0:0,0:0:0:0:
11,118,17876,2,0,P|54:113|96:127,1,89,10|0,0:0|0:0,0:0:0:0:
264,242,18192,6,0,P|257:286|252:330,1,89,0|0,3:0|0:0,0:0:0:0:
354,184,18507,1,10,0:0:0:0:
172,212,18665,1,0,3:0:0:0:
172,212,18744,1,0,3:0:0:0:
172,212,18823,1,10,3:2:0:0:
251,330,18981,1,0,0:0:0:0:
449,229,19139,2,0,P|450:144|433:115,1,89,10|0,0:0|0:0,0:0:0:0:
252,153,19455,6,0,P|258:197|263:241,1,89,0|0,3:0|0:0,0:0:0:0:
64,206,19771,1,8,0:0:0:0:
163,102,19929,1,0,3:0:0:0:
163,102,20007,1,0,3:0:0:0:
163,102,20086,1,10,3:2:0:0:
138,297,20244,1,0,3:0:0:0:
14,126,20402,2,0,P|10:82|31:38,1,89,8|0,0:0|3:0,0:0:0:0:
245,51,20718,6,0,P|299:57|353:62,1,89,2|0,3:2|0:0,0:0:0:0:
463,45,21034,2,0,P|430:88|399:133,1,89,10|0,0:0|0:0,0:0:0:0:
359,236,21350,2,0,P|337:186|314:136,1,89,2|0,3:2|0:0,0:0:0:0:
452,211,21665,1,14,0:0:0:0:
355,332,21823,1,0,0:0:0:0:
185,221,21981,6,0,B|283:201|255:261|367:233,1,178,4|10,0:0|0:2,0:0:0:0:
218,326,22455,1,0,3:0:0:0:
218,326,22534,1,0,3:0:0:0:
218,326,22613,1,8,3:2:0:0:
84,253,22771,1,0,3:0:0:0:
193,132,22929,2,0,P|186:206|183:234,1,89,8|0,0:0|0:0,0:0:0:0:
49,79,23244,6,0,P|106:98|218:21,1,178,0|8,3:0|0:0,0:0:0:0:
367,95,23718,1,0,3:0:0:0:
367,95,23797,1,0,3:0:0:0:
367,95,23876,2,0,P|322:99|278:103,1,89,8|0,0:0|0:0,0:0:0:0:
184,220,24192,2,0,P|176:176|191:135,1,89,8|0,0:0|0:0,0:0:0:0:
333,189,24507,6,0,P|326:278|320:371,1,178,0|8,3:0|0:0,0:0:0:0:
191,309,24981,1,0,3:0:0:0:
191,309,25060,1,0,3:0:0:0:
190,308,25139,2,0,P|186:263|183:219,1,89,8|0,0:0|0:0,0:0:0:0:
43,76,25455,2,0,P|46:120|49:165,1,89,8|0,0:0|0:0,0:0:0:0:
72,373,25771,6,0,P|81:353|95:336,1,44.5,8|0,3:2|3:0,0:0:0:0:
191,309,25929,1,8,3:0:0:0:
191,309,26007,1,0,3:0:0:0:
191,309,26086,6,0,P|220:320|245:343,1,44.5,8|0,3:2|3:0,0:0:0:0:
338,376,26244,2,0,L|324:312,1,44.5,8|0,3:0|3:0,0:0:0:0:
269,200,26402,6,0,L|278:244,1,44.5,8|0,3:2|3:0,0:0:0:0:
409,289,26560,1,0,3:0:0:0:
409,289,26639,1,0,3:0:0:0:
409,289,26718,6,0,P|438:278|463:255,1,44.5,8|0,3:0|3:0,0:0:0:0:
381,161,26876,2,0,L|371:205,1,44.5,4|0,3:0|3:0,0:0:0:0:
230,327,27034,6,0,P|166:312|79:352,1,142.4,4|2,0:0|0:0,0:0:0:0:
10,299,27507,1,0,0:0:0:0:
88,171,27665,2,0,P|85:206|83:242,1,71.2,2|2,0:0|0:0,0:0:0:0:
10,299,27981,1,8,3:0:0:0:
24,94,28139,1,2,3:2:0:0:
220,222,28297,6,0,B|140:208|156:259|73:240,1,142.4,0|2,3:0|0:0,0:0:0:0:
198,309,28771,1,0,0:0:0:0:
312,383,28929,2,0,P|305:348|297:310,1,71.2,2|0,0:0|0:0,0:0:0:0:
293,301,29165,1,0,0:0:0:0:
289,291,29244,1,2,0:0:0:0:
244,127,29402,1,4,3:0:0:0:
451,178,29560,6,0,B|371:164|387:215|304:196,1,142.4,2|2,0:0|0:0,0:0:0:0:
220,222,30034,1,2,0:0:0:0:
81,145,30192,2,0,P|116:148|151:152,1,71.2,2|0,0:0|0:0,0:0:0:0:
140,281,30507,2,0,P|104:277|69:273,1,71.2,0|2,0:0|3:2,0:0:0:0:
220,222,30823,6,0,B|299:205|277:259|367:240,1,142.4,2|0,0:0|0:0,0:0:0:0:
424,177,31297,1,0,0:0:0:0:
325,86,31455,2,0,P|333:139|336:167,1,71.2,2|4,0:0|0:0,0:0:0:0:
503,264,31771,2,0,P|507:228|512:193,1,71.2,2|0,0:0|0:0,0:0:0:0:
422,309,32086,6,0,P|361:287|282:321,2,142.4,2|0|0,0:0|0:0|0:0,0:0:0:0:
503,264,32876,1,0,0:0:0:0:
409,146,33034,2,0,P|415:181|420:216,1,71.2,2|4,0:0|3:0,0:0:0:0:
359,373,33350,6,0,P|349:314|336:232,1,142.4,2|0,0:0|0:0,0:0:0:0:
284,155,33823,1,0,0:0:0:0:
181,222,33981,2,0,P|224:240|268:240,1,71.2,2|0,0:0|0:0,0:0:0:0:
376,147,34297,1,0,0:0:0:0:
230,76,34455,1,0,3:0:0:0:
132,301,34613,5,2,0:0:0:0:
132,301,34771,2,0,P|124:230|117:159,1,142.4
12,148,35244,2,0,P|15:183|20:219,1,71.2,2|0,0:0|0:0,0:0:0:0:
194,100,35560,2,0,P|166:78|132:67,1,71.2,0|0,0:0|3:0,0:0:0:0:
262,252,35876,6,0,B|338:238|319:292|413:272,1,142.4,2|0,0:0|0:0,0:0:0:0:
466,209,36350,1,0,0:0:0:0:
365,117,36507,2,0,P|372:174|376:203,1,71.2,2|0,0:0|0:0,0:0:0:0:
461,76,36823,1,4,0:0:0:0:
284,25,36981,1,0,0:0:0:0:
373,187,37139,6,0,P|367:141|362:95,1,89,4|0,0:0|0:0,0:0:0:0:
172,42,37455,1,8,0:0:0:0:
257,195,37613,1,2,0:0:0:0:
257,195,37692,1,0,3:0:0:0:
257,195,37771,1,0,3:0:0:0:
284,25,37929,1,2,0:0:0:0:
156,149,38086,1,12,0:0:0:0:
362,99,38244,1,2,0:0:0:0:
73,80,38402,5,4,3:0:0:0:
267,283,38560,1,2,0:0:0:0:
267,283,38639,1,2,0:0:0:0:
267,283,38718,2,0,P|261:232|256:189,1,89,8|2,0:0|0:0,0:0:0:0:
172,42,39034,1,0,3:0:0:0:
149,286,39192,5,12,0:0:0:0:
362,99,39350,1,2,0:0:0:0:
156,149,39507,1,12,0:0:0:0:
381,275,39665,6,0,P|372:187|362:99,1,178,4|8,0:0|0:0,0:0:0:0:
172,42,40139,1,0,0:0:0:0:
256,194,40297,2,0,P|251:149|246:105,1,89,0|0,3:0|0:0,0:0:0:0:
73,80,40613,1,8,0:0:0:0:
256,194,40771,1,0,0:0:0:0:
105,244,40929,6,0,B|196:231|175:301|268:294,1,178,2|8,0:0|0:0,0:0:0:0:
344,184,41402,1,0,0:0:0:0:
344,184,41481,1,0,0:0:0:0:
344,184,41560,2,0,P|299:188|255:193,1,89,4|0,3:0|3:0,0:0:0:0:
377,305,41876,1,8,0:0:0:0:
439,224,42034,2,0,L|428:161,1,44.5
360,6,42192,6,0,P|353:88|342:200,1,178,2|8,0:0|0:0,0:0:0:0:
288,342,42665,1,2,0:0:0:0:
181,260,42823,2,0,P|240:247|286:255,1,89,2|0,0:0|3:0,0:0:0:0:
178,366,43139,1,8,0:0:0:0:
80,275,43297,1,0,0:0:0:0:
164,82,43455,6,0,P|171:164|182:276,1,178,2|8,0:0|0:0,0:0:0:0:
80,275,43929,1,0,0:0:0:0:
68,282,44007,1,0,3:0:0:0:
57,288,44086,2,0,P|52:238|46:171,1,89,4|0,3:0|3:0,0:0:0:0:
0,39,44402,1,8,0:0:0:0:
164,82,44560,1,0,0:0:0:0:
164,82,44639,1,0,0:0:0:0:
164,82,44718,6,0,P|228:77|267:94,1,89,2|0,0:0|0:0,0:0:0:0:
309,258,45034,2,0,P|272:205|267:162,1,89,8|0,0:0|0:0,0:0:0:0:
390,44,45350,2,0,P|362:101|328:127,1,89,0|0,3:0|0:0,0:0:0:0:
164,180,45665,1,8,0:0:0:0:
250,84,45823,1,0,0:0:0:0:
320,271,45981,6,0,P|312:333|306:376,1,89,2|0,0:0|0:0,0:0:0:0:
268,181,46297,1,8,0:0:0:0:
409,315,46455,1,2,0:0:0:0:
486,182,46613,6,0,P|425:195|382:204,1,89,0|0,3:0|3:0,0:0:0:0:
211,271,46929,1,10,0:0:0:0:
231,66,47086,1,0,0:0:0:0:
1,140,47244,6,0,B|102:118|72:192|170:169,1,178,2|8,0:0|0:0,0:0:0:0:
268,181,47718,1,0,0:0:0:0:
143,342,47876,2,0,P|122:306|123:242,1,89,2|0,0:0|3:0,0:0:0:0:
170,169,48192,1,8,0:0:0:0:
211,271,48350,1,2,0:0:0:0:
445,166,48507,6,0,P|368:172|252:182,1,178,4|8,3:0|0:0,0:0:0:0:
118,259,48981,1,0,0:0:0:0:
118,259,49060,1,8,0:0:0:0:
118,259,49139,1,2,0:0:0:0:
114,86,49297,1,0,3:0:0:0:
211,271,49456,1,8,0:0:0:0:
230,281,49534,1,8,0:0:0:0:
252,286,49613,2,0,P|279:288|312:280,1,44.5,0|0,3:0|3:0,0:0:0:0:
445,166,49771,6,0,P|449:101|453:29,1,124.59999619751,4|0,0:0|0:0,0:0:0:0:
358,50,50244,2,0,P|360:81|362:113,2,62.2999980987549,2|0|0,0:0|0:0|0:0,0:0:0:0:
445,166,50718,1,2,0:0:0:0:
445,166,51034,6,0,P|377:168|333:211,1,124.59999619751,4|2,0:0|0:0,0:0:0:0:
416,251,51507,1,0,0:0:0:0:
416,251,51665,2,0,P|414:282|413:313,1,62.2999980987549,2|0,0:0|0:0,0:0:0:0:
336,203,51981,1,2,0:0:0:0:
336,203,52297,6,0,B|231:184|268:267|153:249,1,186.899994296265,4|0,0:0|0:0,0:0:0:0:
182,158,52929,2,0,P|180:126|178:95,1,62.2999980987549,4|0,0:3|0:0,0:0:0:0:
72,28,53244,2,0,P|70:59|69:91,1,62.2999980987549,2|0,0:0|0:0,0:0:0:0:
50,282,53560,6,0,P|111:246|178:256,1,124.59999619751,4|8,0:0|0:0,0:0:0:0:
182,259,53955,1,8,0:0:0:0:
200,267,54034,1,8,0:3:0:0:
324,314,54192,1,2,0:0:0:0:
293,144,54350,1,4,3:0:0:0:
162,249,54507,1,8,3:0:0:0:
308,44,54823,6,0,B|384:32|363:90|449:79,1,142.4,4|0,0:0|0:0,0:0:0:0:
503,155,55297,1,8,0:0:0:0:
421,243,55455,2,0,P|416:208|412:172,1,71.2,2|8,0:0|0:0,0:0:0:0:
502,289,55771,1,0,0:0:0:0:
502,289,56086,5,2,0:0:0:0:
282,357,56244,2,0,P|357:346|432:337,1,142.4,8|0,0:0|3:0,0:0:0:0:
282,357,56718,2,0,P|277:321|272:286,1,71.2,8|0,0:0|0:0,0:0:0:0:
246,84,57034,1,4,0:3:0:0:
224,72,57113,1,0,0:0:0:0:
200,67,57192,1,0,3:0:0:0:
172,74,57271,1,0,0:0:0:0:
148,88,57350,6,0,P|153:129|158:171,1,71.2,2|0,3:2|3:0,0:0:0:0:
179,326,57665,1,2,0:0:0:0:
157,158,57823,1,8,0:0:0:0:
28,283,57981,1,2,0:0:0:0:
179,326,58139,1,8,0:0:0:0:
53,183,58297,2,0,P|47:140|40:81,1,71.2,0|0,3:0|3:0,0:0:0:0:
157,158,58613,5,2,0:0:0:0:
238,43,58771,2,0,P|244:86|251:145,1,71.2,8|2,0:0|0:0,0:0:0:0:
272,275,59086,1,0,3:0:0:0:
157,158,59244,1,8,0:0:0:0:
172,258,59402,1,4,0:3:0:0:
317,184,59560,1,4,3:0:0:0:
370,273,59718,1,8,3:0:0:0:
370,273,59797,1,0,3:0:0:0:
370,273,59876,6,0,P|411:219|411:170,1,89,4|0,0:0|0:0,0:0:0:0:
300,96,60192,2,0,P|309:143|318:194,1,89,0|0,3:0|0:0,0:0:0:0:
470,121,60507,2,0,P|461:74|452:23,1,89,0|8,3:0|0:0,0:0:0:0:
414,199,60823,1,0,3:0:0:0:
351,14,60981,1,8,0:0:0:0:
211,148,61139,6,0,P|219:192|228:236,1,89,0|2,3:0|0:0,0:0:0:0:
267,378,61455,2,0,P|204:339|93:378,2,178,8|2|0,3:0|3:2|3:0,0:0:0:0:
363,371,62244,1,2,0:0:0:0:
424,252,62402,6,0,P|416:208|407:164,1,89,4|0,0:0|0:0,0:0:0:0:
334,97,62718,2,0,P|282:82|231:90,1,89,0|2,3:0|0:0,0:0:0:0:
162,206,63034,1,0,3:0:0:0:
274,184,63192,1,8,0:0:0:0:
82,106,63350,1,4,0:3:0:0:
153,312,63507,1,8,0:0:0:0:
274,184,63665,5,2,3:2:0:0:
184,13,63823,1,8,0:3:0:0:
37,224,63981,2,0,P|38:268|41:312,1,89,4|2,0:3|0:0,0:0:0:0:
289,308,64297,6,0,P|296:279|295:249,1,59.3333333333333,8|8,0:0|0:3,0:0:0:0:
157,223,64508,2,0,P|178:243|203:258,1,59.3333333333333,8|8,0:0|0:3,0:0:0:0:
296,151,64718,2,0,P|267:159|242:174,1,59.3333333333333,4|4,0:3|0:3,0:0:0:0:
139,329,64929,5,6,0:0:0:0:
132,338,66192,5,2,0:0:0:0:
125,346,67297,5,0,3:0:0:0:
38,317,67455,2,0,P|31:253|22:224,1,89,0|2,3:0|0:0,0:0:0:0:
195,188,68086,2,0,P|185:231|182:276,1,89,0|2,3:0|0:0,0:0:0:0:
88,128,68718,5,2,0:3:0:0:
88,128,69981,6,0,L|284:101,1,178,4|8,0:0|0:0,0:0:0:0:
432,75,70455,1,2,0:0:0:0:
432,75,70534,1,0,0:0:0:0:
432,75,70613,2,0,P|452:130|445:175,1,89,4|0,3:3|0:0,0:0:0:0:
368,222,70929,2,0,P|348:167|355:122,1,89,8|0,0:0|0:0,0:0:0:0:
496,263,71244,6,0,P|439:249|336:316,1,178,2|8,0:0|0:0,0:0:0:0:
264,352,71718,1,2,0:0:0:0:
187,225,71876,2,0,L|276:233,1,89,4|0,3:0|3:0,0:0:0:0:
264,352,72192,2,0,L|176:345,1,89,8|0,0:0|0:0,0:0:0:0:
39,199,72507,6,0,B|112:185|92:246|181:224,1,133.5,2|0,0:0|0:0,0:0:0:0:
187,225,72823,2,0,P|229:191|241:135,1,89,8|2,0:0|0:0,0:0:0:0:
154,141,73060,1,0,3:0:0:0:
154,141,73139,2,0,L|140:54,1,89,2|0,3:2|3:0,0:0:0:0:
342,86,73455,2,0,L|327:173,1,89,8|0,0:0|0:0,0:0:0:0:
477,219,73771,6,0,P|413:162|327:173,1,178,4|8,0:3|0:0,0:0:0:0:
370,339,74244,1,2,0:0:0:0:
370,339,74323,1,0,0:0:0:0:
370,339,74402,2,0,L|384:251,1,89,4|0,3:0|3:0,0:0:0:0:
424,46,74718,1,8,0:0:0:0:
327,173,74876,1,8,0:0:0:0:
164,101,75034,6,0,L|342:86,1,178,4|8,0:0|0:0,0:0:0:0:
474,119,75507,1,2,0:0:0:0:
384,251,75665,2,0,P|343:268|277:256,1,89,4|0,3:0|3:0,0:0:0:0:
164,101,75981,1,8,0:0:0:0:
341,86,76139,1,0,0:0:0:0:
213,203,76297,6,0,P|191:265|212:328,1,133.5,2|0,0:0|0:0,0:0:0:0:
224,346,76613,2,0,L|120:350,1,89,8|2,0:0|0:0,0:0:0:0:
21,253,76929,2,0,P|30:186|70:150,1,89,4|0,3:0|3:0,0:0:0:0:
119,244,77244,1,8,0:0:0:0:
33,354,77402,1,0,0:0:0:0:
62,157,77560,6,0,L|222:138,1,133.5,2|0,0:0|0:0,0:0:0:0:
222,138,77876,1,8,0:0:0:0:
375,161,78034,1,2,0:0:0:0:
297,300,78192,2,0,P|278:230|293:179,1,89,4|0,3:0|3:0,0:0:0:0:
458,99,78507,2,0,P|477:169|462:220,1,89,10|0,0:0|0:0,0:0:0:0:
297,300,78823,5,2,0:0:0:0:
375,161,78981,1,2,3:2:0:0:
456,298,79139,1,10,0:0:0:0:
383,168,79297,5,0,0:0:0:0:
383,168,79376,1,0,3:0:0:0:
383,168,79455,1,2,0:0:0:0:
297,300,79613,1,8,0:0:0:0:
272,309,79691,1,8,0:0:0:0:
245,312,79770,1,2,1:2:0:0:
219,308,79849,1,0,0:0:0:0:
195,297,79928,1,8,0:3:0:0:
174,280,80007,1,8,0:0:0:0:
158,259,80086,6,0,B|149:206|149:206|167:145|167:145|152:70,1,178,4|8,0:0|0:0,0:0:0:0:
71,141,80560,1,0,0:0:0:0:
249,214,80718,2,0,P|291:175|302:135,1,89,2|0,0:0|3:0,0:0:0:0:
290,11,81034,1,8,0:0:0:0:
300,146,81192,1,0,0:0:0:0:
155,85,81350,6,0,L|161:174,1,89,2|0,0:0|3:0,0:0:0:0:
243,302,81665,2,0,L|249:213,1,89,8|2,0:0|0:0,0:0:0:0:
81,229,81981,1,4,3:0:0:0:
171,360,82139,1,0,0:0:0:0:
160,173,82297,1,8,0:0:0:0:
171,360,82455,1,0,0:0:0:0:
412,273,82613,6,0,B|303:253|341:328|221:297,1,178,2|8,0:0|0:0,0:0:0:0:
83,325,83086,1,0,0:0:0:0:
83,325,83165,1,0,3:0:0:0:
83,325,83244,1,2,0:0:0:0:
248,213,83402,1,0,3:0:0:0:
68,140,83560,2,0,L|84:257,1,89,10|0,0:0|0:0,0:0:0:0:
250,317,83876,6,0,P|314:292|347:184,1,178,4|8,0:3|0:0,0:0:0:0:
163,132,84350,1,2,0:0:0:0:
248,213,84507,2,0,L|260:124,1,89,4|0,3:0|3:0,0:0:0:0:
159,16,84823,1,8,0:0:0:0:
68,140,84981,1,8,0:3:0:0:
187,308,85139,6,0,L|161:122,1,178,4|8,0:0|0:0,0:0:0:0:
17,225,85613,1,2,0:0:0:0:
187,308,85771,2,0,P|248:306|289:269,1,89,4|0,3:0|3:0,0:0:0:0:
373,135,86086,2,0,L|361:224,1,89,8|0,0:0|0:0,0:0:0:0:
426,325,86402,6,0,P|355:275|270:291,1,178,4|8,0:3|0:0,0:0:0:0:
128,380,86876,1,0,3:0:0:0:
128,380,86955,1,0,3:0:0:0:
128,380,87034,2,0,L|116:291,1,89,0|0,3:0|3:0,0:0:0:0:
257,203,87350,2,0,L|269:292,1,89,8|0,0:0|0:0,0:0:0:0:
111,170,87665,6,0,B|188:160|164:214|243:203,1,133.5,2|0,0:0|0:0,0:0:0:0:
257,203,87981,2,0,P|313:160|326:112,1,89,8|0,0:0|0:0,0:0:0:0:
221,23,88297,2,0,L|233:112,1,89,4|0,3:3|3:0,0:0:0:0:
414,171,88613,2,0,P|404:101|369:65,1,89,8|2,0:0|0:0,0:0:0:0:
320,144,88929,6,0,L|348:356,1,178,4|8,0:3|0:0,0:0:0:0:
414,171,89402,1,2,0:0:0:0:
248,268,89560,2,0,B|177:269|200:214|117:221,1,133.5,0|0,3:0|3:3,0:0:0:0:
100,220,89876,1,10,0:0:0:0:
19,94,90034,1,0,1:0:0:0:
208,105,90192,6,0,L|111:133,1,89,4|0,0:0|0:0,0:0:0:0:
24,280,90507,2,0,P|10:243|21:167,1,89,0|0,3:0|0:0,0:0:0:0:
248,267,90823,2,0,P|249:311|235:353,1,89,0|0,3:0|0:0,0:0:0:0:
128,220,91139,1,0,3:0:0:0:
208,105,91297,1,0,0:0:0:0:
372,234,91455,5,0,1:0:0:0:
216,113,91613,1,0,0:0:0:0:
216,113,91692,1,0,3:0:0:0:
216,113,91771,1,0,1:0:0:0:
369,43,91929,1,0,3:0:0:0:
369,43,92007,1,0,3:0:0:0:
369,43,92086,1,0,1:0:0:0:
248,267,92244,5,0,3:0:0:0:
221,272,92322,1,0,3:0:0:0:
195,270,92401,1,0,3:0:0:0:
170,261,92480,1,0,3:0:0:0:
147,246,92559,1,0,3:0:0:0:
130,227,92638,1,0,3:0:0:0:
118,203,92717,5,4,3:3:0:0:
130,227,93981,6,0,L|112:19,1,178,4|10,0:0|0:0,0:0:0:0:
234,121,94455,1,0,0:0:0:0:
234,121,94534,1,0,3:0:0:0:
234,121,94613,2,0,L|226:209,1,89,4|0,3:0|3:0,0:0:0:0:
142,324,94929,2,0,P|92:320|54:291,1,89,10|0,0:0|0:0,0:0:0:0:
225,230,95244,6,0,B|302:214|277:272|364:258,1,133.5,4|0,0:3|0:0,0:0:0:0:
374,256,95560,2,0,P|418:227|437:162,1,89,10|0,0:0|0:0,0:0:0:0:
339,83,95876,2,0,L|346:171,1,89,4|0,3:0|3:0,0:0:0:0:
232,318,96192,2,0,L|224:229,1,89,10|0,0:0|0:0,0:0:0:0:
167,79,96507,6,0,P|109:38|9:65,1,178,4|10,0:3|0:0,0:0:0:0:
91,217,96981,1,0,0:0:0:0:
91,217,97060,1,8,0:0:0:0:
91,217,97139,2,0,L|83:128,1,89,4|0,3:0|0:0,0:0:0:0:
11,62,97455,1,10,0:0:0:0:
14,286,97613,1,0,0:0:0:0:
255,182,97771,6,0,P|214:164|148:171,1,89,2|0,0:0|0:0,0:0:0:0:
299,330,98086,2,0,P|335:303|362:242,1,89,10|0,0:0|0:0,0:0:0:0:
149,293,98402,2,0,P|153:337|192:391,1,89,2|0,0:0|0:0,0:0:0:0:
356,265,98718,2,0,L|363:176,1,89,14|0,0:0|0:0,0:0:0:0:
241,4,99034,6,0,L|255:182,1,178,4|10,0:0|0:0,0:0:0:0:
299,330,99507,1,0,0:0:0:0:
299,330,99586,1,0,3:0:0:0:
299,330,99665,2,0,P|272:301|203:288,1,89,4|0,3:0|0:0,0:0:0:0:
63,320,99981,2,0,L|56:231,1,89,10|0,0:0|0:0,0:0:0:0:
32,72,100297,6,0,B|80:68|112:104|112:104|152:72|216:88,1,178,4|10,0:3|0:0,0:0:0:0:
343,171,100771,1,0,0:0:0:0:
343,171,100850,1,8,0:0:0:0:
343,171,100929,2,0,L|235:183,1,89,4|0,3:0|3:0,0:0:0:0:
195,84,101244,2,0,L|303:72,1,89,10|0,0:0|0:0,0:0:0:0:
444,148,101560,6,0,B|416:244|492:224|456:328,1,178,4|10,0:3|0:0,0:0:0:0:
280,284,102034,1,0,0:0:0:0:
280,284,102113,1,8,0:0:0:0:
280,284,102192,2,0,L|388:272,1,89,4|0,3:0|3:0,0:0:0:0:
444,148,102507,2,0,L|355:157,1,89,10|0,0:0|0:0,0:0:0:0:
137,252,102823,5,10,0:0:0:0:
257,46,102981,1,0,3:0:0:0:
280,284,103139,1,12,0:0:0:0:
124,106,103297,1,2,0:0:0:0:
355,157,103455,1,8,0:0:0:0:
232,169,103613,5,2,0:0:0:0:
380,34,103771,1,8,0:3:0:0:
422,229,103929,1,2,0:0:0:0:
232,169,104086,6,0,L|221:82,1,71.2,0|0,3:0|0:0,0:0:0:0:
124,106,104402,2,0,L|135:193,1,71.2,0|0,3:0|0:0,0:0:0:0:
223,239,104718,2,0,L|232:169,1,71.2,0|0,3:0|0:0,0:0:0:0:
65,254,105034,2,0,P|95:271|130:278,1,71.2,0|0,3:0|0:0,0:0:0:0:
334,206,105350,6,0,P|388:202|465:268,1,142.4,2|0,0:0|3:0,0:0:0:0:
457,251,105823,1,0,0:0:0:0:
379,366,105981,2,0,L|370:295,1,71.2,2|0,3:2|0:0,0:0:0:0:
239,188,106297,2,0,P|238:224|249:258,1,71.2,0|0,3:0|0:0,0:0:0:0:
374,117,106613,6,0,P|303:118|241:52,1,142.4,2|0,0:3|3:0,0:0:0:0:
158,29,107086,1,2,0:0:0:0:
82,135,107244,2,0,L|168:123,1,71.2,0|0,3:0|0:0,0:0:0:0:
248,257,107560,2,0,L|236:171,1,71.2,2|0,3:2|0:0,0:0:0:0:
85,328,107876,6,0,B|167:315|167:315|192:344|228:351,1,142.4,2|0,0:3|3:0,0:0:0:0:
307,333,108350,1,0,0:0:0:0:
238,186,108507,2,0,L|248:257,1,71.2,2|0,3:2|0:0,0:0:0:0:
383,278,108823,2,0,L|373:207,1,71.2,4|0,3:0|0:0,0:0:0:0:
334,24,109139,6,0,B|249:5|275:57|185:41,1,142.4,4|0,0:0|3:0,0:0:0:0:
103,42,109613,1,0,0:0:0:0:
136,190,109771,2,0,P|148:157|148:121,1,71.2,2|0,0:0|0:0,0:0:0:0:
21,82,110086,2,0,P|8:115|8:150,1,71.2,0|0,3:0|0:0,0:0:0:0:
98,274,110402,6,0,P|156:228|242:243,1,142.4,2|0,0:0|3:0,0:0:0:0:
308,262,110876,1,0,0:0:0:0:
197,383,111034,2,0,L|182:306,1,71.2,2|0,0:0|0:0,0:0:0:0:
321,192,111350,2,0,L|308:262,1,71.2,0|0,3:0|0:0,0:0:0:0:
271,94,111665,6,0,P|329:145|396:142,1,142.4,2|0,0:0|3:0,0:0:0:0:
360,49,112139,1,0,0:0:0:0:
490,157,112297,2,0,L|476:226,1,71.2,0|0,3:0|0:0,0:0:0:0:
454,65,112613,1,2,0:0:0:0:
271,94,112771,1,8,0:0:0:0:
403,292,112929,5,2,0:0:0:0:
391,144,113086,1,8,0:3:0:0:
391,144,113402,1,2,0:0:0:0:
269,229,113560,1,0,3:0:0:0:
167,96,113718,1,0,0:0:0:0:
167,96,113797,1,0,0:0:0:0:
167,96,113876,2,0,P|160:148|174:193,1,71.2,2|0,0:3|0:0,0:0:0:0:
249,324,114192,6,0,B|292:315|332:330|332:330|364:299|418:293,1,169.099995484543,4|8,0:0|0:0,0:0:0:0:
509,218,114665,1,2,3:2:0:0:
509,218,114744,1,8,3:0:0:0:
509,218,114823,1,0,3:0:0:0:
407,294,114981,1,0,3:2:0:0:
375,113,115139,2,0,L|389:213,1,84.5499977422715,14|0,0:0|0:0,0:0:0:0:
483,68,115455,6,0,P|408:82|332:4,1,169.099995484543,6|8,0:0|0:0,0:0:0:0:
175,45,115929,1,2,1:2:0:0:
175,45,116007,1,0,3:0:0:0:
175,45,116086,1,0,0:0:0:0:
370,199,116244,1,12,0:0:0:0:
174,293,116402,1,2,0:0:0:0:
175,45,116560,1,12,0:0:0:0:
370,199,116718,6,0,L|172:183,1,178,4|8,0:0|0:0,0:0:0:0:
14,210,117192,1,2,0:0:0:0:
178,297,117349,1,0,3:0:0:0:
178,297,117507,1,0,3:0:0:0:
94,134,117665,1,8,0:0:0:0:
64,309,117823,1,0,0:0:0:0:
192,184,117981,6,0,B|288:162|263:230|370:201,1,178,2|8,0:0|0:0,0:0:0:0:
456,159,118455,1,2,0:0:0:0:
456,159,118534,1,0,3:0:0:0:
456,159,118613,2,0,L|462:63,1,89,0|0,3:0|3:0,0:0:0:0:
315,23,118929,2,0,L|321:112,1,89,10|0,0:0|0:0,0:0:0:0:
445,288,119244,6,0,P|375:253|280:294,1,178,2|8,0:0|0:0,0:0:0:0:
211,350,119718,1,0,0:0:0:0:
103,244,119876,2,0,P|147:239|189:254,1,89,0|0,3:0|3:0,0:0:0:0:
303,383,120192,1,8,0:0:0:0:
358,218,120350,1,0,0:0:0:0:
68,332,120507,6,0,L|44:137,1,178,2|8,0:0|0:0,0:0:0:0:
92,68,120981,1,2,0:0:0:0:
92,68,121060,1,8,0:0:0:0:
92,68,121139,2,0,P|136:56|196:68,1,89,4|0,3:0|3:0,0:0:0:0:
271,239,121455,1,8,0:0:0:0:
144,156,121613,1,0,0:0:0:0:
316,44,121771,6,0,L|308:144,1,89,2|0,0:0|0:0,0:0:0:0:
191,278,122086,2,0,L|281:234,1,89,8|2,0:0|0:0,0:0:0:0:
457,270,122402,2,0,L|374:213,1,89,0|0,3:0|3:0,0:0:0:0:
308,132,122718,1,8,0:0:0:0:
348,320,122876,1,0,0:0:0:0:
467,142,123034,6,0,P|390:103|308:132,1,178,2|8,0:0|0:0,0:0:0:0:
216,160,123507,1,2,0:0:0:0:
216,160,123586,1,0,3:0:0:0:
216,160,123665,2,0,L|200:64,1,89,0|0,3:0|3:0,0:0:0:0:
120,8,123981,1,10,0:0:0:0:
152,244,124139,1,0,0:0:0:0:
57,185,124297,6,0,P|131:140|215:159,1,178,2|8,0:0|0:0,0:0:0:0:
166,331,124771,1,2,0:0:0:0:
166,331,124850,1,0,3:0:0:0:
166,331,124929,2,0,L|150:235,1,89,2|0,3:2|3:0,0:0:0:0:
215,159,125244,1,10,0:0:0:0:
264,359,125402,1,2,0:0:0:0:
318,177,125560,5,4,3:2:0:0:
348,281,125718,1,0,3:0:0:0:
151,243,125876,2,0,P|117:200|113:136,1,89,12|0,0:0|0:0,0:0:0:0:
202,70,126192,2,0,L|218:186,1,89,8|8,0:0|0:3,0:0:0:0:
268,352,126507,1,0,3:0:0:0:
352,168,126665,1,0,3:0:0:0:
352,168,126744,1,8,0:3:0:0:
352,168,126823,5,8,0:0:0:0:
151,243,126981,1,2,3:2:0:0:
151,243,127297,2,0,L|205:256,1,35.6,0|0,3:0|3:0,0:0:0:0:
344,280,127455,6,0,P|412:264|460:200,1,142.4,12|2,0:0|0:0,0:0:0:0:
336,44,128086,2,0,L|352:168,1,106.8,4|0,0:3|0:0,0:0:0:0:
352,168,128402,1,2,0:0:0:0:
344,280,128560,1,8,0:0:0:0:
179,222,128718,2,0,L|251:217,1,71.2,2|0,0:0|0:0,0:0:0:0:
252,336,129034,2,0,L|180:341,1,71.2,2|0,3:2|0:0,0:0:0:0:
68,228,129350,5,2,1:2:0:0:
252,336,129507,1,0,1:0:0:0:
187,151,129665,2,0,L|179:227,1,71.2,2|0,0:0|1:0,0:0:0:0:
75,298,129981,2,0,L|67:227,1,71.2,12|0,0:0|0:0,0:0:0:0:
49,46,130297,1,2,0:0:0:0:
49,46,130613,6,0,P|121:34|149:40,1,71.2,0|0,3:0|0:0,0:0:0:0:
256,68,130929,2,0,L|248:168,1,94.9333333333333,8|8,0:3|0:3,0:0:0:0:
335,216,131244,2,0,P|358:216|381:224,2,47.4666666666667,2|8|4,0:0|3:0|0:3,0:0:0:0:
248,269,131560,2,0,P|200:260|176:240,2,47.4666666666667,2|8|8,0:0|3:0|3:0,0:0:0:0:
341,323,131876,6,0,B|224:304|260:380|136:364,1,213.6,4|8,0:0|0:0,0:0:0:0:
8,305,132507,2,0,P|-1:270|0:235,1,71.2,0|8,0:0|0:0,0:0:0:0:
153,193,132824,2,0,L|144:264,1,71.2,2|0,3:2|3:0,0:0:0:0:
92,120,133139,5,2,0:0:0:0:
284,241,133297,2,0,L|132:265,1,142.4,8|0,0:0|3:0,0:0:0:0:
0,236,133771,2,0,L|12:148,1,71.2,10|0,0:0|3:0,0:0:0:0:
44,28,134086,1,4,0:3:0:0:
92,120,134244,1,0,3:0:0:0:
278,69,134402,6,0,P|221:29|151:35,1,142.4,2|0,0:0|0:0,0:0:0:0:
184,200,134876,2,0,L|196:112,1,71.2,8|4,0:0|0:3,0:0:0:0:
9,165,135192,1,8,0:0:0:0:
104,260,135350,2,0,P|144:292|216:292,1,106.8,0|0,3:0|0:0,0:0:0:0:
224,292,135665,6,0,L|316:256,1,86.3300020418015,8|0,0:0|0:0,0:0:0:0:
468,196,135981,1,12,0:0:0:0:
330,85,136139,1,2,0:0:0:0:
366,178,136297,1,0,3:0:0:0:
366,178,136376,1,8,0:3:0:0:
366,178,136455,1,2,3:2:0:0:
484,48,136613,1,12,0:0:0:0:
366,178,136771,1,0,0:0:0:0:
241,73,136929,6,0,L|369:89,1,89,4|0,0:0|0:0,0:0:0:0:
312,260,137244,2,0,L|184:244,1,89,0|0,3:0|0:0,0:0:0:0:
168,156,137560,1,2,3:2:0:0:
224,249,137718,1,8,0:2:0:0:
366,178,137876,1,0,3:2:0:0:
168,156,138034,1,8,0:0:0:0:
144,332,138192,6,0,P|118:296|111:252,1,89,4|0,3:0|0:0,0:0:0:0:
132,64,138507,2,0,P|184:60|272:159,2,178,8|2|0,3:0|3:2|3:0,0:0:0:0:
168,156,139297,1,0,0:0:0:0:
312,260,139455,6,0,L|400:271,1,89,4|0,0:0|0:0,0:0:0:0:
357,152,139771,2,0,L|269:141,1,89,0|0,3:0|0:0,0:0:0:0:
100,232,140086,1,2,3:2:0:0:
312,260,140244,1,8,0:0:0:0:
168,156,140402,1,4,3:0:0:0:
312,260,140560,1,8,0:0:0:0:
213,362,140718,6,0,P|195:321|194:277,1,89,8|0,0:3|0:0,0:0:0:0:
199,268,140955,1,8,0:3:0:0:
206,260,141034,1,0,3:0:0:0:
269,142,141192,1,0,3:0:0:0:
213,362,141350,1,2,3:2:0:0:
100,232,141507,1,4,0:3:0:0:
152,68,141665,2,0,L|168:156,1,89,2|0,0:0|0:0,0:0:0:0:
213,362,141981,5,4,0:0:0:0:
213,362,142929,5,2,0:0:0:0:
200,272,143086,1,2,0:0:0:0:
344,160,143244,5,2,0:0:0:0:
344,160,144192,1,2,0:0:0:0:
272,216,144350,1,0,3:0:0:0:
172,91,144507,6,0,L|184:180,1,89,2|0,3:2|0:0,0:0:0:0:
244,32,145139,2,0,L|256:121,1,89,0|2,3:0|0:0,0:0:0:0:
272,216,145613,1,2,0:0:0:0:
416,104,145771,5,2,0:3:0:0:
416,104,147034,6,0,P|344:56|252:80,1,178,4|8,0:0|0:0,0:0:0:0:
92,128,147507,1,2,0:0:0:0:
92,128,147586,1,0,0:0:0:0:
92,128,147665,2,0,B|84:172|84:172|104:224,1,89,4|0,3:0|3:0,0:0:0:0:
200,248,147981,2,0,B|208:204|208:204|188:152,1,89,8|0,0:0|0:0,0:0:0:0:
116,312,148297,6,0,L|312:292,1,178,4|8,0:3|0:0,0:0:0:0:
368,360,148771,1,2,0:0:0:0:
431,199,148929,2,0,P|388:194|347:210,1,89,4|0,3:0|3:0,0:0:0:0:
368,360,149244,2,0,P|411:365|452:349,1,89,10|0,0:0|0:0,0:0:0:0:
347,210,149560,6,0,B|300:200|300:200|256:216|256:216|207:206,1,133.5,2|0,0:0|0:0,0:0:0:0:
196,200,149876,2,0,B|164:164|164:164|160:120,1,89,8|2,0:0|0:0,0:0:0:0:
252,126,150113,1,0,3:0:0:0:
252,126,150192,2,0,P|274:87|280:43,1,89,2|0,0:0|3:0,0:0:0:0:
59,110,150507,2,0,P|65:154|88:192,1,89,8|0,0:0|0:0,0:0:0:0:
347,210,150823,6,0,B|260:180|260:180|172:212,1,178,4|8,0:3|0:0,0:0:0:0:
240,360,151297,1,2,0:0:0:0:
240,360,151376,1,0,0:0:0:0:
240,360,151455,2,0,P|264:316|264:272,1,89,4|0,3:0|3:0,0:0:0:0:
257,70,151771,1,8,0:0:0:0:
347,210,151929,1,8,0:0:0:0:
508,104,152086,6,0,P|444:76|340:128,1,178,4|10,0:0|0:0,0:0:0:0:
261,170,152560,1,2,0:0:0:0:
428,256,152718,2,0,P|440:192|428:152,1,89,4|0,3:0|3:0,0:0:0:0:
257,70,153034,1,8,0:0:0:0:
347,210,153192,1,0,0:0:0:0:
140,180,153350,6,0,P|236:156|272:180,1,133.5,2|0,0:0|0:0,0:0:0:0:
256,192,153665,2,0,P|256:244|280:288,1,89,8|2,0:0|0:0,0:0:0:0:
428,256,153981,2,0,P|440:192|428:152,1,89,4|0,3:3|3:0,0:0:0:0:
268,68,154297,1,8,0:0:0:0:
347,210,154455,1,0,3:0:0:0:
277,368,154613,6,0,L|253:172,1,178,2|8,0:0|0:0,0:0:0:0:
136,56,155086,1,2,0:0:0:0:
193,251,155244,2,0,P|230:228|256:192,1,89,4|0,3:0|3:0,0:0:0:0:
136,56,155560,2,0,P|98:79|73:115,1,89,10|0,0:0|0:0,0:0:0:0:
112,312,155876,5,2,0:0:0:0:
168,152,156034,1,2,0:0:0:0:
0,184,156192,1,10,0:0:0:0:
175,159,156350,5,0,0:0:0:0:
175,159,156429,1,0,3:0:0:0:
175,159,156507,1,2,1:2:0:0:
112,312,156665,1,8,0:0:0:0:
137,321,156743,1,8,0:0:0:0:
164,324,156822,1,2,1:2:0:0:
190,320,156901,1,0,0:0:0:0:
214,309,156980,1,8,0:0:0:0:
235,292,157059,1,8,0:0:0:0:
249,269,157139,6,0,B|344:281|312:205|413:222,1,178,4|8,0:0|0:0,0:0:0:0:
388,308,157613,1,0,0:0:0:0:
260,180,157771,2,0,B|244:132|244:132|256:80,1,89,4|0,3:0|3:0,0:0:0:0:
316,32,158086,1,8,0:0:0:0:
260,180,158244,1,0,0:0:0:0:
165,59,158402,6,0,L|70:50,1,89,2|0,0:0|0:0,0:0:0:0:
12,164,158718,2,0,L|107:155,1,89,8|0,0:0|0:0,0:0:0:0:
252,94,159034,1,2,0:0:0:0:
228,264,159192,1,0,0:0:0:0:
252,94,159350,1,8,0:0:0:0:
100,155,159507,1,0,0:0:0:0:
272,184,159665,6,0,B|332:176|332:176|380:200|380:200|464:188,1,178,2|10,0:0|0:0,0:0:0:0:
320,272,160139,1,0,0:0:0:0:
320,272,160218,1,0,3:0:0:0:
320,272,160297,1,2,0:0:0:0:
392,104,160455,1,0,3:0:0:0:
508,260,160613,2,0,P|448:284|396:272,1,89,10|0,0:0|0:0,0:0:0:0:
228,264,160929,6,0,B|184:220|184:220|196:80,1,178,4|8,0:3|0:0,0:0:0:0:
392,104,161403,1,2,0:0:0:0:
280,192,161560,2,0,L|288:104,1,89,0|0,3:0|3:0,0:0:0:0:
392,0,161876,1,8,0:0:0:0:
488,96,162034,1,8,0:3:0:0:
415,280,162192,6,0,L|391:103,1,178,4|8,0:0|0:0,0:0:0:0:
288,0,162665,1,2,0:0:0:0:
193,104,162823,2,0,P|137:76|109:28,1,89,0|0,3:0|3:0,0:0:0:0:
24,0,163139,2,0,L|44:100,1,89,8|0,0:0|0:0,0:0:0:0:
87,221,163455,6,0,P|113:139|192:104,1,178,4|8,0:3|0:0,0:0:0:0:
260,264,163929,1,0,0:0:0:0:
260,264,164008,1,0,3:0:0:0:
260,264,164087,2,0,P|212:268|171:252,1,89,4|0,3:0|3:0,0:0:0:0:
191,104,164402,2,0,P|239:100|280:116,1,89,8|0,0:0|0:0,0:0:0:0:
411,274,164718,6,0,B|364:264|364:264|320:280|320:280|271:270,1,133.5,12|0,0:0|0:0,0:0:0:0:
260,264,165034,2,0,B|228:228|228:228|224:184,1,89,8|8,0:0|0:3,0:0:0:0:
364,96,165350,1,4,0:3:0:0:
364,96,165429,1,8,0:0:0:0:
364,96,165507,1,10,0:0:0:0:
312,192,165665,1,10,1:2:0:0:
240,27,165823,1,2,0:0:0:0:
191,104,165981,6,0,L|177:281,1,178,6|2,0:0|0:0,0:0:0:0:
277,114,166455,1,10,0:0:0:0:
96,216,166613,2,0,P|40:220|0:296,1,133.5
2,300,166929,1,10,0:0:0:0:
177,281,167086,1,0,3:0:0:0:
96,216,167244,6,0,L|84:104,1,89,4|0,3:0|0:0,0:0:0:0:
288,20,167560,2,0,P|344:44|368:88,1,89,0|0,3:0|0:0,0:0:0:0:
264,208,167876,2,0,P|208:184|184:140,1,89,0|0,3:0|0:0,0:0:0:0:
144,0,168192,1,0,1:0:0:0:
276,113,168350,1,2,0:0:0:0:
96,216,168507,5,0,1:0:0:0:
176,84,168665,1,0,0:0:0:0:
176,84,168744,1,0,3:0:0:0:
176,84,168823,1,0,1:0:0:0:
212,284,168981,1,0,3:0:0:0:
212,284,169060,1,0,3:0:0:0:
212,284,169139,1,0,1:0:0:0:
308,204,169297,5,8,0:0:0:0:
308,204,169376,1,8,0:0:0:0:
308,204,169455,2,0,L|264:208,1,44.5,0|0,3:0|0:0,0:0:0:0:
96,216,169613,2,0,L|121:252,1,44.5,8|2,0:0|0:0,0:0:0:0:
236,368,169771,5,2,0:3:0:0:
236,368,170718,2,0,L|175:379,2,62.2999980987549,4|8|8,3:0|0:3|0:3,0:0:0:0:
392,364,171034,6,0,P|318:303|323:206,1,200.250007638932,4|0,0:0|0:0,0:0:0:0:
344,103,171665,2,0,P|418:164|413:260,1,200.250007638932,4|0,0:0|0:0,0:0:0:0:
248,140,172297,6,0,B|176:160|188:104|116:124,1,129.940003568909,4|2,0:0|0:0,0:0:0:0:
52,176,172771,1,0,0:0:0:0:
144,272,172929,2,0,L|136:180,1,64.9700017844544,2|0,0:0|0:0,0:0:0:0:
24,316,173244,1,2,0:0:0:0:
24,316,173560,6,0,P|64:280|152:292,1,129.940003568909,2|0,0:3|0:0,0:0:0:0:
220,324,174034,1,0,0:0:0:0:
336,260,174192,2,0,B|348:224|348:224|332:120,1,129.940003568909,2|0,0:0|0:0,0:0:0:0:
268,72,174665,1,0,0:0:0:0:
117,153,174823,6,0,B|137:288,1,129.940003568909,2|2,0:0|0:0,0:0:0:0:
220,324,175297,1,0,0:0:0:0:
336,260,175455,1,2,0:0:0:0:
336,260,175771,2,0,L|324:192,1,64.9700017844544,2|0,0:0|0:0,0:0:0:0:
446,304,176086,6,0,P|399:260|336:259,1,129.940003568909,2|2,0:0|0:0,0:0:0:0:
308,348,176560,1,0,0:0:0:0:
220,324,176718,2,0,L|208:256,2,64.9700017844544,2|0|2,0:0|0:0|0:0,0:0:0:0:
32,236,177350,6,0,P|95:235|142:191,1,129.940003568909,2|2,0:3|0:0,0:0:0:0:
184,112,177823,1,0,0:0:0:0:
40,24,177981,2,0,L|64:172,1,129.940003568909,2|2,0:0|0:0,0:0:0:0:
162,320,178613,6,0,L|138:172,1,129.940003568909,0|2,0:3|0:0,0:0:0:0:
184,112,179086,1,0,0:0:0:0:
296,184,179244,2,0,P|264:192|216:192,1,64.9700017844544,2|0,0:0|0:0,0:0:0:0:
104,68,179560,1,2,0:0:0:0:
104,68,179876,6,0,P|152:28|232:36,1,129.940003568909,2|2,0:0|0:0,0:0:0:0:
310,90,180350,1,2,0:0:0:0:
230,42,180507,1,2,0:0:0:0:
230,42,180823,5,2,0:0:0:0:
232,144,180981,1,0,3:0:0:0:
232,144,181060,1,0,3:0:0:0:
232,144,181139,5,8,0:0:0:0:
364,168,181297,1,8,0:0:0:0:
320,24,181455,2,0,L|308:104,1,66.7500025463105,2|0,0:0|3:0,0:0:0:0:
310,90,181692,1,8,0:3:0:0:
310,90,181771,1,12,0:0:0:0:
232,240,181929,1,4,3:0:0:0:
148,96,182086,1,8,0:3:0:0:
232,144,182244,1,0,0:0:0:0:
142,276,182402,6,0,P|136:235|142:195,1,82.7700025890885,4|0,0:0|0:0,0:0:0:0:
232,44,182718,1,8,0:0:0:0:
312,192,182876,1,2,0:0:0:0:
312,192,182955,1,0,3:0:0:0:
312,192,183034,2,0,L|404:180,1,82.7700025890885,2|0,3:2|0:0,0:0:0:0:
310,90,183350,1,8,0:0:0:0:
380,272,183507,1,0,3:0:0:0:
380,272,183586,1,0,3:0:0:0:
380,272,183665,6,0,P|432:268|464:244,1,82.7700025890885,2|0,0:0|0:0,0:0:0:0:
404,99,183981,2,0,L|392:191,1,82.7700025890885,10|2,0:0|0:0,0:0:0:0:
393,181,184218,1,0,3:0:0:0:
393,181,184297,1,2,0:0:0:0:
364,364,184455,1,0,3:0:0:0:
230,245,184613,1,8,0:0:0:0:
400,188,184771,1,2,0:0:0:0:
257,352,184929,6,0,P|208:352|120:260,1,165.540005178177,2|10,3:2|0:0,0:0:0:0:
240,162,185402,1,2,0:0:0:0:
240,162,185481,1,0,3:0:0:0:
240,162,185560,2,0,L|229:244,1,82.7700025890885,2|0,3:2|3:0,0:0:0:0:
124,278,185876,1,8,0:0:0:0:
164,92,186034,1,2,0:0:0:0:
52,212,186192,6,0,L|62:129,1,82.7700025890885,2|0,3:2|0:0,0:0:0:0:
264,64,186507,1,8,0:0:0:0:
305,205,186665,1,2,0:0:0:0:
305,205,186744,1,0,3:0:0:0:
305,205,186823,2,0,P|253:181|233:145,1,82.7700025890885,2|2,3:2|0:0,0:0:0:0:
360,32,187139,1,8,0:0:0:0:
324,217,187297,1,2,0:0:0:0:
150,95,187455,5,4,0:0:0:0:
233,277,187613,2,0,L|239:161,1,115.699994703675,8|0,3:2|3:0,0:0:0:0:
150,95,188007,1,0,3:0:0:0:
150,95,188086,2,0,L|144:210,1,115.699994703675,12|2,0:0|0:0,0:0:0:0:
136,325,188560,1,8,0:0:0:0:
150,95,188718,5,4,0:0:0:0:
347,165,188876,2,0,P|292:181|239:161,1,115.699994703675,8|0,0:0|3:0,0:0:0:0:
289,27,189350,2,0,L|292:100,1,57.8499973518373,12|2,0:0|3:2,0:0:0:0:
308,254,189665,1,8,0:0:0:0:
443,155,189823,1,8,0:0:0:0:
345,164,189981,5,2,0:0:0:0:
345,164,192507,6,0,P|311:159|278:163,1,57.8499973518373,2|0,0:0|0:0,0:0:0:0:
226,222,192823,2,0,L|233:295,1,57.8499973518373,2|0,0:0|0:0,0:0:0:0:
124,344,193139,2,0,L|129:286,1,57.8499973518373
122,199,193455,2,0,P|88:204|55:200,1,57.8499973518373,2|0,0:0|0:0,0:0:0:0:
41,194,193692,1,0,0:0:0:0:
41,194,193771,6,0,L|29:78,1,115.699994703675,2|2,0:0|0:0,0:0:0:0:
86,13,194244,1,0,0:0:0:0:
174,96,194402,2,0,P|140:101|107:97,1,57.8499973518373,2|0,0:0|0:0,0:0:0:0:
86,13,194718,2,0,P|120:8|153:12,1,57.8499973518373,2|0,0:0|0:0,0:0:0:0:
237,159,195034,6,0,L|225:274,1,115.699994703675,2|2,0:0|0:0,0:0:0:0:
206,358,195507,1,0,0:0:0:0:
344,350,195665,2,0,P|305:333|267:330,1,57.8499973518373,2|0,0:0|0:0,0:0:0:0:
152,377,195981,2,0,P|180:370|205:357,1,57.8499973518373,2|0,0:0|0:0,0:0:0:0:
305,244,196297,6,0,L|311:187,1,57.8499973518373,2|0,0:0|0:0,0:0:0:0:
270,26,196613,2,0,L|264:83,1,57.8499973518373,2|0,0:0|0:0,0:0:0:0:
396,117,196929,2,0,L|338:111,1,57.8499973518373,2|0,0:0|0:0,0:0:0:0:
179,153,197244,2,0,L|236:158,1,57.8499973518373,2|0,0:0|0:0,0:0:0:0:
305,244,197560,5,2,0:0:0:0:
308,252,198823,1,2,0:3:0:0:
312,256,200086,1,2,0:0:0:0:
324,268,201192,5,8,3:2:0:0:
324,268,201271,1,8,3:2:0:0:
324,268,201350,2,0,P|280:280|232:276,1,82.7700025890885,10|8,0:0|0:3,0:0:0:0:
100,216,201665,1,2,0:0:0:0:
208,112,201823,2,0,L|193:193,1,82.7700025890885,8|2,0:3|3:2,0:0:0:0:
164,356,202138,1,8,3:0:0:0:
20,312,202297,2,0,L|5:230,1,82.7700025890885,2|0,3:2|0:0,0:0:0:0:
152,24,202613,6,0,P|192:12|252:20,1,89,4|2,0:0|0:0,0:0:0:0:
252,20,202850,1,2,0:0:0:0:
264,28,202929,1,0,3:0:0:0:
312,124,203086,1,0,0:0:0:0:
192,199,203244,2,0,L|208:112,1,89,0|0,3:0|0:0,0:0:0:0:
372,36,203560,1,0,3:0:0:0:
339,273,203718,1,8,3:2:0:0:
339,273,203797,1,8,3:2:0:0:
339,273,203876,6,0,L|311:115,1,133.5,8|0,0:0|0:0,0:0:0:0:
312,124,204192,1,0,3:0:0:0:
264,28,204350,1,8,0:3:0:0:
119,123,204507,2,0,L|215:111,1,89,0|0,3:0|0:0,0:0:0:0:
372,36,204823,1,0,3:0:0:0:
355,217,204981,1,2,0:0:0:0:
355,217,205060,1,0,3:0:0:0:
355,217,205139,6,0,P|320:164|316:116,1,89,12|2,0:0|0:0,0:0:0:0:
472,68,205455,2,0,P|507:121|511:169,1,89,0|2,3:0|0:0,0:0:0:0:
412,296,205771,1,0,3:0:0:0:
412,144,205929,1,2,0:0:0:0:
508,264,206086,1,0,3:0:0:0:
280,264,206244,1,8,3:2:0:0:
280,264,206323,1,8,3:2:0:0:
280,264,206402,6,0,L|92:288,1,178,8|0,0:0|3:0,0:0:0:0:
0,229,206876,1,0,0:0:0:0:
120,100,207034,2,0,P|120:156|100:196,1,89,8|0,0:0|0:0,0:0:0:0:
95,197,207271,1,8,0:0:0:0:
82,205,207350,1,4,0:3:0:0:
44,28,207507,1,0,0:0:0:0:
283,163,207665,6,0,L|95:187,1,178,12|2,0:0|3:2,0:0:0:0:
28,132,208139,1,0,0:0:0:0:
152,12,208297,2,0,L|264:-2,1,89,0|0,3:0|0:0,0:0:0:0:
352,88,208613,2,0,P|384:144|384:200,1,89,0|0,3:0|0:0,0:0:0:0:
305,339,208929,6,0,L|281:151,1,178,2|0,0:0|3:0,0:0:0:0:
173,90,209402,1,0,0:0:0:0:
104,220,209560,2,0,P|160:216|212:172,1,89,2|0,0:0|3:3,0:0:0:0:
199,184,209797,1,0,0:0:0:0:
203,168,209876,1,4,0:3:0:0:
32,160,210034,1,2,0:0:0:0:
210,376,210192,6,0,L|186:188,1,178,2|0,1:2|3:0,0:0:0:0:
152,16,210665,1,0,3:0:0:0:
294,100,210823,2,0,P|246:108|198:96,1,89,2|8,3:2|0:0,0:0:0:0:
60,60,211139,1,0,1:0:0:0:
252,8,211297,1,8,0:0:0:0:
187,199,211455,5,4,1:2:0:0:
152,16,211613,1,0,3:0:0:0:
294,100,211771,1,4,3:0:0:0:
104,164,211929,1,8,0:0:0:0:
252,8,212086,1,2,0:0:0:0:
311,216,212244,1,8,0:3:0:0:
20,136,212402,1,12,0:0:0:0:
20,136,212718,38,0,L|44:324,1,178,4|8,0:0|0:0,0:0:0:0:
187,199,213192,1,2,0:0:0:0:
212,380,213350,2,0,L|197:267,1,89,0|0,3:0|3:0,0:0:0:0:
169,108,213665,2,0,P|129:127|103:163,1,89,8|0,0:0|0:0,0:0:0:0:
272,232,213981,6,0,B|368:212|344:276|448:260,1,178,2|8,0:0|0:0,0:0:0:0:
512,156,214455,1,2,0:0:0:0:
408,80,214613,2,0,L|422:190,1,89,0|0,3:0|3:0,0:0:0:0:
442,260,214929,1,8,0:0:0:0:
500,64,215086,1,0,0:0:0:0:
304,109,215244,6,0,B|208:129|232:65|133:80,1,178,2|8,0:0|0:0,0:0:0:0:
25,143,215718,1,2,0:0:0:0:
160,260,215876,2,0,P|172:200|148:144,1,89,0|0,3:0|3:0,0:0:0:0:
25,143,216192,2,0,P|13:203|37:259,1,89,8|0,0:0|0:0,0:0:0:0:
129,352,216507,6,0,B|225:374|201:304|303:330,1,178,2|8,3:2|0:0,0:0:0:0:
392,364,216981,1,2,0:0:0:0:
413,220,217139,2,0,L|315:239,1,89,0|0,3:2|3:0,0:0:0:0:
160,260,217455,2,0,L|157:231,5,29.6666666666667,8|0|0|2|2|2,0:0|0:0|0:0|0:0|0:0|0:0,0:0:0:0:
155,208,217771,6,0,P|202:193|247:201,1,89,4|2,0:0|0:0,0:0:0:0:
413,220,218086,1,8,0:0:0:0:
346,60,218244,2,0,L|327:158,1,89,2|0,0:0|3:0,0:0:0:0:
299,329,218560,1,2,0:0:0:0:
155,208,218718,1,8,0:0:0:0:
329,147,218876,1,2,0:0:0:0:
84,124,219034,5,4,3:0:0:0:
265,230,219192,1,2,0:0:0:0:
200,79,219350,1,8,0:0:0:0:
64,319,219507,2,0,P|148:303|212:360,1,178,2|0,0:0|3:0,0:0:0:0:
308,380,219981,1,10,0:0:0:0:
336,376,220060,1,2,0:0:0:0:
360,364,220139,1,2,0:0:0:0:
380,348,220218,1,2,0:0:0:0:
392,324,220297,6,0,L|381:151,1,133.5,2|0,0:0|0:0,0:0:0:0:
380,168,220613,1,10,0:0:0:0:
256,100,220771,2,0,P|258:144|280:183,1,89
420,80,221086,1,2,0:0:0:0:
268,4,221244,1,8,0:0:0:0:
192,198,221402,6,0,L|284:182,1,89,2|0,0:0|3:0,0:0:0:0:
182,42,221718,2,0,L|90:58,1,89,2|8,0:0|0:0,0:0:0:0:
24,216,222034,2,0,P|20:268|44:324,1,89,2|0,0:0|3:0,0:0:0:0:
192,198,222350,1,2,0:0:0:0:
100,156,222507,1,8,0:0:0:0:
124,360,222665,1,8,0:0:0:0:
124,360,222744,1,8,0:0:0:0:
124,360,222823,6,0,B|184:352|184:352|236:368|236:368|312:356,1,178,6|8,0:0|0:0,0:0:0:0:
388,320,223297,1,0,0:0:0:0:
312,180,223455,2,0,P|300:240|312:272,1,89,2|0,3:2|3:0,0:0:0:0:
472,292,223771,2,0,P|484:232|472:200,1,89,8|4,0:0|0:3,0:0:0:0:
352,88,224086,6,0,B|252:64|272:124|176:100,1,178,2|8,0:0|0:0,0:0:0:0:
48,48,224560,1,2,0:0:0:0:
48,48,224639,1,0,3:0:0:0:
48,48,224718,2,0,L|56:144,1,89,2|0,0:0|3:0,0:0:0:0:
208,204,225034,1,8,0:0:0:0:
216,16,225192,1,0,0:0:0:0:
104,232,225350,5,2,0:0:0:0:
48,48,225507,1,0,0:0:0:0:
167,292,225665,5,10,0:0:0:0:
178,100,225822,1,0,0:0:0:0:
294,254,225981,5,2,0:0:0:0:
178,100,226138,1,0,0:0:0:0:
252,344,226297,5,10,0:0:0:0:
178,100,226455,1,0,0:0:0:0:
425,156,226613,6,0,P|454:190|468:232,1,89,2|0,0:0|0:0,0:0:0:0:
294,254,226929,1,10,0:0:0:0:
384,72,227086,2,0,P|450:66|490:85,1,89,2|0,0:0|3:0,0:0:0:0:
376,236,227402,1,2,0:0:0:0:
220,175,227560,1,10,0:0:0:0:
384,72,227718,1,2,0:0:0:0:
368,344,227876,6,0,P|308:304|200:336,1,178,4|8,0:0|0:0,0:0:0:0:
80,372,228350,1,2,0:0:0:0:
80,372,228429,1,8,0:0:0:0:
80,372,228507,2,0,L|64:276,1,89,0|0,3:0|3:0,0:0:0:0:
132,112,228823,1,10,0:0:0:0:
209,326,228981,1,0,0:0:0:0:
12,200,229139,6,0,P|72:188|160:252,1,133.5,4|0,3:0|0:0,0:0:0:0:
148,236,229455,1,8,0:0:0:0:
312,320,229613,1,2,0:0:0:0:
276,132,229771,1,4,3:0:0:0:
209,326,229929,1,2,3:2:0:0:
388,252,230086,1,8,0:0:0:0:
252,228,230244,1,0,0:0:0:0:
388,380,230402,6,0,P|464:356|512:276,1,133.5,2|0,0:0|0:0,0:0:0:0:
500,296,230718,1,8,0:0:0:0:
373,164,230876,1,2,0:0:0:0:
373,164,230955,1,0,3:0:0:0:
373,164,231034,2,0,L|389:260,1,89,4|2,3:0|3:2,0:0:0:0:
500,296,231350,1,8,0:0:0:0:
440,80,231507,1,2,0:0:0:0:
373,164,231665,5,4,3:0:0:0:
176,104,231823,1,0,0:0:0:0:
300,4,231981,2,0,L|284:112,1,89,10|0,0:0|0:0,0:0:0:0:
284,111,232218,1,8,3:2:0:0:
279,133,232297,1,8,0:0:0:0:
240,272,232455,1,8,0:3:0:0:
176,104,232613,1,4,3:0:0:0:
373,164,232771,1,0,3:0:0:0:
140,236,232929,6,0,P|84:252|8:220,1,128.160003128906,4|0,0:0|0:0,0:0:0:0:
76,92,233402,2,0,L|84:172,2,64.0800015644532,2|0|2,0:0|0:0|0:0,0:0:0:0:
140,236,233876,1,0,0:0:0:0:
140,236,234192,2,0,L|127:357,1,96.1200023466797,4|0,0:0|0:0,0:0:0:0:
128,360,234507,6,0,P|172:352|216:364,1,64.0800015644532,2|0,0:0|0:0,0:0:0:0:
333,379,234823,2,0,P|304:344|292:300,1,64.0800015644532,2|0,0:0|0:0,0:0:0:0:
248,192,235139,2,0,P|232:234|200:266,1,64.0800015644532,2|0,0:0|0:0,0:0:0:0:
40,356,235455,6,0,L|26:224,2,128.160003128906,4|0|4,0:0|0:0|0:3,0:0:0:0:
128,280,236244,1,0,0:0:0:0:
128,280,236402,2,0,L|119:200,1,64.0800015644532,2|0,3:2|0:0,0:0:0:0:
96,60,236718,6,0,B|168:72|140:20|232:36,1,128.160003128906,6|0,0:0|3:0,0:0:0:0:
239,39,237113,1,0,3:0:0:0:
262,51,237192,1,8,0:3:0:0:
308,204,237350,1,2,0:0:0:0:
208,136,237507,1,8,0:3:0:0:
224,260,237665,1,2,3:2:0:0:
368,116,237981,6,0,P|408:168|404:260,1,145.960002227173,6|0,0:0|0:0,0:0:0:0:
224,260,238455,1,8,0:0:0:0:
308,204,238613,2,0,L|320:288,1,72.9800011135864,2|0,0:0|0:0,0:0:0:0:
172,336,238929,1,0,3:0:0:0:
172,336,239244,5,2,0:0:0:0:
56,261,239402,2,0,B|140:277|112:229|204:245,1,145.960002227173,8|0,0:0|3:0,0:0:0:0:
318,276,239876,2,0,L|308:204,1,72.9800011135864,10|0,0:0|0:0,0:0:0:0:
280,39,240192,1,4,0:3:0:0:
154,87,240350,1,0,3:0:0:0:
154,87,240429,1,0,0:0:0:0:
154,87,240507,6,0,L|144:160,1,72.9800011135864,2|0,3:2|3:0,0:0:0:0:
116,332,240823,1,0,0:0:0:0:
8,196,240981,1,8,0:0:0:0:
111,311,241139,1,0,0:0:0:0:
144,159,241297,1,8,0:0:0:0:
24,300,241455,2,0,L|14:373,1,72.9800011135864,0|0,3:0|3:0,0:0:0:0:
184,256,241771,5,2,0:0:0:0:
48,104,241929,2,0,P|104:64|200:72,1,145.960002227173,8|2,0:0|0:0,0:0:0:0:
333,99,242402,1,8,0:0:0:0:
244,144,242560,1,8,0:3:0:0:
337,3,242718,1,2,0:0:0:0:
420,164,242876,1,0,3:0:0:0:
420,164,242955,1,0,3:0:0:0:
420,164,243034,6,0,P|372:204|340:212,1,89,4|0,0:0|0:0,0:0:0:0:
148,164,243350,2,0,L|176:276,1,89,0|2,3:0|0:0,0:0:0:0:
250,366,243665,2,0,L|272:280,1,89,0|8,3:0|0:0,0:0:0:0:
333,99,243981,1,0,3:0:0:0:
280,264,244139,1,8,0:0:0:0:
148,164,244297,6,0,L|40:156,1,89,2|0,0:0|0:0,0:0:0:0:
66,360,244613,2,0,P|88:278|169:250,2,178,8|2|0,3:0|3:2|3:0,0:0:0:0:
154,339,245402,1,0,0:0:0:0:
356,312,245560,6,0,P|356:252|324:212,1,89,4|0,0:0|0:0,0:0:0:0:
158,161,245876,2,0,L|170:261,1,89,0|0,3:0|0:0,0:0:0:0:
272,280,246192,1,2,3:2:0:0:
304,100,246350,1,8,0:0:0:0:
268,296,246507,1,2,0:0:0:0:
158,161,246665,1,8,0:0:0:0:
336,208,246823,6,0,P|382:184|414:144,1,89,2|8,0:0|0:0,0:0:0:0:
289,12,247139,2,0,L|305:112,1,89,4|0,0:3|0:0,0:0:0:0:
172,248,247455,6,0,P|179:219|178:189,1,59.3333333333333,8|8,0:0|0:3,0:0:0:0:
40,163,247665,2,0,P|61:183|86:198,1,59.3333333333333,8|4,0:0|0:3,0:0:0:0:
179,91,247876,2,0,P|150:99|125:114,1,59.3333333333333,4|4,0:3|0:3,0:0:0:0:
56,288,248086,5,4,0:0:0:0:
64,304,249350,5,2,0:0:0:0:
72,320,250455,5,0,3:0:0:0:
144,376,250613,2,0,P|164:328|156:284,1,89,2|2,3:2|0:0,0:0:0:0:
68,140,251244,2,0,P|64:183|83:223,1,89,2|2,0:0|0:0,0:0:0:0:
159,292,251718,1,2,0:0:0:0:
288,160,251876,5,2,0:3:0:0:
288,160,253139,6,0,B|336:152|372:192|372:192|420:168|472:192,1,181.560001108154,4|8,0:0|0:0,0:0:0:0:
304,340,253613,1,2,0:0:0:0:
304,340,253692,1,0,0:0:0:0:
304,340,253771,2,0,L|296:248,1,90.7800005540771,4|0,3:0|3:0,0:0:0:0:
276,68,254086,1,10,3:2:0:0:
372,192,254244,1,0,0:0:0:0:
212,212,254402,6,0,B|112:188|136:260|32:232,1,181.560001108154,2|8,0:0|0:0,0:0:0:0:
184,304,254876,1,2,0:0:0:0:
184,304,254955,1,0,3:0:0:0:
184,304,255034,1,4,3:0:0:0:
76,148,255192,1,0,3:0:0:0:
219,121,255350,2,0,L|212:212,1,90.7800005540771,8|0,0:0|0:0,0:0:0:0:
100,28,255665,6,0,P|180:76|272:24,1,181.560001108154,4|8,0:3|0:0,0:0:0:0:
380,12,256139,1,2,0:0:0:0:
380,12,256218,1,0,3:0:0:0:
380,12,256297,2,0,L|373:103,1,90.7800005540771,2|0,3:2|3:0,0:0:0:0:
316,236,256613,1,8,0:0:0:0:
256,45,256771,1,0,0:0:0:0:
408,188,256929,6,0,P|368:144|248:160,1,181.560001108154,4|8,0:3|0:0,0:0:0:0:
156,248,257402,1,2,0:0:0:0:
156,248,257481,1,0,3:0:0:0:
156,248,257560,2,0,L|163:339,1,90.7800005540771,4|0,3:0|3:0,0:0:0:0:
316,236,257876,1,8,0:0:0:0:
152,152,258034,1,8,0:3:0:0:
9,372,258192,6,0,P|49:328|169:344,1,181.560001108154,4|8,0:0|0:0,0:0:0:0:
212,248,258665,1,2,0:0:0:0:
73,188,258823,2,0,P|107:160|151:151,1,90.7800005540771,4|0,3:0|3:0,0:0:0:0:
325,145,259139,2,0,L|313:257,1,90.7800005540771,8|2,0:0|0:0,0:0:0:0:
236,44,259455,6,0,P|324:100|412:60,1,181.560001108154,4|8,0:3|0:0,0:0:0:0:
500,20,259929,1,2,0:0:0:0:
500,20,260007,1,0,3:0:0:0:
500,20,260086,1,4,3:0:0:0:
328,4,260244,1,0,3:0:0:0:
476,152,260402,1,8,0:0:0:0:
500,20,260560,1,0,0:0:0:0:
325,145,260718,6,0,L|341:337,1,181.560001108154,2|8,0:0|0:0,0:0:0:0:
216,368,261192,1,2,0:0:0:0:
216,368,261350,2,0,L|207:260,1,90.7800005540771,4|0,3:0|3:0,0:0:0:0:
325,145,261665,2,0,L|332:235,1,90.7800005540771,10|0,0:0|0:0,0:0:0:0:
120,200,261981,5,2,0:0:0:0:
260,52,262139,1,2,0:0:0:0:
208,277,262297,1,10,0:0:0:0:
92,88,262455,1,0,0:0:0:0:
325,145,262613,1,2,3:2:0:0:
100,308,262771,1,8,0:0:0:0:
72,300,262850,1,8,0:0:0:0:
48,288,262929,2,0,P|28:256|20:216,1,45.3900002770386,2|0,1:2|0:0,0:0:0:0:
216,136,263086,2,0,L|212:208,1,45.3900002770386,8|8,0:0|0:0,0:0:0:0:
196,372,263244,6,0,P|228:320|348:316,1,181.560001108154,6|12,0:0|0:0,0:0:0:0:
472,348,263718,1,0,3:0:0:0:
472,348,263876,2,0,L|464:240,1,90.7800005540771,2|0,3:2|0:0,0:0:0:0:
332,220,264192,2,0,L|340:328,1,90.7800005540771,8|0,0:0|0:0,0:0:0:0:
488,168,264507,6,0,B|388:184|416:112|312:124,1,181.560001108154,2|8,0:0|0:0,0:0:0:0:
212,172,264981,1,2,0:0:0:0:
338,310,265139,2,0,L|332:220,1,90.7800005540771,4|0,3:0|0:0,0:0:0:0:
220,64,265455,2,0,P|160:76|132:96,1,90.7800005540771,8|0,0:0|0:0,0:0:0:0:
225,353,265771,6,0,L|209:142,1,181.560001108154,2|10,0:0|0:0,0:0:0:0:
40,152,266244,1,0,0:0:0:0:
40,152,266323,1,0,3:0:0:0:
40,152,266402,2,0,L|30:278,1,90.7800005540771,2|0,0:0|3:0,0:0:0:0:
211,171,266718,1,10,0:0:0:0:
48,56,266876,1,0,3:0:0:0:
144,272,267034,6,0,P|228:288|308:240,1,181.560001108154,4|8,0:3|0:0,0:0:0:0:
368,144,267507,1,2,0:0:0:0:
204,80,267665,2,0,L|213:206,1,90.7800005540771,4|0,3:0|3:0,0:0:0:0:
420,248,267981,1,8,0:0:0:0:
360,40,268139,1,8,0:3:0:0:
307,240,268297,6,0,B|204:220|236:284|128:264,1,181.560001108154,4|8,0:0|0:0,0:0:0:0:
72,144,268771,1,2,0:0:0:0:
34,241,268929,2,0,P|34:286|52:328,1,90.7800005540771,0|0,3:0|3:0,0:0:0:0:
166,170,269244,2,0,P|184:129|184:84,1,90.7800005540771,8|2,0:0|0:0,0:0:0:0:
26,64,269560,6,0,P|74:104|202:60,1,181.560001108154,4|8,0:3|0:0,0:0:0:0:
312,40,270034,1,0,0:0:0:0:
312,40,270113,1,0,3:0:0:0:
312,40,270192,2,0,L|324:160,1,90.7800005540771,4|0,3:0|3:0,0:0:0:0:
173,173,270507,2,0,L|183:83,1,90.7800005540771,8|0,0:0|0:0,0:0:0:0:
412,188,270823,6,0,P|348:168|264:236,1,181.560001108154,4|8,0:3|0:0,0:0:0:0:
283,384,271297,1,0,3:0:0:0:
353,260,271455,1,2,0:0:0:0:
179,291,271613,1,0,3:0:0:0:
283,384,271771,1,8,0:0:0:0:
173,189,271929,1,2,0:0:0:0:
30,333,272086,6,0,P|94:273|179:291,1,181.560001108154,2|8,0:0|0:0,0:0:0:0:
408,340,272560,1,2,0:0:0:0:
408,340,272639,1,0,3:0:0:0:
408,340,272718,1,0,1:0:0:0:
256,198,272876,1,0,0:0:0:0:
260,217,272955,1,8,0:0:0:0:
264,233,273034,1,2,1:2:0:0:
324,384,273192,1,8,0:3:0:0:
412,188,273350,6,0,L|419:97,1,90.7800005540771,8|0,3:0|0:0,0:0:0:0:
328,148,273586,1,0,3:0:0:0:
328,148,273665,2,0,L|319:57,1,90.7800005540771,8|0,0:2|0:0,0:0:0:0:
238,123,273902,1,0,3:0:0:0:
238,123,273981,2,0,L|213:35,1,90.7800005540771,8|0,0:2|0:0,0:0:0:0:
173,207,274218,1,0,3:0:0:0:
173,207,274297,2,0,L|133:124,1,90.7800005540771,8|0,0:2|0:0,0:0:0:0:
94,43,274534,1,0,3:0:0:0:
78,53,274613,6,0,P|49:87|44:149,1,90.7800005540771,8|0,0:0|0:0,0:0:0:0:
45,153,274850,1,0,3:0:0:0:
52,171,274929,1,8,0:0:0:0:
176,296,275086,5,2,0:0:0:0:
202,320,275164,1,0,0:0:0:0:
235,335,275243,1,8,0:0:0:0:
271,339,275322,1,0,0:0:0:0:
306,330,275401,1,2,1:2:0:0:
336,308,275480,1,8,1:2:0:0:
356,280,275560,6,0,L|368:208,1,49.8400006083984,8|8,0:0|0:0,0:0:0:0:
248,107,275718,2,0,L|254:161,1,49.8400006083984,8|8,0:0|0:0,0:0:0:0:
271,339,275876,5,2,0:0:0:0:
271,339,277139,6,0,B|171:311|191:379|95:359,1,181.560001108154,4|10,0:0|0:0,0:0:0:0:
24,264,277613,1,0,3:0:0:0:
24,264,277692,1,0,3:0:0:0:
24,264,277771,1,2,3:2:0:0:
84,348,277929,1,0,3:0:0:0:
136,168,278086,2,0,L|128:268,1,90.7800005540771,10|0,0:0|0:0,0:0:0:0:
4,136,278402,6,0,P|64:152|156:80,1,181.560001108154,4|10,0:3|0:0,0:0:0:0:
60,56,278876,1,0,3:0:0:0:
60,56,278955,1,0,3:0:0:0:
60,56,279034,1,2,3:2:0:0:
232,12,279192,1,0,3:0:0:0:
161,176,279350,2,0,L|153:85,1,90.7800005540771,10|0,0:0|0:0,0:0:0:0:
339,170,279665,6,0,B|264:164|264:164|224:180|224:180|143:174,1,181.560001108154,4|10,0:3|0:0,0:0:0:0:
60,248,280139,1,0,3:0:0:0:
60,248,280218,1,8,0:0:0:0:
60,248,280297,2,0,L|52:338,1,90.7800005540771,2|0,3:2|3:0,0:0:0:0:
168,265,280613,2,0,L|160:174,1,90.7800005540771,14|0,0:0|0:0,0:0:0:0:
48,120,280929,5,2,0:0:0:0:
148,360,281086,1,0,0:0:0:0:
260,208,281244,1,10,0:0:0:0:
60,248,281402,1,0,0:0:0:0:
268,332,281560,5,2,1:2:0:0:
236,104,281718,1,0,3:0:0:0:
168,265,281876,1,12,0:0:0:0:
344,272,282034,1,0,0:0:0:0:
344,272,282113,1,0,0:0:0:0:
344,272,282192,6,0,B|432:248|416:316|524:292,1,181.560001108154,4|10,0:0|0:0,0:0:0:0:
380,368,282665,1,0,3:0:0:0:
380,368,282744,1,0,3:0:0:0:
380,368,282823,1,2,3:2:0:0:
480,208,282981,1,0,3:0:0:0:
336,181,283139,2,0,L|344:272,1,90.7800005540771,8|0,0:0|0:0,0:0:0:0:
464,108,283455,6,0,P|396:136|304:88,1,181.560001108154,4|8,0:3|0:0,0:0:0:0:
212,12,283929,1,0,3:0:0:0:
212,12,284007,1,8,0:0:0:0:
212,12,284086,2,0,L|96:32,1,90.7800005540771,2|0,3:2|3:0,0:0:0:0:
40,160,284402,2,0,P|24:96|36:48,1,90.7800005540771,8|0,0:0|0:0,0:0:0:0:
184,108,284718,6,0,B|172:308,1,181.560001108154,4|10,0:3|0:0,0:0:0:0:
68,360,285192,1,0,3:0:0:0:
68,360,285271,1,8,0:0:0:0:
68,360,285350,2,0,B|62:269,1,90.7800005540771,2|0,3:2|3:0,0:0:0:0:
232,196,285665,2,0,P|272:232|288:284,1,90.7800005540771,8|0,0:0|0:0,0:0:0:0:
184,384,285981,5,10,0:0:0:0:
120,168,286139,1,0,3:0:0:0:
285,265,286297,1,14,0:0:0:0:
68,360,286455,1,0,0:0:0:0:
200,92,286613,1,10,0:0:0:0:
227,89,286691,1,8,0:0:0:0:
254,86,286770,1,8,3:2:0:0:
281,84,286849,1,8,3:2:0:0:
308,81,286929,6,0,P|320:124|320:152,1,45.3900002770386,10|8,0:0|0:3,0:0:0:0:
285,265,287086,2,0,P|273:222|273:194,1,45.3900002770386,4|4,3:0|3:0,0:0:0:0:
316,60,287244,5,8,3:0:0:0:
376,220,287402,1,2,0:0:0:0:
182,176,287560,2,0,B|80:196|108:120|4:136,1,181.560001108154,12|2,0:0|3:2,0:0:0:0:
30,229,288034,1,0,3:0:0:0:
153,90,288192,2,0,L|145:-10,1,90.7800005540771,8|0,0:0|0:0,0:0:0:0:
301,78,288507,6,0,P|216:95|182:176,1,181.560001108154,2|10,0:0|0:0,0:0:0:0:
284,260,288981,1,0,0:0:0:0:
284,260,289060,1,0,0:0:0:0:
284,260,289139,2,0,L|276:160,1,90.7800005540771,2|0,3:2|3:0,0:0:0:0:
104,224,289455,2,0,L|96:314,1,90.7800005540771,8|0,0:0|0:0,0:0:0:0:
256,356,289771,6,0,P|341:338|379:258,1,181.560001108154,4|10,0:3|0:0,0:0:0:0:
276,169,290244,1,0,0:0:0:0:
276,169,290323,1,8,0:0:0:0:
276,169,290402,2,0,L|284:260,1,90.7800005540771,2|0,3:2|0:0,0:0:0:0:
452,204,290718,1,10,0:0:0:0:
316,84,290876,1,0,0:0:0:0:
379,258,291034,5,2,0:0:0:0:
508,120,291192,1,0,0:0:0:0:
276,169,291350,1,10,0:0:0:0:
460,300,291507,5,0,0:0:0:0:
423,40,291665,1,2,0:0:0:0:
379,258,291823,1,0,0:0:0:0:
216,92,291981,1,14,0:0:0:0:
216,92,292297,6,0,B|152:88|152:88|102:109|102:109|32:104,1,181.560001108154,4|10,0:0|0:0,0:0:0:0:
172,268,292771,1,0,3:0:0:0:
172,268,292850,1,8,0:0:0:0:
172,268,292929,2,0,P|184:212|168:168,1,90.7800005540771,2|0,3:2|3:0,0:0:0:0:
39,104,293244,2,0,P|27:160|43:204,1,90.7800005540771,8|0,0:0|0:0,0:0:0:0:
104,368,293560,6,0,P|164:304|280:340,1,181.560001108154,4|10,0:3|0:0,0:0:0:0:
372,368,294034,1,0,3:0:0:0:
372,368,294113,1,8,0:0:0:0:
372,368,294192,2,0,L|360:264,1,90.7800005540771,2|0,3:2|3:0,0:0:0:0:
248,120,294507,1,8,0:0:0:0:
251,312,294665,1,0,0:0:0:0:
463,269,294823,6,0,P|417:194|330:183,1,181.560001108154,4|10,0:3|0:0,0:0:0:0:
128,232,295297,1,0,3:0:0:0:
128,232,295376,1,8,0:0:0:0:
128,232,295455,2,0,L|117:322,1,90.7800005540771,2|0,3:2|3:0,0:0:0:0:
224,212,295771,1,8,0:0:0:0:
64,80,295929,1,0,0:0:0:0:
128,232,296086,5,2,3:2:0:0:
228,36,296244,1,2,0:0:0:0:
43,179,296402,1,8,0:0:0:0:
256,127,296560,1,2,0:0:0:0:
256,127,296639,1,8,0:0:0:0:
256,127,296718,1,10,0:0:0:0:
136,16,296876,1,8,0:3:0:0:
128,232,297034,1,4,3:3:0:0:
165,126,297192,1,2,0:0:0:0:
330,183,297350,6,0,B|359:266|300:266|328:364,1,181.115004421753,4|0,0:0|0:0,0:0:0:0:
326,360,298273,2,0,P|274:328|200:343,1,124.6,2|0,0:0|0:0,0:0:0:0:
139,365,298734,6,0,L|127:225,1,133.499995925903,2|0,0:0|0:0,0:0:0:0:
166,159,299234,2,0,P|119:149|93:154,2,53.3999983703614,2|0|0,0:0|0:0|0:0,0:0:0:0:
304,216,299678,2,0,L|316:76,1,133.499995925903,2|0,0:0|0:0,0:0:0:0:
380,24,300238,6,0,P|312:-1|283:5,1,89,2|0,0:0|0:0,0:0:0:0:
217,26,300800,1,2,0:0:0:0:
88,112,301363,2,0,L|106:284,1,155.75,2|0,0:0|0:0,0:0:0:0:
114,349,302358,6,0,P|128:270|209:350,1,249.19999239502,2|0,0:3|0:0,0:0:0:0:
