osu file format v14

[General]
AudioFilename: audio.mp3
AudioLeadIn: 0
PreviewTime: -1
Countdown: 1
SampleSet: Soft
StackLeniency: 0.7
Mode: 0
LetterboxInBreaks: 0
WidescreenStoryboard: 0

[Editor]
DistanceSpacing: 1.5
BeatDivisor: 4
GridSize: 4
TimelineZoom: 1

[Metadata]
Title:Akatsuki Zukuyo
TitleUnicode:暁月夜-アカツキヅクヨ-
Artist:HoneyWorks
ArtistUnicode:HoneyWorks
Creator:Stereocenter
Version:Expert
Source:
Tags:鎖那 sana
BeatmapID:1973108
BeatmapSetID:944841

[Difficulty]
HPDrainRate:5
CircleSize:4
OverallDifficulty:5
ApproachRate:9
SliderMultiplier:1.4
SliderTickRate:1

[Events]
//Background and Video events
0,0,"cropped-1920-1080-1000831.jpg",0,0
//Break Periods
//Storyboard Layer 0 (Background)
//Storyboard Layer 1 (Fail)
//Storyboard Layer 2 (Pass)
//Storyboard Layer 3 (Foreground)
//Storyboard Sound Samples

[TimingPoints]
226,387.096774193548,4,2,0,100,1,0
903,-100,4,2,0,5,0,0
1000,-100,4,2,0,100,0,0
1290,-100,4,2,0,5,0,0
1387,-100,4,2,0,100,0,0
1677,-100,4,2,0,5,0,0
1774,-100,4,2,0,100,0,0
16153,333.333333333333,4,2,0,100,1,0

[HitObjects]
60,36,613,6,0,L|164:36,1,105
200,120,1000,2,0,L|92:120,1,105
116,204,1387,2,0,L|224:204,1,105
248,292,1774,2,0,L|108:292,1,140
344,252,2548,6,0,L|416:252,2,70
276,208,3129,1,0,0:0:0:0:
477,38,3710,5,0,0:0:0:0:
476,120,3903,1,0,0:0:0:0:
452,40,4096,1,0,0:0:0:0:
451,122,4289,1,0,0:0:0:0:
428,44,4484,1,0,0:0:0:0:
427,126,4677,1,0,0:0:0:0:
336,180,5209,5,0,0:0:0:0:
336,180,5258,1,0,0:0:0:0:
289,96,5451,1,0,0:0:0:0:
240,178,5645,1,0,0:0:0:0:
289,96,5838,1,0,0:0:0:0:
194,96,6032,1,0,0:0:0:0:
289,96,6225,1,0,0:0:0:0:
248,28,7193,5,0,0:0:0:0:
152,29,7387,1,0,0:0:0:0:
89,97,7580,1,0,0:0:0:0:
90,192,7774,1,0,0:0:0:0:
169,144,7967,5,0,0:0:0:0:
170,239,8161,1,0,0:0:0:0:
248,193,8355,1,0,0:0:0:0:
249,288,8549,1,0,0:0:0:0:
325,141,8742,1,0,0:0:0:0:
327,236,8936,1,0,0:0:0:0:
404,92,9129,5,0,0:0:0:0:
406,185,9323,1,0,0:0:0:0:
37,338,9903,5,0,0:0:0:0:
121,356,10096,1,0,0:0:0:0:
37,252,10290,1,0,0:0:0:0:
121,234,10483,1,0,0:0:0:0:
37,130,10677,1,0,0:0:0:0:
121,148,10870,1,0,0:0:0:0:
37,44,11064,5,0,0:0:0:0:
475,44,11838,5,0,0:0:0:0:
475,340,12613,5,0,0:0:0:0:
37,340,13387,5,0,0:0:0:0:
256,192,14161,12,0,15903,0:0:0:0:
192,40,16153,6,0,L|192:114,1,70
320,40,16486,1,0,0:0:0:0:
320,116,16653,6,0,L|320:186,1,70
192,192,16986,1,0,0:0:0:0:
192,274,17153,6,0,L|192:344,1,70
320,344,17486,1,0,0:0:0:0:
320,260,17819,1,0,0:0:0:0:
256,192,18152,5,0,0:0:0:0:
256,192,18236,1,0,0:0:0:0:
256,192,18319,1,0,0:0:0:0:
256,192,18402,1,0,0:0:0:0:
256,192,18486,1,0,0:0:0:0:
256,192,18569,1,0,0:0:0:0:
256,192,18652,1,0,0:0:0:0:
256,192,18736,1,0,0:0:0:0:
256,192,18819,1,0,0:0:0:0:
136,192,19152,1,0,0:0:0:0:
256,304,19486,1,0,0:0:0:0:
368,192,19819,1,0,0:0:0:0:
103,128,20152,5,0,0:0:0:0:
113,109,20235,1,0,0:0:0:0:
125,92,20318,1,0,0:0:0:0:
140,77,20401,1,0,0:0:0:0:
157,65,20485,1,0,0:0:0:0:
175,54,20568,1,0,0:0:0:0:
194,47,20651,1,0,0:0:0:0:
215,42,20735,1,0,0:0:0:0:
236,39,20818,1,0,0:0:0:0:
257,40,20901,1,0,0:0:0:0:
277,44,20985,1,0,0:0:0:0:
297,50,21068,1,0,0:0:0:0:
316,59,21151,1,0,0:0:0:0:
334,71,21235,1,0,0:0:0:0:
349,85,21318,1,0,0:0:0:0:
363,101,21401,1,0,0:0:0:0:
374,118,21485,5,0,0:0:0:0:
383,295,21819,1,0,0:0:0:0:
127,295,22152,5,0,0:0:0:0:
131,205,22318,1,0,0:0:0:0:
135,118,22486,1,0,0:0:0:0:
140,33,22652,1,0,0:0:0:0:
257,291,22985,5,0,0:0:0:0:
253,203,23153,1,0,0:0:0:0:
178,330,23486,5,0,3:0:0:0:
257,291,23654,1,0,3:0:0:0:
331,252,23820,1,0,3:0:0:0:
39,191,24152,5,0,0:0:0:0:
471,191,24486,1,0,0:0:0:0:
103,95,24819,1,0,0:0:0:0:
167,191,24986,1,0,0:0:0:0:
239,95,25152,1,0,0:0:0:0:
303,191,25319,1,0,0:0:0:0:
503,95,25652,5,0,0:0:0:0:
439,191,25819,1,0,0:0:0:0:
375,95,25986,1,0,0:0:0:0:
439,0,26152,1,0,0:0:0:0:
439,383,26486,1,0,0:0:0:0:
71,0,26819,5,0,0:0:0:0:
71,383,27152,1,0,0:0:0:0:
127,71,27486,5,0,0:0:0:0:
128,156,27652,1,0,0:0:0:0:
128,240,27819,1,0,0:0:0:0:
128,324,27986,1,0,0:0:0:0:
271,15,28319,5,0,0:0:0:0:
191,15,28486,1,0,0:0:0:0:
239,367,28819,5,0,0:0:0:0:
319,367,28986,1,0,0:0:0:0:
399,367,29152,1,0,0:0:0:0:
415,107,29486,5,0,0:0:0:0:
415,191,29652,1,0,0:0:0:0:
415,275,29819,1,0,0:0:0:0:
336,284,29986,1,0,0:0:0:0:
335,191,30153,1,0,0:0:0:0:
336,100,30319,1,0,0:0:0:0:
256,84,30486,1,0,0:0:0:0:
255,191,30653,1,0,0:0:0:0:
252,296,30819,1,0,0:0:0:0:
172,312,30986,1,0,0:0:0:0:
175,191,31153,1,0,0:0:0:0:
176,64,31319,1,0,0:0:0:0:
96,36,31486,1,0,0:0:0:0:
92,336,31652,1,0,0:0:0:0:
312,24,32152,6,0,P|384:24|400:32,1,70
200,24,32486,2,0,P|128:24|112:32,1,70
191,120,32819,2,0,P|256:96|320:120,1,140
256,192,33319,2,0,L|256:336,1,140
176,360,33819,5,0,0:0:0:0:
344,360,34152,1,0,0:0:0:0:
104,256,34486,1,0,0:0:0:0:
408,256,34819,2,0,L|488:256,1,70
328,168,35152,2,0,L|408:168,1,70
104,256,35486,2,0,L|24:256,1,70
184,168,35819,1,0,0:0:0:0:
256,280,35986,6,0,L|256:350,1,70
256,200,36319,1,0,0:0:0:0:
184,80,36486,1,0,0:0:0:0:
328,80,36652,1,0,0:0:0:0:
256,0,36819,1,0,0:0:0:0:
416,96,37152,1,0,0:0:0:0:
332,284,37486,6,0,L|412:284,1,70
180,284,37819,2,0,L|100:284,1,70
96,96,38152,2,0,L|176:96,1,70
256,124,38486,1,0,0:0:0:0:
416,95,38652,2,0,L|376:242,1,140
132,231,39152,2,0,L|96:95,2,140
328,0,40152,6,0,L|400:0,1,70
184,0,40486,2,0,L|112:0,1,70
312,140,40819,2,0,L|361:90,1,70
200,140,41152,1,0,0:0:0:0:
200,140,41319,6,0,L|150:90,1,70
256,68,41652,1,0,0:0:0:0:
256,200,41819,1,0,0:0:0:0:
256,328,41986,1,0,0:0:0:0:
256,328,42069,5,0,0:0:0:0:
256,328,42152,1,0,0:0:0:0:
320,264,42319,1,0,0:0:0:0:
192,264,42486,1,0,0:0:0:0:
192,132,42652,1,0,0:0:0:0:
320,128,42819,5,0,0:0:0:0:
408,128,42986,1,0,0:0:0:0:
192,248,43152,1,0,0:0:0:0:
104,248,43319,1,0,0:0:0:0:
256,192,43486,1,0,0:0:0:0:
232,344,43819,5,0,0:0:0:0:
232,256,43986,1,0,0:0:0:0:
320,256,44152,1,0,0:0:0:0:
320,344,44319,1,0,0:0:0:0:
200,128,44485,1,0,0:0:0:0:
200,40,44652,1,0,0:0:0:0:
256,192,44819,1,0,0:0:0:0:
120,56,45152,5,0,0:0:0:0:
256,56,45319,1,0,0:0:0:0:
388,56,45486,1,0,0:0:0:0:
388,192,45653,1,0,0:0:0:0:
392,324,45819,1,0,0:0:0:0:
256,324,45986,1,0,0:0:0:0:
124,328,46152,1,0,0:0:0:0:
256,192,46486,5,0,0:0:0:0:
124,192,46652,1,0,0:0:0:0:
324,12,47152,5,0,0:0:0:0:
324,372,47486,1,0,0:0:0:0:
188,12,47819,1,0,0:0:0:0:
188,372,48153,5,0,0:0:0:0:
140,288,48319,1,0,0:0:0:0:
256,292,48486,1,0,0:0:0:0:
372,288,48652,1,0,0:0:0:0:
324,372,48818,1,0,0:0:0:0:
256,312,48986,1,0,0:0:0:0:
96,192,49319,5,0,0:0:0:0:
176,192,49486,1,0,0:0:0:0:
256,192,49652,1,0,0:0:0:0:
336,192,49819,1,0,0:0:0:0:
416,192,49986,1,0,0:0:0:0:
196,16,50486,1,0,0:0:0:0:
316,16,50652,1,0,0:0:0:0:
256,76,50819,1,0,0:0:0:0:
196,136,50986,1,0,0:0:0:0:
316,136,51152,1,0,0:0:0:0:
256,196,51319,1,0,0:0:0:0:
196,256,51486,1,0,0:0:0:0:
320,248,51652,1,0,0:0:0:0:
260,308,51819,1,0,0:0:0:0:
28,228,52152,5,0,0:0:0:0:
104,156,52319,1,0,0:0:0:0:
180,228,52486,1,0,0:0:0:0:
256,156,52652,1,0,0:0:0:0:
332,228,52819,1,0,0:0:0:0:
408,156,52986,1,0,0:0:0:0:
484,228,53153,5,0,0:0:0:0:
404,76,53486,1,0,0:0:0:0:
256,16,53819,1,0,0:0:0:0:
108,76,54152,1,0,0:0:0:0:
28,228,54486,1,0,0:0:0:0:
256,368,54819,2,0,L|256:204,1,140
256,16,55486,2,0,L|256:180,1,140
184,192,56152,5,0,0:0:0:0:
328,192,56819,1,0,0:0:0:0:
112,148,57486,5,0,0:0:0:0:
400,236,58152,1,0,0:0:0:0:
96,64,58819,5,0,0:0:0:0:
416,320,59486,1,0,0:0:0:0:
160,0,60152,5,0,0:0:0:0:
352,384,60819,1,0,0:0:0:0:
352,104,61486,1,0,0:0:0:0:
432,92,61652,1,0,0:0:0:0:
508,80,61819,1,0,0:0:0:0:
468,172,61986,1,0,0:0:0:0:
160,104,62486,5,0,0:0:0:0:
125,99,62569,1,0,0:0:0:0:
90,94,62652,1,0,0:0:0:0:
55,90,62736,1,0,0:0:0:0:
21,85,62819,1,0,0:0:0:0:
256,148,63152,1,0,0:0:0:0:
256,148,63319,1,0,0:0:0:0:
256,28,63819,1,0,0:0:0:0:
352,324,64152,5,0,0:0:0:0:
228,232,64319,1,0,0:0:0:0:
100,141,64486,1,0,0:0:0:0:
260,140,64652,1,0,0:0:0:0:
410,140,64986,5,0,0:0:0:0:
284,228,65152,1,0,0:0:0:0:
159,324,65319,1,0,0:0:0:0:
256,56,65819,1,0,0:0:0:0:
256,56,66152,1,0,0:0:0:0:
256,56,66486,1,0,0:0:0:0:
320,112,66819,2,0,L|404:92,1,70
192,112,67152,2,0,L|108:92,1,70
328,208,67486,5,0,0:0:0:0:
256,160,67652,1,0,0:0:0:0:
188,208,67819,1,0,0:0:0:0:
304,300,67986,2,0,L|448:268,1,140
208,300,68486,2,0,L|136:284,1,70
139,284,68819,2,0,L|67:268,2,70
319,111,69319,6,0,P|259:82|196:112,1,140
256,4,69819,1,0,0:0:0:0:
120,164,70152,1,0,0:0:0:0:
200,176,70319,1,0,0:0:0:0:
256,240,70486,1,0,0:0:0:0:
312,176,70652,2,0,L|458:155,1,140
508,216,71152,1,0,0:0:0:0:
4,216,71486,5,0,0:0:0:0:
64,156,71652,1,0,0:0:0:0:
64,156,71736,1,0,0:0:0:0:
64,156,71819,1,0,0:0:0:0:
96,240,71986,1,0,0:0:0:0:
96,240,72070,1,0,0:0:0:0:
96,240,72153,5,0,0:0:0:0:
168,96,72319,1,0,0:0:0:0:
256,296,72486,1,0,0:0:0:0:
256,144,72652,1,0,0:0:0:0:
416,240,72820,1,0,0:0:0:0:
344,96,72986,1,0,0:0:0:0:
256,220,73152,1,0,0:0:0:0:
256,4,73319,6,0,L|256:144,1,140
336,256,73819,1,0,0:0:0:0:
176,260,73986,1,0,0:0:0:0:
256,376,74152,1,0,0:0:0:0:
256,296,74319,1,0,0:0:0:0:
256,216,74486,1,0,0:0:0:0:
192,108,74819,6,0,P|255:82|318:108,1,140
156,40,75486,2,0,P|256:8|364:48,1,210
124,192,76319,5,0,0:0:0:0:
180,264,76486,1,0,0:0:0:0:
256,220,76652,1,0,0:0:0:0:
332,264,76819,1,0,0:0:0:0:
360,232,76902,1,0,0:0:0:0:
388,192,76986,1,0,0:0:0:0:
256,120,77152,1,0,0:0:0:0:
48,348,77486,5,0,0:0:0:0:
48,16,77819,1,0,0:0:0:0:
128,348,78152,5,0,0:0:0:0:
128,176,78319,1,0,0:0:0:0:
128,16,78485,1,0,0:0:0:0:
208,176,78652,1,0,0:0:0:0:
204,348,78819,5,0,0:0:0:0:
204,16,79152,1,0,0:0:0:0:
284,348,79485,5,0,0:0:0:0:
284,176,79652,1,0,0:0:0:0:
284,16,79818,1,0,0:0:0:0:
364,176,79985,1,0,0:0:0:0:
360,348,80152,5,0,0:0:0:0:
364,16,80485,1,0,0:0:0:0:
444,348,80818,5,0,0:0:0:0:
488,244,80986,1,0,0:0:0:0:
444,16,81319,2,0,L|428:172,1,140
356,92,81819,2,0,L|348:170,1,70
340,248,82152,1,0,0:0:0:0:
252,308,82319,1,0,0:0:0:0:
172,248,82486,1,0,0:0:0:0:
48,16,82819,5,0,0:0:0:0:
48,348,83152,1,0,0:0:0:0:
128,16,83485,5,0,0:0:0:0:
128,164,83652,1,0,0:0:0:0:
128,348,83818,1,0,0:0:0:0:
88,232,83986,1,0,0:0:0:0:
424,232,84319,1,0,0:0:0:0:
384,348,84487,1,0,0:0:0:0:
304,312,84652,1,0,0:0:0:0:
256,384,84819,1,0,0:0:0:0:
256,192,85152,1,0,0:0:0:0:
256,0,85486,5,0,0:0:0:0:
256,192,85652,12,0,86486,0:0:0:0:
136,112,86819,5,0,0:0:0:0:
172,192,86986,1,0,0:0:0:0:
216,112,87152,1,0,0:0:0:0:
220,272,87319,5,0,0:0:0:0:
256,192,87486,1,0,0:0:0:0:
300,272,87652,1,0,0:0:0:0:
304,108,87819,5,0,0:0:0:0:
340,188,87986,1,0,0:0:0:0:
384,108,88152,5,0,0:0:0:0:
384,276,88486,1,0,0:0:0:0:
128,28,88819,5,0,0:0:0:0:
128,108,88986,1,0,0:0:0:0:
128,192,89153,1,0,0:0:0:0:
128,276,89320,1,0,0:0:0:0:
428,32,89652,5,0,0:0:0:0:
348,32,89819,1,0,0:0:0:0:
468,276,90152,5,0,0:0:0:0:
424,188,90319,1,0,0:0:0:0:
340,188,90486,1,0,0:0:0:0:
256,348,90819,5,0,0:0:0:0:
256,104,91152,1,0,0:0:0:0:
32,104,91486,5,0,0:0:0:0:
32,192,91652,1,0,0:0:0:0:
32,280,91819,1,0,0:0:0:0:
32,364,91986,1,0,0:0:0:0:
188,160,92319,5,0,0:0:0:0:
104,160,92486,1,0,0:0:0:0:
104,72,92652,1,0,0:0:0:0:
204,84,92819,1,0,0:0:0:0:
204,84,92902,1,0,0:0:0:0:
204,84,92986,1,0,0:0:0:0:
204,84,93069,1,0,0:0:0:0:
204,84,93152,1,0,0:0:0:0:
232,88,93236,1,0,0:0:0:0:
256,88,93319,1,0,0:0:0:0:
276,88,93402,1,0,0:0:0:0:
296,88,93486,5,0,0:0:0:0:
488,80,93819,1,0,0:0:0:0:
392,192,94152,5,0,0:0:0:0:
392,116,94319,1,0,0:0:0:0:
392,36,94486,1,0,0:0:0:0:
292,8,94652,1,0,0:0:0:0:
184,276,94986,5,0,0:0:0:0:
180,192,95152,1,0,0:0:0:0:
396,348,95486,1,0,0:0:0:0:
312,348,95652,1,0,0:0:0:0:
232,348,95819,1,0,0:0:0:0:
97,107,96152,5,0,0:0:0:0:
97,191,96318,1,0,0:0:0:0:
97,275,96485,1,0,0:0:0:0:
180,284,96652,1,0,0:0:0:0:
180,192,96819,1,0,0:0:0:0:
176,96,96985,1,0,0:0:0:0:
256,80,97152,1,0,0:0:0:0:
257,191,97319,1,0,0:0:0:0:
256,300,97485,5,0,0:0:0:0:
336,64,97652,1,0,0:0:0:0:
424,352,97819,1,0,0:0:0:0:
504,40,97986,1,0,0:0:0:0:
