osu file format v14

[General]
AudioFilename: audio.mp3
AudioLeadIn: 0
PreviewTime: 132314
Countdown: 0
SampleSet: Normal
StackLeniency: 0.7
Mode: 0
LetterboxInBreaks: 0
WidescreenStoryboard: 1

[Editor]
DistanceSpacing: 0.6
BeatDivisor: 4
GridSize: 4
TimelineZoom: 2.4

[Metadata]
Title:Akatsuki Zukuyo
TitleUnicode:暁月夜 -アカツキヅクヨ-
Artist:HoneyWorks
ArtistUnicode:HoneyWorks
Creator:-scy-
Version:Midnight
Source:
Tags:
BeatmapID:1111551
BeatmapSetID:523592

[Difficulty]
HPDrainRate:5
CircleSize:4
OverallDifficulty:6
ApproachRate:9
SliderMultiplier:1.7
SliderTickRate:1

[Events]
//Background and Video events
0,0,"Anime Girl Night Time.jpg",0,0
//Break Periods
2,88347,98214
//Storyboard Layer 0 (Background)
//Storyboard Layer 1 (Fail)
//Storyboard Layer 2 (Pass)
//Storyboard Layer 3 (Foreground)
//Storyboard Sound Samples

[TimingPoints]
600,388.098318240621,4,1,0,50,1,0
600,-181.818181818181,4,1,0,50,0,0
13407,-200,4,1,0,50,0,0
13795,-100,4,1,0,50,0,0
16148,333.333333333333,4,1,0,50,1,0
32314,-133.333333333333,4,1,0,50,0,0
65814,-181.818181818181,4,1,0,50,0,0
66147,-100,4,1,0,50,0,0
66814,-100,4,1,0,50,0,1
77481,-83.3333333333333,4,1,0,50,0,1
77814,-100,4,1,0,50,0,1
78147,-76.9230769230769,4,1,0,50,0,1
78481,-100,4,1,0,50,0,1
78814,-71.4285714285714,4,1,0,50,0,1
79147,-100,4,1,0,50,0,1
81314,-66.6666666666667,4,1,0,50,0,1
81814,-100,4,1,0,50,0,1
85481,-100,4,1,0,50,0,0
99147,-133.333333333333,4,1,0,50,0,0
122814,-153.846153846153,4,1,0,50,0,0
128147,-79.9999999999999,4,1,0,50,0,0
132314,-100,4,1,0,50,0,0
133481,-90.9090909090909,4,1,0,50,0,1
152147,-100,4,1,0,50,0,0
186814,-100,4,1,0,50,0,1
191981,-100,4,1,0,50,0,0
218814,-100,4,1,0,50,0,1
241314,-100,4,1,0,50,0,0
244193,388.098318240621,4,1,0,50,1,0
246816,333.333333333333,4,1,0,50,1,0

[HitObjects]
172,156,600,6,0,B|196:192|196:192|220:180|252:192,1,93.5000028533936
348,196,1376,1,0,0:0:0:0:
314,334,1764,2,0,P|367:320|365:276,1,93.5000028533936
207,286,2540,2,0,L|173:336,2,46.7500014266968
253,217,3122,1,0,0:0:0:0:
198,153,3316,2,0,L|125:89,1,93.5000028533936
234,49,3898,1,0,0:0:0:0:
298,106,4092,5,0,0:0:0:0:
313,24,4286,1,0,0:0:0:0:
381,83,4480,1,0,0:0:0:0:
365,170,4675,2,0,L|346:265,1,93.5000028533936
297,332,5257,5,0,0:0:0:0:
195,215,5451,1,0,0:0:0:0:
244,274,5645,1,0,0:0:0:0:
148,309,5839,1,0,0:0:0:0:
148,309,6033,2,0,P|97:268|98:231,1,93.5000028533936
173,35,6809,5,0,0:0:0:0:
242,193,7197,1,0,0:0:0:0:
436,65,7585,1,0,0:0:0:0:
381,227,7973,1,0,0:0:0:0:
381,227,8167,6,0,L|336:272,2,46.7500014266968
304,159,8750,1,0,0:0:0:0:
209,219,8944,1,0,0:0:0:0:
304,159,9138,2,0,P|269:136|255:134,1,46.7500014266968
154,103,9526,5,0,0:0:0:0:
86,203,9720,1,0,0:0:0:0:
182,272,9914,5,0,0:0:0:0:
259,332,10108,1,0,0:0:0:0:
349,351,10302,1,0,0:0:0:0:
424,309,10496,1,0,0:0:0:0:
462,226,10690,1,0,0:0:0:0:
334,76,11078,6,0,L|275:149,1,93.5000028533936
202,89,11854,2,0,L|251:187,1,93.5000028533936
304,187,12631,2,0,L|260:278,1,93.5000028533936
215,253,13407,2,0,L|239:354,1,85
256,192,14183,12,0,16148,0:0:0:0:
376,182,16481,5,0,0:0:0:0:
328,297,16648,1,0,0:0:0:0:
243,204,16814,1,0,0:0:0:0:
181,312,16981,1,0,0:0:0:0:
65,233,17148,1,0,0:0:0:0:
65,203,17231,1,0,0:0:0:0:
63,173,17314,1,0,0:0:0:0:
121,62,17481,5,0,0:0:0:0:
167,201,17648,1,0,0:0:0:0:
139,81,17814,1,0,0:0:0:0:
268,136,17981,1,0,0:0:0:0:
288,249,18147,2,0,P|335:280|372:274,1,85
468,337,18481,2,0,P|439:287|459:244,1,85
465,165,18814,5,0,0:0:0:0:
400,84,18981,1,0,0:0:0:0:
295,156,19147,1,0,0:0:0:0:
264,165,19230,1,0,0:0:0:0:
233,164,19313,1,0,0:0:0:0:
204,151,19396,1,0,0:0:0:0:
181,129,19480,1,0,0:0:0:0:
106,40,19647,6,0,B|64:62|64:62|86:120,1,85
118,174,19981,1,0,0:0:0:0:
168,244,20147,1,0,0:0:0:0:
257,312,20314,6,0,L|294:290,4,42.5
384,262,20731,2,0,L|341:237,1,42.5
400,148,20897,2,0,L|351:189,1,42.5
288,184,21064,2,0,L|266:134,1,42.5
219,54,21231,2,0,L|248:12,3,42.5
161,134,21647,5,0,0:0:0:0:
199,253,21814,1,0,0:0:0:0:
270,129,21981,1,0,0:0:0:0:
100,254,22147,1,0,0:0:0:0:
275,294,22314,2,0,P|203:298|167:273,1,85
235,215,22647,6,0,P|284:189|291:136,1,85
301,56,22981,1,0,0:0:0:0:
389,121,23147,1,0,0:0:0:0:
467,42,23314,1,0,0:0:0:0:
467,42,23397,1,0,0:0:0:0:
467,42,23481,1,0,0:0:0:0:
457,153,23647,2,0,L|440:247,1,85
414,332,23981,5,0,0:0:0:0:
254,277,24147,1,0,0:0:0:0:
254,277,24231,1,0,0:0:0:0:
254,277,24314,1,0,0:0:0:0:
254,277,24397,1,0,0:0:0:0:
254,277,24481,1,0,0:0:0:0:
120,317,24647,5,0,0:0:0:0:
34,216,24814,1,0,0:0:0:0:
122,317,24981,1,0,0:0:0:0:
145,143,25147,1,0,0:0:0:0:
222,69,25314,6,0,P|272:96|321:83,2,85
379,65,25814,2,0,P|424:52|474:85,2,85
354,162,26314,1,0,0:0:0:0:
416,269,26481,1,0,0:0:0:0:
293,250,26647,6,0,L|212:332,1,85
171,233,26981,2,0,L|102:298,1,85
239,172,27314,2,0,L|309:106,1,85
385,157,27647,2,0,L|463:221,1,85
439,331,27981,5,0,0:0:0:0:
261,290,28147,1,0,0:0:0:0:
348,315,28314,1,0,0:0:0:0:
180,256,28481,1,0,0:0:0:0:
82,153,28647,6,0,B|80:92|80:92|133:112,1,85
194,133,28981,1,0,0:0:0:0:
294,163,29147,1,0,0:0:0:0:
395,105,29314,5,0,0:0:0:0:
414,119,29397,1,0,0:0:0:0:
397,138,29481,1,0,0:0:0:0:
413,153,29564,1,0,0:0:0:0:
396,168,29647,1,0,0:0:0:0:
283,237,29814,5,0,0:0:0:0:
264,223,29897,1,0,0:0:0:0:
281,204,29981,1,0,0:0:0:0:
265,189,30064,1,0,0:0:0:0:
282,174,30147,1,0,0:0:0:0:
151,111,30314,6,0,L|100:85,4,42.5
132,222,30814,2,0,P|94:269|94:330,2,85
183,294,31314,5,0,0:0:0:0:
407,337,31481,1,0,0:0:0:0:
356,120,31647,1,0,0:0:0:0:
181,96,32147,5,0,0:0:0:0:
112,153,32481,2,0,P|95:203|168:250,1,127.500004863739
238,248,33147,1,0,0:0:0:0:
272,162,33314,1,0,0:0:0:0:
340,217,33481,1,0,0:0:0:0:
317,314,33814,6,0,L|185:347,1,127.500004863739
44,348,34481,1,0,0:0:0:0:
116,236,34814,1,0,0:0:0:0:
38,129,35147,1,0,0:0:0:0:
132,23,35481,2,0,L|204:132,1,127.500004863739
202,129,35981,1,0,0:0:0:0:
308,44,36147,5,0,0:0:0:0:
308,44,36231,1,0,0:0:0:0:
308,44,36314,1,0,0:0:0:0:
388,61,36481,1,0,0:0:0:0:
464,183,36647,1,0,0:0:0:0:
324,158,36814,1,0,0:0:0:0:
344,316,37147,5,0,0:0:0:0:
184,255,37481,2,0,L|244:325,1,63.7500024318696
107,328,37814,2,0,L|28:354,1,63.7500024318696
73,218,38147,2,0,L|169:114,1,127.500004863739
224,49,38647,5,0,0:0:0:0:
226,174,38814,1,0,0:0:0:0:
224,49,38981,1,0,0:0:0:0:
334,131,39147,1,0,0:0:0:0:
224,49,39314,1,0,0:0:0:0:
334,131,39481,1,0,0:0:0:0:
478,307,39814,6,0,P|409:362|378:336,1,127.500004863739
254,191,40481,2,0,L|113:219,1,127.500004863739
339,309,41147,2,0,L|258:325,2,63.7500024318696
452,299,41647,1,0,0:0:0:0:
452,299,41814,1,0,0:0:0:0:
280,235,41981,1,0,0:0:0:0:
149,267,42147,6,0,L|105:221,1,63.7500024318696
51,334,42481,2,0,L|128:344,1,63.7500024318696
221,219,42814,6,0,L|269:165,2,63.7500024318696
160,152,43314,1,0,0:0:0:0:
176,63,43481,1,0,0:0:0:0:
256,85,43647,1,0,0:0:0:0:
331,51,43814,1,0,0:0:0:0:
371,122,43981,1,0,0:0:0:0:
431,43,44147,6,0,P|447:75|454:121,1,63.7500024318696
453,102,44481,2,0,P|459:169|451:186,1,63.7500024318696
460,163,44814,2,0,P|454:198|435:227,1,63.7500024318696
260,290,45147,5,0,0:0:0:0:
355,267,45314,1,0,0:0:0:0:
205,204,45481,2,0,P|169:228|127:216,1,63.7500024318696
72,118,45814,2,0,P|74:178|97:193,1,63.7500024318696
37,29,46147,2,0,L|182:68,1,127.500004863739
256,81,46647,5,0,0:0:0:0:
328,144,46814,1,0,0:0:0:0:
364,56,46981,1,0,0:0:0:0:
458,38,47147,1,0,0:0:0:0:
458,38,47231,1,0,0:0:0:0:
458,38,47314,1,0,0:0:0:0:
454,184,47481,2,0,L|454:107,2,63.7500024318696
454,277,47981,6,0,P|437:316|404:336,1,63.7500024318696
134,342,48314,1,0,0:0:0:0:
50,254,48481,5,0,0:0:0:0:
194,245,48647,1,0,0:0:0:0:
111,151,48814,1,0,0:0:0:0:
267,115,48981,6,0,L|359:213,1,127.500004863739
440,286,49481,1,0,0:0:0:0:
308,288,49647,1,0,0:0:0:0:
465,155,49814,1,0,0:0:0:0:
352,190,49981,1,0,0:0:0:0:
247,112,50314,6,0,L|265:79,2,31.8750012159348
102,171,50647,1,0,0:0:0:0:
102,171,50731,1,0,0:0:0:0:
102,171,50814,1,0,0:0:0:0:
192,276,50981,2,0,L|144:336,1,63.7500024318696
348,256,51314,2,0,L|416:228,1,63.7500024318696
257,128,51647,5,0,0:0:0:0:
277,306,51814,1,0,0:0:0:0:
156,237,51981,1,0,0:0:0:0:
97,350,52147,1,0,0:0:0:0:
45,196,52314,2,0,P|51:143|83:124,1,63.7500024318696
173,97,52647,2,0,L|98:59,2,63.7500024318696
271,135,53147,2,0,L|409:190,1,127.500004863739
491,205,53647,5,0,0:0:0:0:
396,85,53814,1,0,0:0:0:0:
491,205,53981,1,0,0:0:0:0:
489,29,54147,1,0,0:0:0:0:
271,322,54481,5,0,0:0:0:0:
37,33,54814,1,0,0:0:0:0:
128,318,55147,1,0,0:0:0:0:
422,327,55481,2,0,L|315:211,1,127.500004863739
250,177,56147,5,0,0:0:0:0:
260,195,56814,1,0,0:0:0:0:
243,200,57481,1,0,0:0:0:0:
257,186,58147,1,0,0:0:0:0:
163,179,58814,6,0,B|172:93|334:85|363:187,1,255.000009727478
163,205,60147,6,0,B|172:291|334:299|363:197,1,255.000009727478
190,104,61481,5,0,0:0:0:0:
190,104,61564,1,0,0:0:0:0:
190,104,61647,1,0,0:0:0:0:
75,259,61814,2,0,L|80:190,1,63.7500024318696
386,228,62147,5,0,0:0:0:0:
386,228,62231,1,0,0:0:0:0:
386,228,62314,1,0,0:0:0:0:
185,336,62481,2,0,L|216:264,1,63.7500024318696
324,70,62814,5,0,0:0:0:0:
324,70,62897,1,0,0:0:0:0:
324,70,62981,1,0,0:0:0:0:
77,134,63147,2,0,L|158:170,1,63.7500024318696
170,308,63481,5,0,0:0:0:0:
170,308,63564,1,0,0:0:0:0:
170,308,63647,1,0,0:0:0:0:
407,257,63814,5,0,0:0:0:0:
407,257,63897,1,0,0:0:0:0:
407,257,63980,1,0,0:0:0:0:
407,257,64064,1,0,0:0:0:0:
407,257,64147,1,0,0:0:0:0:
271,331,64314,5,0,0:0:0:0:
134,193,64481,1,0,0:0:0:0:
348,141,64647,1,0,0:0:0:0:
266,313,64814,1,0,0:0:0:0:
150,58,64981,5,0,0:0:0:0:
150,58,65064,1,0,0:0:0:0:
150,58,65147,1,0,0:0:0:0:
326,242,65314,1,0,0:0:0:0:
209,82,65814,6,0,L|299:144,1,93.5000028533936
285,135,66481,2,0,B|220:166|292:220|292:220|234:280,1,170
144,307,66981,5,0,0:0:0:0:
128,315,67064,1,0,0:0:0:0:
111,323,67147,1,0,0:0:0:0:
62,207,67314,2,0,P|49:157|72:101,2,85
205,201,67814,1,0,0:0:0:0:
198,48,67981,2,0,L|286:112,1,85
367,152,68314,5,0,0:0:0:0:
367,152,68397,1,0,0:0:0:0:
367,152,68481,1,0,0:0:0:0:
367,152,68564,1,0,0:0:0:0:
367,152,68647,1,0,0:0:0:0:
450,295,68814,2,0,L|349:278,2,85
263,263,69314,2,0,B|205:263|166:188|219:145|275:141,1,170
168,61,69814,5,0,0:0:0:0:
146,69,69897,1,0,0:0:0:0:
127,90,69981,1,0,0:0:0:0:
123,114,70064,1,0,0:0:0:0:
123,142,70147,1,0,0:0:0:0:
132,275,70314,5,0,0:0:0:0:
26,238,70481,1,0,0:0:0:0:
204,172,70647,2,0,B|248:169|248:169|258:86|258:86|328:90|328:90,1,170
397,92,71147,5,0,0:0:0:0:
451,204,71314,1,0,0:0:0:0:
320,203,71481,1,0,0:0:0:0:
423,144,71647,1,0,0:0:0:0:
390,261,71814,1,0,0:0:0:0:
316,170,71981,1,0,0:0:0:0:
267,312,72147,6,0,B|219:328|167:288,2,85
129,162,72647,2,0,P|130:233|152:259,2,85
165,55,73147,1,0,0:0:0:0:
234,203,73314,2,0,P|321:194|320:104,1,170
76,68,73814,5,0,0:0:0:0:
116,219,73981,1,0,0:0:0:0:
208,66,74147,1,0,0:0:0:0:
47,152,74314,1,0,0:0:0:0:
209,165,74481,1,0,0:0:0:0:
47,152,74647,1,0,0:0:0:0:
72,285,74814,6,0,P|163:326|258:306,1,170
354,281,75314,1,0,0:0:0:0:
310,45,75481,6,0,P|305:169|258:186,1,170
168,204,75981,1,0,0:0:0:0:
144,78,76147,6,0,L|54:40,2,85
266,107,76647,1,0,0:0:0:0:
266,107,76731,1,0,0:0:0:0:
266,107,76814,1,0,0:0:0:0:
306,244,76981,1,0,0:0:0:0:
411,129,77147,1,0,0:0:0:0:
454,268,77314,1,0,0:0:0:0:
158,341,77481,6,0,B|104:339|92:301|92:301|130:271|130:271|88:242|88:241|96:168,1,203.999993774414
207,45,78147,6,0,B|165:102|165:102|216:141|214:209|214:209|264:204,1,220.999989883423
363,200,78647,1,0,0:0:0:0:
453,301,78814,6,0,B|403:333|403:333|374:292|374:292|322:337|300:275|300:275|268:292,1,237.999992736817
72,315,79314,1,0,0:0:0:0:
119,78,79481,2,0,L|286:146,1,170
411,256,80147,6,0,B|360:313|360:313|258:262,1,170
79,125,80814,1,0,0:0:0:0:
79,125,80981,1,0,0:0:0:0:
353,45,81314,2,0,B|451:72|358:124|358:124|425:166|337:191|337:191|274:128|272:131|246:236,1,382.500014591218
231,296,81981,1,0,0:0:0:0:
132,209,82147,5,0,0:0:0:0:
132,209,82231,1,0,0:0:0:0:
132,209,82314,1,0,0:0:0:0:
161,329,82481,2,0,P|273:356|309:306,1,170
345,234,82981,1,0,0:0:0:0:
345,234,83147,5,0,0:0:0:0:
432,72,83314,1,0,0:0:0:0:
243,214,83481,5,0,0:0:0:0:
268,61,83647,1,0,0:0:0:0:
154,214,83814,5,0,0:0:0:0:
82,59,83981,1,0,0:0:0:0:
61,239,84147,6,0,P|88:298|128:316,1,85
209,319,84481,1,0,0:0:0:0:
209,319,84647,1,0,0:0:0:0:
305,297,84814,2,0,P|384:336|416:250,1,170
256,192,85481,12,0,86814,0:0:0:0:
195,193,86981,5,0,0:0:0:0:
255,135,87147,1,0,0:0:0:0:
309,197,87314,1,0,0:0:0:0:
249,247,87481,1,0,0:0:0:0:
150,273,87647,2,0,P|164:349|183:366,1,85
248,342,87981,5,0,0:0:0:0:
281,335,88064,1,0,0:0:0:0:
315,336,88147,1,0,0:0:0:0:
162,108,98814,5,0,0:0:0:0:
98,327,98981,1,0,0:0:0:0:
211,269,99147,2,0,B|242:249|296:293|357:251,1,127.500004863739
426,230,99647,1,0,0:0:0:0:
290,78,99814,5,0,0:0:0:0:
371,314,99981,1,0,0:0:0:0:
321,193,100147,2,0,P|267:153|205:176,2,127.500004863739
135,220,100981,6,0,B|71:261,2,63.7500024318696
259,144,101481,5,0,0:0:0:0:
274,138,101564,1,0,0:0:0:0:
280,120,101647,1,0,0:0:0:0:
436,148,101814,2,0,L|406:233,2,63.7500024318696
359,296,102314,6,0,L|222:331,1,127.500004863739
128,352,102814,1,0,0:0:0:0:
53,150,103147,5,0,0:0:0:0:
271,175,103481,5,0,0:0:0:0:
180,39,103814,5,0,0:0:0:0:
404,132,104147,5,0,0:0:0:0:
292,341,104314,1,0,0:0:0:0:
224,172,104481,2,0,L|254:249,1,63.7500024318696
115,249,104814,2,0,L|38:350,1,127.500004863739
86,63,105314,5,0,0:0:0:0:
159,169,105481,2,0,P|204:198|228:142,2,127.500004863739
359,68,106314,2,0,L|286:105,1,63.7500024318696
213,186,106647,5,0,0:0:0:0:
213,196,106731,1,0,0:0:0:0:
220,207,106814,2,0,P|277:227|360:205,1,127.500004863739
411,298,107481,6,0,P|331:335|286:330,1,127.500004863739
177,322,107981,5,0,0:0:0:0:
101,309,108147,1,0,0:0:0:0:
112,234,108314,1,0,0:0:0:0:
40,222,108481,1,0,0:0:0:0:
148,128,108647,5,0,0:0:0:0:
162,138,108731,1,0,0:0:0:0:
178,149,108814,2,0,P|215:161|250:158,2,63.7500024318696
324,136,109314,1,0,0:0:0:0:
255,271,109481,5,0,0:0:0:0:
441,310,109647,1,0,0:0:0:0:
411,140,109814,2,0,P|426:78|419:64,2,63.7500024318696
328,199,110314,1,0,0:0:0:0:
271,108,110481,5,0,0:0:0:0:
255,117,110647,1,0,0:0:0:0:
93,79,110814,5,0,0:0:0:0:
129,308,110981,1,0,0:0:0:0:
216,238,111147,2,0,L|285:270,1,63.7500024318696
382,303,111481,2,0,L|313:335,1,63.7500024318696
299,141,111814,5,0,0:0:0:0:
379,169,111981,1,0,0:0:0:0:
313,221,112147,6,0,L|177:211,1,127.500004863739
68,103,112647,1,0,0:0:0:0:
84,251,112814,6,0,L|198:337,1,127.500004863739
282,352,113314,1,0,0:0:0:0:
377,335,113481,1,0,0:0:0:0:
422,249,113647,1,0,0:0:0:0:
320,243,113814,6,0,P|266:264|198:250,1,127.500004863739
130,141,114314,1,0,0:0:0:0:
130,141,114397,1,0,0:0:0:0:
130,141,114481,1,0,0:0:0:0:
236,187,114647,1,0,0:0:0:0:
289,45,114814,5,0,0:0:0:0:
444,163,114981,1,0,0:0:0:0:
326,259,115147,2,0,L|395:205,2,63.7500024318696
239,335,115647,2,0,B|194:304|147:343|95:302,1,127.500004863739
46,247,116147,5,0,0:0:0:0:
122,109,116314,1,0,0:0:0:0:
204,179,116481,1,0,0:0:0:0:
40,149,116647,1,0,0:0:0:0:
40,149,116814,1,0,0:0:0:0:
45,55,116981,5,0,0:0:0:0:
45,55,117064,1,0,0:0:0:0:
45,55,117147,1,0,0:0:0:0:
145,71,117314,2,0,B|182:83|230:82,1,63.7500024318696
321,78,117647,5,0,0:0:0:0:
406,144,117814,1,0,0:0:0:0:
313,201,117981,1,0,0:0:0:0:
313,201,118064,1,0,0:0:0:0:
313,201,118147,1,0,0:0:0:0:
155,189,118314,2,0,L|211:241,2,63.7500024318696
276,290,118814,5,0,0:0:0:0:
152,306,118981,1,0,0:0:0:0:
276,290,119147,1,0,0:0:0:0:
227,379,119314,1,0,0:0:0:0:
349,330,119481,5,0,0:0:0:0:
349,330,119564,1,0,0:0:0:0:
349,330,119647,1,0,0:0:0:0:
426,204,119814,2,0,L|376:278,1,63.7500024318696
347,81,120147,5,0,0:0:0:0:
266,205,120314,1,0,0:0:0:0:
172,136,120481,1,0,0:0:0:0:
81,245,120647,2,0,L|149:299,1,63.7500024318696
227,353,121147,6,0,B|261:275|292:356|346:267,1,127.500004863739
257,118,121814,1,0,0:0:0:0:
256,243,122147,5,0,0:0:0:0:
397,111,122814,6,0,B|317:168|280:85|280:85|260:137|171:83|171:83|147:150,1,331.499984825135
240,189,124147,6,0,B|264:181|264:181|307:225|395:189|413:189|413:189|400:229|414:281|414:281|356:298,1,331.499984825135
239,272,125481,6,0,B|204:323|177:263|140:334|140:334|71:329|113:257|113:257|36:257|87:183,1,331.499984825135
62,98,126814,6,0,B|51:27|105:47|105:47|181:110|246:53,1,220.999989883423
321,53,127647,5,0,0:0:0:0:
335,58,127731,1,0,0:0:0:0:
355,63,127814,1,0,0:0:0:0:
369,67,127897,1,0,0:0:0:0:
383,71,127981,1,0,0:0:0:0:
448,136,128147,6,0,P|406:179|318:181,1,106.25
260,177,128481,2,0,L|201:144,2,53.125
291,253,128814,5,0,0:0:0:0:
278,269,128897,1,0,0:0:0:0:
258,275,128981,1,0,0:0:0:0:
238,273,129064,1,0,0:0:0:0:
219,263,129147,1,0,0:0:0:0:
113,209,129314,5,0,0:0:0:0:
123,335,129481,2,0,P|190:365|266:371,1,106.25
355,350,129814,1,0,0:0:0:0:
355,350,129897,1,0,0:0:0:0:
355,350,129980,1,0,0:0:0:0:
393,265,130147,6,0,L|419:208,2,53.125
130,146,130481,6,0,L|322:240,1,212.5
69,288,130981,5,0,0:0:0:0:
180,40,131147,1,0,0:0:0:0:
326,320,131314,5,0,0:0:0:0:
98,156,131481,1,0,0:0:0:0:
426,210,131647,5,0,0:0:0:0:
426,210,131731,1,0,0:0:0:0:
426,210,131814,1,0,0:0:0:0:
201,325,131981,5,0,0:0:0:0:
269,188,132481,6,0,B|104:169|173:254,1,170
255,96,133147,2,0,P|313:131|334:243,1,170
336,231,133564,1,0,0:0:0:0:
325,249,133647,1,0,0:0:0:0:
236,333,133814,6,0,P|309:363|363:356,1,93.5000028533936
421,350,134147,1,0,0:0:0:0:
477,259,134314,1,0,0:0:0:0:
403,173,134481,1,0,0:0:0:0:
363,272,134647,2,0,B|308:306|238:284|163:339,1,187.000005706787
39,205,135147,5,0,0:0:0:0:
237,229,135314,1,0,0:0:0:0:
61,297,135481,5,0,0:0:0:0:
230,100,135647,1,0,0:0:0:0:
44,136,135814,1,0,0:0:0:0:
159,278,135981,6,0,P|221:316|285:326,1,93.5000028533936
360,332,136314,1,0,0:0:0:0:
360,332,136397,1,0,0:0:0:0:
360,332,136481,1,0,0:0:0:0:
444,250,136647,6,0,P|473:203|469:139,2,93.5000028533936
451,54,137147,1,0,0:0:0:0:
353,137,137314,2,0,B|265:150|240:112,1,93.5000028533936
135,102,137647,5,0,0:0:0:0:
121,107,137731,1,0,0:0:0:0:
103,117,137814,1,0,0:0:0:0:
84,126,137897,1,0,0:0:0:0:
67,133,137981,1,0,0:0:0:0:
55,280,138147,5,0,0:0:0:0:
375,325,138314,1,0,0:0:0:0:
156,338,138481,5,0,0:0:0:0:
337,223,138647,2,0,P|348:158|311:123,2,93.5000028533936
231,39,139147,5,0,0:0:0:0:
87,308,139314,1,0,0:0:0:0:
430,149,139481,5,0,0:0:0:0:
112,174,139647,1,0,0:0:0:0:
323,342,139814,5,0,0:0:0:0:
262,72,139981,5,0,0:0:0:0:
277,75,140064,1,0,0:0:0:0:
293,78,140147,2,0,P|336:112|328:175,2,93.5000028533936
205,178,140647,2,0,P|159:247|116:251,2,93.5000028533936
197,71,141147,6,0,P|147:78|95:208,1,187.000005706787
431,283,141647,1,0,0:0:0:0:
365,74,141814,5,0,0:0:0:0:
130,308,141981,1,0,0:0:0:0:
232,66,142147,5,0,0:0:0:0:
347,339,142314,1,0,0:0:0:0:
50,233,142481,5,0,0:0:0:0:
462,142,142647,1,0,0:0:0:0:
