osu file format v14

[General]
AudioFilename: akatsuki.mp3
AudioLeadIn: 1200
PreviewTime: 132314
Countdown: 0
SampleSet: Soft
StackLeniency: 0.3
Mode: 0
LetterboxInBreaks: 1
WidescreenStoryboard: 0

[Editor]
DistanceSpacing: 1.3
BeatDivisor: 4
GridSize: 4
TimelineZoom: 1.1

[Metadata]
Title:Akatsuki Zukuyo
TitleUnicode:暁月夜-アカツキヅクヨ-
Artist:HoneyWorks
ArtistUnicode:HoneyWorks
Creator:[C u r i]
Version:Zzz's Light Hard
Source:
Tags:鎖那 sana Zzz [_Zzz_] Taeyang Euny Natsu Natsuny DreaM117er Kibbleru deetz
BeatmapID:911110
BeatmapSetID:351280

[Difficulty]
HPDrainRate:5
CircleSize:4
OverallDifficulty:6
ApproachRate:7
SliderMultiplier:1.3
SliderTickRate:1

[Events]
//Background and Video events
0,0,"47187043_p0.png",0,0
//Break Periods
2,32347,33914
2,37681,39247
2,194814,204581
2,241513,245916
//Storyboard Layer 0 (Background)
//Storyboard Layer 1 (Fail)
//Storyboard Layer 2 (Pass)
//Storyboard Layer 3 (Foreground)
//Storyboard Sound Samples

[TimingPoints]
600,388.098318240621,4,2,7,30,1,0
1752,388.098318240621,4,2,7,30,1,0
16148,333.333333333333,4,2,7,40,1,0
21481,-100,4,2,7,70,0,0
32147,-100,4,2,7,50,0,0
42814,-100,4,2,7,60,0,0
50814,-100,4,2,7,70,0,0
56147,-200,4,2,7,20,0,0
61481,-100,4,2,7,70,0,0
65814,-100,4,2,7,40,0,0
66814,-100,4,2,7,85,0,1
85481,-100,4,2,7,70,0,0
86814,-100,4,2,9,70,0,0
88147,-100,4,2,7,70,0,0
97647,-100,4,2,7,30,0,0
98814,-100,4,2,7,50,0,0
109481,-100,4,2,7,60,0,0
117481,-100,4,2,7,70,0,0
122814,-200,4,2,7,40,0,0
128147,-100,4,2,7,70,0,0
132481,-100,4,2,7,40,0,0
133481,-100,4,2,7,85,0,1
152147,-100,4,2,7,70,0,0
157481,-100,4,2,7,50,0,0
168147,-100,4,2,7,70,0,0
178814,-100,4,2,7,70,0,0
192147,-100,4,2,7,70,0,0
205481,-100,4,2,7,10,0,0
210814,-100,4,2,7,15,0,0
218814,-100,4,2,7,85,0,1
241314,-100,4,2,7,70,0,0
243516,388.098318240621,4,2,99,5,1,0
244193,388.098318240621,4,2,99,5,1,0
246816,333.333333333333,4,2,7,70,1,0
256649,-100,4,2,7,70,0,0

[Colours]
Combo1 : 255,128,64
Combo2 : 64,64,255
Combo3 : 0,128,255
Combo4 : 0,255,255

[HitObjects]
256,192,600,5,0,0:0:0:0:
256,24,988,1,0,0:0:0:0:
400,112,1376,1,0,0:0:0:0:
256,192,1752,6,0,L|124:192,1,130,2|0,0:0|0:0,0:0:0:0:
128,360,2528,2,0,L|192:360,1,65,8|0,0:0|0:0,0:0:0:0:
192,276,2916,2,0,L|127:276,1,65
272,320,3304,2,0,L|402:320,1,130,2|2,0:0|0:0,0:0:0:0:
488,320,3886,1,0,0:0:0:0:
448,244,4080,2,0,L|448:180,1,65,8|0,0:0|0:0,0:0:0:0:
448,96,4468,1,0,0:0:0:0:
448,12,4662,1,0,0:0:0:0:
376,52,4856,5,2,0:0:0:0:
232,144,5244,1,0,0:0:0:0:
152,112,5438,2,0,B|144:120|144:168|152:176,1,65,0|8,0:0|0:0,0:0:0:0:
312,172,5827,2,0,B|320:164|320:116|312:108,1,65
376,52,6215,2,0,L|508:52,1,130,0|2,0:0|0:0,0:0:0:0:
504,220,6991,1,0,0:0:0:0:
504,304,7185,1,2,0:0:0:0:
336,304,7573,2,0,L|206:304,1,130,2|2,0:0|0:0,0:0:0:0:
208,148,8737,5,8,0:0:0:0:
40,148,9125,1,0,0:0:0:0:
40,64,9319,1,0,0:0:0:0:
124,64,9513,2,0,L|124:196,1,130,2|2,0:0|0:0,0:0:0:0:
124,280,10096,1,0,0:0:0:0:
192,332,10290,2,0,L|256:332,1,65,8|0,0:0|0:0,0:0:0:0:
332,368,10678,2,0,L|396:368,1,65
468,320,11066,6,0,L|468:124,1,195,2|0,0:0|0:0,0:0:0:0:
400,72,11842,2,0,B|376:96|236:96|212:72,1,195,8|0,0:0|0:0,0:0:0:0:
140,116,12618,2,0,L|140:311,1,195,2|0,0:0|0:0,0:0:0:0:
56,312,13394,2,0,L|56:117,1,195,8|0,0:0|0:0,0:0:0:0:
256,192,14171,12,2,16148,0:0:0:0:
256,192,16481,5,8,0:0:0:0:
424,192,16814,1,2,0:0:0:0:
256,192,17148,1,8,0:0:0:0:
88,192,17481,1,2,0:0:0:0:
88,360,17814,1,8,0:0:0:0:
256,360,18147,2,0,L|288:360,3,32.5,2|8|8|8,0:0|0:0|0:0|0:0,0:0:0:0:
324,336,18481,2,0,B|336:324|408:324|420:336,1,97.5,8|0,0:0|0:0,0:0:0:0:
456,356,18814,2,0,L|456:224,1,130,2|8,0:0|0:0,0:0:0:0:
456,56,19814,5,8,0:0:0:0:
288,56,20147,1,2,0:0:0:0:
120,56,20481,1,2,0:0:0:0:
120,224,20814,1,2,0:0:0:0:
120,56,21147,1,2,0:0:0:0:
184,128,21314,1,8,0:0:0:0:
256,192,21481,6,0,L|388:192,1,130,6|8,0:0|0:0,0:0:0:0:
436,124,21981,1,0,0:0:0:0:
388,56,22147,2,0,L|256:56,1,130,2|8,0:0|0:0,0:0:0:0:
184,96,22647,2,0,B|168:112|72:112|56:96,1,130,6|2,0:0|0:0,0:0:0:0:
0,160,23147,2,0,L|0:292,1,130,8|2,0:0|0:0,0:0:0:0:
56,356,23647,2,0,L|120:356,1,65,0|8,0:0|0:0,0:0:0:0:
256,252,24147,6,0,L|126:252,2,130,6|8|2,0:0|0:0|0:0,0:0:0:0:
328,296,24981,2,0,L|392:296,1,65,0|8,0:0|0:0,0:0:0:0:
464,252,25314,2,0,B|480:236|480:140|464:124,1,130,6|2,0:0|0:0,0:0:0:0:
400,72,25814,2,0,L|268:72,1,130,8|2,0:0|0:0,0:0:0:0:
192,104,26314,2,0,L|128:104,1,65,0|8,0:0|0:0,0:0:0:0:
128,272,26814,6,0,L|260:272,2,130,6|8|2,0:0|0:0|0:0,0:0:0:0:
48,304,27647,2,0,B|40:296|40:248|48:240,1,65,0|8,0:0|0:0,0:0:0:0:
96,172,27981,2,0,L|228:172,1,130,6|2,0:0|0:0,0:0:0:0:
304,200,28481,2,0,L|436:200,1,130,8|2,0:0|0:0,0:0:0:0:
504,152,28981,2,0,L|504:88,1,65,0|8,0:0|0:0,0:0:0:0:
336,88,29481,6,0,L|204:88,1,130,12|0,0:0|0:0,0:0:0:0:
140,140,29981,2,0,B|124:156|124:252|140:268,1,130,12|0,0:0|0:0,0:0:0:0:
204,320,30481,2,0,L|336:320,1,130,12|0,0:0|0:0,0:0:0:0:
400,268,30981,2,0,B|416:252|416:156|400:140,1,130,12|0,0:0|0:0,0:0:0:0:
447,72,31481,2,0,L|512:72,1,65,8|8,0:0|0:0,0:0:0:0:
447,72,32147,5,6,0:0:0:0:
447,72,34814,5,0,0:0:0:0:
447,72,36147,1,8,0:0:0:0:
447,72,36814,1,0,0:0:0:0:
280,72,37147,1,0,0:0:0:0:
364,216,37481,5,6,0:0:0:0:
364,216,40147,5,8,0:0:0:0:
364,216,41481,1,2,0:0:0:0:
300,272,41647,2,0,B|284:288|188:288|172:272,1,130,8|0,0:0|0:0,0:0:0:0:
140,248,42064,1,0,0:0:0:0:
116,212,42147,2,0,L|116:148,1,65,8|0,0:0|0:0,0:0:0:0:
84,68,42481,2,0,B|92:60|140:60|148:68,1,65,0|0,0:0|0:0,0:0:0:0:
224,104,42814,6,0,L|288:104,1,65,6|0,0:0|0:0,0:0:0:0:
360,60,43147,2,0,L|424:60,1,65,0|0,0:0|0:0,0:0:0:0:
496,108,43481,2,0,L|496:240,1,130,8|0,0:0|0:0,0:0:0:0:
496,324,43981,1,0,0:0:0:0:
328,320,44314,2,0,L|196:320,1,130,8|0,0:0|0:0,0:0:0:0:
112,320,44814,1,8,0:0:0:0:
112,152,45147,2,0,L|112:88,1,65,0|0,0:0|0:0,0:0:0:0:
176,32,45481,6,0,L|372:32,1,195,2|0,0:0|0:0,0:0:0:0:
456,32,46147,1,8,0:0:0:0:
168,344,46981,2,0,L|36:344,1,130,2|0,0:0|0:0,0:0:0:0:
38,260,47481,2,0,L|168:260,1,130,8|2,0:0|0:0,0:0:0:0:
336,260,48147,6,0,L|400:260,1,65,6|0,0:0|0:0,0:0:0:0:
480,228,48481,2,0,B|488:236|488:284|480:292,2,65,0|2|8,0:0|0:0|0:0,0:0:0:0:
420,168,48981,2,0,L|288:168,1,130,0|0,0:0|0:0,0:0:0:0:
212,136,49481,2,0,L|148:136,1,65,2|8,0:0|0:0,0:0:0:0:
256,364,50147,2,0,L|388:364,1,130,8|2,0:0|0:0,0:0:0:0:
256,256,50814,6,0,L|192:256,1,65,6|0,0:0|0:0,0:0:0:0:
120,304,51147,2,0,B|108:316|36:316|24:304,1,97.5,8|0,0:0|0:0,0:0:0:0:
0,272,51481,2,0,L|0:208,1,65,2|2,0:0|0:0,0:0:0:0:
0,124,51814,1,8,0:0:0:0:
168,124,52147,6,0,L|232:124,1,65,2|0,0:0|0:0,0:0:0:0:
308,164,52481,2,0,B|320:176|392:176|404:164,1,97.5,8|0,0:0|0:0,0:0:0:0:
440,144,52814,2,0,L|440:208,1,65,2|2,0:0|0:0,0:0:0:0:
440,292,53147,1,8,0:0:0:0:
440,292,53481,6,0,L|376:292,1,65,2|0,0:0|0:0,0:0:0:0:
300,332,53814,2,0,B|288:344|216:344|204:332,1,97.5,8|0,0:0|0:0,0:0:0:0:
168,312,54147,2,0,L|104:312,1,65,2|0,0:0|0:0,0:0:0:0:
16,312,54481,1,8,0:0:0:0:
16,312,54814,6,0,L|16:248,1,65,2|0,0:0|0:0,0:0:0:0:
56,172,55147,2,0,L|56:40,1,130,8|8,0:0|0:0,0:0:0:0:
224,40,55814,1,8,0:0:0:0:
308,40,56147,6,0,L|372:40,1,65,0|0,0:0|0:0,0:0:0:0:
372,124,56814,2,0,L|307:124,1,65,0|0,0:0|0:0,0:0:0:0:
308,208,57481,2,0,L|373:208,1,65,0|0,0:0|0:0,0:0:0:0:
372,292,58148,2,0,L|307:292,1,65,0|0,0:0|0:0,0:0:0:0:
232,328,58814,6,0,L|100:328,1,130,0|0,0:0|0:0,0:0:0:0:
100,160,60147,2,0,L|230:160,1,130,0|0,0:0|0:0,0:0:0:0:
388,244,61481,6,0,L|256:244,1,130,12|2,0:0|0:0,0:0:0:0:
172,244,61981,1,8,0:0:0:0:
172,76,62314,1,2,0:0:0:0:
256,76,62481,2,0,L|288:76,3,32.5,8|0|0|0,0:0|0:0|0:0|0:0,0:0:0:0:
324,52,62814,2,0,L|388:52,1,65,6|0,0:0|0:0,0:0:0:0:
472,52,63147,1,2,0:0:0:0:
428,124,63314,2,0,B|412:140|412:236|428:252,1,130,8|2,0:0|0:0,0:0:0:0:
476,320,63814,1,8,0:0:0:0:
308,320,64147,6,0,L|176:320,1,130,12|8,0:0|0:0,0:0:0:0:
176,152,64814,1,8,0:0:0:0:
91,152,64981,2,0,L|59:152,2,32.5,0|0|8,0:0|0:0|0:0,0:0:0:0:
87,236,65314,1,2,0:0:0:0:
87,236,65814,5,0,0:0:0:0:
87,68,66147,1,0,0:0:0:0:
255,68,66481,1,0,0:0:0:0:
255,68,66814,6,0,L|387:68,2,130,6|8|2,0:0|0:0|0:0,0:0:0:0:
175,40,67647,2,0,B|167:48|167:96|175:104,1,65,0|8,0:0|0:0,0:0:0:0:
219,176,67981,2,0,B|235:192|235:288|219:304,1,130,6|2,0:0|0:0,0:0:0:0:
155,356,68481,2,0,L|23:356,2,130,8|2|8,0:0|0:0|0:0,0:0:0:0:
143,272,69314,2,0,L|79:272,1,65,2|6,0:0|0:0,0:0:0:0:
79,104,69814,6,0,L|211:104,1,130,8|2,0:0|0:0,0:0:0:0:
287,72,70314,2,0,B|295:80|295:128|287:136,1,65,0|8,0:0|0:0,0:0:0:0:
243,208,70647,2,0,B|227:224|227:320|243:336,1,130,6|2,0:0|0:0,0:0:0:0:
327,336,71147,2,0,B|343:320|343:224|327:208,1,130,8|2,0:0|0:0,0:0:0:0:
287,135,71647,2,0,B|279:127|279:79|287:71,1,65,8|2,0:0|0:0,0:0:0:0:
351,16,71981,2,0,L|415:16,1,65,8|6,0:0|0:0,0:0:0:0:
419,184,72481,5,8,0:0:0:0:
423,352,72814,2,0,L|359:352,1,65,2|0,0:0|0:0,0:0:0:0:
275,352,73147,1,8,0:0:0:0:
203,308,73314,2,0,L|71:308,1,130,6|2,0:0|0:0,0:0:0:0:
3,260,73814,2,0,B|-13:244|-13:148|3:132,1,130,8|2,0:0|0:0,0:0:0:0:
51,64,74314,1,0,0:0:0:0:
131,36,74481,2,0,L|263:36,1,130,12|2,0:0|0:0,0:0:0:0:
431,36,75147,5,8,0:0:0:0:
431,204,75481,2,0,L|301:204,1,130,2|8,0:0|0:0,0:0:0:0:
223,236,75981,2,0,L|93:236,1,130,6|2,0:0|0:0,0:0:0:0:
7,236,76481,1,8,0:0:0:0:
7,68,76814,1,8,0:0:0:0:
175,68,77147,1,8,0:0:0:0:
343,68,77481,5,2,0:0:0:0:
343,236,77814,1,8,0:0:0:0:
175,236,78147,1,2,0:0:0:0:
175,68,78481,1,8,0:0:0:0:
7,68,78814,1,2,0:0:0:0:
7,236,79147,1,8,0:0:0:0:
175,236,79481,1,8,0:0:0:0:
343,236,79814,1,8,0:0:0:0:
343,68,80147,6,0,L|475:68,2,130,2|8|2,0:0|0:0|0:0,0:0:0:0:
263,36,80981,2,0,B|255:44|255:92|263:100,1,65,0|8,0:0|0:0,0:0:0:0:
331,152,81314,2,0,L|461:152,2,130,2|2|2,0:0|0:0|0:0,0:0:0:0:
191,248,82314,2,0,L|127:248,1,65,8|8,0:0|0:0,0:0:0:0:
127,80,82814,5,2,0:0:0:0:
295,80,83147,1,8,0:0:0:0:
127,80,83481,2,0,L|63:80,2,65,2|0|8,0:0|0:0|0:0,0:0:0:0:
211,80,83981,1,2,0:0:0:0:
379,80,84314,6,0,L|443:80,2,65,2|2|0,0:0|0:0|0:0,0:0:0:0:
295,80,84814,1,8,0:0:0:0:
127,80,85147,1,10,0:0:0:0:
256,192,85481,12,0,86814,0:0:0:0:
256,192,88147,6,0,L|388:192,1,130,6|8,0:0|0:0,0:0:0:0:
386,24,88814,2,0,L|256:24,1,130,2|8,0:0|0:0,0:0:0:0:
188,72,89314,2,0,B|172:88|76:88|60:72,1,130,6|8,0:0|0:0,0:0:0:0:
0,132,89814,2,0,L|0:264,1,130,8|8,0:0|0:0,0:0:0:0:
164,304,90481,2,0,L|164:174,2,130,8|6|8,0:0|0:0|0:0,0:0:0:0:
224,364,91314,5,0,0:0:0:0:
308,352,91481,2,0,B|324:336|420:336|436:352,1,130,2|8,0:0|0:0,0:0:0:0:
504,304,91981,2,0,L|504:172,1,130,6|2,0:0|0:0,0:0:0:0:
504,88,92481,1,8,0:0:0:0:
336,88,92814,1,8,0:0:0:0:
168,88,93147,2,0,L|136:88,3,32.5,8|2|2|2,0:0|0:0|0:0|0:0,0:0:0:0:
100,112,93481,6,0,B|84:128|84:224|100:240,1,130,6|8,0:0|0:0,0:0:0:0:
156,300,93981,1,0,0:0:0:0:
240,300,94147,2,0,L|372:300,1,130,2|8,0:0|0:0,0:0:0:0:
440,252,94647,2,0,B|456:236|456:140|440:124,1,130,6|2,0:0|0:0,0:0:0:0:
376,72,95147,1,8,0:0:0:0:
208,72,95481,1,8,0:0:0:0:
124,72,95647,2,0,L|92:72,2,32.5,0|0|8,0:0|0:0|0:0,0:0:0:0:
124,240,96147,6,0,L|256:240,1,130,12|2,0:0|0:0,0:0:0:0:
324,288,96647,2,0,B|340:304|436:304|452:288,1,130,12|2,0:0|0:0,0:0:0:0:
512,232,97147,2,0,L|512:100,1,130,12|2,0:0|0:0,0:0:0:0:
512,16,97647,1,2,0:0:0:0:
344,16,97981,1,2,0:0:0:0:
176,16,98314,1,2,0:0:0:0:
176,268,98814,6,0,L|176:332,1,65,8|8,0:0|0:0,0:0:0:0:
176,268,99981,1,8,0:0:0:0:
176,268,101481,1,2,0:0:0:0:
472,104,102147,1,8,0:0:0:0:
132,104,102814,1,2,0:0:0:0:
132,104,103314,1,2,0:0:0:0:
300,104,103647,2,0,L|364:104,1,65,2|2,0:0|0:0,0:0:0:0:
300,260,104147,6,0,L|235:260,1,65,2|8,0:0|0:0,0:0:0:0:
132,260,105314,1,8,0:0:0:0:
132,260,106814,1,0,0:0:0:0:
132,260,108147,1,2,0:0:0:0:
72,200,108314,2,0,B|56:184|56:88|72:72,1,130,8|0,0:0|0:0,0:0:0:0:
100,44,108731,1,0,0:0:0:0:
140,32,108814,2,0,L|204:32,1,65,8|0,0:0|0:0,0:0:0:0:
280,72,109147,2,0,L|412:72,1,130,8|6,0:0|0:0,0:0:0:0:
480,120,109647,6,0,L|480:252,1,130,0|0,0:0|0:0,0:0:0:0:
480,336,110147,1,8,0:0:0:0:
312,336,110481,2,0,L|248:336,1,65,0|0,0:0|0:0,0:0:0:0:
168,304,110814,2,0,L|104:304,1,65,0|8,0:0|0:0,0:0:0:0:
36,252,111147,2,0,B|28:244|28:196|36:188,1,65,0|0,0:0|0:0,0:0:0:0:
72,112,111481,2,0,L|204:112,1,130,8|0,0:0|0:0,0:0:0:0:
288,112,111981,1,0,0:0:0:0:
368,84,112147,6,0,B|376:92|376:140|368:148,1,65,2|0,0:0|0:0,0:0:0:0:
424,212,112481,2,0,L|488:212,1,65,0|0,0:0|0:0,0:0:0:0:
488,296,112814,1,8,0:0:0:0:
148,296,113481,2,0,L|16:296,2,130,0|0|8,0:0|0:0|0:0,0:0:0:0:
228,268,114314,2,0,L|260:268,5,32.5,0|0|0|0|0|0,0:0|0:0|0:0|0:0|0:0|0:0,0:0:0:0:
296,244,114814,6,0,B|312:228|312:132|296:116,1,130,6|0,0:0|0:0,0:0:0:0:
264,40,115314,2,0,L|328:40,1,65,0|8,0:0|0:0,0:0:0:0:
412,40,115647,1,0,0:0:0:0:
412,208,115981,1,0,0:0:0:0:
492,180,116147,2,0,B|500:188|500:236|492:244,1,65,2|8,0:0|0:0,0:0:0:0:
240,208,116814,2,0,L|108:208,1,130,8|2,0:0|0:0,0:0:0:0:
24,208,117314,1,0,0:0:0:0:
64,132,117481,6,0,L|64:68,1,65,6|0,0:0|0:0,0:0:0:0:
128,12,117814,2,0,B|140:24|212:24|224:12,1,97.5,8|0,0:0|0:0,0:0:0:0:
264,24,118147,2,0,L|264:88,1,65,2|0,0:0|0:0,0:0:0:0:
264,176,118481,1,8,0:0:0:0:
264,176,118814,6,0,L|264:240,1,65,2|0,0:0|0:0,0:0:0:0:
316,308,119147,2,0,B|328:320|400:320|412:308,1,97.5,8|0,0:0|0:0,0:0:0:0:
444,280,119481,2,0,L|508:280,1,65,2|0,0:0|0:0,0:0:0:0:
508,196,119814,1,8,0:0:0:0:
508,196,120147,6,0,L|444:196,1,65,2|0,0:0|0:0,0:0:0:0:
368,156,120481,2,0,L|236:156,1,130,8|2,0:0|0:0,0:0:0:0:
152,156,120981,1,0,0:0:0:0:
196,228,121147,2,0,B|212:244|212:340|196:356,2,130,8|2|8,0:0|0:0|0:0,0:0:0:0:
80,104,122147,2,0,L|48:104,2,32.5,8|0|0,0:0|0:0|0:0,0:0:0:0:
124,32,122481,2,0,L|156:32,3,32.5,8|2|2|2,0:0|0:0|0:0|0:0,0:0:0:0:
176,40,122814,6,0,L|308:40,1,130,4|0,0:0|0:0,0:0:0:0:
456,116,124147,2,0,L|456:248,1,130,0|0,0:0|0:0,0:0:0:0:
340,368,125481,2,0,L|208:368,1,130,0|0,0:0|0:0,0:0:0:0:
124,368,126481,1,0,0:0:0:0:
52,324,126814,2,0,B|36:308|36:212|52:196,1,130,0|0,0:0|0:0,0:0:0:0:
88,124,127814,1,0,0:0:0:0:
160,80,128147,6,0,L|292:80,1,130,12|2,0:0|0:0,0:0:0:0:
364,124,128647,2,0,B|380:140|476:140|492:124,1,130,8|2,0:0|0:0,0:0:0:0:
492,40,129147,2,0,B|476:24|380:24|364:40,1,130,8|12,0:0|0:0,0:0:0:0:
280,184,129814,1,2,0:0:0:0:
324,256,129981,2,0,B|340:272|340:368|324:384,1,130,8|2,0:0|0:0,0:0:0:0:
240,384,130481,2,0,B|224:368|224:272|240:256,1,130,8|12,0:0|0:0,0:0:0:0:
280,184,131147,5,8,0:0:0:0:
280,184,131481,1,2,0:0:0:0:
280,100,131647,2,0,L|280:68,2,32.5,0|0|8,0:0|0:0|0:0,0:0:0:0:
196,100,131981,1,6,0:0:0:0:
196,100,132481,5,0,0:0:0:0:
196,268,132814,1,0,0:0:0:0:
364,272,133147,1,0,0:0:0:0:
364,272,133481,6,0,L|496:272,2,130,6|8|2,0:0|0:0|0:0,0:0:0:0:
284,300,134314,2,0,B|276:292|276:244|284:236,1,65,0|8,0:0|0:0,0:0:0:0:
224,176,134647,2,0,L|94:176,1,130,6|2,0:0|0:0,0:0:0:0:
16,208,135147,2,0,B|8:200|8:152|16:144,1,65,8|0,0:0|0:0,0:0:0:0:
60,72,135481,2,0,L|124:72,1,65,2|0,0:0|0:0,0:0:0:0:
208,72,135814,1,8,0:0:0:0:
280,28,135981,6,0,B|296:12|392:12|408:28,1,130,2|0,0:0|0:0,0:0:0:0:
480,68,136481,2,0,L|480:200,1,130,8|2,0:0|0:0,0:0:0:0:
428,264,136981,2,0,L|364:264,1,65,0|8,0:0|0:0,0:0:0:0:
296,312,137314,2,0,B|280:328|184:328|168:312,1,130,6|8,0:0|0:0,0:0:0:0:
108,256,137814,2,0,L|108:124,2,130,8|2|8,0:0|0:0|0:0,0:0:0:0:
184,80,138814,6,0,L|316:80,1,130,6|8,0:0|0:0,0:0:0:0:
400,80,139314,1,0,0:0:0:0:
472,124,139481,2,0,B|488:140|488:236|472:252,1,130,2|8,0:0|0:0,0:0:0:0:
408,304,139981,2,0,L|278:304,1,130,6|0,0:0|0:0,0:0:0:0:
192,304,140481,1,8,0:0:0:0:
192,304,140814,2,0,L|128:304,1,65,2|2,0:0|0:0,0:0:0:0:
44,304,141147,1,8,0:0:0:0:
44,304,141481,6,0,L|44:172,1,130,6|8,0:0|0:0,0:0:0:0:
44,88,141981,1,0,0:0:0:0:
116,132,142147,2,0,B|132:148|228:148|244:132,1,130,2|8,0:0|0:0,0:0:0:0:
316,92,142647,2,0,B|332:76|428:76|444:92,1,130,6|8,0:0|0:0,0:0:0:0:
512,140,143147,2,0,L|512:272,2,130,8|8|8,0:0|0:0|0:0,0:0:0:0:
344,140,144147,5,6,0:0:0:0:
344,140,144481,1,8,0:0:0:0:
176,140,144814,1,2,0:0:0:0:
176,140,145148,1,8,0:0:0:0:
176,308,145481,1,2,0:0:0:0:
176,308,145815,1,8,0:0:0:0:
344,308,146147,1,8,0:0:0:0:
344,308,146481,1,8,0:0:0:0:
344,140,146814,5,2,0:0:0:0:
176,140,147147,1,8,0:0:0:0:
344,140,147481,2,0,L|408:140,2,65,8|0|8,0:0|0:0|0:0,0:0:0:0:
264,108,147981,2,0,P|264:172|312:220,1,130,6|2,0:0|0:0,0:0:0:0:
340,244,148397,1,0,0:0:0:0:
368,276,148481,2,0,B|376:284|376:332|368:340,1,65,2|2,0:0|0:0,0:0:0:0:
200,340,148981,2,0,B|192:332|192:284|200:276,1,65,8|8,2:2|2:2,0:0:0:0:
344,140,149481,5,8,0:0:0:0:
176,140,149814,1,8,0:0:0:0:
344,140,150147,2,0,L|409:140,2,65,8|0|2,0:0|0:0|0:0,0:0:0:0:
264,108,150647,2,0,P|264:172|312:220,1,130,6|8,0:0|0:0,0:0:0:0:
392,220,151147,2,0,L|456:220,1,65,8|0,0:0|0:0,0:0:0:0:
460,304,151481,1,8,0:0:0:0:
392,352,151647,2,0,L|360:352,6,32.5,0|0|8|0|0|0|0,1:0|1:0|0:0|1:0|1:0|1:0|1:0,0:0:0:0:
256,192,153314,5,8,0:0:0:0:
256,192,154814,6,0,L|124:192,1,130,12|0,0:0|0:0,0:0:0:0:
124,276,155314,2,0,L|256:276,1,130,12|0,0:0|0:0,0:0:0:0:
340,276,155814,1,12,0:0:0:0:
340,192,155981,1,2,0:0:0:0:
340,192,156314,5,8,0:0:0:0:
424,192,156481,1,8,0:0:0:0:
256,192,157481,6,0,L|192:192,1,65,8|8,0:0|0:0,0:0:0:0:
92,192,158147,1,0,0:0:0:0:
92,192,158814,1,0,0:0:0:0:
92,192,159481,1,0,0:0:0:0:
92,320,160147,6,0,L|157:320,1,65,8|0,0:0|0:0,0:0:0:0:
256,320,160814,1,0,0:0:0:0:
256,320,161481,1,0,0:0:0:0:
256,320,162147,1,0,0:0:0:0:
388,320,162814,6,0,L|388:255,1,65,8|8,0:0|0:0,0:0:0:0:
388,156,163481,1,0,0:0:0:0:
388,156,164148,1,0,0:0:0:0:
388,156,164814,1,0,0:0:0:0:
388,24,165481,6,0,L|323:24,1,65,8|8,0:0|0:0,0:0:0:0:
224,24,166147,1,0,0:0:0:0:
224,24,166814,1,8,0:0:0:0:
56,24,167147,1,2,0:0:0:0:
56,108,167314,1,2,0:0:0:0:
116,168,167481,2,0,L|180:168,1,65,2|2,0:0|0:0,0:0:0:0:
244,112,167814,2,0,L|376:112,1,130,2|4,0:0|0:0,0:0:0:0:
374,280,168481,6,0,L|244:280,1,130,8|2,0:0|0:0,0:0:0:0:
244,112,169147,2,0,L|376:112,2,130,8|2|8,0:0|0:0|0:0,0:0:0:0:
76,112,170147,1,2,0:0:0:0:
76,280,170481,1,8,0:0:0:0:
244,280,170814,6,0,L|376:280,2,130,2|8|2,0:0|0:0|0:0,0:0:0:0:
76,280,171814,1,8,0:0:0:0:
76,112,172147,1,2,0:0:0:0:
244,112,172481,2,0,L|376:112,2,130,8|2|8,0:0|0:0|0:0,0:0:0:0:
76,112,173481,5,6,0:0:0:0:
76,280,173814,1,8,0:0:0:0:
244,280,174147,1,2,0:0:0:0:
244,112,174480,1,8,0:0:0:0:
412,112,174814,1,2,0:0:0:0:
412,280,175147,1,8,0:0:0:0:
244,280,175481,2,0,L|180:280,2,65,8|8|8,0:0|0:0|0:0,0:0:0:0:
324,312,175981,6,0,P|324:248|276:200,1,130,0|0,0:0|0:0,0:0:0:0:
240,192,176397,2,0,L|208:192,1,32.5,0|0,0:0|0:0,0:0:0:0:
208,24,176814,2,0,L|240:24,1,32.5,0|0,0:0|0:0,0:0:0:0:
368,24,177147,1,0,0:0:0:0:
432,80,177314,2,0,B|452:100|452:188|432:208,1,130,0|0,0:0|0:0,0:0:0:0:
388,276,177814,2,0,L|388:340,1,65,0|0,0:0|0:0,0:0:0:0:
304,344,178147,1,0,0:0:0:0:
224,316,178314,2,0,L|192:316,5,32.5,0|0|0|0|0|0,1:0|1:0|1:0|1:0|1:0|1:0,0:0:0:0:
156,340,178814,6,0,B|140:356|44:356|28:340,1,130,6|8,0:0|0:0,0:0:0:0:
32,172,179481,2,0,B|48:156|144:156|160:172,1,130,2|8,0:0|0:0,0:0:0:0:
236,204,179981,2,0,B|252:220|348:220|364:204,1,130,6|2,0:0|0:0,0:0:0:0:
428,152,180481,2,0,B|428:44|428:44|408:56,1,130,8|2,0:0|0:0,0:0:0:0:
332,92,180981,2,0,L|268:92,1,65,0|8,0:0|0:0,0:0:0:0:
184,92,181314,1,2,0:0:0:0:
120,148,181481,6,0,B|104:164|104:260|120:276,1,130,6|8,0:0|0:0,0:0:0:0:
180,332,181981,1,0,0:0:0:0:
264,344,182147,2,0,L|396:344,1,130,2|8,0:0|0:0,0:0:0:0:
464,296,182647,2,0,B|480:280|480:184|464:168,1,130,6|2,0:0|0:0,0:0:0:0:
404,108,183147,2,0,L|272:108,1,130,8|2,0:0|0:0,0:0:0:0:
192,84,183647,2,0,L|160:84,5,32.5,8|0|8|0|8|0,0:0|0:0|0:0|0:0|0:0|0:0,0:0:0:0:
120,100,184147,6,0,B|104:116|104:212|120:228,1,130,6|8,0:0|0:0,0:0:0:0:
256,328,184814,2,0,L|320:328,1,65,2|0,0:0|0:0,0:0:0:0:
404,328,185147,1,8,0:0:0:0:
468,272,185314,2,0,L|468:140,1,130,6|2,0:0|0:0,0:0:0:0:
496,64,185814,2,0,B|488:56|440:56|432:64,1,65,8|0,0:0|0:0,0:0:0:0:
356,100,186147,2,0,B|340:116|244:116|228:100,1,130,2|8,0:0|0:0,0:0:0:0:
88,192,186814,6,0,B|88:256|88:256|76:288|88:324,1,130,12|0,0:0|0:0,0:0:0:0:
164,288,187314,2,0,L|296:288,1,130,12|0,0:0|0:0,0:0:0:0:
364,240,187814,2,0,B|380:224|380:128|364:112,1,130,12|0,0:0|0:0,0:0:0:0:
300,60,188314,2,0,L|168:60,1,130,12|0,0:0|0:0,0:0:0:0:
84,60,188814,1,12,0:0:0:0:
24,120,188981,2,0,L|24:152,5,32.5,0|0|8|0|0|0,1:0|1:0|0:0|1:0|1:0|1:0,0:0:0:0:
52,184,189481,6,0,B|68:200|68:296|52:312,1,130,12|0,0:0|0:0,0:0:0:0:
116,368,189981,2,0,L|248:368,1,130,12|0,0:0|0:0,0:0:0:0:
308,312,190481,2,0,L|440:312,1,130,12|0,0:0|0:0,0:0:0:0:
508,264,190981,2,0,B|524:248|524:152|508:136,1,130,12|0,0:0|0:0,0:0:0:0:
444,84,191481,2,0,L|380:84,1,65,12|2,0:0|0:0,0:0:0:0:
300,52,191814,2,0,B|292:60|292:108|300:116,1,65,2|10,0:0|0:0,0:0:0:0:
256,192,205481,6,0,L|388:192,2,130,2|2|2,0:0|0:0|0:0,0:0:0:0:
180,228,206314,2,0,L|116:228,1,65,0|4,0:0|0:0,0:0:0:0:
44,180,206647,2,0,B|44:60|44:60|52:48,1,130,8|0,0:0|0:0,0:0:0:0:
120,4,207147,2,0,L|184:4,1,65,2|0,0:0|0:0,0:0:0:0:
264,36,207481,2,0,L|328:36,1,65,2|0,0:0|0:0,0:0:0:0:
412,36,207814,1,4,0:0:0:0:
472,96,207981,2,0,B|472:216|472:216|464:228,1,130,8|0,0:0|0:0,0:0:0:0:
412,288,208481,5,2,0:0:0:0:
412,372,208647,1,0,0:0:0:0:
340,332,208814,2,0,L|276:332,1,65,2|0,0:0|0:0,0:0:0:0:
192,332,209147,1,2,0:0:0:0:
108,332,209314,1,4,0:0:0:0:
48,272,209481,2,0,L|48:140,2,130,8|0|0,0:0|0:0|0:0,0:0:0:0:
48,60,210814,5,2,0:0:0:0:
132,60,210981,1,0,0:0:0:0:
208,96,211147,2,0,L|272:96,1,65,2|0,0:0|0:0,0:0:0:0:
344,140,211481,2,0,L|408:140,1,65,2|0,0:0|0:0,0:0:0:0:
492,140,211814,1,4,0:0:0:0:
452,216,211981,6,0,B|452:336|452:336|444:348,1,130,8|0,0:0|0:0,0:0:0:0:
368,312,212481,2,0,L|303:312,1,65,2|0,0:0|0:0,0:0:0:0:
218,312,212814,1,2,0:0:0:0:
140,280,212981,2,0,B|132:288|132:336|140:344,1,65,0|2,0:0|0:0,0:0:0:0:
0,244,213481,6,0,B|16:220|16:144|0:112|0:112|44:68,1,195,2|0,0:0|0:0,0:0:0:0:
120,36,214147,2,0,B|144:60|284:60|308:36,1,195,2|0,0:0|0:0,0:0:0:0:
380,80,214814,2,0,L|380:276,1,195,2|0,0:0|0:0,0:0:0:0:
464,276,215481,2,0,L|464:81,1,195,2|0,0:0|0:0,0:0:0:0:
256,192,216147,12,0,217314,0:0:0:0:
256,192,218814,6,0,L|388:192,2,130,6|8|2,0:0|0:0|0:0,0:0:0:0:
184,236,219647,2,0,B|120:236,1,65,0|8,0:0|0:0,0:0:0:0:
48,192,219981,2,0,B|48:76|48:76|60:64,1,130,6|2,0:0|0:0,0:0:0:0:
128,16,220481,2,0,B|144:32|240:32|256:16,1,130,8|2,0:0|0:0,0:0:0:0:
332,52,220981,2,0,L|396:52,1,65,0|8,0:0|0:0,0:0:0:0:
480,52,221314,1,2,0:0:0:0:
436,124,221481,6,0,L|436:256,1,130,6|8,0:0|0:0,0:0:0:0:
436,340,221981,1,0,0:0:0:0:
360,300,222147,2,0,L|296:300,1,65,2|0,0:0|0:0,0:0:0:0:
208,300,222481,1,8,0:0:0:0:
144,244,222647,2,0,B|144:128|144:128|156:116,1,130,6|2,0:0|0:0,0:0:0:0:
220,64,223147,1,8,0:0:0:0:
220,64,223481,1,2,0:0:0:0:
304,64,223647,2,0,L|340:64,5,32.5,8|8|8|8|8|8,0:0|0:0|0:0|0:0|0:0|0:0,0:0:0:0:
376,80,224147,6,0,L|508:80,2,130,6|8|2,0:0|0:0|0:0,0:0:0:0:
324,148,224981,2,0,L|324:212,1,65,0|8,0:0|0:0,0:0:0:0:
268,276,225314,2,0,B|252:292|156:292|140:276,1,130,6|0,0:0|0:0,0:0:0:0:
72,228,225814,2,0,L|72:96,1,130,8|2,0:0|0:0,0:0:0:0:
72,12,226314,1,2,0:0:0:0:
148,48,226481,2,0,L|280:48,2,130,8|6|8,0:0|0:0|0:0,0:0:0:0:
236,192,227481,6,0,L|368:192,1,130,2|8,0:0|0:0,0:0:0:0:
444,164,227981,2,0,P|444:228|400:272,1,130,6|8,0:0|0:0,0:0:0:0:
360,284,228397,1,0,0:0:0:0:
316,284,228481,2,0,L|252:284,1,65,10|0,0:0|0:0,0:0:0:0:
172,316,228814,2,0,L|140:316,2,32.5,8|0|0,0:0|0:0|0:0,0:0:0:0:
156,232,229147,2,0,L|124:232,3,32.5,8|8|8|8,0:0|0:0|0:0|0:0,0:0:0:0:
88,208,229481,6,0,B|72:192|72:96|88:80,1,130,6|8,0:0|0:0,0:0:0:0:
256,80,230147,2,0,B|272:96|272:192|256:208,1,130,2|8,0:0|0:0,0:0:0:0:
200,268,230647,1,0,0:0:0:0:
256,332,230814,2,0,L|388:332,1,130,2|8,0:0|0:0,0:0:0:0:
480,192,231481,2,0,L|350:192,1,130,2|8,0:0|0:0,0:0:0:0:
256,52,232147,6,0,L|388:52,2,130,2|8|2,0:0|0:0|0:0,0:0:0:0:
192,108,232981,2,0,B|176:124|176:220|192:236,1,130,0|6,0:0|0:0,0:0:0:0:
348,292,233647,2,0,L|380:292,2,32.5,2|0|2,0:0|0:0|0:0,0:0:0:0:
264,292,233981,1,2,0:0:0:0:
96,292,234314,1,2,0:0:0:0:
28,240,234481,2,0,L|28:208,2,32.5,8|0|0,0:0|0:0|0:0,0:0:0:0:
96,292,234814,6,0,L|160:292,1,65,8|0,0:0|0:0,0:0:0:0:
212,224,235147,2,0,L|212:156,1,65,8|0,0:0|0:0,0:0:0:0:
212,72,235481,1,8,0:0:0:0:
212,72,235814,5,8,0:0:0:0:
284,116,235981,2,0,B|300:132|396:132|412:116,1,130,6|2,0:0|0:0,0:0:0:0:
472,176,236481,2,0,L|472:240,1,65,2|2,0:0|0:0,0:0:0:0:
504,320,236814,2,0,B|496:328|448:328|440:320,1,65,2|0,0:0|0:0,0:0:0:0:
368,276,237147,2,0,L|304:276,1,65,2|2,0:0|0:0,0:0:0:0:
224,308,237481,6,0,L|92:308,1,130,8|8,0:0|0:0,0:0:0:0:
92,140,238147,2,0,L|222:140,1,130,8|0,0:0|0:0,0:0:0:0:
308,140,238647,1,6,0:0:0:0:
308,140,238981,5,2,0:0:0:0:
392,140,239147,2,0,L|456:140,1,65,2|2,0:0|0:0,0:0:0:0:
460,224,239481,2,0,L|328:224,1,130,2|8,0:0|0:0,0:0:0:0:
161,224,240147,5,8,0:0:0:0:
160,52,240481,1,8,0:0:0:0:
328,52,240814,1,2,0:0:0:0:
160,52,241147,2,0,L|96:52,1,65,8|6,0:0|0:0,0:0:0:0:
256,192,246816,6,0,L|388:192,1,130,6|8,0:0|0:0,0:0:0:0:
472,192,247316,1,0,0:0:0:0:
432,120,247482,2,0,L|432:56,2,65,0|0|8,0:0|0:0|0:0,0:0:0:0:
472,192,247982,2,0,B|472:304|472:304|460:320,1,130,6|2,0:0|0:0,0:0:0:0:
388,364,248482,2,0,L|256:364,1,130,8|2,0:0|0:0,0:0:0:0:
184,324,248982,2,0,L|120:324,1,65,0|8,0:0|0:0,0:0:0:0:
120,156,249482,6,0,L|250:156,1,130,6|8,0:0|0:0,0:0:0:0:
252,240,249982,2,0,L|122:240,1,130,0|0,0:0|0:0,0:0:0:0:
120,72,250649,2,0,L|250:72,1,130,6|2,0:0|0:0,0:0:0:0:
324,112,251149,2,0,L|454:112,2,130,8|8|8,0:0|0:0|0:0,0:0:0:0:
324,281,252149,6,0,L|454:281,2,130,6|8|2,0:0|0:0|0:0,0:0:0:0:
252,325,252982,2,0,L|188:325,1,65,0|8,0:0|0:0,0:0:0:0:
116,277,253316,2,0,B|101:262|101:166|117:150,1,130,6|2,0:0|0:0,0:0:0:0:
176,89,253816,2,0,L|308:89,1,130,8|2,0:0|0:0,0:0:0:0:
384,121,254316,2,0,L|449:121,1,65,0|8,0:0|0:0,0:0:0:0:
448,289,254816,6,0,L|318:289,1,130,12|0,0:0|0:0,0:0:0:0:
244,333,255316,2,0,L|114:333,1,130,12|0,0:0|0:0,0:0:0:0:
28,333,255816,1,12,0:0:0:0:
28,333,256149,5,2,0:0:0:0:
28,249,256316,1,8,0:0:0:0:
28,165,256482,1,8,0:0:0:0:
28,81,256649,1,8,0:0:0:0:
