osu file format v14

[General]
AudioFilename: akatsuki.mp3
AudioLeadIn: 1200
PreviewTime: 132314
Countdown: 0
SampleSet: Soft
StackLeniency: 0.7
Mode: 0
LetterboxInBreaks: 1
WidescreenStoryboard: 0

[Editor]
Bookmarks: 600,1752,7961,14171,16148,21481,32147,42814,50814,56147,61481,66814,78814,85481,88147,98814,109481,117481,122814,128147,133481,152147,154814,157481,168147,178814,192147,194814,205481,216147,218814,229481,241314,246816,256712
DistanceSpacing: 1
BeatDivisor: 4
GridSize: 32
TimelineZoom: 2.4

[Metadata]
Title:Akatsuki Zukuyo
TitleUnicode:暁月夜-アカツキヅクヨ-
Artist:HoneyWorks
ArtistUnicode:HoneyWorks
Creator:[C u r i]
Version:Insane
Source:
Tags:鎖那 sana Zzz [_Zzz_] Taeyang Euny Natsu Natsuny DreaM117er Kibbleru deetz
BeatmapID:857477
BeatmapSetID:351280

[Difficulty]
HPDrainRate:7
CircleSize:4
OverallDifficulty:8
ApproachRate:9
SliderMultiplier:1.6
SliderTickRate:1

[Events]
//Background and Video events
0,0,"47187043_p0.png",0,0
//Break Periods
2,16348,19547
2,152347,156881
2,194814,204881
//Storyboard Layer 0 (Background)
//Storyboard Layer 1 (Fail)
//Storyboard Layer 2 (Pass)
//Storyboard Layer 3 (Foreground)
//Storyboard Sound Samples

[TimingPoints]
600,388.098318240621,4,2,0,20,1,0
600,-200,4,2,0,20,0,0
1752,388.098318240621,4,2,99,30,1,0
1752,-142.857142857143,4,2,99,30,0,0
16148,333.333333333333,4,2,98,40,1,0
21481,-100,4,2,98,60,0,0
32147,-125,4,2,98,50,0,0
50814,-100,4,2,98,50,0,0
56147,-200,4,2,99,40,0,0
58814,-142.857142857143,4,2,99,50,0,0
61481,-100,4,2,98,70,0,0
65814,-100,4,2,97,60,0,0
66814,-90.9090909090909,4,2,98,80,0,1
82314,-90.9090909090909,4,2,0,80,0,1
82814,-90.9090909090909,4,2,98,80,0,1
85481,-142.857142857143,4,2,98,70,0,1
86731,-142.857142857143,4,2,98,5,0,1
86814,-100,4,2,99,30,0,1
86981,-200,4,2,0,60,0,1
87147,-200,4,2,0,50,0,1
87314,-200,4,2,99,40,0,1
87481,-200,4,2,0,50,0,1
87647,-200,4,2,0,60,0,1
87814,-200,4,2,99,70,0,1
87981,-200,4,2,0,80,0,1
88147,-100,4,2,98,70,0,0
97481,-100,4,2,0,60,0,0
97647,-100,4,2,0,50,0,0
97981,-100,4,2,0,40,0,0
98814,-100,4,2,98,40,0,0
99647,-166.666666666667,4,2,98,45,0,0
99981,-166.666666666667,4,2,98,50,0,0
100814,-166.666666666667,4,2,98,45,0,0
101481,-166.666666666667,4,2,98,50,0,0
104981,-166.666666666667,4,2,98,45,0,0
105314,-166.666666666667,4,2,98,50,0,0
106147,-166.666666666667,4,2,98,45,0,0
106814,-166.666666666667,4,2,98,50,0,0
108147,-166.666666666667,4,2,98,60,0,0
109481,-100,4,2,98,60,0,0
112147,-100,4,2,98,50,0,0
114814,-100,4,2,98,60,0,0
122814,-125,4,2,98,30,0,0
128147,-100,4,2,98,70,0,0
132481,-100,4,2,97,60,0,0
133481,-90.9090909090909,4,2,98,80,0,1
148981,-90.9090909090909,4,2,0,80,0,1
149397,-90.9090909090909,4,2,98,5,0,1
149481,-90.9090909090909,4,2,98,80,0,1
152147,-100,4,2,0,50,0,0
157481,-100,4,2,98,50,0,0
158147,-100,4,2,99,50,0,0
160147,-100,4,2,98,50,0,0
160814,-100,4,2,99,50,0,0
162814,-100,4,2,98,50,0,0
163481,-100,4,2,99,50,0,0
165481,-200,4,2,98,50,0,0
166147,-200,4,2,99,50,0,0
166731,-200,4,2,98,50,0,0
168147,-133.333333333333,4,2,98,60,0,0
173481,-133.333333333333,4,2,98,65,0,0
175981,-125,4,2,98,70,0,0
177314,-111.111111111111,4,2,98,70,0,0
178814,-100,4,2,98,70,0,0
205481,-166.666666666667,4,2,99,20,0,0
210814,-142.857142857143,4,2,99,30,0,0
213481,-200,4,2,99,30,0,0
218814,-90.9090909090909,4,2,98,80,0,1
241314,-100,4,2,99,40,0,0
243516,388.098318240621,4,2,99,5,1,0
244193,388.098318240621,4,2,99,5,1,0
244193,-200,4,2,99,5,0,0
246816,333.333333333333,4,2,98,70,1,0

[Colours]
Combo1 : 255,128,64
Combo2 : 64,64,255
Combo3 : 0,128,255
Combo4 : 0,255,255

[HitObjects]
165,111,600,6,0,P|207:104|251:111,2,80,2|2|2,0:0|0:0|0:0,0:0:0:0:
104,180,1752,6,0,L|108:304,1,111.999996582031,4|2,0:1|0:0,0:0:0:0:
195,309,2528,2,0,L|191:185,1,111.999996582031,8|2,0:0|0:0,0:0:0:0:
255,129,3110,1,2,0:0:0:0:
385,219,3304,6,0,P|331:232|278:219,1,111.999996582031,2|2,0:0|0:0,0:0:0:0:
255,129,4080,2,0,P|309:116|362:129,1,111.999996582031,8|2,0:0|0:0,0:0:0:0:
385,219,4662,1,2,0:0:0:0:
191,197,4856,6,0,P|163:147|173:82,1,111.999996582031,2|2,0:0|0:0,0:0:0:0:
278,165,5632,2,0,P|281:220|254:267,1,111.999996582031,8|2,0:0|0:0,0:0:0:0:
164,291,6215,1,2,0:0:0:0:
219,131,6409,6,0,L|340:129,1,111.999996582031,2|2,0:0|0:0,0:0:0:0:
424,226,7185,2,0,L|303:228,1,111.999996582031,8|8,0:0|0:0,0:0:0:0:
202,249,7961,6,0,P|173:285|174:361,1,111.999996582031,4|2,0:1|0:0,0:0:0:0:
255,323,8543,1,2,0:0:0:0:
293,243,8737,2,0,P|286:212|262:181,2,55.9999982910157,8|0|2,0:0|0:0|0:0,0:0:0:0:
132,203,9513,6,0,L|123:74,1,111.999996582031,2|2,0:0|0:0,0:0:0:0:
180,23,10096,1,2,0:0:0:0:
244,79,10290,2,0,L|249:141,2,55.9999982910157,4|0|2,0:1|0:0|0:0,0:0:0:0:
299,201,11066,6,0,B|330:178|329:130|329:130|378:205|330:285,1,223.999993164063,4|8,0:1|0:0,0:0:0:0:
401,89,12618,6,0,P|434:188|415:309,1,223.999993164063,2|8,0:0|0:3,0:0:0:0:
299,201,14171,5,2,0:0:0:0:
256,192,14268,12,2,16148,0:0:0:0:
213,160,20147,5,2,0:0:0:0:
192,181,20230,1,0,1:0:0:0:
181,209,20313,1,0,1:0:0:0:
182,238,20396,1,0,1:0:0:0:
195,265,20481,2,0,L|243:282,1,40,8|0,0:0|1:0,0:0:0:0:
249,314,20647,2,0,L|286:327,1,40,0|0,1:0|1:0,0:0:0:0:
315,335,20814,5,8,0:0:0:0:
334,312,20897,1,0,1:0:0:0:
344,284,20980,1,0,1:0:0:0:
344,254,21063,1,0,1:0:0:0:
334,226,21147,1,8,0:3:0:0:
324,209,21230,1,8,0:3:0:0:
319,189,21313,1,4,0:3:0:0:
319,169,21396,1,0,0:0:0:0:
325,151,21481,6,0,B|363:167|363:167|493:157,1,160,6|8,0:0|0:0,0:0:0:0:
423,247,21981,2,0,L|335:254,1,80,0|2,0:0|0:0,0:0:0:0:
245,211,22314,1,2,0:0:0:0:
296,348,22481,1,8,0:0:0:0:
325,151,22647,6,0,P|264:113|171:137,1,160,6|2,0:0|0:0,0:0:0:0:
343,253,23147,2,0,P|390:231|416:197,1,80,8|0,0:0|0:0,0:0:0:0:
245,211,23481,2,0,L|244:305,1,80,2|2,0:0|0:0,0:0:0:0:
84,211,23814,2,0,P|69:155|102:90,1,120,8|0,0:0|0:0,0:0:0:0:
125,77,24147,6,0,L|287:76,1,160,6|8,0:0|0:0,0:0:0:0:
392,146,24647,1,0,0:0:0:0:
282,204,24814,2,0,L|193:205,1,80,2|2,0:0|0:0,0:0:0:0:
125,77,25147,1,8,0:0:0:0:
282,204,25314,6,0,P|305:289|281:366,1,160,6|2,0:0|0:0,0:0:0:0:
154,329,25814,2,0,P|99:328|56:343,1,80,8|0,0:0|0:0,0:0:0:0:
150,169,26147,2,0,P|176:217|211:246,1,80,2|2,0:0|0:0,0:0:0:0:
23,245,26481,2,0,P|51:197|59:153,1,80,8|0,0:0|0:0,0:0:0:0:
241,46,26814,6,0,B|366:45|366:45|390:78,1,160,6|8,0:0|0:0,0:0:0:0:
459,158,27314,1,0,0:0:0:0:
292,127,27481,1,2,0:0:0:0:
412,250,27647,2,0,P|451:263|495:260,1,80,2|8,0:0|0:0,0:0:0:0:
292,127,27981,6,0,P|232:121|134:166,1,160,6|2,0:0|0:0,0:0:0:0:
316,230,28481,1,8,0:0:0:0:
284,88,28647,2,0,P|241:85|180:95,1,80,0|2,0:0|0:0,0:0:0:0:
86,230,28981,1,2,0:0:0:0:
86,230,29064,1,0,0:0:0:0:
86,230,29147,2,0,B|98:257|98:257|86:284|86:284|106:316|81:371,1,120,8|0,0:0|0:0,0:0:0:0:
16,317,29481,5,12,0:0:0:0:
171,304,29647,1,2,0:0:0:0:
318,357,29814,1,2,0:0:0:0:
91,342,29981,2,0,P|84:296|97:249,1,80,12|2,0:0|0:0,0:0:0:0:
184,162,30314,1,2,0:0:0:0:
91,342,30481,5,12,0:0:0:0:
255,224,30647,1,2,0:0:0:0:
90,263,30814,1,2,0:0:0:0:
222,383,30981,1,12,0:0:0:0:
184,162,31147,1,2,0:0:0:0:
299,334,31314,1,2,0:0:0:0:
91,342,31481,5,12,0:0:0:0:
184,162,31647,1,12,0:0:0:0:
197,135,32147,6,0,B|227:118|227:118|332:103,1,128,6|2,0:0|0:0,0:0:0:0:
424,196,32647,1,0,0:0:0:0:
424,196,32814,1,2,0:0:0:0:
278,222,32981,1,0,3:0:0:0:
278,222,33064,1,0,3:0:0:0:
278,222,33147,2,0,P|277:268|283:294,1,64,0|0,3:0|3:0,0:0:0:0:
170,182,33481,6,0,P|164:244|174:321,1,128,2|2,0:0|0:0,0:0:0:0:
375,247,33981,1,0,0:0:0:0:
375,247,34147,1,2,0:0:0:0:
280,285,34314,1,0,3:0:0:0:
280,285,34397,1,0,3:0:0:0:
280,285,34481,2,0,P|275:253|278:222,1,64,0|0,3:0|3:0,0:0:0:0:
345,365,34814,6,0,L|195:371,1,128,2|2,0:0|0:0,0:0:0:0:
95,300,35314,1,0,0:0:0:0:
95,300,35481,2,0,P|80:257|83:216,1,64,2|0,0:0|3:0,0:0:0:0:
87,218,35731,1,0,3:0:0:0:
87,218,35814,2,0,L|83:140,1,64,0|0,3:0|3:0,0:0:0:0:
233,39,36147,6,0,L|236:102,1,64,8|4,0:3|0:3,0:0:0:0:
236,123,36397,1,4,0:3:0:0:
236,143,36481,1,4,0:3:0:0:
151,45,36647,2,0,L|153:77,1,32,8|8,0:0|0:0,0:0:0:0:
236,102,36814,2,0,P|283:96|327:111,1,64,8|8,0:0|0:0,0:0:0:0:
423,152,37147,2,0,P|376:158|332:143,1,64,2|8,0:0|0:0,0:0:0:0:
460,232,37481,6,0,P|389:242|317:232,1,128,6|2,0:0|0:0,0:0:0:0:
236,102,37981,1,0,0:0:0:0:
236,102,38147,1,0,0:0:0:0:
243,203,38314,1,0,3:0:0:0:
243,203,38397,1,0,3:0:0:0:
243,203,38481,2,0,P|243:251|231:285,1,64,0|0,3:0|3:0,0:0:0:0:
329,143,38814,6,0,P|336:208|328:288,1,128,2|2,0:0|0:0,0:0:0:0:
209,342,39314,1,0,0:0:0:0:
209,342,39481,2,0,L|135:345,1,64,2|0,0:0|3:0,0:0:0:0:
123,338,39731,1,0,3:0:0:0:
123,338,39814,2,0,P|80:316|52:287,1,64,0|0,3:0|3:0,0:0:0:0:
60,161,40147,6,0,P|74:222|60:284,1,128,2|2,0:0|0:0,0:0:0:0:
37,162,40647,1,0,0:0:0:0:
151,76,40814,2,0,P|180:69|242:79,1,64,2|0,0:0|3:0,0:0:0:0:
231,86,41064,1,0,3:0:0:0:
231,86,41147,1,0,3:0:0:0:
133,169,41314,1,0,3:0:0:0:
291,236,41481,6,0,P|320:243|382:233,1,64,2|8,0:0|0:0,0:0:0:0:
465,145,41814,2,0,P|444:166|422:225,1,64,2|8,0:0|0:0,0:0:0:0:
431,230,42064,1,8,0:0:0:0:
431,230,42147,2,0,L|432:314,1,64,8|8,0:0|0:3,0:0:0:0:
350,384,42481,2,0,L|350:320,1,64,8|4,0:3|0:3,0:0:0:0:
316,207,42814,5,6,0:0:0:0:
270,299,42981,1,2,0:0:0:0:
177,256,43147,1,0,0:0:0:0:
223,164,43314,1,2,0:0:0:0:
270,299,43481,2,0,P|231:343|150:361,1,128,8|2,0:0|0:0,0:0:0:0:
79,306,43981,1,2,0:0:0:0:
47,147,44147,6,0,P|68:193|71:225,1,64,2|8,0:0|0:0,0:0:0:0:
144,78,44481,2,0,P|156:126|154:158,1,64,0|2,0:0|0:0,0:0:0:0:
294,225,44814,2,0,P|239:257|177:252,1,128,8|2,0:0|0:0,0:0:0:0:
70,205,45314,1,2,0:0:0:0:
162,82,45481,6,0,L|236:68,1,64,2|2,0:0|0:0,0:0:0:0:
385,95,45814,2,0,L|311:109,1,64,0|2,0:0|0:0,0:0:0:0:
270,280,46147,2,0,B|270:243|270:243|248:194|248:194|248:157,1,128,8|2,0:0|0:0,0:0:0:0:
187,263,46647,1,2,0:0:0:0:
371,178,46814,6,0,P|402:176|457:188,1,64,4|8,0:3|0:3,0:0:0:0:
489,277,47147,1,0,0:0:0:0:
321,267,47314,1,2,0:0:0:0:
321,267,47397,1,0,0:0:0:0:
321,267,47481,2,0,P|280:224|271:199,1,64,8|8,0:0|0:3,0:0:0:0:
401,278,47814,2,0,P|384:335|367:355,1,64,4|4,0:3|0:3,0:0:0:0:
216,346,48147,6,0,L|126:350,1,64,6|2,0:0|0:0,0:0:0:0:
66,299,48481,1,0,0:0:0:0:
147,190,48647,2,0,L|149:262,1,64,2|8,0:0|0:0,0:0:0:0:
60,209,48981,2,0,L|58:137,1,64,2|0,0:0|0:0,0:0:0:0:
104,57,49314,1,2,0:0:0:0:
238,178,49481,6,0,P|280:191|324:181,1,64,2|8,0:0|0:0,0:0:0:0:
200,102,49814,2,0,P|167:131|154:174,1,64,0|2,0:0|0:0,0:0:0:0:
285,110,50147,1,8,0:0:0:0:
285,110,50231,1,0,0:0:0:0:
285,110,50314,1,8,0:0:0:0:
285,110,50397,1,8,0:0:0:0:
285,110,50481,1,8,0:0:0:0:
171,235,50647,1,8,0:3:0:0:
355,259,50814,6,0,P|391:255|447:268,1,80,2|0,0:0|0:0,0:0:0:0:
252,343,51147,2,0,P|216:347|160:334,1,80,8|2,0:0|0:0,0:0:0:0:
145,311,51397,1,8,0:0:0:0:
145,311,51481,2,0,L|143:219,1,80,2|2,0:0|0:0,0:0:0:0:
247,110,51814,2,0,L|249:202,1,80,8|0,0:0|0:0,0:0:0:0:
374,300,52147,6,0,P|329:302|272:286,1,80,2|2,0:0|0:0,0:0:0:0:
248,189,52481,1,8,0:0:0:0:
374,207,52647,1,2,0:0:0:0:
374,207,52731,1,8,0:0:0:0:
374,207,52814,1,2,0:0:0:0:
294,295,52981,1,2,0:0:0:0:
323,115,53147,2,0,P|375:108|408:115,1,80,8|0,0:0|0:0,0:0:0:0:
411,314,53481,6,0,P|436:245|374:207,1,160,2|8,0:0|0:0,0:0:0:0:
294,295,53981,2,0,L|196:303,1,80,2|2,0:0|0:0,0:0:0:0:
121,233,54314,1,2,0:0:0:0:
239,130,54481,2,0,L|247:223,1,80,8|0,0:0|0:0,0:0:0:0:
2,216,54814,6,0,L|16:50,1,160,2|8,0:0|0:0,0:0:0:0:
121,152,55314,1,2,0:0:0:0:
37,305,55481,2,0,P|73:329|111:333,1,80,8|4,0:3|0:3,0:0:0:0:
246,284,55814,2,0,L|257:245,3,40,14|0|0|0,0:0|0:0|0:0|0:0,0:0:0:0:
246,284,56147,6,0,L|411:266,1,160,4|2,0:1|0:0,0:0:0:0:
405,125,57481,2,0,L|245:107,1,160,2|2,0:0|0:0,0:0:0:0:
165,227,58814,6,0,P|156:323|171:349,1,111.999996582031,4|0,0:1|0:0,0:0:0:0:
246,284,59481,1,2,0:0:0:0:
223,128,60147,2,0,L|90:137,1,111.999996582031,4|0,0:1|0:0,0:0:0:0:
40,209,60814,1,2,0:0:0:0:
303,188,61481,6,0,P|320:125|267:35,1,160,12|2,0:0|0:0,0:0:0:0:
94,200,61981,2,0,P|152:251|230:251,1,160,8|2,0:0|0:0,0:0:0:0:
397,167,62481,1,8,0:0:0:0:
409,194,62564,1,8,0:0:0:0:
417,223,62647,1,8,0:0:0:0:
420,252,62731,1,8,0:0:0:0:
418,282,62814,6,0,B|355:335|355:335|263:344,1,160,12|2,0:0|0:0,0:0:0:0:
198,160,63314,2,0,B|261:107|261:107|353:98,1,160,8|2,0:0|0:0,0:0:0:0:
308,225,63814,2,0,L|187:265,1,120,8|0,0:0|0:0,0:0:0:0:
157,277,64147,6,0,L|254:299,1,80,12|2,0:0|0:0,0:0:0:0:
381,251,64481,1,12,0:0:0:0:
306,121,64647,1,2,0:0:0:0:
468,142,64814,1,2,0:0:0:0:
306,203,64981,1,8,0:0:0:0:
306,203,65064,1,8,0:0:0:0:
306,203,65147,1,8,0:0:0:0:
340,38,65314,1,14,0:0:0:0:
468,142,65814,5,4,0:1:0:0:
306,203,66147,1,2,0:0:0:0:
340,38,66481,1,2,0:0:0:0:
500,280,66814,6,0,L|319:288,1,176.000005371094,6|8,0:0|0:0,0:0:0:0:
179,247,67314,1,0,0:0:0:0:
263,352,67481,1,2,0:0:0:0:
327,205,67647,2,0,L|324:113,1,88.000002685547,2|8,0:0|0:0,0:0:0:0:
116,108,67981,6,0,P|167:81|242:160,1,176.000005371094,6|2,0:0|0:0,0:0:0:0:
91,199,68481,2,0,P|48:175|27:136,1,88.000002685547,8|0,0:0|0:0,0:0:0:0:
173,186,68814,1,2,0:0:0:0:
28,142,68981,1,2,0:0:0:0:
77,288,69147,2,0,L|102:376,1,88.000002685547,8|0,0:0|0:0,0:0:0:0:
146,372,69397,1,0,0:0:0:0:
146,372,69481,6,0,P|222:338|318:369,1,176.000005371094,6|8,0:0|0:0,0:0:0:0:
439,348,69981,1,0,0:0:0:0:
293,233,70147,2,0,L|193:238,1,88.000002685547,2|2,0:0|0:0,0:0:0:0:
367,288,70481,1,8,0:0:0:0:
317,149,70647,6,0,P|400:144|439:218,1,176.000005371094,6|2,0:0|0:0,0:0:0:0:
232,136,71147,2,0,P|223:74|232:43,1,88.000002685547,8|0,0:0|0:0,0:0:0:0:
264,220,71481,2,0,L|166:230,1,88.000002685547,2|8,0:0|0:0,0:0:0:0:
133,236,71731,1,8,0:0:0:0:
133,236,71814,1,2,0:0:0:0:
253,330,71981,1,8,0:0:0:0:
253,330,72064,1,8,0:0:0:0:
253,330,72147,6,0,P|306:321|346:279,1,88.000002685547,6|0,0:0|0:0,0:0:0:0:
264,220,72481,2,0,P|211:229|171:271,1,88.000002685547,8|0,0:0|0:0,0:0:0:0:
354,229,72814,1,2,0:0:0:0:
184,249,72981,1,2,0:0:0:0:
329,155,73147,1,8,0:0:0:0:
148,182,73314,6,0,P|108:237|157:328,1,176.000005371094,6|2,0:0|0:0,0:0:0:0:
278,246,73814,2,0,L|179:256,1,88.000002685547,8|0,0:0|0:0,0:0:0:0:
303,340,74147,1,2,0:0:0:0:
151,325,74314,1,2,0:0:0:0:
240,173,74481,2,0,B|333:165|333:165|317:114,1,132.00000402832,12|0,0:0|0:0,0:0:0:0:
306,88,74814,5,6,0:0:0:0:
152,184,75147,1,12,0:0:0:0:
387,100,75481,2,0,P|375:42|354:20,1,88.000002685547,6|2,0:0|0:0,0:0:0:0:
202,33,75814,1,12,0:0:0:0:
269,191,75981,6,0,B|299:213|342:167|342:167|304:140|306:86,1,176.000005371094,6|2,0:0|0:0,0:0:0:0:
393,11,76481,1,8,0:0:0:0:
466,137,76647,2,0,P|424:126|392:98,1,88.000002685547,2|8,0:0|0:0,0:0:0:0:
349,88,76897,1,2,0:0:0:0:
305,87,76980,1,2,0:0:0:0:
264,103,77063,1,2,0:0:0:0:
234,135,77146,1,2,0:0:0:0:
334,297,77481,6,0,L|333:206,1,88.000002685547,6|0,0:0|0:0,0:0:0:0:
234,135,77814,2,0,L|233:222,1,88.000002685547,8|0,0:0|0:0,0:0:0:0:
248,337,78147,1,8,0:0:0:0:
333,209,78314,2,0,L|332:118,1,88.000002685547,2|8,0:0|0:0,0:0:0:0:
185,77,78647,1,2,0:0:0:0:
185,77,78814,6,0,P|243:61|278:64,1,88.000002685547,12|0,0:0|0:0,0:0:0:0:
244,155,79147,2,0,P|186:171|151:168,1,88.000002685547,8|0,0:0|0:0,0:0:0:0:
85,96,79481,1,8,0:0:0:0:
117,248,79647,2,0,L|122:343,1,88.000002685547,2|8,0:0|0:0,0:0:0:0:
222,362,79981,1,2,0:0:0:0:
158,169,80147,6,0,P|68:173|30:255,1,176.000005371094,12|8,0:0|0:0,0:0:0:0:
251,232,80814,1,8,0:0:0:0:
251,232,80981,2,0,L|241:128,1,88.000002685547,4|8,0:0|0:0,0:0:0:0:
401,52,81314,6,0,P|322:43|351:126,1,176.000005371094,6|2,0:0|0:0,0:0:0:0:
434,156,81814,1,2,0:0:0:0:
242,144,81981,1,8,0:0:0:0:
373,227,82147,2,0,L|377:328,1,88.000002685547,2|8,0:0|0:0,0:0:0:0:
212,331,82481,2,0,P|282:295|346:302,1,132.00000402832,8|0,0:0|0:0,0:0:0:0:
376,314,82815,5,12,0:0:0:0:
212,331,83147,1,8,0:0:0:0:
274,183,83481,2,0,P|272:122|257:90,1,88.000002685547,8|2,0:0|0:0,0:0:0:0:
193,241,83814,1,8,0:0:0:0:
365,220,83981,6,0,P|368:157|336:37,1,176.000005371094,2|8,0:0|0:0,0:0:0:0:
319,35,84397,1,0,0:0:0:0:
319,35,84481,2,0,L|264:33,3,44.0000013427735,8|8|8|8,0:0|0:0|0:0|0:0,0:0:0:0:
341,48,84814,6,0,P|406:68|443:58,1,88.000002685547,8|10,0:0|0:0,0:0:0:0:
464,45,85064,1,10,0:0:0:0:
464,45,85147,2,0,L|471:150,1,88.000002685547,8|4,0:3|0:3,0:0:0:0:
475,175,85397,1,4,0:3:0:0:
475,175,85481,1,4,0:1:0:0:
256,192,85564,12,0,86647,0:0:0:0:
340,263,86814,5,4,0:1:0:0:
245,278,86981,1,2,0:0:0:0:
169,220,87147,1,2,0:0:0:0:
74,235,87314,1,4,0:1:0:0:
245,278,87481,5,2,0:0:0:0:
263,184,87647,1,2,0:0:0:0:
153,309,87814,1,4,0:1:0:0:
225,371,87980,1,2,0:0:0:0:
359,170,88147,6,0,P|333:118|270:88,1,120,6|0,0:0|0:0,0:0:0:0:
239,88,88481,1,8,0:0:0:0:
249,233,88647,1,0,0:0:0:0:
249,233,88731,1,0,0:0:0:0:
249,233,88814,2,0,P|254:286|239:329,1,80,2|2,0:0|0:0,0:0:0:0:
136,355,89147,1,8,0:0:0:0:
13,194,89314,6,0,L|180:178,1,160,6|8,0:0|0:0,0:0:0:0:
212,178,89731,1,8,0:0:0:0:
226,141,89814,1,8,0:0:0:0:
228,101,89897,1,0,0:0:0:0:
216,63,89980,1,8,0:0:0:0:
101,111,90147,1,8,0:0:0:0:
101,111,90231,1,0,0:0:0:0:
101,111,90314,1,2,0:0:0:0:
212,178,90481,2,0,L|270:190,3,40,8|8|8|0,0:0|0:0|0:0|0:0,0:0:0:0:
289,199,90814,6,0,P|348:165|443:177,1,160,6|8,0:0|0:0,0:0:0:0:
492,282,91314,1,0,0:0:0:0:
379,346,91481,2,0,P|371:304|376:248,1,80,2|2,0:0|0:0,0:0:0:0:
460,356,91814,1,8,0:0:0:0:
294,313,91981,6,0,L|125:313,1,160,6|8,0:0|0:0,0:0:0:0:
35,185,92481,1,8,0:0:0:0:
56,349,92647,1,2,0:0:0:0:
187,238,92814,1,8,0:0:0:0:
194,208,92897,1,0,0:0:0:0:
196,179,92980,1,2,0:0:0:0:
193,149,93063,1,0,0:0:0:0:
184,120,93147,1,8,0:3:0:0:
221,133,93230,1,8,0:3:0:0:
259,123,93313,1,4,0:3:0:0:
291,100,93396,1,4,0:3:0:0:
304,61,93481,6,0,L|319:229,1,160,6|8,0:0|0:0,0:0:0:0:
421,284,93981,1,0,0:0:0:0:
421,284,94064,1,0,0:0:0:0:
421,284,94147,1,2,0:0:0:0:
289,333,94314,2,0,P|243:344|203:378,1,80,2|8,0:0|0:0,0:0:0:0:
31,252,94647,6,0,P|110:248|187:295,1,160,6|2,0:0|0:0,0:0:0:0:
84,358,95147,1,8,0:0:0:0:
31,252,95314,1,2,0:0:0:0:
143,166,95481,2,0,P|157:117|145:60,1,80,8|8,0:0|0:0,0:0:0:0:
138,52,95731,1,8,0:0:0:0:
138,52,95814,2,0,L|260:48,1,120,8|0,0:0|0:0,0:0:0:0:
298,47,96147,5,12,0:0:0:0:
390,112,96314,1,2,0:0:0:0:
287,159,96481,1,2,0:0:0:0:
381,27,96647,2,0,P|428:34|462:66,1,80,12|2,0:0|0:0,0:0:0:0:
458,201,96981,1,2,0:0:0:0:
287,159,97147,2,0,P|294:112|326:78,1,80,12|2,0:0|0:0,0:0:0:0:
365,228,97481,5,2,0:0:0:0:
365,228,97647,1,2,0:0:0:0:
229,244,97981,1,2,0:0:0:0:
312,345,98314,1,2,0:0:0:0:
229,244,98814,5,8,0:0:0:0:
62,212,98981,1,8,0:0:0:0:
65,191,99814,5,2,0:0:0:0:
231,262,99981,1,8,0:0:0:0:
207,89,100814,5,0,0:0:0:0:
151,306,101481,6,0,P|220:354|317:304,1,191.999994140625,2|8,0:0|0:0,0:0:0:0:
313,222,102314,1,0,0:0:0:0:
231,262,102481,1,0,0:0:0:0:
233,76,102814,6,0,B|258:117|233:170|233:170|213:212|231:262,1,191.999994140625,12|0,0:3|0:0,0:0:0:0:
313,222,103647,1,8,0:3:0:0:
311,313,103814,1,4,0:3:0:0:
155,225,104147,5,8,0:0:0:0:
312,123,104314,1,8,0:0:0:0:
319,137,105147,5,2,0:0:0:0:
147,210,105314,1,8,0:0:0:0:
168,31,106147,5,0,0:0:0:0:
319,137,106814,6,0,B|344:178|319:231|319:231|299:273|317:323,2,191.999994140625,2|0|2,0:0|0:0|0:0,0:0:0:0:
188,171,108314,6,0,P|211:179|235:181,1,47.9999985351563,8|8,0:0|0:3,0:0:0:0:
233,82,108647,1,8,0:0:0:0:
233,82,108731,1,8,0:0:0:0:
233,82,108814,1,8,0:0:0:0:
120,94,108981,1,4,0:3:0:0:
145,242,109147,1,8,0:0:0:0:
166,251,109230,1,8,0:0:0:0:
189,258,109313,1,8,0:0:0:0:
213,262,109396,1,8,0:0:0:0:
236,261,109481,6,0,P|280:246|329:249,1,80,6|2,0:0|0:0,0:0:0:0:
412,131,109814,2,0,P|402:176|375:217,1,80,0|2,0:0|0:0,0:0:0:0:
388,293,110147,1,8,0:0:0:0:
412,131,110481,1,0,0:0:0:0:
313,161,110647,1,2,0:0:0:0:
388,293,110814,6,0,L|390:378,1,80,2|8,0:0|0:0,0:0:0:0:
313,161,111147,2,0,P|310:114|319:79,1,80,0|2,0:0|0:0,0:0:0:0:
449,237,111481,2,0,P|377:214|304:288,1,160,8|0,0:0|0:0,0:0:0:0:
388,293,111981,1,2,0:0:0:0:
412,131,112147,6,0,L|419:48,1,80,2|0,0:0|0:0,0:0:0:0:
313,161,112481,2,0,L|306:78,1,80,0|2,0:0|0:0,0:0:0:0:
190,48,112814,2,0,L|197:131,1,80,8|0,0:0|0:0,0:0:0:0:
91,78,113147,2,0,L|84:161,1,80,0|2,0:0|0:0,0:0:0:0:
215,235,113481,6,0,P|150:223|57:280,1,160,2|0,0:0|0:0,0:0:0:0:
49,376,113981,1,6,0:0:0:0:
160,337,114147,2,0,P|218:327|244:328,1,80,2|8,0:0|0:0,0:0:0:0:
274,348,114397,1,8,0:0:0:0:
274,348,114481,1,8,0:0:0:0:
385,349,114647,2,0,L|425:319,1,40,8|8,0:0|0:0,0:0:0:0:
423,247,114814,6,0,P|402:195|414:143,1,80,6|2,0:0|0:0,0:0:0:0:
494,300,115147,1,0,0:0:0:0:
348,280,115314,1,2,0:0:0:0:
485,193,115481,1,8,0:0:0:0:
391,92,115647,2,0,P|463:118|485:193,1,160,2|2,0:0|0:0,0:0:0:0:
320,148,116147,6,0,P|303:96|308:54,1,80,2|8,0:0|0:0,0:0:0:0:
403,172,116481,1,0,0:0:0:0:
249,203,116647,2,0,L|156:216,1,80,2|8,0:0|0:0,0:0:0:0:
99,315,116981,1,8,0:0:0:0:
99,315,117064,1,8,0:0:0:0:
99,315,117147,1,8,0:0:0:0:
76,156,117314,2,0,P|112:124|120:120,1,40,2|2,0:0|0:0,0:0:0:0:
182,109,117481,6,0,L|275:96,1,80,6|0,0:0|0:0,0:0:0:0:
290,244,117814,2,0,L|232:169,1,80,8|2,0:0|0:0,0:0:0:0:
240,180,118064,1,8,0:0:0:0:
240,180,118147,1,2,0:0:0:0:
347,85,118314,2,0,P|344:125|322:158,1,80,2|8,0:0|0:0,0:0:0:0:
293,24,118647,1,0,0:0:0:0:
400,187,118814,6,0,L|406:281,1,80,2|2,0:0|0:0,0:0:0:0:
295,323,119147,2,0,L|289:229,1,80,0|2,0:0|0:0,0:0:0:0:
289,243,119397,1,8,0:0:0:0:
289,243,119481,1,2,0:0:0:0:
381,354,119647,2,0,P|432:351|464:332,1,80,2|8,0:0|0:0,0:0:0:0:
405,266,119981,1,0,0:0:0:0:
201,202,120147,6,0,L|211:374,1,160,2|8,0:0|0:0,0:0:0:0:
327,283,120647,2,0,P|375:267|417:267,1,80,0|2,0:0|0:0,0:0:0:0:
292,361,120981,1,2,0:0:0:0:
122,312,121147,2,0,L|116:220,1,80,8|0,0:0|0:0,0:0:0:0:
60,46,121481,6,0,P|60:103|160:153,1,160,2|8,0:0|0:0,0:0:0:0:
236,68,121981,1,2,0:0:0:0:
263,194,122147,1,8,0:3:0:0:
265,223,122230,1,0,0:3:0:0:
267,253,122313,1,4,0:3:0:0:
269,283,122396,1,0,0:0:0:0:
271,313,122481,1,8,0:0:0:0:
298,326,122564,1,8,0:0:0:0:
328,328,122647,1,2,0:0:0:0:
356,318,122730,1,0,0:0:0:0:
377,298,122814,5,4,0:1:0:0:
263,194,123481,1,2,0:0:0:0:
263,194,124147,5,2,0:0:0:0:
377,298,124814,1,2,0:0:0:0:
185,256,125481,6,0,P|161:196|183:126,1,128,2|0,0:0|0:0,0:0:0:0:
254,76,126147,1,2,0:0:0:0:
434,145,126814,6,0,P|374:169|304:147,1,128,2|0,0:0|0:0,0:0:0:0:
254,76,127480,1,2,0:0:0:0:
434,145,128147,6,0,L|444:304,1,160,12|2,0:0|0:0,0:0:0:0:
267,305,128647,2,0,L|277:145,1,160,8|2,0:0|0:0,0:0:0:0:
155,179,129147,1,8,0:0:0:0:
194,26,129314,1,2,0:0:0:0:
350,40,129481,6,0,P|391:96|397:194,1,160,12|2,0:0|0:0,0:0:0:0:
200,245,129981,2,0,P|159:189|153:91,1,160,8|2,0:0|0:0,0:0:0:0:
291,273,130481,2,0,P|264:317|198:340,1,120,8|0,0:0|0:0,0:0:0:0:
164,326,130814,5,12,0:0:0:0:
267,179,130981,2,0,P|308:178|356:197,1,80,2|12,0:0|0:0,0:0:0:0:
386,311,131314,1,2,0:0:0:0:
430,201,131481,2,0,P|425:159|397:121,1,80,2|8,0:0|0:0,0:0:0:0:
368,110,131731,1,8,0:0:0:0:
368,110,131814,1,8,0:0:0:0:
200,245,131981,1,6,0:0:0:0:
200,245,132481,5,4,0:1:0:0:
368,110,132814,1,2,0:0:0:0:
386,311,133147,1,2,0:0:0:0:
399,31,133481,6,0,B|344:17|308:50|308:50|222:49,1,176.000005371094,6|8,0:0|0:0,0:0:0:0:
368,110,133981,1,0,0:0:0:0:
177,113,134147,2,0,P|150:70|150:28,1,88.000002685547,2|2,0:0|0:0,0:0:0:0:
270,162,134481,1,8,0:0:0:0:
101,196,134647,6,0,P|84:277|131:364,1,176.000005371094,6|2,0:0|0:0,0:0:0:0:
270,162,135147,2,0,P|206:144|162:155,1,88.000002685547,8|0,0:0|0:0,0:0:0:0:
305,251,135481,1,2,0:0:0:0:
430,119,135647,1,2,0:0:0:0:
270,162,135814,1,8,0:0:0:0:
394,281,135981,1,0,0:0:0:0:
394,281,136064,1,0,0:0:0:0:
394,281,136147,6,0,P|321:338|244:318,1,176.000005371094,6|8,0:0|0:0,0:0:0:0:
181,199,136647,1,0,0:0:0:0:
372,191,136814,2,0,P|421:194|466:218,1,88.000002685547,2|2,0:0|0:0,0:0:0:0:
305,251,137147,1,8,0:0:0:0:
258,77,137314,6,0,B|175:59|175:59|70:87,1,176.000005371094,6|2,0:0|0:0,0:0:0:0:
164,284,137814,2,0,P|182:207|94:170,1,176.000005371094,8|2,0:0|0:0,0:0:0:0:
2,258,138314,1,8,0:0:0:0:
23,255,138397,1,8,0:0:0:0:
47,254,138481,1,8,0:0:0:0:
69,277,138564,1,8,0:0:0:0:
99,291,138647,1,8,0:0:0:0:
132,293,138731,1,8,0:0:0:0:
163,283,138814,6,0,L|270:273,1,88.000002685547,6|0,0:0|0:0,0:0:0:0:
343,175,139147,2,0,L|236:185,1,88.000002685547,8|0,0:0|0:0,0:0:0:0:
340,265,139481,1,2,0:0:0:0:
176,200,139647,2,0,P|182:144|213:108,1,88.000002685547,2|8,0:0|0:0,0:0:0:0:
415,149,139981,6,0,P|324:196|233:171,1,176.000005371094,6|2,0:0|0:0,0:0:0:0:
185,50,140481,1,8,0:0:0:0:
318,96,140647,1,0,0:0:0:0:
176,200,140814,2,0,L|174:299,1,88.000002685547,2|2,0:0|0:0,0:0:0:0:
300,384,141147,2,0,L|302:251,1,132.00000402832,12|0,0:0|0:0,0:0:0:0:
303,207,141481,5,6,0:0:0:0:
171,135,141814,1,12,0:0:0:0:
174,287,142147,5,6,0:0:0:0:
303,207,142314,1,2,0:0:0:0:
171,135,142481,1,12,0:0:0:0:
292,324,142647,6,0,P|366:308|419:210,1,176.000005371094,6|2,0:0|0:0,0:0:0:0:
380,114,143147,1,12,0:0:0:0:
303,207,143314,2,0,P|254:218|203:211,1,88.000002685547,2|8,0:0|0:0,0:0:0:0:
177,195,143564,1,0,0:0:0:0:
134,184,143647,1,0,0:0:0:0:
90,188,143730,1,0,0:0:0:0:
51,207,143814,1,0,0:0:0:0:
357,279,144147,6,0,P|385:233|387:181,1,88.000002685547,6|0,0:0|0:0,0:0:0:0:
279,64,144481,2,0,P|304:111|348:138,1,88.000002685547,8|0,0:0|0:0,0:0:0:0:
506,99,144814,2,0,P|452:97|406:122,1,88.000002685547,8|2,0:0|0:0,0:0:0:0:
304,211,145147,2,0,P|357:212|403:187,1,88.000002685547,8|2,0:0|0:0,0:0:0:0:
506,99,145481,5,12,0:0:0:0:
458,249,145647,2,0,P|414:284|371:296,1,88.000002685547,0|8,0:0|0:0,0:0:0:0:
459,161,145981,1,0,0:0:0:0:
304,254,146147,2,0,P|298:303|314:352,1,88.000002685547,8|2,0:0|0:0,0:0:0:0:
459,161,146481,2,0,P|465:112|449:63,1,88.000002685547,8|2,0:0|0:0,0:0:0:0:
244,184,146814,6,0,B|298:157|344:176|344:176|379:168|382:109,1,176.000005371094,12|8,0:0|0:0,0:0:0:0:
288,66,147314,1,0,0:0:0:0:
304,254,147481,2,0,P|307:304|292:358,1,88.000002685547,8|2,0:0|0:0,0:0:0:0:
244,184,147814,1,8,0:0:0:0:
413,178,147981,6,0,B|385:200|339:177|339:177|294:158|244:184,1,176.000005371094,6|8,0:0|0:0,0:0:0:0:
221,200,148397,1,8,0:0:0:0:
202,227,148480,1,8,0:0:0:0:
68,269,148647,1,2,0:0:0:0:
143,138,148814,2,0,L|148:50,1,88.000002685547,8|8,0:0|0:0,0:0:0:0:
66,184,149147,2,0,P|117:220|192:214,1,132.00000402832,8|0,0:0|0:0,0:0:0:0:
222,195,149481,5,12,0:0:0:0:
147,50,149814,1,8,0:0:0:0:
66,184,150147,5,8,0:0:0:0:
222,195,150314,1,8,0:3:0:0:
147,50,150481,1,4,0:3:0:0:
0,236,150647,6,0,P|74:269|144:222,1,176.000005371094,4|8,0:0|0:0,0:0:0:0:
296,95,151147,2,0,P|231:116|178:100,1,88.000002685547,8|2,0:0|0:0,0:0:0:0:
59,52,151481,1,8,0:0:0:0:
60,85,151564,1,0,0:0:0:0:
62,118,151647,1,8,0:0:0:0:
64,151,151731,1,8,0:0:0:0:
66,184,151814,2,0,L|69:239,3,44.0000013427735,8|8|8|0,0:0|0:0|0:0|0:0,0:0:0:0:
72,268,152147,5,6,0:0:0:0:
195,117,157481,5,10,0:0:0:0:
379,84,157647,1,10,0:0:0:0:
390,105,158147,5,8,0:0:0:0:
406,132,158814,5,8,0:0:0:0:
419,160,159481,5,8,0:0:0:0:
432,189,160147,5,10,0:0:0:0:
235,162,160314,1,10,0:0:0:0:
233,187,160814,5,8,0:0:0:0:
231,218,161480,5,8,0:0:0:0:
228,248,162147,5,8,0:0:0:0:
226,280,162814,5,10,0:0:0:0:
404,333,162980,1,10,0:0:0:0:
413,310,163480,5,8,0:0:0:0:
423,283,164147,5,8,0:0:0:0:
433,253,164814,5,8,0:0:0:0:
443,223,165481,5,8,0:0:0:0:
257,233,165647,2,0,L|129:245,1,120,8|8,0:0|0:0,0:0:0:0:
145,252,166647,1,2,0:0:0:0:
145,252,166731,1,2,0:0:0:0:
145,252,166814,2,0,P|152:205|145:170,1,80,8|8,0:0|0:3,0:0:0:0:
52,90,167314,1,8,0:3:0:0:
185,95,167481,2,0,P|208:121|215:134,1,40,4|4,0:3|0:3,0:0:0:0:
223,203,167814,1,4,0:3:0:0:
399,317,168147,6,0,L|391:195,1,120.000004577637,6|8,0:0|0:0,0:0:0:0:
330,97,168647,1,2,0:0:0:0:
223,203,168814,2,0,P|254:209|290:204,1,60.0000022888184,2|2,0:0|0:0,0:0:0:0:
330,97,169147,1,8,0:0:0:0:
90,43,169481,6,0,L|98:165,1,120.000004577637,2|8,0:0|0:0,0:0:0:0:
111,283,169981,1,2,0:0:0:0:
111,283,170064,1,2,0:0:0:0:
111,283,170147,2,0,P|159:254|182:251,1,60.0000022888184,2|2,0:0|0:0,0:0:0:0:
222,143,170481,2,0,P|223:199|214:220,1,60.0000022888184,8|0,0:0|0:0,0:0:0:0:
343,319,170814,6,0,P|284:318|239:282,1,120.000004577637,2|8,0:0|0:0,0:0:0:0:
313,235,171314,1,2,0:0:0:0:
430,336,171481,1,2,0:0:0:0:
430,336,171647,1,2,0:0:0:0:
458,202,171814,1,8,0:0:0:0:
458,202,171981,1,0,0:0:0:0:
313,235,172147,6,0,B|279:212|279:212|246:120,1,120.000004577637,2|8,0:0|0:0,0:0:0:0:
362,87,172647,1,2,0:0:0:0:
364,116,172730,1,2,0:0:0:0:
366,146,172813,1,2,0:0:0:0:
260,46,172981,1,2,0:0:0:0:
369,181,173147,1,8,0:0:0:0:
371,210,173481,6,0,P|309:197|251:220,1,120.000004577637,6|10,0:0|0:0,0:0:0:0:
228,314,173981,1,2,0:0:0:0:
161,183,174147,2,0,B|142:132|142:132|149:51,1,120.000004577637,10|10,0:0|0:0,0:0:0:0:
257,215,174814,6,0,P|296:202|342:204,1,60.0000022888184,10|2,0:0|0:0,0:0:0:0:
462,289,175147,2,0,P|422:275|377:277,1,60.0000022888184,10|2,0:0|0:0,0:0:0:0:
375,284,175397,1,2,0:0:0:0:
375,284,175481,1,10,0:0:0:0:
274,330,175647,1,8,0:0:0:0:
165,278,175814,1,2,0:0:0:0:
268,104,175981,6,0,P|319:86|408:101,1,128,6|8,0:0|0:3,0:0:0:0:
422,115,176397,1,8,0:3:0:0:
422,115,176481,1,8,0:3:0:0:
336,215,176647,1,4,0:3:0:0:
480,183,176814,1,8,0:3:0:0:
434,318,176981,2,0,P|397:341|373:348,1,64,4|8,0:3|0:0,0:0:0:0:
204,254,177314,6,0,L|189:109,1,143.999995605469,6|8,0:0|0:0,0:0:0:0:
412,66,177814,2,0,P|382:92|269:80,1,143.999995605469,8|8,0:0|0:0,0:0:0:0:
262,61,178231,1,8,0:0:0:0:
235,36,178314,1,8,0:0:0:0:
201,24,178397,1,8,0:0:0:0:
166,26,178481,1,8,0:0:0:0:
134,42,178564,1,8,0:0:0:0:
111,70,178647,1,8,0:0:0:0:
100,104,178731,1,8,0:0:0:0:
104,138,178814,6,0,P|112:177|105:223,1,80,6|0,0:0|0:0,0:0:0:0:
265,139,179147,2,0,P|257:100|264:54,1,80,8|0,0:0|0:0,0:0:0:0:
275,40,179397,1,0,0:0:0:0:
296,28,179481,1,2,0:0:0:0:
361,183,179647,1,2,0:0:0:0:
318,24,179814,1,8,0:0:0:0:
277,250,179981,6,0,P|341:289|429:271,1,160,6|2,0:0|0:0,0:0:0:0:
469,114,180481,1,8,0:0:0:0:
361,183,180647,1,0,0:0:0:0:
499,270,180814,2,0,P|488:322|460:347,1,80,2|2,0:0|0:0,0:0:0:0:
340,289,181147,2,0,P|298:282|246:292,1,80,8|0,0:0|0:0,0:0:0:0:
241,300,181397,1,0,0:0:0:0:
225,320,181481,6,0,B|185:332|185:332|76:285,1,160,6|8,0:0|0:0,0:0:0:0:
117,131,181981,1,0,0:0:0:0:
188,245,182147,1,2,0:0:0:0:
254,136,182314,1,2,0:0:0:0:
188,245,182481,1,8,0:0:0:0:
193,72,182647,6,0,P|270:48|346:96,1,160,6|2,0:0|0:0,0:0:0:0:
438,177,183147,2,0,P|382:165|340:185,1,80,8|2,0:0|0:0,0:0:0:0:
297,269,183481,1,8,0:3:0:0:
254,136,183647,1,4,0:3:0:0:
393,255,183814,1,8,0:0:0:0:
392,274,183897,1,8,0:0:0:0:
391,294,183980,1,8,0:0:0:0:
216,304,184147,6,0,P|211:271|229:208,1,80,6|0,0:0|0:0,0:0:0:0:
219,225,184397,1,0,0:0:0:0:
219,225,184481,1,8,0:0:0:0:
315,131,184647,1,0,0:0:0:0:
315,131,184731,1,0,0:0:0:0:
315,131,184814,2,0,P|323:92|318:52,1,80,2|2,0:0|0:0,0:0:0:0:
175,29,185147,1,8,0:0:0:0:
163,203,185314,6,0,B|223:232|223:232|331:239,1,160,6|2,0:0|0:0,0:0:0:0:
416,121,185814,1,8,0:0:0:0:
280,83,185981,1,0,0:0:0:0:
316,238,186147,2,0,P|323:291|311:341,1,80,2|2,0:0|0:0,0:0:0:0:
167,273,186481,2,0,P|160:225|186:146,1,120,8|0,0:0|0:0,0:0:0:0:
196,140,186814,5,12,0:0:0:0:
332,103,186981,2,0,L|434:98,1,80,2|2,0:0|0:0,0:0:0:0:
284,211,187314,1,12,0:0:0:0:
420,174,187481,2,0,L|522:169,1,80,2|2,0:0|0:0,0:0:0:0:
377,279,187814,1,12,0:0:0:0:
284,211,187981,2,0,P|231:214|188:238,1,80,2|2,0:0|0:0,0:0:0:0:
94,339,188314,6,0,B|55:294|55:294|41:158,1,160,12|2,0:0|0:0,0:0:0:0:
149,81,188814,1,12,0:0:0:0:
206,224,188981,1,8,0:0:0:0:
235,209,189064,1,8,0:0:0:0:
260,187,189147,1,8,0:0:0:0:
279,159,189231,1,8,0:0:0:0:
300,138,189314,1,8,0:0:0:0:
333,143,189397,1,8,0:0:0:0:
358,164,189481,6,0,L|369:258,1,80,12|2,0:0|0:0,0:0:0:0:
453,134,189814,1,2,0:0:0:0:
446,299,189981,2,0,P|404:331|360:342,1,80,12|2,0:0|0:0,0:0:0:0:
256,265,190314,1,2,0:0:0:0:
358,164,190481,2,0,P|353:116|371:75,1,80,12|2,0:0|0:0,0:0:0:0:
433,227,190814,5,2,0:0:0:0:
270,181,190981,2,0,B|203:169|203:169|93:189,1,160,12|2,0:0|0:0,0:0:0:0:
62,297,191481,1,12,0:0:0:0:
29,171,191647,1,2,0:0:0:0:
23,131,191730,1,0,0:0:0:0:
29,92,191813,1,12,0:0:0:0:
227,162,191981,1,2,0:0:0:0:
207,117,205481,6,0,L|305:111,1,95.9999970703126,2|2,0:0|0:0,0:0:0:0:
339,200,206147,2,0,L|241:206,1,95.9999970703126,2|4,0:0|0:1,0:0:0:0:
149,197,206647,1,8,0:0:0:0:
199,25,206814,6,0,P|215:70|207:117,1,95.9999970703126,2|2,0:0|0:0,0:0:0:0:
149,197,207481,2,0,P|140:243|156:288,1,95.9999970703126,2|4,0:0|0:1,0:0:0:0:
238,338,207981,1,8,0:0:0:0:
384,283,208147,6,0,L|488:278,1,95.9999970703126,2|4,0:0|0:1,0:0:0:0:
332,206,208814,2,0,L|436:201,1,95.9999970703126,2|4,0:0|0:1,0:0:0:0:
512,193,209314,1,8,0:0:0:0:
384,283,209481,6,0,P|374:323|389:378,1,95.9999970703126,2|2,0:0|0:0,0:0:0:0:
427,201,210147,2,0,P|437:161|422:106,1,95.9999970703126,4|2,0:1|0:0,0:0:0:0:
289,255,210814,6,0,B|257:267|257:267|162:267,1,111.999996582031,4|2,0:1|0:0,0:0:0:0:
74,243,211481,2,0,P|107:202|88:139,1,111.999996582031,2|2,0:0|0:0,0:0:0:0:
24,91,211981,1,0,0:0:0:0:
74,243,212147,6,0,L|84:361,1,111.999996582031,4|2,0:1|0:0,0:0:0:0:
179,267,212814,2,0,L|188:155,1,111.999996582031,2|2,0:0|0:0,0:0:0:0:
90,36,213481,6,0,P|61:95|94:183,1,160,4|0,0:1|0:0,0:0:0:0:
283,230,214814,6,0,B|321:245|363:225|363:225|405:206|446:227,1,160,2|4,0:0|0:1,0:0:0:0:
283,230,216147,5,0,0:0:0:0:
256,192,216231,12,0,217314,0:0:0:0:
210,84,218814,6,0,L|102:90,1,88.000002685547,6|0,0:0|0:0,0:0:0:0:
51,197,219147,1,8,0:0:0:0:
44,43,219314,1,0,0:0:0:0:
44,43,219397,1,0,0:0:0:0:
44,43,219481,1,2,0:0:0:0:
169,182,219647,2,0,P|167:237|195:288,1,88.000002685547,2|8,0:0|0:0,0:0:0:0:
395,295,219981,6,0,P|372:235|263:214,1,176.000005371094,6|2,0:0|0:0,0:0:0:0:
303,295,220481,1,8,0:0:0:0:
197,154,220647,1,0,0:0:0:0:
145,317,220814,2,0,P|100:329|48:315,1,88.000002685547,2|2,0:0|0:0,0:0:0:0:
271,210,221147,2,0,P|316:198|368:212,1,88.000002685547,8|2,0:0|0:0,0:0:0:0:
173,227,221481,6,0,B|157:179|157:179|171:55,1,176.000005371094,6|8,0:0|0:0,0:0:0:0:
250,168,221981,1,0,0:0:0:0:
85,232,222147,2,0,P|72:174|83:126,1,88.000002685547,2|2,0:0|0:0,0:0:0:0:
171,54,222481,1,8,0:0:0:0:
275,212,222647,6,0,B|326:226|326:226|463:224,1,176.000005371094,6|2,0:0|0:0,0:0:0:0:
326,120,223147,2,0,P|269:107|239:113,1,88.000002685547,8|0,0:0|0:0,0:0:0:0:
196,277,223481,1,8,0:3:0:0:
109,144,223647,1,8,0:0:0:0:
105,100,223730,1,8,0:0:0:0:
102,56,223813,1,8,0:0:0:0:
240,112,223981,2,0,L|245:170,1,44.0000013427735,8|0,0:0|0:0,0:0:0:0:
301,262,224147,6,0,P|371:277|413:262,1,88.000002685547,6|0,0:0|0:0,0:0:0:0:
512,181,224481,2,0,P|442:196|400:181,1,88.000002685547,8|0,0:0|0:0,0:0:0:0:
404,181,224731,1,0,0:0:0:0:
387,161,224814,1,2,0:0:0:0:
295,54,224981,2,0,P|365:39|407:54,1,88.000002685547,2|8,0:0|0:0,0:0:0:0:
277,276,225314,6,0,P|229:204|241:119,1,176.000005371094,6|0,0:0|0:0,0:0:0:0:
333,180,225814,1,8,0:0:0:0:
422,312,225981,1,0,0:0:0:0:
333,180,226147,1,2,0:0:0:0:
331,340,226314,1,2,0:0:0:0:
423,187,226481,2,0,P|411:132|387:103,1,88.000002685547,12|2,0:0|0:0,0:0:0:0:
245,199,226814,6,0,B|192:215|192:215|64:192,1,176.000005371094,6|12,0:0|0:0,0:0:0:0:
245,199,227481,1,6,0:0:0:0:
69,189,227647,1,2,0:0:0:0:
155,289,227814,1,12,0:0:0:0:
167,104,227981,6,0,P|213:81|336:126,1,176.000005371094,6|8,0:0|0:3,0:0:0:0:
248,284,228481,2,0,P|238:238|253:178,1,88.000002685547,4|2,0:3|0:0,0:0:0:0:
326,114,228814,1,8,0:0:0:0:
291,88,228897,1,8,0:0:0:0:
248,77,228980,1,2,0:0:0:0:
205,83,229064,1,2,0:0:0:0:
167,103,229147,1,8,0:0:0:0:
151,119,229230,1,8,0:0:0:0:
132,129,229313,1,8,0:0:0:0:
110,135,229397,1,8,0:0:0:0:
87,134,229481,6,0,L|93:232,1,88.000002685547,6|0,0:0|0:0,0:0:0:0:
204,318,229814,2,0,L|209:230,1,88.000002685547,8|0,0:0|0:0,0:0:0:0:
93,323,230147,1,8,0:0:0:0:
157,164,230314,1,2,0:0:0:0:
293,264,230481,2,0,L|389:267,1,88.000002685547,8|2,0:0|0:0,0:0:0:0:
272,174,230814,6,0,P|233:194|208:230,1,88.000002685547,12|0,0:0|0:0,0:0:0:0:
354,193,231147,2,0,P|355:149|337:109,1,88.000002685547,8|0,0:0|0:0,0:0:0:0:
293,264,231481,1,10,0:0:0:0:
453,221,231647,1,2,0:0:0:0:
337,109,231814,2,0,B|291:91|291:91|192:96,1,132.00000402832,8|0,0:0|0:0,0:0:0:0:
188,111,232147,6,0,P|132:127|76:117,1,88.000002685547,12|0,0:0|0:0,0:0:0:0:
12,24,232481,1,8,0:0:0:0:
102,124,232647,1,0,0:0:0:0:
224,37,232814,2,0,L|316:32,1,88.000002685547,8|2,0:0|0:0,0:0:0:0:
413,124,233147,1,8,0:0:0:0:
311,278,233314,6,0,P|288:224|334:109,1,176.000005371094,14|8,0:0|0:0,0:0:0:0:
323,117,233731,1,8,0:0:0:0:
323,117,233814,1,2,0:0:0:0:
396,277,233981,2,0,P|397:329|373:374,1,88.000002685547,2|2,0:0|0:0,0:0:0:0:
224,314,234314,1,8,0:3:0:0:
373,201,234481,1,8,0:0:0:0:
416,200,234564,1,8,0:0:0:0:
455,220,234647,1,8,0:0:0:0:
311,278,234814,6,0,P|285:229|281:194,1,88.000002685547,12|2,0:0|0:0,0:0:0:0:
286,171,235064,1,2,0:0:0:0:
299,148,235147,1,8,0:0:0:0:
434,78,235314,1,2,0:0:0:0:
434,78,235397,1,2,0:0:0:0:
434,78,235481,1,8,0:0:0:0:
320,133,235647,2,0,L|220:135,1,88.000002685547,2|2,0:0|0:0,0:0:0:0:
11,81,235981,6,0,P|92:36|170:75,1,176.000005371094,12|2,0:0|0:0,0:0:0:0:
196,216,236481,2,0,P|205:280|240:324,1,88.000002685547,8|2,0:0|0:0,0:0:0:0:
368,284,236814,1,8,0:0:0:0:
216,299,236981,1,2,0:0:0:0:
288,237,237147,1,8,0:0:0:0:
436,325,237314,1,2,0:0:0:0:
364,157,237481,6,0,P|359:105|370:64,1,88.000002685547,2|2,0:0|0:0,0:0:0:0:
367,70,237731,1,2,0:0:0:0:
367,70,237814,1,2,0:0:0:0:
425,218,237981,1,2,0:0:0:0:
430,261,238064,1,2,0:0:0:0:
421,304,238147,1,2,0:0:0:0:
303,221,238314,1,8,0:0:0:0:
237,338,238481,1,8,0:0:0:0:
421,304,238647,6,0,B|452:270|452:270|457:128,1,176.000005371094,14|2,0:0|0:0,0:0:0:0:
360,69,239147,2,0,L|364:165,1,88.000002685547,8|2,0:0|0:0,0:0:0:0:
421,304,239481,1,8,0:0:0:0:
389,315,239564,1,0,0:0:0:0:
357,318,239647,1,2,0:0:0:0:
324,313,239731,1,2,0:0:0:0:
294,301,239814,2,0,P|242:286|151:307,1,132.00000402832,8|0,0:0|0:0,0:0:0:0:
145,314,240147,6,0,P|127:260|145:205,1,88.000002685547,8|4,0:3|0:3,0:0:0:0:
131,230,240397,1,4,0:3:0:0:
131,230,240481,1,8,0:3:0:0:
246,135,240647,1,8,0:3:0:0:
289,131,240730,1,4,0:3:0:0:
333,128,240813,1,8,0:3:0:0:
360,268,240981,1,4,0:3:0:0:
208,141,241147,1,2,0:0:0:0:
406,74,241314,5,6,0:0:0:0:
256,192,241397,12,0,246816,0:0:0:0:
