osu file format v14

[General]
AudioFilename: audio.mp3
AudioLeadIn: 0
PreviewTime: 93031
Countdown: 1
SampleSet: Soft
StackLeniency: 0.2
Mode: 0
LetterboxInBreaks: 0
WidescreenStoryboard: 0

[Editor]
Bookmarks: 25531,90740,133865,199281,212406,255115,307406
DistanceSpacing: 1.1
BeatDivisor: 4
GridSize: 4
TimelineZoom: 2.5

[Metadata]
Title:SpaceJellyfish
TitleUnicode:クラゲ
Artist:HoneyComeBear
ArtistUnicode:ハニカムベアー
Creator:Andrea
Version:Memories
Source:
Tags:osuplayer111 Outro FutureBass
BeatmapID:1702537
BeatmapSetID:811659

[Difficulty]
HPDrainRate:6
CircleSize:4.5
OverallDifficulty:7
ApproachRate:8
SliderMultiplier:1.8
SliderTickRate:2

[Events]
//Background and Video events
0,0,"BG.jpg",0,0
//Break Periods
//Storyboard Layer 0 (Background)
//Storyboard Layer 1 (Fail)
//Storyboard Layer 2 (Pass)
//Storyboard Layer 3 (Foreground)
//Storyboard Sound Samples

[TimingPoints]
115,416.666666666667,4,2,1,40,1,0
323,-133.333333333333,4,2,1,40,0,0
948,-133.333333333333,4,2,90,5,0,0
1156,-133.333333333333,4,2,1,40,0,0
1781,-133.333333333333,4,2,90,5,0,0
1990,-133.333333333333,4,2,1,40,0,0
2615,-133.333333333333,4,2,90,5,0,0
2823,-133.333333333333,4,2,1,40,0,0
3448,-133.333333333333,4,2,90,5,0,0
3656,-133.333333333333,4,2,1,40,0,0
4281,-133.333333333333,4,2,90,5,0,0
4490,-133.333333333333,4,2,1,40,0,0
5115,-133.333333333333,4,2,90,5,0,0
5323,-133.333333333333,4,2,1,40,0,0
5948,-133.333333333333,4,2,90,5,0,0
6156,-133.333333333333,4,2,1,40,0,0
6781,-133.333333333333,4,2,90,5,0,0
6990,-133.333333333333,4,2,1,40,0,0
7615,-133.333333333333,4,2,90,5,0,0
7823,-133.333333333333,4,2,1,40,0,0
8448,-133.333333333333,4,2,90,5,0,0
8656,-133.333333333333,4,2,1,40,0,0
9281,-133.333333333333,4,2,90,5,0,0
9490,-133.333333333333,4,2,1,40,0,0
10115,-133.333333333333,4,2,90,5,0,0
10323,-133.333333333333,4,2,1,40,0,0
10948,-133.333333333333,4,2,90,5,0,0
11156,-133.333333333333,4,2,1,40,0,0
11781,-133.333333333333,4,2,90,5,0,0
11990,-133.333333333333,4,2,1,40,0,0
12615,-133.333333333333,4,2,90,5,0,0
12823,-100,4,2,1,40,0,0
25531,-100,4,2,1,30,0,0
26781,-100,4,2,1,40,0,0
28656,-100,4,2,1,30,0,0
28865,-100,4,2,1,40,0,0
31990,-100,4,2,1,30,0,0
32198,-100,4,2,1,40,0,0
35323,-100,4,2,1,30,0,0
35531,-100,4,2,1,40,0,0
38448,-100,4,2,99,40,0,0
38552,-100,4,2,1,40,0,0
38656,-100,4,2,1,30,0,0
38865,-100,4,2,1,40,0,0
41781,-100,4,2,99,40,0,0
41885,-100,4,2,1,40,0,0
41990,-100,4,2,1,30,0,0
42198,-100,4,2,1,40,0,0
45323,-100,4,2,1,30,0,0
45531,-100,4,2,1,40,0,0
48656,-100,4,2,1,30,0,0
48865,-100,4,2,1,40,0,0
51781,-100,4,2,99,40,0,0
51885,-100,4,2,1,40,0,0
51990,-100,4,2,1,30,0,0
52198,-100,4,2,1,40,0,0
55323,-100,4,2,1,30,0,0
55531,-100,4,2,1,40,0,0
58656,-100,4,2,1,30,0,0
58865,-100,4,2,1,40,0,0
61990,-100,4,2,1,30,0,0
62198,-100,4,2,1,40,0,0
65323,-100,4,2,1,30,0,0
65531,-100,4,2,1,40,0,0
68656,-100,4,2,1,30,0,0
68865,-100,4,2,1,40,0,0
71990,-100,4,2,90,30,0,0
72198,-100,4,2,1,40,0,0
75323,-100,4,2,90,30,0,0
75531,-100,4,2,1,40,0,0
78656,-100,4,2,1,30,0,0
78865,-100,4,2,1,40,0,0
79490,-100,4,2,1,30,0,0
79906,-100,4,2,1,40,0,0
80115,-133.333333333333,4,2,1,40,0,0
90115,-133.333333333333,4,2,2,30,0,0
91781,-133.333333333333,4,2,1,40,0,0
92823,-133.333333333333,4,2,1,30,0,0
93240,-133.333333333333,4,2,1,40,0,0
93448,-100,4,2,1,60,0,1
133448,-100,4,2,1,40,0,0
133865,-100,4,2,1,30,0,0
135115,-100,4,2,1,40,0,0
136990,-100,4,2,1,30,0,0
137198,-100,4,2,1,40,0,0
140323,-100,4,2,1,30,0,0
140531,-100,4,2,1,40,0,0
143656,-100,4,2,1,30,0,0
143865,-100,4,2,1,40,0,0
146781,-100,4,2,99,40,0,0
146885,-100,4,2,1,40,0,0
146990,-100,4,2,1,30,0,0
147198,-100,4,2,1,40,0,0
150115,-100,4,2,99,40,0,0
150219,-100,4,2,1,40,0,0
150323,-100,4,2,1,30,0,0
150531,-100,4,2,1,40,0,0
153656,-100,4,2,1,30,0,0
153865,-100,4,2,1,40,0,0
156990,-100,4,2,1,30,0,0
157198,-100,4,2,1,40,0,0
160115,-100,4,2,99,40,0,0
160219,-100,4,2,1,40,0,0
160323,-100,4,2,1,30,0,0
160531,-100,4,2,1,40,0,0
163656,-100,4,2,1,30,0,0
163865,-100,4,2,1,40,0,0
166781,-100,4,2,99,40,0,0
166885,-100,4,2,1,40,0,0
166990,-100,4,2,1,30,0,0
167198,-100,4,2,1,40,0,0
170323,-100,4,2,1,30,0,0
170531,-100,4,2,1,40,0,0
173656,-100,4,2,1,30,0,0
173865,-100,4,2,1,40,0,0
176990,-100,4,2,1,30,0,0
177198,-100,4,2,1,40,0,0
180323,-100,4,2,90,30,0,0
180531,-100,4,2,1,40,0,0
183656,-100,4,2,90,30,0,0
183865,-100,4,2,1,40,0,0
186990,-100,4,2,1,30,0,0
187198,-100,4,2,1,40,0,0
187823,-100,4,2,1,30,0,0
188240,-100,4,2,1,40,0,0
188448,-133.333333333333,4,2,1,40,0,0
201781,-133.333333333333,4,2,3,40,0,0
203865,-133.333333333333,4,2,98,30,0,0
203969,-133.333333333333,4,2,3,40,0,0
208448,-100,4,2,1,40,0,0
211781,-100,4,2,2,30,0,0
214281,-100,4,2,1,30,0,0
214490,-100,4,2,1,5,0,0
214594,-100,4,2,1,30,0,0
214698,-100,4,2,1,5,0,0
214906,-100,4,2,1,30,0,0
215115,-100,4,2,1,60,0,1
255115,-100,4,2,1,60,0,0
256781,-100,4,2,99,50,0,0
256885,-100,4,2,1,60,0,0
256990,-100,4,2,1,50,0,0
257198,-100,4,2,1,60,0,0
260115,-100,4,2,99,50,0,0
260219,-100,4,2,1,60,0,0
260323,-100,4,2,1,50,0,0
260531,-100,4,2,1,60,0,0
263656,-100,4,2,1,50,0,0
263865,-100,4,2,1,60,0,0
266990,-100,4,2,90,50,0,0
267198,-100,4,2,1,60,0,0
270115,-100,4,2,99,50,0,0
270219,-100,4,2,1,60,0,0
270323,-100,4,2,1,50,0,0
270531,-100,4,2,1,60,0,0
273448,-100,4,2,99,60,0,0
273552,-100,4,2,1,60,0,0
273656,-100,4,2,1,50,0,0
273865,-100,4,2,1,60,0,0
276781,-100,4,2,99,60,0,0
276885,-100,4,2,1,60,0,0
276990,-100,4,2,1,50,0,0
277198,-100,4,2,1,60,0,0
280323,-100,4,2,90,50,0,0
280531,-100,4,2,1,60,0,0
281781,-100,4,2,1,40,0,0
283656,-100,4,2,1,30,0,0
283865,-100,4,2,1,40,0,0
286990,-100,4,2,1,30,0,0
287198,-100,4,2,1,40,0,0
290323,-100,4,2,1,30,0,0
290531,-100,4,2,1,40,0,0
292198,-100,4,2,99,40,0,0
292302,-100,4,2,1,40,0,0
293656,-100,4,2,90,30,0,0
293865,-100,4,2,1,40,0,0
295115,-100,4,2,1,30,0,0
296990,-100,4,2,1,20,0,0
297615,-100,4,2,1,30,0,0
300323,-100,4,2,1,20,0,0
300531,-100,4,2,1,30,0,0
304490,-100,4,2,1,20,0,0
304906,-100,4,2,1,30,0,0

[Colours]
Combo1 : 255,169,128
Combo2 : 128,191,255
Combo3 : 255,128,191

[HitObjects]
28,44,323,6,0,P|144:44|212:96,1,202.500007724762,2|0,0:0|0:0,0:0:0:0:
301,93,1156,2,0,P|384:38|484:44,1,202.500007724762,2|0,0:0|0:0,0:0:0:0:
452,136,1990,2,0,B|404:188|424:252|424:252|396:328,1,202.500007724762,2|0,0:0|0:0,0:0:0:0:
336,252,2823,2,0,P|256:304|176:252,1,202.500007724762,2|0,0:0|0:0,0:0:0:0:
114,324,3656,6,0,B|88:252|88:252|108:188|60:136,1,202.500007724762,2|0,0:0|0:0,0:0:0:0:
28,44,4490,2,0,B|88:4|148:24|148:24|220:52,1,202.500007724762,2|0,0:0|0:0,0:0:0:0:
308,88,5323,2,0,B|379:115|379:115|439:135|499:95,1,202.500007724762,2|0,0:0|0:0,0:0:0:0:
512,188,6156,2,0,B|512:264|512:264|512:328|453:370,1,202.500007724762,2|0,0:0|0:0,0:0:0:0:
384,304,6990,6,0,P|300:255|216:304,1,202.500007724762,2|0,0:0|0:0,0:0:0:0:
120,304,7823,2,0,P|71:220|119:136,1,202.500007724762,2|0,0:0|0:0,0:0:0:0:
200,88,8656,2,0,B|252:88|288:48|288:48|396:48,1,202.500007724762,2|0,0:0|0:0,0:0:0:0:
468,104,9490,2,0,B|436:168|436:168|440:232|440:232|412:292,1,202.500007724762,2|0,0:0|0:0,0:0:0:0:
336,348,10323,6,0,B|256:286|256:286|176:348,1,202.500007724762,2|0,0:0|0:0,0:0:0:0:
100,292,11156,2,0,B|72:232|72:232|76:168|76:168|44:104,1,202.500007724762,2|0,0:0|0:0,0:0:0:0:
121,48,11990,2,0,B|224:48|224:48|260:88|312:88,1,202.500007724762,2|0,0:0|0:0,0:0:0:0:
408,88,12823,1,2,0:0:0:0:
256,192,13448,5,2,0:0:0:0:
256,48,13656,1,0,0:0:0:0:
200,120,13865,2,0,P|152:120|112:92,1,90
312,120,14281,2,0,P|360:120|400:92,1,90,0|2,0:0|0:0,0:0:0:0:
200,120,14698,2,0,L|151:202,1,90
312,120,15115,2,0,L|361:202,1,90,0|2,0:0|0:0,0:0:0:0:
360,288,15531,1,0,0:0:0:0:
212,356,15740,1,0,0:0:0:0:
300,356,15948,1,0,0:0:0:0:
152,288,16156,1,2,0:0:0:0:
256,192,16365,2,0,L|256:288,1,90
192,124,16781,5,2,0:0:0:0:
256,60,16990,1,0,0:0:0:0:
320,124,17198,2,0,B|368:124|368:124|404:148,1,90
192,260,17615,2,0,B|144:260|144:260|109:236,1,90,0|2,0:0|0:0,0:0:0:0:
320,260,18031,2,0,B|368:260|368:260|402:236,1,90
192,124,18448,2,0,B|144:124|144:124|109:147,1,90,0|2,0:0|0:0,0:0:0:0:
256,192,18865,1,0,0:0:0:0:
192,124,19073,1,0,0:0:0:0:
256,56,19281,2,0,B|292:56|292:56|296:53|296:53|296:60|296:60|300:56|300:56|336:56,1,90,0|2,0:0|0:0,0:0:0:0:
472,192,19698,2,0,B|436:192|436:192|432:195|432:195|432:188|432:188|428:192|428:192|392:192,1,90
256,328,20115,5,2,0:0:0:0:
184,272,20323,1,0,0:0:0:0:
116,212,20531,2,0,P|72:212|32:188,1,90
184,148,20948,2,0,P|184:104|208:64,1,90,0|2,0:0|0:0,0:0:0:0:
252,212,21365,2,0,P|296:212|336:236,1,90
184,272,21781,2,0,P|184:316|160:356,1,90,0|2,0:0|0:0,0:0:0:0:
96,292,22198,1,0,0:0:0:0:
33,189,22406,1,0,0:0:0:0:
96,86,22615,2,0,B|140:60|140:60|184:60,1,90,0|2,0:0|0:0,0:0:0:0:
416,86,23031,2,0,B|372:60|372:60|328:60,1,90
256,132,23448,5,2,0:0:0:0:
300,264,23656,1,0,0:0:0:0:
180,180,23865,1,0,0:0:0:0:
332,180,24073,1,0,0:0:0:0:
212,264,24281,2,0,P|212:312|188:348,1,90,0|2,0:0|0:0,0:0:0:0:
256,132,24698,2,0,P|256:84|280:48,1,90
300,264,25115,1,2,0:0:0:0:
40,192,25531,5,0,0:0:0:0:
68,192,25948,1,2,0:0:0:0:
96,192,26365,1,0,0:0:0:0:
124,192,26781,6,0,B|180:192|180:192|232:216|232:216|304:216,1,180,4|2,0:0|0:0,0:0:0:0:
420,160,27406,1,0,0:0:0:0:
420,160,27615,2,0,B|364:160|364:160|312:136|312:136|240:136,1,180,8|4,0:0|0:0,0:0:0:0:
216,332,28448,2,0,B|174:349|174:349|131:332,1,90,2|4,0:0|0:0,0:0:0:0:
296,332,28865,2,0,B|338:349|338:349|381:332,1,90,4|0,0:0|0:0,0:0:0:0:
464,304,29281,2,0,B|428:244|428:244|428:192|428:192|392:140,1,180,8|2,0:0|0:0,0:0:0:0:
394,144,29906,1,0,0:0:0:0:
256,32,30115,6,0,B|220:32|220:32|200:44|200:44|168:44,1,90,4|0,0:0|0:0,0:0:0:0:
40,204,30531,2,0,B|76:204|76:204|96:192|96:192|128:192,1,90,2|0,0:0|0:0,0:0:0:0:
256,352,30948,2,0,B|220:352|220:352|200:340|200:340|169:340,1,90,8|0,0:0|0:0,0:0:0:0:
256,192,31365,1,4,0:0:0:0:
188,252,31573,1,0,0:0:0:0:
324,252,31781,1,2,0:0:0:0:
324,132,31990,1,4,0:0:0:0:
188,132,32198,6,0,B|128:104|116:72|116:72|156:56|156:4,1,180,4|8,0:0|0:0,0:0:0:0:
256,64,32823,1,0,0:0:0:0:
356,4,33031,2,0,B|356:56|396:72|396:72|384:104|324:132,1,180,2|4,0:0|0:0,0:0:0:0:
188,344,33865,1,2,0:0:0:0:
256,284,34073,1,0,0:0:0:0:
324,344,34281,2,0,P|416:344|460:276,1,180,8|4,0:0|0:0,0:0:0:0:
324,40,35115,1,2,0:0:0:0:
256,100,35323,1,4,0:0:0:0:
188,40,35531,2,0,P|96:40|52:108,1,180,4|8,0:0|0:0,0:0:0:0:
188,344,36365,1,2,0:0:0:0:
188,344,36573,1,0,0:0:0:0:
324,344,36781,6,0,P|372:344|404:316,1,90,4|0,0:0|0:0,0:0:0:0:
336,164,37198,2,0,P|288:164|256:192,1,90,2|0,0:0|0:0,0:0:0:0:
324,252,37615,2,0,L|255:81,1,180,8|4,0:0|0:0,0:0:0:0:
168,116,38240,2,0,P|84:88|0:116,1,180,0|4,0:0|0:0,0:0:0:0:
84,192,38865,1,4,0:0:0:0:
168,268,39073,1,0,0:0:0:0:
0,268,39281,2,0,P|84:296|168:268,1,180,8|2,0:0|0:0,0:0:0:0:
344,268,39906,1,0,0:0:0:0:
344,268,40115,6,0,P|427:296|511:268,1,180,4|2,0:0|0:0,0:0:0:0:
428,24,40948,2,0,L|428:208,1,180,8|4,0:0|0:0,0:0:0:0:
511,268,41573,2,0,P|427:296|344:268,1,180,0|4,0:0|0:0,0:0:0:0:
256,192,42198,1,4,0:0:0:0:
169,267,42406,1,0,0:0:0:0:
80,192,42615,2,0,B|80:144|52:108|52:108|80:72|80:24,1,180,8|2,0:0|0:0,0:0:0:0:
256,68,43448,6,0,P|304:68|340:96,1,90,4|0,0:0|0:0,0:0:0:0:
336,293,43865,2,0,P|300:318|256:317,1,90,2|0,0:0|0:0,0:0:0:0:
256,192,44281,2,0,B|300:180|300:180|340:199|340:199|376:180|376:180|424:192,1,180,8|4,0:0|0:0,0:0:0:0:
476,316,44906,1,0,0:0:0:0:
394,358,45115,2,0,P|379:317|395:276,1,90,2|4,0:0|0:0,0:0:0:0:
394,24,45531,2,0,P|378:65|395:107,1,90,4|0,0:0|0:0,0:0:0:0:
476,68,45948,2,0,L|292:68,1,180,8|2,0:0|0:0,0:0:0:0:
216,68,46573,1,0,0:0:0:0:
36,68,46781,6,0,L|220:68,1,180,4|2,0:0|0:0,0:0:0:0:
328,192,47406,1,0,0:0:0:0:
328,192,47615,2,0,P|364:272|328:352,2,180,8|4|2,0:0|0:0|0:0,0:0:0:0:
256,272,48656,1,4,0:0:0:0:
183,351,48865,2,0,P|148:271|184:192,2,180,4|8|2,0:0|0:0|0:0,0:0:0:0:
256,272,49906,1,0,0:0:0:0:
184,100,50115,6,0,L|132:20,1,90,4|0,0:0|0:0,0:0:0:0:
328,100,50531,2,0,L|380:20,1,90,2|0,0:0|0:0,0:0:0:0:
256,156,50948,2,0,B|228:244|280:244|256:332,1,180,8|4,0:0|0:0,0:0:0:0:
168,356,51573,2,0,B|256:379|256:327|344:355,1,180,0|4,0:0|0:0,0:0:0:0:
433,156,52198,2,0,B|344:132|344:184|256:156,1,180,4|8,0:0|0:0,0:0:0:0:
184,84,52823,2,0,B|184:36|184:36|207:1,1,90,0|2,0:0|0:0,0:0:0:0:
184,216,53240,1,0,0:0:0:0:
184,216,53344,1,0,0:0:0:0:
184,216,53448,6,0,B|184:264|184:264|208:300,1,90,4|0,0:0|0:0,0:0:0:0:
280,368,53865,2,0,B|372:368|372:368|440:308,1,180,2|8,0:0|0:0,0:0:0:0:
504,192,54490,1,0,0:0:0:0:
437,75,54698,2,0,B|372:17|372:17|280:17,1,180,4|2,0:0|0:0,0:0:0:0:
204,80,55323,1,4,0:0:0:0:
28,192,55531,2,0,L|72:272,1,90,4|0,0:0|0:0,0:0:0:0:
88,108,55948,2,0,L|180:264,1,180,8|2,0:0|0:0,0:0:0:0:
332,263,56573,1,0,0:0:0:0:
332,263,56781,6,0,L|424:108,1,180,4|2,0:0|0:0,0:0:0:0:
364,28,57406,1,0,0:0:0:0:
207,107,57615,1,8,0:0:0:0:
305,107,57823,1,0,0:0:0:0:
148,28,58031,2,0,B|148:64|148:64|100:88|100:88|52:64|52:64|52:28,1,180,4|2,0:0|0:0,0:0:0:0:
52,27,58656,1,4,0:0:0:0:
148,28,58865,1,4,0:0:0:0:
148,192,59073,2,0,B|148:240|148:240|172:276,1,90,0|8,0:0|0:0,0:0:0:0:
364,192,59490,2,0,B|364:240|364:240|340:276,1,90,0|2,0:0|0:0,0:0:0:0:
256,328,59906,1,0,0:0:0:0:
256,328,60115,6,0,L|256:144,1,180,4|2,0:0|0:0,0:0:0:0:
256,48,60740,1,0,0:0:0:0:
172,100,60948,2,0,P|124:100|92:124,1,90,8|0,0:0|0:0,0:0:0:0:
340,100,61365,2,0,P|388:100|420:124,1,90,4|0,0:0|0:0,0:0:0:0:
188,256,61781,2,0,L|148:168,1,90,2|4,0:0|0:0,0:0:0:0:
324,256,62198,2,0,L|361:174,1,90,4|0,0:0|0:0,0:0:0:0:
256,136,62615,1,8,0:0:0:0:
304,4,62823,1,0,0:0:0:0:
176,84,63031,1,2,0:0:0:0:
336,84,63240,1,0,0:0:0:0:
208,4,63448,6,0,B|116:4|116:4|40:72,1,180,4|2,0:0|0:0,0:0:0:0:
176,84,64073,2,0,L|108:144,1,90,0|8,0:0|0:0,0:0:0:0:
100,324,64490,1,0,0:0:0:0:
100,324,64698,2,0,P|192:324|248:260,1,180,4|2,0:0|0:0,0:0:0:0:
340,192,65323,1,4,0:0:0:0:
340,312,65531,2,0,B|382:329|382:329|425:312,1,90,4|0,0:0|0:0,0:0:0:0:
472,152,65948,2,0,B|455:194|455:194|472:237,1,90,8|0,0:0|0:0,0:0:0:0:
423,71,66365,2,0,B|382:55|382:55|340:72,1,90,2|0,0:0|0:0,0:0:0:0:
344,76,66677,1,0,0:0:0:0:
344,76,66781,6,0,B|302:93|302:93|260:76,1,90,4|0,0:0|0:0,0:0:0:0:
260,308,67198,2,0,B|302:291|302:291|344:308,1,90,2|0,0:0|0:0,0:0:0:0:
480,192,67615,2,0,B|384:164|384:216|296:192,1,180,8|4,0:0|0:0,0:0:0:0:
210,193,68240,1,0,0:0:0:0:
172,280,68448,2,0,B|172:312|163:324|163:324|172:336|172:368,1,90,2|4,0:0|0:0,0:0:0:0:
172,104,68865,2,0,B|172:72|163:60|163:60|172:48|172:16,1,90,4|0,0:0|0:0,0:0:0:0:
340,280,69281,2,0,B|340:312|349:324|349:324|340:336|340:368,1,90,8|0,0:0|0:0,0:0:0:0:
340,104,69698,2,0,B|340:72|349:60|349:60|340:48|340:16,1,90,2|0,0:0|0:0,0:0:0:0:
172,280,70115,6,0,B|108:280|108:280|56:248|56:248|0:248,1,180,4|2,0:0|0:0,0:0:0:0:
128,204,70740,1,0,0:0:0:0:
128,204,70948,2,0,L|224:204,1,90,8|0,0:0|0:0,0:0:0:0:
384,180,71365,2,0,L|288:180,1,90,4|0,0:0|0:0,0:0:0:0:
340,104,71781,2,0,B|404:104|404:104|456:136|456:136|512:136,1,180,2|4,0:0|0:0,0:0:0:0:
510,136,72406,1,0,0:0:0:0:
340,104,72615,2,0,B|308:80|308:52|308:52|308:20,1,90,8|0,0:0|0:0,0:0:0:0:
172,104,73031,2,0,B|204:80|204:52|204:52|204:20,1,90,2|0,0:0|0:0,0:0:0:0:
256,136,73448,6,0,B|256:192|256:192|224:256|224:256|224:308,1,180,4|2,0:0|0:0,0:0:0:0:
324,308,74073,1,0,0:0:0:0:
324,308,74281,2,0,P|376:308|404:284,1,90,8|0,0:0|0:0,0:0:0:0:
335,112,74698,2,0,P|283:112|255:136,1,90,4|0,0:0|0:0,0:0:0:0:
224,308,75115,2,0,B|224:256|224:256|256:192|256:192|256:136,1,180,2|4,0:0|0:0,0:0:0:0:
192,60,75740,1,0,0:0:0:0:
192,60,75948,2,0,B|144:60|144:60|108:80,1,90,8|0,0:0|0:0,0:0:0:0:
108,304,76365,2,0,B|144:324|144:324|192:324,1,90,2|0,0:0|0:0,0:0:0:0:
256,192,76781,6,0,B|316:192|316:192|368:212|368:212|432:212,1,180,4|2,0:0|0:0,0:0:0:0:
432,212,77406,1,0,0:0:0:0:
356,108,77615,2,0,P|341:66|357:25,1,90,8|0,0:0|0:0,0:0:0:0:
502,69,78031,2,0,P|461:53|420:68,1,90,4|0,0:0|0:0,0:0:0:0:
420,315,78448,2,0,P|461:330|502:314,1,90,2|4,0:0|0:0,0:0:0:0:
356,276,78865,2,0,P|341:317|357:358,1,90,4|0,0:0|0:0,0:0:0:0:
502,314,79281,1,8,0:0:0:0:
416,192,79490,1,4,0:0:0:0:
502,70,79698,1,4,0:0:0:0:
480,192,79906,1,0,0:0:0:0:
448,192,80010,1,0,0:0:0:0:
416,192,80115,6,0,P|324:168|304:72,1,202.500007724762,2|0,0:0|0:0,0:0:0:0:
208,72,80948,2,0,P|188:167|96:192,1,202.500007724762,2|0,0:0|0:0,0:0:0:0:
52,108,81781,2,0,L|148:292,1,202.500007724762,2|0,0:0|0:0,0:0:0:0:
232,248,82615,2,0,B|324:248|324:292|428:292,1,202.500007724762,2|0,0:0|0:0,0:0:0:0:
448,200,83448,6,0,B|498:112|498:112|448:24,1,202.500007724762,2|0,0:0|0:0,0:0:0:0:
408,112,84281,2,0,P|304:112|224:48,1,202.500007724762,2|0,0:0|0:0,0:0:0:0:
132,52,85115,2,0,B|96:120|96:120|108:176|108:176|80:244,1,202.500007724762,2|0,0:0|0:0,0:0:0:0:
40,324,85948,2,0,P|132:364|200:304,1,202.500007724762,2|0,0:0|0:0,0:0:0:0:
168,216,86781,6,0,B|220:216|256:172|256:172|300:216|344:216,1,202.500007724762,2|0,0:0|0:0,0:0:0:0:
311,303,87615,2,0,P|385:364|472:324,1,202.500007724762,2|0,0:0|0:0,0:0:0:0:
430,239,88448,2,0,B|404:176|404:176|416:120|416:120|380:52,1,202.500007724762,2|0,0:0|0:0,0:0:0:0:
292,88,89281,2,0,P|192:89|112:30,1,202.500007724762,2|0,0:0|0:0,0:0:0:0:
28,72,90115,6,0,B|68:164|4:164|44:272,1,202.500007724762,8|8,0:0|0:0,0:0:0:0:
56,300,90792,2,0,L|64:324,3,16.8750006437302,8|8|8|8,0:0|0:0|0:0|0:0,0:0:0:0:
142,267,91156,1,8,0:0:0:0:
320,328,91573,1,8,0:0:0:0:
320,328,91781,2,0,P|392:328|432:284,1,135.000005149842,4|4,0:0|0:0,0:0:0:0:
348,240,92406,1,0,0:0:0:0:
348,240,92615,2,0,L|316:180,1,67.5000025749208,2|4,0:0|0:0,0:0:0:0:
164,144,93031,2,0,L|195:204,1,67.5000025749208,4|0,0:0|0:0,0:0:0:0:
264,56,93448,6,0,B|316:8|368:8|368:8|436:8,1,180,4|2,0:0|0:0,0:0:0:0:
484,176,94073,1,0,0:0:0:0:
484,176,94281,2,0,B|432:224|380:224|380:224|312:224,1,180,8|4,0:0|0:0,0:0:0:0:
256,120,94906,1,0,0:0:0:0:
195,224,95115,2,0,B|151:224|151:224|111:248,1,90,2|0,0:0|0:0,0:0:0:0:
24,328,95531,1,4,0:0:0:0:
24,116,95740,1,0,0:0:0:0:
24,116,95844,1,0,0:0:0:0:
24,116,95948,2,0,P|24:72|52:36,1,90,8|0,0:0|0:0,0:0:0:0:
184,124,96365,2,0,P|148:97|104:97,1,90,2|0,0:0|0:0,0:0:0:0:
24,328,96781,6,0,B|64:328|64:328|100:363|100:363|136:328|136:328|176:328,1,180,4|2,0:0|0:0,0:0:0:0:
256,252,97406,1,0,0:0:0:0:
336,328,97615,2,0,B|376:328|376:328|412:363|412:363|448:328|448:328|488:328,2,180,8|4|2,0:0|0:0|0:0,0:0:0:0:
412,252,98656,1,0,0:0:0:0:
348,164,98865,2,0,B|364:120|364:120|348:80,1,90,4|0,0:0|0:0,0:0:0:0:
164,80,99281,2,0,B|148:120|148:120|164:164,1,90,8|0,0:0|0:0,0:0:0:0:
256,40,99698,1,2,0:0:0:0:
256,212,99906,1,0,0:0:0:0:
256,212,100115,6,0,P|219:291|255:371,1,180,4|2,0:0|0:0,0:0:0:0:
448,272,100740,1,0,0:0:0:0:
448,272,100948,2,0,P|484:192|448:112,1,180,8|4,0:0|0:0,0:0:0:0:
255,13,101573,1,0,0:0:0:0:
255,13,101781,2,0,B|200:13|200:13|136:40|136:40|80:40,1,180,2|4,0:0|0:0,0:0:0:0:
16,248,102406,1,0,0:0:0:0:
16,248,102615,2,0,B|71:248|71:248|135:221|135:221|191:221,1,180,8|2,0:0|0:0,0:0:0:0:
408,220,103240,1,0,0:0:0:0:
408,220,103448,6,0,B|440:136|440:136|408:52,1,180,4|2,0:0|0:0,0:0:0:0:
192,52,104073,1,0,0:0:0:0:
192,52,104281,2,0,P|100:52|28:104,1,180,8|4,0:0|0:0,0:0:0:0:
30,283,104906,1,0,0:0:0:0:
30,283,105115,2,0,P|103:333|192:332,1,180,2|4,0:0|0:0,0:0:0:0:
256,244,105740,1,0,0:0:0:0:
321,332,105948,2,0,L|368:252,1,90,8|4,0:0|0:0,0:0:0:0:
376,40,106365,2,0,L|329:120,1,90,2|0,0:0|0:0,0:0:0:0:
336,120,106677,1,0,0:0:0:0:
336,120,106781,6,0,P|289:120|248:98,1,90,4|0,0:0|0:0,0:0:0:0:
128,280,107198,2,0,P|175:280|216:302,1,90,2|0,0:0|0:0,0:0:0:0:
308,352,107615,2,0,B|400:352|400:352|468:288,1,180,8|4,0:0|0:0,0:0:0:0:
440,184,108240,1,0,0:0:0:0:
440,184,108448,2,0,L|368:248,1,90,2|0,0:0|0:0,0:0:0:0:
256,102,108865,2,0,L|328:38,1,90,4|0,0:0|0:0,0:0:0:0:
323,42,109177,1,0,0:0:0:0:
323,42,109281,1,8,0:0:0:0:
189,42,109490,1,0,0:0:0:0:
256,102,109698,2,0,L|256:194,1,90,2|0,0:0|0:0,0:0:0:0:
188,288,110115,6,0,B|232:288|257:339|257:339|280:288|324:288,1,180,4|2,0:0|0:0,0:0:0:0:
324,96,110740,1,0,0:0:0:0:
324,96,110948,2,0,B|280:96|257:45|257:45|232:96|188:96,2,180,8|4|2,0:0|0:0|0:0,0:0:0:0:
256,192,111990,1,0,0:0:0:0:
364,192,112198,2,0,P|412:192|448:220,1,90,4|0,0:0|0:0,0:0:0:0:
360,352,112615,2,0,P|384:315|383:271,1,90,8|0,0:0|0:0,0:0:0:0:
128,271,113031,2,0,P|127:315|152:352,1,90,2|0,0:0|0:0,0:0:0:0:
148,192,113448,6,0,P|100:192|64:220,1,90,4|0,0:0|0:0,0:0:0:0:
200,124,113865,1,2,0:0:0:0:
256,32,114073,1,0,0:0:0:0:
312,124,114281,2,0,P|408:124|460:184,1,180,8|4,0:0|0:0,0:0:0:0:
404,344,114906,1,0,0:0:0:0:
404,344,115115,2,0,P|308:344|256:284,1,180,2|4,0:0|0:0,0:0:0:0:
199,123,115740,1,0,0:0:0:0:
199,123,115948,2,0,P|112:120|52:183,1,180,8|2,0:0|0:0,0:0:0:0:
108,344,116573,1,0,0:0:0:0:
108,344,116781,6,0,P|204:344|256:284,1,180,4|2,0:0|0:0,0:0:0:0:
313,123,117406,1,0,0:0:0:0:
313,123,117615,2,0,P|392:112|360:44,1,180,8|4,0:0|0:0,0:0:0:0:
151,44,118240,1,0,0:0:0:0:
151,44,118448,2,0,P|121:115|199:123,1,180,2|4,0:0|0:0,0:0:0:0:
256,44,119073,1,0,0:0:0:0:
352,212,119281,1,8,0:0:0:0:
198,123,119490,1,4,0:0:0:0:
314,123,119698,1,2,0:0:0:0:
160,212,119906,1,0,0:0:0:0:
160,212,120010,1,0,0:0:0:0:
160,212,120115,6,0,B|160:256|160:256|184:296,1,90,4|0,0:0|0:0,0:0:0:0:
276,352,120531,2,0,P|368:352|420:288,2,180,2|8|4,0:0|0:0|0:0,0:0:0:0:
308,248,121573,1,0,0:0:0:0:
308,248,121781,2,0,L|260:172,1,90,2|0,0:0|0:0,0:0:0:0:
72,72,122198,2,0,L|120:148,1,90,4|0,0:0|0:0,0:0:0:0:
124,152,122510,1,0,0:0:0:0:
124,152,122615,2,0,L|204:104,1,90,8|0,0:0|0:0,0:0:0:0:
308,248,123031,2,0,L|228:296,1,90,2|0,0:0|0:0,0:0:0:0:
296,160,123448,6,0,B|247:193|247:193|187:201|187:201|139:237,1,180,4|2,0:0|0:0,0:0:0:0:
328,336,124073,1,0,0:0:0:0:
328,336,124281,2,0,B|376:302|376:302|436:294|436:294|484:258,1,180,8|4,0:0|0:0,0:0:0:0:
374,185,124906,1,0,0:0:0:0:
374,185,125115,2,0,P|326:185|294:157,1,90,2|0,0:0|0:0,0:0:0:0:
384,32,125531,2,0,P|384:80|356:112,1,90,4|0,0:0|0:0,0:0:0:0:
153,110,125948,2,0,P|126:76|128:32,1,90,8|0,0:0|0:0,0:0:0:0:
216,158,126365,2,0,P|182:185|138:185,1,90,2|0,0:0|0:0,0:0:0:0:
256,260,126781,6,0,B|296:292|336:272|336:272|412:336,1,180,4|2,0:0|0:0,0:0:0:0:
308,200,127406,1,0,0:0:0:0:
308,200,127615,2,0,B|268:168|228:188|228:188|152:124,1,180,8|4,0:0|0:0,0:0:0:0:
280,16,128240,1,0,0:0:0:0:
280,16,128448,2,0,P|372:16|436:72,1,180,2|4,0:0|0:0,0:0:0:0:
463,255,129073,1,0,0:0:0:0:
463,255,129281,2,0,P|371:255|307:199,1,180,8|2,0:0|0:0,0:0:0:0:
49,255,129906,1,0,0:0:0:0:
49,255,130115,6,0,P|141:255|205:199,1,180,4|2,0:0|0:0,0:0:0:0:
113,44,130740,1,0,0:0:0:0:
113,44,130948,2,0,L|205:200,1,180,8|4,0:0|0:0,0:0:0:0:
399,44,131573,1,0,0:0:0:0:
399,44,131781,2,0,L|307:200,1,180,2|4,0:0|0:0,0:0:0:0:
416,192,132406,1,0,0:0:0:0:
416,192,132615,2,0,L|368:272,1,90,8|4,0:0|0:0,0:0:0:0:
142,269,133031,2,0,L|96:192,1,90,2|0,0:0|0:0,0:0:0:0:
204,199,133448,5,0,0:0:0:0:
307,199,133656,1,0,0:0:0:0:
256,288,133865,5,0,0:0:0:0:
284,288,134281,1,2,0:0:0:0:
312,288,134698,1,0,0:0:0:0:
340,288,135115,6,0,B|396:288|396:288|448:260|448:260|512:260,1,180,4|2,0:0|0:0,0:0:0:0:
376,216,135740,1,0,0:0:0:0:
376,216,135948,2,0,B|320:216|320:216|268:244|268:244|204:244,1,180,8|4,0:0|0:0,0:0:0:0:
296,52,136781,2,0,B|338:35|338:35|381:52,1,90,2|4,0:0|0:0,0:0:0:0:
216,52,137198,2,0,B|174:35|174:35|131:52,1,90,4|0,0:0|0:0,0:0:0:0:
48,80,137614,2,0,B|84:140|84:140|84:192|84:192|120:244,1,180,8|2,0:0|0:0,0:0:0:0:
117,239,138240,1,0,0:0:0:0:
256,352,138448,6,0,B|304:352|304:352|344:332,1,90,4|0,0:0|0:0,0:0:0:0:
470,173,138865,2,0,B|422:173|422:173|382:193,1,90,2|0,0:0|0:0,0:0:0:0:
256,32,139281,2,0,B|304:32|304:32|341:50,1,90,8|0,0:0|0:0,0:0:0:0:
324,252,139698,1,4,0:0:0:0:
324,132,139906,1,0,0:0:0:0:
188,132,140114,1,2,0:0:0:0:
188,252,140323,1,4,0:0:0:0:
324,252,140531,6,0,B|384:280|396:312|396:312|356:328|356:380,1,180,4|8,0:0|0:0,0:0:0:0:
156,380,141156,1,0,0:0:0:0:
156,380,141364,2,0,B|156:328|116:312|116:312|128:280|188:252,1,180,2|4,0:0|0:0,0:0:0:0:
256,100,142198,1,2,0:0:0:0:
324,40,142406,1,0,0:0:0:0:
188,40,142614,2,0,P|96:40|52:108,1,180,8|4,0:0|0:0,0:0:0:0:
256,284,143448,1,2,0:0:0:0:
188,344,143656,1,4,0:0:0:0:
324,344,143864,2,0,P|416:344|460:276,1,180,4|8,0:0|0:0,0:0:0:0:
324,40,144698,2,0,P|372:40|404:68,1,90,2|0,0:0|0:0,0:0:0:0:
188,40,145114,6,0,P|140:40|108:68,1,90,4|0,0:0|0:0,0:0:0:0:
176,220,145531,2,0,P|224:220|256:192,1,90,2|0,0:0|0:0,0:0:0:0:
188,132,145948,2,0,L|257:303,1,180,8|4,0:0|0:0,0:0:0:0:
342,268,146573,2,0,B|426:300|426:300|510:268,1,180,0|4,0:0|0:0,0:0:0:0:
426,192,147198,1,4,0:0:0:0:
510,267,147406,1,0,0:0:0:0:
510,117,147615,2,0,B|426:85|426:85|342:117,1,180,8|2,0:0|0:0,0:0:0:0:
170,117,148239,1,0,0:0:0:0:
170,117,148448,6,0,B|86:85|86:85|2:117,1,180,4|2,0:0|0:0,0:0:0:0:
84,360,149281,2,0,L|84:176,1,180,8|4,0:0|0:0,0:0:0:0:
2,117,149906,2,0,B|86:85|86:85|170:117,1,180,0|4,0:0|0:0,0:0:0:0:
344,116,150531,1,4,0:0:0:0:
256,192,150739,1,0,0:0:0:0:
432,192,150948,2,0,B|432:240|460:276|460:276|432:312|432:360,1,180,8|2,0:0|0:0,0:0:0:0:
256,316,151781,6,0,P|208:316|172:288,1,90,4|0,0:0|0:0,0:0:0:0:
175,92,152198,2,0,P|211:67|255:68,1,90,2|0,0:0|0:0,0:0:0:0:
256,192,152614,2,0,B|212:204|212:204|172:185|172:185|136:204|136:204|88:192,1,180,8|4,0:0|0:0,0:0:0:0:
36,68,153239,1,0,0:0:0:0:
117,25,153448,2,0,P|132:66|116:108,1,90,2|4,0:0|0:0,0:0:0:0:
117,359,153864,2,0,P|133:318|117:277,1,90,4|0,0:0|0:0,0:0:0:0:
36,316,154281,2,0,L|220:316,1,180,8|2,0:0|0:0,0:0:0:0:
296,316,154906,1,0,0:0:0:0:
476,316,155114,6,0,L|292:316,1,180,4|2,0:0|0:0,0:0:0:0:
184,192,155739,1,0,0:0:0:0:
184,192,155948,2,0,B|152:136|152:136|160:92|160:92|128:28,2,180,8|4|2,0:0|0:0|0:0,0:0:0:0:
328,192,156989,1,4,0:0:0:0:
328,192,157198,2,0,B|360:136|360:136|352:92|352:92|384:28,2,180,4|8|2,0:0|0:0|0:0,0:0:0:0:
256,112,158240,1,0,0:0:0:0:
328,284,158448,6,0,L|380:364,1,90,4|0,0:0|0:0,0:0:0:0:
184,284,158864,2,0,L|132:364,1,90,2|0,0:0|0:0,0:0:0:0:
256,228,159281,2,0,B|284:140|232:140|256:48,1,180,8|4,0:0|0:0,0:0:0:0:
344,28,159906,2,0,B|256:5|256:57|168:29,1,180,0|4,0:0|0:0,0:0:0:0:
79,228,160531,2,0,B|168:252|168:200|256:228,1,180,4|8,0:0|0:0,0:0:0:0:
328,300,161156,2,0,B|328:348|328:348|305:383,1,90,0|2,0:0|0:0,0:0:0:0:
328,168,161573,1,0,0:0:0:0:
328,168,161677,1,0,0:0:0:0:
328,168,161781,6,0,B|328:120|328:120|304:84,1,90,4|0,0:0|0:0,0:0:0:0:
232,16,162198,2,0,B|200:60|148:56|148:56|88:112,1,180,2|8,0:0|0:0,0:0:0:0:
88,272,162823,1,0,0:0:0:0:
88,272,163031,2,0,B|148:328|148:328|200:324|232:368,1,180,4|2,0:0|0:0,0:0:0:0:
308,304,163656,1,4,0:0:0:0:
484,192,163864,2,0,L|440:112,1,90,4|0,0:0|0:0,0:0:0:0:
388,244,164281,2,0,B|336:173|381:156|328:76,1,180,8|2,0:0|0:0,0:0:0:0:
183,76,164906,1,0,0:0:0:0:
183,76,165115,6,0,B|130:156|175:173|124:244,1,180,4|2,0:0|0:0,0:0:0:0:
148,356,165739,1,0,0:0:0:0:
305,277,165948,1,8,0:0:0:0:
207,277,166156,1,0,0:0:0:0:
364,356,166365,1,4,0:0:0:0:
207,277,166573,2,0,B|207:233|256:207|256:207|305:233|305:276,1,180,0|4,0:0|0:0,0:0:0:0:
364,356,167198,1,4,0:0:0:0:
364,192,167406,2,0,B|364:144|364:144|340:108,1,90,0|8,0:0|0:0,0:0:0:0:
148,192,167823,2,0,B|148:144|148:144|172:108,1,90,0|2,0:0|0:0,0:0:0:0:
340,109,168240,1,0,0:0:0:0:
256,56,168448,6,0,B|280:140|232:140|256:240,1,180,4|2,0:0|0:0,0:0:0:0:
256,336,169073,1,0,0:0:0:0:
340,284,169281,2,0,P|388:284|420:260,1,90,8|0,0:0|0:0,0:0:0:0:
172,284,169698,2,0,P|124:284|92:260,1,90,4|0,0:0|0:0,0:0:0:0:
356,208,170115,2,0,B|340:174|340:174|335:173|335:173|342:170|342:170|337:168|337:168|322:135,1,90,2|4,0:0|0:0,0:0:0:0:
156,208,170531,2,0,B|171:174|171:174|176:173|176:173|169:170|169:170|174:168|174:168|189:135,1,90,4|0,0:0|0:0,0:0:0:0:
256,248,170948,1,8,0:0:0:0:
208,380,171156,1,0,0:0:0:0:
336,300,171364,1,2,0:0:0:0:
176,300,171573,1,0,0:0:0:0:
304,380,171781,6,0,B|396:380|396:380|472:312,1,180,4|2,0:0|0:0,0:0:0:0:
336,300,172406,2,0,L|404:240,1,90,0|8,0:0|0:0,0:0:0:0:
412,60,172823,1,0,0:0:0:0:
412,60,173031,2,0,P|320:60|264:124,1,180,4|2,0:0|0:0,0:0:0:0:
340,192,173656,1,4,0:0:0:0:
172,72,173865,2,0,B|130:55|130:55|87:72,1,90,4|0,0:0|0:0,0:0:0:0:
40,232,174282,2,0,B|57:190|57:190|40:147,1,90,8|0,0:0|0:0,0:0:0:0:
89,313,174699,2,0,B|130:329|130:329|172:312,1,90,2|0,0:0|0:0,0:0:0:0:
172,316,175011,1,0,0:0:0:0:
172,316,175115,6,0,B|214:299|214:299|256:316,1,90,4|0,0:0|0:0,0:0:0:0:
256,68,175531,2,0,B|214:85|214:85|172:68,1,90,2|0,0:0|0:0,0:0:0:0:
32,192,175948,2,0,B|128:220|128:168|216:192,1,180,8|4,0:0|0:0,0:0:0:0:
302,191,176573,1,0,0:0:0:0:
340,104,176781,2,0,B|380:84|380:84|420:104,1,90,2|4,0:0|0:0,0:0:0:0:
172,280,177198,2,0,B|132:300|132:300|92:280,1,90,4|0,0:0|0:0,0:0:0:0:
92,104,177615,2,0,B|132:84|132:84|172:104,1,90,8|0,0:0|0:0,0:0:0:0:
420,280,178031,2,0,B|380:300|380:300|340:280,1,90,2|0,0:0|0:0,0:0:0:0:
340,104,178448,6,0,B|404:104|404:104|456:136|456:136|512:136,1,180,4|2,0:0|0:0,0:0:0:0:
340,104,179073,1,0,0:0:0:0:
384,180,179281,2,0,L|288:180,1,90,8|0,0:0|0:0,0:0:0:0:
128,204,179698,2,0,L|224:204,1,90,4|0,0:0|0:0,0:0:0:0:
172,280,180114,2,0,B|108:280|108:280|56:248|56:248|0:248,1,180,2|4,0:0|0:0,0:0:0:0:
2,248,180739,1,0,0:0:0:0:
172,280,180948,2,0,B|204:304|204:332|204:332|204:364,1,90,8|0,0:0|0:0,0:0:0:0:
340,280,181364,2,0,B|308:304|308:332|308:332|308:364,1,90,2|0,0:0|0:0,0:0:0:0:
255,247,181781,6,0,P|302:175|255:103,1,180,4|2,0:0|0:0,0:0:0:0:
156,104,182406,1,0,0:0:0:0:
156,104,182614,2,0,P|104:104|76:128,1,90,8|0,0:0|0:0,0:0:0:0:
177,269,183031,2,0,P|229:269|257:245,1,90,4|0,0:0|0:0,0:0:0:0:
255,103,183448,2,0,P|302:175|255:247,1,180,2|4,0:0|0:0,0:0:0:0:
320,324,184073,1,0,0:0:0:0:
320,324,184281,2,0,B|368:324|368:324|404:304,1,90,8|0,0:0|0:0,0:0:0:0:
404,80,184698,2,0,B|368:60|368:60|320:60,1,90,2|0,0:0|0:0,0:0:0:0:
256,192,185115,6,0,B|212:192|172:164|172:164|132:192|88:192,1,180,4|2,0:0|0:0,0:0:0:0:
10,315,185739,1,0,0:0:0:0:
156,276,185948,2,0,P|171:318|155:359,1,90,8|0,0:0|0:0,0:0:0:0:
10,315,186364,2,0,P|51:331|92:316,1,90,4|0,0:0|0:0,0:0:0:0:
92,69,186781,2,0,P|51:54|10:70,1,90,2|4,0:0|0:0,0:0:0:0:
156,108,187198,2,0,P|171:67|155:26,1,90,4|0,0:0|0:0,0:0:0:0:
10,70,187614,1,8,0:0:0:0:
96,192,187823,1,4,0:0:0:0:
10,314,188031,1,4,0:0:0:0:
32,192,188239,1,0,0:0:0:0:
64,192,188343,1,0,0:0:0:0:
96,192,188448,6,0,P|188:216|208:312,1,202.500007724762,2|0,0:0|0:0,0:0:0:0:
304,312,189281,2,0,P|324:217|416:192,1,202.500007724762,2|0,0:0|0:0,0:0:0:0:
460,276,190115,2,0,L|364:92,1,202.500007724762,2|0,0:0|0:0,0:0:0:0:
280,136,190948,2,0,B|188:136|188:92|84:92,1,202.500007724762,2|0,0:0|0:0,0:0:0:0:
64,184,191781,6,0,B|14:272|14:272|64:360,1,202.500007724762,2|0,0:0|0:0,0:0:0:0:
104,272,192615,2,0,P|208:272|288:336,1,202.500007724762,2|0,0:0|0:0,0:0:0:0:
380,332,193448,2,0,B|416:264|416:264|404:208|404:208|432:140,1,202.500007724762,2|0,0:0|0:0,0:0:0:0:
472,60,194281,2,0,P|380:20|312:80,1,202.500007724762,2|0,0:0|0:0,0:0:0:0:
344,168,195115,6,0,B|292:168|256:212|256:212|212:168|168:168,1,202.500007724762,2|0,0:0|0:0,0:0:0:0:
201,81,195948,2,0,P|127:20|40:60,1,202.500007724762,2|0,0:0|0:0,0:0:0:0:
82,145,196781,2,0,B|108:208|108:208|96:264|96:264|132:332,1,202.500007724762,2|0,0:0|0:0,0:0:0:0:
220,296,197615,2,0,P|320:295|400:354,1,202.500007724762,2|0,0:0|0:0,0:0:0:0:
484,312,198448,6,0,B|444:220|508:220|468:112,1,202.500007724762,2|0,0:0|0:0,0:0:0:0:
376,132,199281,2,0,B|284:172|284:108|176:148,1,202.500007724762,2|0,0:0|0:0,0:0:0:0:
160,52,200115,2,0,P|96:132|124:220,1,202.500007724762,2|0,0:0|0:0,0:0:0:0:
184,292,200948,2,0,B|256:292|256:292|316:320|316:320|380:320,1,202.500007724762,2|0,0:0|0:0,0:0:0:0:
452,256,201781,6,0,P|470:192|452:128,1,135.000005149842,8|8,0:0|0:0,0:0:0:0:
288,32,202615,2,0,P|270:96|288:160,1,135.000005149842,8|8,0:0|0:0,0:0:0:0:
336,344,203448,1,8,0:0:0:0:
336,344,203656,2,0,P|260:344|216:304,1,135.000005149842
160,232,204281,2,0,L|96:272,1,67.5000025749208,8|0,0:0|0:0,0:0:0:0:
104,160,204698,2,0,L|168:120,1,67.5000025749208,8|0,0:0|0:0,0:0:0:0:
244,76,205115,6,0,B|312:76|312:76|372:108,1,135.000005149842,8|8,0:0|0:0,0:0:0:0:
500,244,205948,2,0,B|432:244|432:244|372:212,1,135.000005149842,8|8,0:0|0:0,0:0:0:0:
256,360,206781,2,0,L|188:320,1,67.5000025749208,8|0,0:0|0:0,0:0:0:0:
120,272,207198,2,0,P|56:244|28:188,1,135.000005149842,8|8,0:0|0:0,0:0:0:0:
180,76,208031,1,8,0:0:0:0:
256,20,208240,1,0,0:0:0:0:
332,76,208448,6,0,P|424:76|476:140,1,180,4|4,0:0|0:0,0:0:0:0:
332,308,209073,1,0,0:0:0:0:
332,308,209281,2,0,P|419:310|475:244,1,180,4|4,0:0|0:0,0:0:0:0:
232,192,209906,1,0,0:0:0:0:
232,192,210115,2,0,L|416:192,1,180,4|4,0:0|0:0,0:0:0:0:
232,92,210740,1,0,0:0:0:0:
232,92,210948,2,0,L|48:92,1,180,4|4,0:0|0:0,0:0:0:0:
52,292,211573,1,0,0:0:0:0:
52,292,211781,6,0,L|232:292,1,180,8|2,0:0|0:0,0:0:0:0:
329,245,212406,2,0,L|364:264,4,22.5,8|8|8|8|8,0:0|0:0|0:0|0:0|0:0,0:0:0:0:
236,192,212823,2,0,B|184:160|184:92|184:92|184:24,1,180,8|8,0:0|0:0,0:0:0:0:
184,30,213448,1,2,0:0:0:0:
384,216,214073,5,2,0:0:0:0:
384,216,214281,2,0,P|444:216|500:168,2,135,4|4|4,0:0|0:0|0:0,0:0:0:0:
256,316,215115,6,0,B|204:364|152:364|152:364|84:364,1,180,4|2,0:0|0:0,0:0:0:0:
40,192,215740,1,0,0:0:0:0:
40,192,215948,2,0,B|92:144|144:144|144:144|212:144,1,180,8|4,0:0|0:0,0:0:0:0:
256,252,216573,1,0,0:0:0:0:
306,144,216782,2,0,B|350:144|350:144|390:120,1,90,2|0,0:0|0:0,0:0:0:0:
488,56,217198,1,4,0:0:0:0:
488,268,217407,1,0,0:0:0:0:
488,268,217511,1,0,0:0:0:0:
488,268,217615,2,0,P|488:312|460:348,1,90,8|0,0:0|0:0,0:0:0:0:
328,260,218032,2,0,P|364:287|408:287,1,90,2|0,0:0|0:0,0:0:0:0:
488,56,218448,6,0,B|424:56|384:24|384:24|312:24,1,180,4|2,0:0|0:0,0:0:0:0:
256,128,219073,1,0,0:0:0:0:
197,24,219281,2,0,B|128:24|128:24|88:56|24:56,2,180,8|4|2,0:0|0:0|0:0,0:0:0:0:
256,128,220323,1,0,0:0:0:0:
164,220,220532,2,0,B|148:264|148:264|164:304,1,90,4|0,0:0|0:0,0:0:0:0:
348,304,220948,2,0,B|364:264|364:264|348:220,1,90,8|0,0:0|0:0,0:0:0:0:
256,380,221365,1,2,0:0:0:0:
256,128,221573,1,0,0:0:0:0:
256,128,221781,6,0,B|344:128|344:92|432:92,1,180,4|2,0:0|0:0,0:0:0:0:
224,24,222407,1,0,0:0:0:0:
224,24,222615,2,0,B|136:24|136:60|48:60,1,180,8|4,0:0|0:0,0:0:0:0:
148,252,223240,1,0,0:0:0:0:
148,252,223448,2,0,B|200:252|200:252|267:225|267:225|323:225,1,180,2|4,0:0|0:0,0:0:0:0:
444,44,224073,1,0,0:0:0:0:
444,44,224281,2,0,B|392:44|392:44|325:71|325:71|269:71,1,180,8|2,0:0|0:0,0:0:0:0:
116,216,224907,1,0,0:0:0:0:
116,216,225115,6,0,B|116:260|88:300|88:300|116:340|116:384,1,180,4|2,0:0|0:0,0:0:0:0:
320,332,225740,1,0,0:0:0:0:
320,332,225948,2,0,B|376:332|412:296|412:296|496:296,1,180,8|4,0:0|0:0,0:0:0:0:
490,88,226573,1,0,0:0:0:0:
490,88,226781,2,0,B|411:88|411:88|375:52|319:52,1,180,2|4,0:0|0:0,0:0:0:0:
256,192,227407,1,0,0:0:0:0:
192,52,227615,2,0,P|160:88|160:128,1,90,8|4,0:0|0:0,0:0:0:0:
148,341,228031,2,0,P|180:305|180:265,1,90
184,268,228344,1,0,0:0:0:0:
184,268,228448,6,0,P|231:268|272:290,1,90,4|0,0:0|0:0,0:0:0:0:
384,104,228865,2,0,P|337:104|296:82,1,90,2|0,0:0|0:0,0:0:0:0:
204,32,229282,2,0,B|112:32|112:32|44:96,1,180,8|4,0:0|0:0,0:0:0:0:
72,200,229907,1,0,0:0:0:0:
72,200,230115,2,0,B|98:176|98:176|98:171|98:171|102:178|102:178|103:172|103:172|130:149,1,90,2|0,0:0|0:0,0:0:0:0:
244,290,230531,2,0,B|217:313|217:313|217:318|217:318|213:311|213:311|212:317|212:317|185:340,1,90,4|0,0:0|0:0,0:0:0:0:
188,344,230844,1,0,0:0:0:0:
188,344,230948,1,8,0:0:0:0:
324,344,231157,1,0,0:0:0:0:
324,192,231365,1,2,0:0:0:0:
188,192,231573,1,0,0:0:0:0:
324,96,231782,6,0,B|280:96|255:45|255:45|232:96|188:96,1,180,4|2,0:0|0:0,0:0:0:0:
188,288,232407,1,0,0:0:0:0:
188,288,232615,2,0,B|232:288|255:339|255:339|280:288|324:288,2,180,8|4|2,0:0|0:0|0:0,0:0:0:0:
256,192,233657,1,0,0:0:0:0:
148,192,233865,2,0,P|100:192|64:164,1,90,4|0,0:0|0:0,0:0:0:0:
152,32,234282,2,0,P|128:69|129:113,1,90,8|0,0:0|0:0,0:0:0:0:
384,113,234698,2,0,P|385:69|360:32,1,90,2|0,0:0|0:0,0:0:0:0:
364,192,235115,6,0,P|412:192|448:164,1,90,4|0,0:0|0:0,0:0:0:0:
384,113,235532,1,2,0:0:0:0:
200,260,235740,1,0,0:0:0:0:
200,260,235948,2,0,P|104:260|52:200,1,180,8|4,0:0|0:0,0:0:0:0:
108,40,236573,1,0,0:0:0:0:
108,40,236782,2,0,P|204:40|256:100,1,180,2|4,0:0|0:0,0:0:0:0:
313,261,237407,1,0,0:0:0:0:
313,261,237615,2,0,P|400:264|460:201,1,180,8|2,0:0|0:0,0:0:0:0:
404,40,238240,1,0,0:0:0:0:
404,40,238448,6,0,P|308:40|256:100,1,180,4|2,0:0|0:0,0:0:0:0:
199,261,239073,1,0,0:0:0:0:
199,261,239281,2,0,B|162:230|115:242|115:242|110:291|147:322,1,180,8|4,0:0|0:0,0:0:0:0:
364,322,239907,1,0,0:0:0:0:
364,322,240115,2,0,B|401:291|396:242|396:242|349:230|313:261,1,180,2|4,0:0|0:0,0:0:0:0:
256,340,240740,1,0,0:0:0:0:
160,172,240948,1,8,0:0:0:0:
312,261,241157,1,4,0:0:0:0:
200,261,241365,1,2,0:0:0:0:
352,172,241573,1,0,0:0:0:0:
352,172,241677,1,0,0:0:0:0:
352,172,241782,6,0,B|352:128|352:128|328:88,1,90,4|0,0:0|0:0,0:0:0:0:
236,32,242198,2,0,B|148:32|148:80|64:80,2,180,2|8|4,0:0|0:0|0:0,0:0:0:0:
328,88,243240,1,0,0:0:0:0:
204,136,243448,2,0,P|219:181|253:201,1,90,2|0,0:0|0:0,0:0:0:0:
440,300,243865,2,0,P|424:254|390:234,1,90,4|0,0:0|0:0,0:0:0:0:
396,240,244177,1,0,0:0:0:0:
396,240,244282,2,0,L|316:288,1,90,8|0,0:0|0:0,0:0:0:0:
204,136,244698,2,0,L|284:88,1,90,2|0,0:0|0:0,0:0:0:0:
249,210,245115,6,0,B|298:177|298:177|358:169|358:169|406:133,1,180,4|2,0:0|0:0,0:0:0:0:
184,48,245740,1,0,0:0:0:0:
184,48,245948,2,0,B|136:82|136:82|76:90|76:90|28:126,1,180,8|4,0:0|0:0,0:0:0:0:
128,352,246573,1,0,0:0:0:0:
138,199,246782,2,0,P|186:199|218:227,1,90,2|0,0:0|0:0,0:0:0:0:
128,352,247198,2,0,P|128:304|156:272,1,90,4|0,0:0|0:0,0:0:0:0:
359,274,247615,2,0,P|386:308|384:352,1,90,8|0,0:0|0:0,0:0:0:0:
295,225,248032,2,0,P|329:198|374:199,1,90,2|0,0:0|0:0,0:0:0:0:
256,124,248448,6,0,B|216:96|176:108|176:108|132:68|148:20,1,180,4|2,0:0|0:0,0:0:0:0:
204,184,249073,1,0,0:0:0:0:
204,184,249281,2,0,B|244:212|284:200|284:200|328:240|312:288,1,180,8|4,0:0|0:0,0:0:0:0:
156,344,249907,1,0,0:0:0:0:
156,344,250115,2,0,P|64:344|0:288,1,180,2|4,0:0|0:0,0:0:0:0:
49,129,250740,1,0,0:0:0:0:
49,129,250948,2,0,P|141:129|205:185,1,180,8|2,0:0|0:0,0:0:0:0:
463,129,251573,1,0,0:0:0:0:
463,129,251782,6,0,P|371:129|307:185,1,180,4|2,0:0|0:0,0:0:0:0:
256,348,252407,1,0,0:0:0:0:
256,348,252615,2,0,B|220:308|168:308|168:308|88:308,1,180,8|4,0:0|0:0,0:0:0:0:
256,232,253240,1,0,0:0:0:0:
256,232,253448,2,0,B|292:272|344:272|344:272|424:272,1,180,2|4,0:0|0:0,0:0:0:0:
362,96,254073,1,0,0:0:0:0:
362,96,254281,2,0,B|377:128|377:128|382:130|382:130|375:133|375:133|380:134|380:134|396:168,1,90,8|4,0:0|0:0,0:0:0:0:
116,168,254698,2,0,B|132:134|132:134|137:133|137:133|130:130|130:130|135:128|135:128|150:95,1,90,2|0,0:0|0:0,0:0:0:0:
256,192,255115,6,0,B|224:280|280:280|256:376,1,180,4|2,0:0|0:0,0:0:0:0:
488,280,255740,1,0,0:0:0:0:
488,280,255948,2,0,B|520:192|464:192|488:96,1,180,8|4,0:0|0:0,0:0:0:0:
404,32,256573,2,0,P|324:56|316:144,1,180,0|4,0:0|0:0,0:0:0:0:
197,141,257198,2,0,P|189:57|108:32,1,180,4|8,0:0|0:0,0:0:0:0:
44,168,257823,2,0,L|124:108,1,90,0|2,0:0|0:0,0:0:0:0:
64,336,258240,1,0,0:0:0:0:
64,336,258448,6,0,L|212:224,1,180,4|2,0:0|0:0,0:0:0:0:
448,336,259073,1,0,0:0:0:0:
448,336,259281,2,0,L|300:224,1,180,8|4,0:0|0:0,0:0:0:0:
180,144,259906,2,0,B|256:96|256:96|332:144,1,180,0|4,0:0|0:0,0:0:0:0:
256,296,260531,1,4,0:0:0:0:
116,100,260948,1,8,0:0:0:0:
396,100,261365,1,2,0:0:0:0:
256,296,261781,6,0,P|164:296|100:236,1,180,4|2,0:0|0:0,0:0:0:0:
256,88,262406,1,0,0:0:0:0:
256,88,262615,2,0,P|348:88|412:148,1,180,8|4,0:0|0:0,0:0:0:0:
448,244,263240,1,0,0:0:0:0:
256,344,263656,1,4,0:0:0:0:
256,344,263865,2,0,B|196:344|196:344|140:316|140:316|80:316,1,180,4|8,0:0|0:0,0:0:0:0:
8,235,264490,1,0,0:0:0:0:
8,235,264698,2,0,B|-8:192|-8:192|8:151,1,90,2|0,0:0|0:0,0:0:0:0:
82,68,265115,6,0,B|140:68|140:68|196:40|196:40|256:40,1,180,4|2,0:0|0:0,0:0:0:0:
380,84,265740,1,0,0:0:0:0:
380,84,265948,2,0,B|322:84|322:84|266:112|266:112|206:112,1,180,8|4,0:0|0:0,0:0:0:0:
336,156,266573,1,0,0:0:0:0:
336,156,266781,2,0,B|393:156|393:156|449:128|449:128|509:128,1,180,2|4,0:0|0:0,0:0:0:0:
464,226,267406,1,0,0:0:0:0:
413,321,267615,2,0,B|373:345|373:345|329:345,1,90,8|4,0:0|0:0,0:0:0:0:
99,321,268031,2,0,B|139:345|139:345|183:345,1,90,2|0,0:0|0:0,0:0:0:0:
256,264,268448,6,0,B|256:196|256:196|228:144|228:144|228:88,1,180,4|2,0:0|0:0,0:0:0:0:
396,32,269073,1,0,0:0:0:0:
396,32,269281,2,0,B|396:100|396:100|424:152|424:152|424:208,1,180,8|4,0:0|0:0,0:0:0:0:
256,264,269906,2,0,P|216:340|128:332,1,180,0|4,0:0|0:0,0:0:0:0:
76,240,270531,2,0,P|116:164|204:172,1,180,4|8,0:0|0:0,0:0:0:0:
131,334,271156,1,0,0:0:0:0:
256,264,271365,1,2,0:0:0:0:
381,334,271573,1,0,0:0:0:0:
504,264,271781,6,0,B|504:168|504:168|456:96,1,180,4|2,0:0|0:0,0:0:0:0:
256,24,272406,1,0,0:0:0:0:
256,24,272615,2,0,B|256:120|256:120|304:192,1,180,8|4,0:0|0:0,0:0:0:0:
344,292,273240,2,0,B|256:292|256:328|169:327,1,180,0|4,0:0|0:0,0:0:0:0:
169,327,273865,1,4,0:0:0:0:
68,136,274281,1,8,0:0:0:0:
256,32,274698,1,2,0:0:0:0:
444,136,275115,6,0,B|444:176|408:216|408:216|444:256|444:296,1,180,4|2,0:0|0:0,0:0:0:0:
176,352,275740,1,0,0:0:0:0:
176,352,275948,2,0,B|216:352|256:316|256:316|296:352|336:352,1,180,8|4,0:0|0:0,0:0:0:0:
68,296,276573,2,0,B|68:256|104:216|104:216|68:176|68:136,1,180,0|4,0:0|0:0,0:0:0:0:
67,135,277198,1,4,0:0:0:0:
328,80,277615,2,0,P|376:80|408:52,1,90,8|0,0:0|0:0,0:0:0:0:
184,80,278031,2,0,P|136:80|104:52,1,90,2|0,0:0|0:0,0:0:0:0:
256,28,278448,6,0,L|256:216,1,180,4|2,0:0|0:0,0:0:0:0:
176,284,279073,1,0,0:0:0:0:
176,284,279281,2,0,B|256:325|256:325|336:284,1,180,8|4,0:0|0:0,0:0:0:0:
336,100,279906,1,0,0:0:0:0:
336,100,280115,2,0,B|256:59|256:59|176:100,1,180,2|4,0:0|0:0,0:0:0:0:
120,192,280740,1,0,0:0:0:0:
120,192,280948,2,0,B|84:192|84:192|64:184|64:184|24:184,1,90,8|4,0:0|0:0,0:0:0:0:
392,192,281365,2,0,B|428:192|428:192|448:184|448:184|480:184,1,90,2|0,0:0|0:0,0:0:0:0:
184,120,281781,6,0,P|256:74|328:120,1,180,4|2,0:0|0:0,0:0:0:0:
327,265,282406,1,0,0:0:0:0:
327,265,282615,2,0,P|255:310|184:265,1,180,8|4,0:0|0:0,0:0:0:0:
424,120,283656,1,4,0:0:0:0:
424,120,283865,2,0,P|469:191|424:263,1,180,4|8,0:0|0:0,0:0:0:0:
87,263,285115,6,0,P|42:191|88:120,1,180,4|2,0:0|0:0,0:0:0:0:
168,192,285740,1,0,0:0:0:0:
248,264,285948,2,0,P|293:191|247:120,1,180,8|4,0:0|0:0,0:0:0:0:
247,120,286990,1,4,0:0:0:0:
247,120,287198,1,4,0:0:0:0:
164,276,287615,1,8,0:0:0:0:
320,356,288031,1,2,0:0:0:0:
404,200,288448,6,0,B|404:148|368:120|368:120|368:32,1,180,4|2,0:0|0:0,0:0:0:0:
256,72,289073,1,0,0:0:0:0:
144,32,289281,2,0,B|144:120|144:120|108:148|108:200,1,180,8|4,0:0|0:0,0:0:0:0:
107,200,290323,1,4,0:0:0:0:
107,200,290531,1,4,0:0:0:0:
256,356,290948,1,8,0:0:0:0:
405,200,291573,5,0,0:0:0:0:
405,200,291781,2,0,P|412:84|280:40,1,270,4|0,0:0|0:0,0:0:0:0:
168,204,292615,2,0,L|332:132,1,180,8|4,0:0|0:0,0:0:0:0:
416,288,293240,1,0,0:0:0:0:
416,288,293448,2,0,L|252:360,1,180,2|4,0:0|0:0,0:0:0:0:
153,312,294073,1,0,0:0:0:0:
168,204,294281,2,0,P|156:156|168:116,1,90,8|4,0:0|0:0,0:0:0:0:
345,118,294698,2,0,P|356:161|344:204,1,90,2|0,0:0|0:0,0:0:0:0:
256,264,295115,6,0,B|248:196|248:196|264:164|264:164|256:88,1,180,4|2,0:0|0:0,0:0:0:0:
444,88,295740,1,0,0:0:0:0:
444,88,295948,2,0,B|452:156|452:156|436:188|436:188|444:264,1,180,8|4,0:0|0:0,0:0:0:0:
443,263,296781,1,2,0:0:0:0:
443,263,296990,1,4,0:0:0:0:
119,291,297615,2,0,B|77:308|77:308|36:292,1,90,8|0,0:0|0:0,0:0:0:0:
36,92,298031,2,0,B|77:75|77:75|119:92,1,90,2|0,0:0|0:0,0:0:0:0:
77,192,298448,5,4,0:0:0:0:
256,352,298865,1,2,0:0:0:0:
435,192,299281,1,8,0:0:0:0:
256,32,299698,2,0,P|176:40|188:120,1,180,4|2,0:0|0:0,0:0:0:0:
324,119,300323,2,0,P|336:40|256:32,1,180,4|0,0:0|0:0,0:0:0:0:
188,119,300948,2,0,L|140:195,1,90,8|0,0:0|0:0,0:0:0:0:
324,119,301365,2,0,L|372:195,1,90,2|0,0:0|0:0,0:0:0:0:
256,372,301781,6,0,L|256:192,1,180,4|2,0:0|0:0,0:0:0:0:
204,96,302406,1,0,0:0:0:0:
204,96,302615,2,0,B|204:48|256:31|256:31|308:48|308:96,1,180,8|4,0:0|0:0,0:0:0:0:
351,308,303448,1,2,0:0:0:0:
351,308,303656,2,0,P|256:387|160:309,1,270,0|8,0:0|0:0,0:0:0:0:
160,200,304490,1,4,0:0:0:0:
308,100,304698,1,4,0:0:0:0:
204,100,304906,1,0,0:0:0:0:
352,200,305115,6,0,B|420:280|352:340|352:340|296:288|252:344,1,270,2|0,0:0|0:0,0:0:0:0:
160,200,305948,2,0,B|92:280|160:340|160:340|216:288|260:344,1,270,2|0,0:0|0:0,0:0:0:0:
352,200,306781,1,2,0:0:0:0:
160,200,306990,1,0,0:0:0:0:
256,108,307198,1,0,0:0:0:0:
280,232,307406,6,0,L|300:263,2,22.5,4|4|4,0:0|0:0|0:0,0:0:0:0:
256,200,307615,1,4,0:0:0:0:
168,47,307823,1,4,0:0:0:0:
15,135,308031,1,4,0:0:0:0:
103,288,308240,1,12,0:0:0:0:
