osu file format v14

[General]
AudioFilename: audio.mp3
AudioLeadIn: 0
PreviewTime: 153904
Countdown: 0
SampleSet: Soft
StackLeniency: 0.7
Mode: 3
LetterboxInBreaks: 0
EpilepsyWarning: 1
SpecialStyle: 0
WidescreenStoryboard: 1

[Editor]
Bookmarks: 304,13104,25904,38704,51504,64304,77104,89904,102704,115504,128304,141104,153904,166704
DistanceSpacing: 1
BeatDivisor: 4
GridSize: 32
TimelineZoom: 1.5

[Metadata]
Title:Rainy Girl
TitleUnicode:レイニーガール
Artist:HoneyComeBear
ArtistUnicode:ハニカムベアー
Creator:chocomilku-
Version:5K Normal
Source:
Tags:mg mpg mappers' guild featured artist fa HCB Kaako Monkey kawaii future bass electronic jpop j-pop japanese pop female vocalist vocals hybrid single above and beyond priority quest
BeatmapID:4467782
BeatmapSetID:2015361

[Difficulty]
HPDrainRate:7
CircleSize:5
OverallDifficulty:6.8
ApproachRate:5
SliderMultiplier:1.4
SliderTickRate:1

[Events]
//Background and Video events
0,0,"bg.jpg",0,0
//Break Periods
//Storyboard Layer 0 (Background)
Sprite,Background,Centre,"bg.jpg",320,240 F,0,0,,0
//Storyboard Layer 1 (Fail)
//Storyboard Layer 2 (Pass)
//Storyboard Layer 3 (Foreground)
Sprite,Foreground,Centre,"sb/miniFont/005b.png",278,431.75 S,0,64704,,0.5 F,0,64504,64704,0,1 F,0,89703,89903,1,0
Sprite,Foreground,Centre,"sb/miniFont/0035.png",286,431.75 S,0,64704,,0.5 F,0,64504,64704,0,1 F,0,89703,89903,1,0
Sprite,Foreground,Centre,"sb/miniFont/004b.png",295.25,431.75 S,0,64704,,0.5 F,0,64504,64704,0,1 F,0,89703,89903,1,0
Sprite,Foreground,Centre,"sb/miniFont/004e.png",311.75,431.75 S,0,64704,,0.5 F,0,64504,64704,0,1 F,0,89703,89903,1,0
Sprite,Foreground,Centre,"sb/miniFont/006f.png",321.25,431.75 S,0,64704,,0.5 F,0,64504,64704,0,1 F,0,89703,89903,1,0
Sprite,Foreground,Centre,"sb/miniFont/0072.png",330.75,431.75 S,0,64704,,0.5 F,0,64504,64704,0,1 F,0,89703,89903,1,0
Sprite,Foreground,Centre,"sb/miniFont/006d.png",340.25,431.75 S,0,64704,,0.5 F,0,64504,64704,0,1 F,0,89703,89903,1,0
Sprite,Foreground,Centre,"sb/miniFont/0061.png",350.25,431.75 S,0,64704,,0.5 F,0,64504,64704,0,1 F,0,89703,89903,1,0
Sprite,Foreground,Centre,"sb/miniFont/006c.png",357,431.75 S,0,64704,,0.5 F,0,64504,64704,0,1 F,0,89703,89903,1,0
Sprite,Foreground,Centre,"sb/miniFont/005d.png",362,431.75 S,0,64704,,0.5 F,0,64504,64704,0,1 F,0,89703,89903,1,0
Sprite,Foreground,Centre,"sb/miniFont/005b.png",278,431.75 S,0,154304,,0.5 F,0,154104,154304,0,1 F,0,177704,177904,1,0
Sprite,Foreground,Centre,"sb/miniFont/0035.png",286,431.75 S,0,154304,,0.5 F,0,154104,154304,0,1 F,0,177704,177904,1,0
Sprite,Foreground,Centre,"sb/miniFont/004b.png",295.25,431.75 S,0,154304,,0.5 F,0,154104,154304,0,1 F,0,177704,177904,1,0
Sprite,Foreground,Centre,"sb/miniFont/004e.png",311.75,431.75 S,0,154304,,0.5 F,0,154104,154304,0,1 F,0,177704,177904,1,0
Sprite,Foreground,Centre,"sb/miniFont/006f.png",321.25,431.75 S,0,154304,,0.5 F,0,154104,154304,0,1 F,0,177704,177904,1,0
Sprite,Foreground,Centre,"sb/miniFont/0072.png",330.75,431.75 S,0,154304,,0.5 F,0,154104,154304,0,1 F,0,177704,177904,1,0
Sprite,Foreground,Centre,"sb/miniFont/006d.png",340.25,431.75 S,0,154304,,0.5 F,0,154104,154304,0,1 F,0,177704,177904,1,0
Sprite,Foreground,Centre,"sb/miniFont/0061.png",350.25,431.75 S,0,154304,,0.5 F,0,154104,154304,0,1 F,0,177704,177904,1,0
Sprite,Foreground,Centre,"sb/miniFont/006c.png",357,431.75 S,0,154304,,0.5 F,0,154104,154304,0,1 F,0,177704,177904,1,0
Sprite,Foreground,Centre,"sb/miniFont/005d.png",362,431.75 S,0,154304,,0.5 F,0,154104,154304,0,1 F,0,177704,177904,1,0
Sprite,Foreground,Centre,"sb/p.png",-21.6,240 V,0,0,,165.676,854 F,19,24904,25104,0,0.08 F,15,25104,25304,0.08,0 C,0,0,,247,239,158 P,0,24904,25304,A
Sprite,Foreground,Centre,"sb/p.png",320,240 V,0,0,,165.676,854 F,19,24904,25104,0,0.08 F,15,25104,25304,0.08,0 C,0,0,,247,239,158 P,0,24904,25304,A
Sprite,Foreground,Centre,"sb/p.png",490.8,240 V,0,0,,165.676,854 F,19,36904,37104,0,0.08 F,15,37104,37304,0.08,0 C,0,0,,247,239,158 P,0,36904,37304,A
Sprite,Foreground,Centre,"sb/p.png",661.6,240 V,0,0,,165.676,854 F,19,37104,37304,0,0.08 F,15,37304,37504,0.08,0 C,0,0,,247,239,158 P,0,37104,37504,A
Sprite,Foreground,Centre,"sb/p.png",149.2,240 V,0,0,,165.676,854 F,19,37304,37504,0,0.08 F,15,37504,37704,0.08,0 C,0,0,,247,239,158 P,0,37304,37704,A
Sprite,Foreground,Centre,"sb/p.png",320,240 V,0,0,,165.676,854 F,19,37504,37704,0,0.08 F,15,37704,37904,0.08,0 C,0,0,,247,239,158 P,0,37504,37904,A
Sprite,Foreground,Centre,"sb/p.png",661.6,240 V,0,0,,165.676,854 F,19,37704,37904,0,0.08 F,15,37904,38104,0.08,0 C,0,0,,247,239,158 P,0,37704,38104,A
Sprite,Foreground,Centre,"sb/p.png",490.8,240 V,0,0,,165.676,854 F,19,37837,38037,0,0.08 F,15,38037,38237,0.08,0 C,0,0,,247,239,158 P,0,37837,38237,A
Sprite,Foreground,Centre,"sb/p.png",320,240 V,0,0,,165.676,854 F,19,37970,38170,0,0.08 F,15,38170,38370,0.08,0 C,0,0,,247,239,158 P,0,37970,38370,A
Sprite,Foreground,Centre,"sb/p.png",-21.6,240 V,0,0,,165.676,854 F,19,38104,38304,0,0.08 F,15,38304,38504,0.08,0 C,0,0,,247,239,158 P,0,38104,38504,A
Sprite,Foreground,Centre,"sb/p.png",661.6,240 V,0,0,,165.676,854 F,19,50504,50704,0,0.08 F,15,50704,50904,0.08,0 C,0,0,,247,239,158 P,0,50504,50904,A
Sprite,Foreground,Centre,"sb/p.png",-21.6,240 V,0,0,,165.676,854 F,19,50904,51104,0,0.08 F,15,51104,51304,0.08,0 C,0,0,,247,239,158 P,0,50904,51304,A
Sprite,Foreground,Centre,"sb/p.png",320,240 V,0,0,,165.676,854 F,19,60904,61104,0,0.08 F,15,61104,61304,0.08,0 C,0,0,,247,239,158 P,0,60904,61304,A
Sprite,Foreground,Centre,"sb/p.png",661.6,240 V,0,0,,165.676,854 F,19,60904,61104,0,0.08 F,15,61104,61304,0.08,0 C,0,0,,247,239,158 P,0,60904,61304,A
Sprite,Foreground,Centre,"sb/p.png",149.2,240 V,0,0,,165.676,854 F,19,61304,61504,0,0.08 F,15,61504,61704,0.08,0 C,0,0,,247,239,158 P,0,61304,61704,A
Sprite,Foreground,Centre,"sb/p.png",661.6,240 V,0,0,,165.676,854 F,19,61304,61504,0,0.08 F,15,61504,61704,0.08,0 C,0,0,,247,239,158 P,0,61304,61704,A
Sprite,Foreground,Centre,"sb/p.png",-21.6,240 V,0,0,,165.676,854 F,19,61704,61904,0,0.08 F,15,61904,62104,0.08,0 C,0,0,,247,239,158 P,0,61704,62104,A
Sprite,Foreground,Centre,"sb/p.png",320,240 V,0,0,,165.676,854 F,19,61704,61904,0,0.08 F,15,61904,62104,0.08,0 C,0,0,,247,239,158 P,0,61704,62104,A
Sprite,Foreground,Centre,"sb/p.png",-21.6,240 V,0,0,,165.676,854 F,19,62104,62304,0,0.08 F,15,62304,62504,0.08,0 C,0,0,,247,239,158 P,0,62104,62504,A
Sprite,Foreground,Centre,"sb/p.png",490.8,240 V,0,0,,165.676,854 F,19,62104,62304,0,0.08 F,15,62304,62504,0.08,0 C,0,0,,247,239,158 P,0,62104,62504,A
Sprite,Foreground,Centre,"sb/p.png",149.2,240 V,0,0,,165.676,854 F,19,75904,76104,0,0.08 F,15,76104,76304,0.08,0 C,0,0,,247,239,158 P,0,75904,76304,A
Sprite,Foreground,Centre,"sb/p.png",320,240 V,0,0,,165.676,854 F,19,76004,76204,0,0.08 F,15,76204,76404,0.08,0 C,0,0,,247,239,158 P,0,76004,76404,A
Sprite,Foreground,Centre,"sb/p.png",490.8,240 V,0,0,,165.676,854 F,19,76104,76304,0,0.08 F,15,76304,76504,0.08,0 C,0,0,,247,239,158 P,0,76104,76504,A
Sprite,Foreground,Centre,"sb/p.png",-21.6,240 V,0,0,,165.676,854 F,19,76304,76504,0,0.08 F,15,76504,76704,0.08,0 C,0,0,,247,239,158 P,0,76304,76704,A
Sprite,Foreground,Centre,"sb/p.png",149.2,240 V,0,0,,165.676,854 F,19,76504,76704,0,0.08 F,15,76704,76904,0.08,0 C,0,0,,247,239,158 P,0,76504,76904,A
Sprite,Foreground,Centre,"sb/p.png",661.6,240 V,0,0,,165.676,854 F,19,76504,76704,0,0.08 F,15,76704,76904,0.08,0 C,0,0,,247,239,158 P,0,76504,76904,A
Sprite,Foreground,Centre,"sb/p.png",320,240 V,0,0,,165.676,854 F,19,101104,101304,0,0.08 F,15,101304,101504,0.08,0 C,0,0,,247,239,158 P,0,101104,101504,A
Sprite,Foreground,Centre,"sb/p.png",490.8,240 V,0,0,,165.676,854 F,19,101504,101704,0,0.08 F,15,101704,101904,0.08,0 C,0,0,,247,239,158 P,0,101504,101904,A
Sprite,Foreground,Centre,"sb/p.png",-21.6,240 V,0,0,,165.676,854 F,19,101704,101904,0,0.08 F,15,101904,102104,0.08,0 C,0,0,,247,239,158 P,0,101704,102104,A
Sprite,Foreground,Centre,"sb/p.png",320,240 V,0,0,,165.676,854 F,19,101704,101904,0,0.08 F,15,101904,102104,0.08,0 C,0,0,,247,239,158 P,0,101704,102104,A
Sprite,Foreground,Centre,"sb/p.png",149.2,240 V,0,0,,165.676,854 F,19,113704,113904,0,0.08 F,15,113904,114104,0.08,0 C,0,0,,247,239,158 P,0,113704,114104,A
Sprite,Foreground,Centre,"sb/p.png",-21.6,240 V,0,0,,165.676,854 F,19,113904,114104,0,0.08 F,15,114104,114304,0.08,0 C,0,0,,247,239,158 P,0,113904,114304,A
Sprite,Foreground,Centre,"sb/p.png",490.8,240 V,0,0,,165.676,854 F,19,114104,114304,0,0.08 F,15,114304,114504,0.08,0 C,0,0,,247,239,158 P,0,114104,114504,A
Sprite,Foreground,Centre,"sb/p.png",320,240 V,0,0,,165.676,854 F,19,114304,114504,0,0.08 F,15,114504,114704,0.08,0 C,0,0,,247,239,158 P,0,114304,114704,A
Sprite,Foreground,Centre,"sb/p.png",-21.6,240 V,0,0,,165.676,854 F,19,114504,114704,0,0.08 F,15,114704,114904,0.08,0 C,0,0,,247,239,158 P,0,114504,114904,A
Sprite,Foreground,Centre,"sb/p.png",149.2,240 V,0,0,,165.676,854 F,19,114637,114837,0,0.08 F,15,114837,115037,0.08,0 C,0,0,,247,239,158 P,0,114637,115037,A
Sprite,Foreground,Centre,"sb/p.png",320,240 V,0,0,,165.676,854 F,19,114770,114970,0,0.08 F,15,114970,115170,0.08,0 C,0,0,,247,239,158 P,0,114770,115170,A
Sprite,Foreground,Centre,"sb/p.png",661.6,240 V,0,0,,165.676,854 F,19,114904,115104,0,0.08 F,15,115104,115304,0.08,0 C,0,0,,247,239,158 P,0,114904,115304,A
Sprite,Foreground,Centre,"sb/p.png",-21.6,240 V,0,0,,165.676,854 F,19,127304,127504,0,0.08 F,15,127504,127704,0.08,0 C,0,0,,247,239,158 P,0,127304,127704,A
Sprite,Foreground,Centre,"sb/p.png",661.6,240 V,0,0,,165.676,854 F,19,127704,127904,0,0.08 F,15,127904,128104,0.08,0 C,0,0,,247,239,158 P,0,127704,128104,A
Sprite,Foreground,Centre,"sb/p.png",320,240 V,0,0,,165.676,854 F,19,150504,150704,0,0.08 F,15,150704,150904,0.08,0 C,0,0,,247,239,158 P,0,150504,150904,A
Sprite,Foreground,Centre,"sb/p.png",661.6,240 V,0,0,,165.676,854 F,19,150504,150704,0,0.08 F,15,150704,150904,0.08,0 C,0,0,,247,239,158 P,0,150504,150904,A
Sprite,Foreground,Centre,"sb/p.png",149.2,240 V,0,0,,165.676,854 F,19,150904,151104,0,0.08 F,15,151104,151304,0.08,0 C,0,0,,247,239,158 P,0,150904,151304,A
Sprite,Foreground,Centre,"sb/p.png",661.6,240 V,0,0,,165.676,854 F,19,150904,151104,0,0.08 F,15,151104,151304,0.08,0 C,0,0,,247,239,158 P,0,150904,151304,A
Sprite,Foreground,Centre,"sb/p.png",-21.6,240 V,0,0,,165.676,854 F,19,151304,151504,0,0.08 F,15,151504,151704,0.08,0 C,0,0,,247,239,158 P,0,151304,151704,A
Sprite,Foreground,Centre,"sb/p.png",320,240 V,0,0,,165.676,854 F,19,151304,151504,0,0.08 F,15,151504,151704,0.08,0 C,0,0,,247,239,158 P,0,151304,151704,A
Sprite,Foreground,Centre,"sb/p.png",-21.6,240 V,0,0,,165.676,854 F,19,151704,151904,0,0.08 F,15,151904,152104,0.08,0 C,0,0,,247,239,158 P,0,151704,152104,A
Sprite,Foreground,Centre,"sb/p.png",490.8,240 V,0,0,,165.676,854 F,19,151704,151904,0,0.08 F,15,151904,152104,0.08,0 C,0,0,,247,239,158 P,0,151704,152104,A
Sprite,Foreground,Centre,"sb/p.png",490.8,240 V,0,0,,165.676,854 F,19,165504,165704,0,0.08 F,15,165704,165904,0.08,0 C,0,0,,247,239,158 P,0,165504,165904,A
Sprite,Foreground,Centre,"sb/p.png",320,240 V,0,0,,165.676,854 F,19,165604,165804,0,0.08 F,15,165804,166004,0.08,0 C,0,0,,247,239,158 P,0,165604,166004,A
Sprite,Foreground,Centre,"sb/p.png",149.2,240 V,0,0,,165.676,854 F,19,165704,165904,0,0.08 F,15,165904,166104,0.08,0 C,0,0,,247,239,158 P,0,165704,166104,A
Sprite,Foreground,Centre,"sb/p.png",661.6,240 V,0,0,,165.676,854 F,19,165904,166104,0,0.08 F,15,166104,166304,0.08,0 C,0,0,,247,239,158 P,0,165904,166304,A
Sprite,Foreground,Centre,"sb/p.png",-21.6,240 V,0,0,,165.676,854 F,19,166104,166304,0,0.08 F,15,166304,166504,0.08,0 C,0,0,,247,239,158 P,0,166104,166504,A
Sprite,Foreground,Centre,"sb/p.png",490.8,240 V,0,0,,165.676,854 F,19,166104,166304,0,0.08 F,15,166304,166504,0.08,0 C,0,0,,247,239,158 P,0,166104,166504,A
Sprite,Foreground,Centre,"sb/p.png",-21.6,240 V,0,0,,165.676,854 F,19,177704,177904,0,0.08 F,15,177904,178104,0.08,0 C,0,0,,247,239,158 P,0,177704,178104,A
Sprite,Foreground,Centre,"sb/p.png",661.6,240 V,0,0,,165.676,854 F,19,177704,177904,0,0.08 F,15,177904,178104,0.08,0 C,0,0,,247,239,158 P,0,177704,178104,A
Sprite,Foreground,Centre,"sb/p.png",149.2,240 V,0,0,,165.676,854 F,19,177904,178104,0,0.08 F,15,178104,178304,0.08,0 C,0,0,,247,239,158 P,0,177904,178304,A
Sprite,Foreground,Centre,"sb/p.png",661.6,240 V,0,0,,165.676,854 F,19,178104,178304,0,0.08 F,15,178304,178504,0.08,0 C,0,0,,247,239,158 P,0,178104,178504,A
Sprite,Foreground,Centre,"sb/p.png",490.8,240 V,0,0,,165.676,854 F,19,178304,178504,0,0.08 F,15,178504,178704,0.08,0 C,0,0,,247,239,158 P,0,178304,178704,A
Sprite,Foreground,Centre,"sb/p.png",-21.6,240 V,0,0,,165.676,854 F,19,178504,178704,0,0.08 F,15,178704,178904,0.08,0 C,0,0,,247,239,158 P,0,178504,178904,A
Sprite,Foreground,Centre,"sb/p.png",149.2,240 V,0,0,,165.676,854 F,19,178504,178704,0,0.08 F,15,178704,178904,0.08,0 C,0,0,,247,239,158 P,0,178504,178904,A
Sprite,Foreground,Centre,"sb/p.png",320,240 V,0,0,,165.676,854 F,19,178704,178904,0,0.08 F,15,178904,179104,0.08,0 C,0,0,,247,239,158 P,0,178704,179104,A
Sprite,Foreground,Centre,"sb/p.png",490.8,240 V,0,0,,165.676,854 F,19,178904,179104,0,0.08 F,15,179104,179304,0.08,0 C,0,0,,247,239,158 P,0,178904,179304,A
Sprite,Foreground,Centre,"sb/p.png",-21.6,240 V,0,0,,165.676,854 F,19,179104,179304,0,0.08 F,15,179304,179504,0.08,0 C,0,0,,247,239,158 P,0,179104,179504,A
//Storyboard Layer 4 (Overlay)
Sprite,Overlay,Centre,"sb/ripple.png",110.5577,328 S,22,40104,40504,0,0.85 S,0,40504,40904,0.85,1 F,17,40104,40304,0,0.85 F,17,40304,40904,0.85,0
Sprite,Overlay,Centre,"sb/ripple.png",445.0217,256 S,22,41704,42104,0,0.85 S,0,42104,42504,0.85,1 F,17,41704,41904,0,0.85 F,17,41904,42504,0.85,0
Sprite,Overlay,Centre,"sb/ripple.png",28.60954,256 S,22,43304,43704,0,0.85 S,0,43704,44104,0.85,1 F,17,43304,43504,0,0.85 F,17,43504,44104,0.85,0
Sprite,Overlay,Centre,"sb/ripple.png",592.2506,223 S,22,44904,45304,0,0.85 S,0,45304,45704,0.85,1 F,17,44904,45104,0,0.85 F,17,45104,45704,0.85,0
Sprite,Overlay,Centre,"sb/ripple.png",-103.1655,176 S,22,46504,46904,0,0.85 S,0,46904,47304,0.85,1 F,17,46504,46704,0,0.85 F,17,46704,47304,0.85,0
Sprite,Overlay,Centre,"sb/ripple.png",526.3424,230 S,22,48104,48504,0,0.85 S,0,48504,48904,0.85,1 F,17,48104,48304,0,0.85 F,17,48304,48904,0.85,0
Sprite,Overlay,Centre,"sb/ripple.png",126.5418,231 S,22,49704,50104,0,0.85 S,0,50104,50504,0.85,1 F,17,49704,49904,0,0.85 F,17,49904,50504,0.85,0
Sprite,Overlay,Centre,"sb/ripple.png",408.4486,108 S,22,116904,117304,0,0.85 S,0,117304,117704,0.85,1 F,17,116904,117104,0,0.85 F,17,117104,117704,0.85,0
Sprite,Overlay,Centre,"sb/ripple.png",87.30719,378 S,22,118504,118904,0,0.85 S,0,118904,119304,0.85,1 F,17,118504,118704,0,0.85 F,17,118704,119304,0.85,0
Sprite,Overlay,Centre,"sb/ripple.png",631.3375,188 S,22,120104,120504,0,0.85 S,0,120504,120904,0.85,1 F,17,120104,120304,0,0.85 F,17,120304,120904,0.85,0
Sprite,Overlay,Centre,"sb/ripple.png",-75.72786,337 S,22,121704,122104,0,0.85 S,0,122104,122504,0.85,1 F,17,121704,121904,0,0.85 F,17,121904,122504,0.85,0
Sprite,Overlay,Centre,"sb/ripple.png",577.5831,109 S,22,123304,123704,0,0.85 S,0,123704,124104,0.85,1 F,17,123304,123504,0,0.85 F,17,123504,124104,0.85,0
Sprite,Overlay,Centre,"sb/ripple.png",115.0499,247 S,22,124904,125304,0,0.85 S,0,125304,125704,0.85,1 F,17,124904,125104,0,0.85 F,17,125104,125704,0.85,0
Sprite,Overlay,Centre,"sb/ripple.png",416.6696,292 S,22,126504,126904,0,0.85 S,0,126904,127304,0.85,1 F,17,126504,126704,0,0.85 F,17,126704,127304,0.85,0
//Storyboard Sound Samples
Sample,26704,0,"hat.wav",70
Sample,28304,0,"hat.wav",70
Sample,29904,0,"hat.wav",70
Sample,31504,0,"hat.wav",70
Sample,33104,0,"hat.wav",70
Sample,34704,0,"hat.wav",70
Sample,36304,0,"hat.wav",70
Sample,76304,0,"cowbell.wav",70
Sample,93904,0,"hat.wav",70
Sample,95504,0,"hat.wav",70
Sample,97104,0,"hat.wav",70
Sample,98704,0,"hat.wav",70
Sample,100304,0,"hat.wav",70
Sample,103504,0,"hat.wav",70
Sample,105104,0,"hat.wav",70
Sample,106704,0,"hat.wav",70
Sample,108304,0,"hat.wav",70
Sample,109904,0,"hat.wav",70
Sample,111504,0,"hat.wav",70
Sample,113104,0,"hat.wav",70
Sample,165904,0,"cowbell.wav",70

[TimingPoints]
304,400.0,4,2,1,100,1,0
77504,-100.0,4,2,1,100,0,1
83304,-100.0,4,2,1,100,0,0
83904,-100.0,4,2,1,100,0,1
89904,-100.0,4,2,1,100,0,0
167104,-100.0,4,2,1,100,0,1
172904,-100.0,4,2,1,100,0,0
173504,-100.0,4,2,1,100,0,1
177904,-100.0,4,2,1,100,0,0

[HitObjects]
51,192,304,128,0,1904:0:0:0:70:cymbal.wav
460,192,304,1,0,0:0:0:0:
256,192,704,1,0,0:0:0:0:
256,192,1104,1,0,0:0:0:0:
460,192,1904,128,0,3504:0:0:0:0:
256,192,2304,1,0,0:0:0:0:
256,192,3104,1,0,0:0:0:0:
153,192,3504,128,0,5104:0:0:0:0:
358,192,3904,1,0,0:0:0:0:
358,192,4304,1,0,0:0:0:0:
358,192,5104,128,0,5704:0:0:0:0:
153,192,5504,1,0,0:0:0:0:
256,192,5704,128,0,6704:0:0:0:0:
51,192,6304,1,0,0:0:0:0:
51,192,6704,1,0,0:0:0:70:cymbal.wav
460,192,6704,128,0,8304:0:0:0:0:
256,192,7104,1,0,0:0:0:0:
256,192,7504,1,0,0:0:0:0:
51,192,8304,128,0,9904:0:0:0:0:
256,192,8704,1,0,0:0:0:0:
256,192,9504,1,0,0:0:0:0:
358,192,9904,128,0,11504:0:0:0:0:
153,192,10304,1,0,0:0:0:0:
153,192,10704,1,0,0:0:0:0:
51,192,11504,1,0,0:0:0:0:
460,192,11704,1,0,0:0:0:0:
256,192,11904,1,0,0:0:0:0:
51,192,12104,1,0,0:0:0:0:
358,192,12304,1,0,0:0:0:0:
153,192,12504,1,0,0:0:0:0:
460,192,12704,1,0,0:0:0:0:
256,192,12904,1,0,0:0:0:0:
51,192,13104,1,0,0:0:0:70:strong kick.wav
153,192,13104,1,0,0:0:0:0:
358,192,13504,128,0,13904:0:0:0:0:
153,192,13904,128,0,14304:0:0:0:70:snap.wav
256,192,14304,128,0,14704:0:0:0:70:strong kick.wav
358,192,14304,1,0,0:0:0:0:
51,192,14704,1,0,0:0:0:0:
153,192,15104,128,0,15504:0:0:0:70:strong kick.wav
256,192,15104,1,0,0:0:0:0:
358,192,15504,128,0,15904:0:0:0:70:snap.wav
256,192,15904,128,0,16304:0:0:0:0:
153,192,16304,1,0,0:0:0:70:strong kick.wav
460,192,16304,1,0,0:0:0:0:
51,192,16704,1,0,0:0:0:0:
51,192,17104,1,0,0:0:0:70:snap.wav
256,192,17504,1,0,0:0:0:70:strong kick.wav
460,192,17504,1,0,0:0:0:0:
153,192,17704,1,0,0:0:0:0:
51,192,17904,128,0,18304:0:0:0:0:
358,192,18304,1,0,0:0:0:70:strong kick.wav
460,192,18304,1,0,0:0:0:0:
153,192,18504,128,0,18904:0:0:0:0:
358,192,18904,1,0,0:0:0:0:
256,192,19104,128,0,19504:0:0:0:0:
51,192,19504,1,0,0:0:0:70:strong kick.wav
153,192,19504,1,0,0:0:0:0:
51,192,19904,128,0,20304:0:0:0:0:
460,192,20304,128,0,20704:0:0:0:70:snap.wav
153,192,20704,1,0,0:0:0:70:strong kick.wav
256,192,20704,128,0,21104:0:0:0:0:
358,192,21104,1,0,0:0:0:0:
256,192,21504,1,0,0:0:0:70:strong kick.wav
460,192,21504,128,0,21904:0:0:0:0:
51,192,21904,128,0,22304:0:0:0:70:snap.wav
256,192,22304,128,0,22704:0:0:0:0:
51,192,22704,1,0,0:0:0:70:strong kick.wav
358,192,22704,1,0,0:0:0:0:
460,192,23104,1,0,0:0:0:0:
460,192,23504,1,0,0:0:0:70:snap.wav
51,192,23904,1,0,0:0:0:70:strong kick.wav
153,192,23904,1,0,0:0:0:0:
358,192,24304,1,0,0:0:0:0:
358,192,24704,1,0,0:0:0:70:strong kick.wav
51,192,25104,1,0,0:0:0:70:snap.wav
256,192,25104,128,0,25504:0:0:0:0:
153,192,25504,1,0,0:0:0:0:
256,192,25904,1,0,0:0:0:70:strong kick.wav
460,192,25904,1,0,0:0:0:70:hat.wav
51,192,26104,1,0,0:0:0:0:
358,192,26304,128,0,26704:0:0:0:70:hat.wav
51,192,26504,1,0,0:0:0:0:
153,192,26704,128,0,27104:0:0:0:70:snap.wav
256,192,27104,128,0,27504:0:0:0:70:strong kick.wav
358,192,27104,1,0,0:0:0:70:hat.wav
51,192,27504,1,0,0:0:0:70:hat.wav
460,192,27704,1,0,0:0:0:0:
153,192,27904,128,0,28304:0:0:0:70:strong kick.wav
256,192,27904,1,0,0:0:0:70:hat.wav
460,192,28104,1,0,0:0:0:0:
358,192,28304,128,0,28704:0:0:0:70:snap.wav
256,192,28704,128,0,29104:0:0:0:70:hat.wav
153,192,29104,1,0,0:0:0:70:strong kick.wav
460,192,29104,1,0,0:0:0:70:hat.wav
358,192,29304,1,0,0:0:0:0:
51,192,29504,1,0,0:0:0:70:hat.wav
358,192,29704,1,0,0:0:0:0:
51,192,29904,1,0,0:0:0:70:snap.wav
256,192,30304,1,0,0:0:0:70:strong kick.wav
460,192,30304,1,0,0:0:0:70:hat.wav
153,192,30504,1,0,0:0:0:0:
51,192,30704,128,0,31104:0:0:0:70:hat.wav
358,192,31104,1,0,0:0:0:70:strong kick.wav
460,192,31104,1,0,0:0:0:70:hat.wav
153,192,31304,128,0,31704:0:0:0:0:
460,192,31504,1,0,0:0:0:70:snap.wav
358,192,31704,1,0,0:0:0:0:
256,192,31904,128,0,32304:0:0:0:70:hat.wav
51,192,32304,1,0,0:0:0:70:strong kick.wav
153,192,32304,1,0,0:0:0:70:hat.wav
358,192,32504,1,0,0:0:0:0:
51,192,32704,128,0,33104:0:0:0:70:hat.wav
358,192,32904,1,0,0:0:0:0:
460,192,33104,128,0,33504:0:0:0:70:snap.wav
153,192,33504,1,0,0:0:0:70:strong kick.wav
256,192,33504,128,0,33904:0:0:0:70:hat.wav
358,192,33904,1,0,0:0:0:70:hat.wav
153,192,34104,1,0,0:0:0:0:
358,192,34304,1,0,0:0:0:70:strong kick.wav
460,192,34304,128,0,34704:0:0:0:70:hat.wav
153,192,34504,1,0,0:0:0:0:
51,192,34704,128,0,35104:0:0:0:70:snap.wav
256,192,35104,128,0,35504:0:0:0:70:hat.wav
51,192,35504,1,0,0:0:0:70:strong kick.wav
358,192,35504,1,0,0:0:0:70:hat.wav
153,192,35704,1,0,0:0:0:0:
460,192,35904,1,0,0:0:0:70:hat.wav
153,192,36104,1,0,0:0:0:0:
460,192,36304,1,0,0:0:0:70:snap.wav
51,192,36704,1,0,0:0:0:70:strong kick.wav
153,192,36704,1,0,0:0:0:70:hat.wav
358,192,37104,128,0,37304:0:0:0:70:trap snare.wav
460,192,37304,1,0,0:0:0:70:trap snare.wav
153,192,37504,128,0,37704:0:0:0:70:trap snare.wav
256,192,37704,1,0,0:0:0:70:trap snare.wav
460,192,37904,1,0,0:0:0:70:trap snare.wav
358,192,38037,1,0,0:0:0:70:trap snare.wav
256,192,38170,1,0,0:0:0:70:trap snare.wav
51,192,38304,128,0,38704:0:0:0:70:trap snare.wav
358,192,38704,1,0,0:0:0:70:strong kick.wav
460,192,38704,128,0,40304:0:0:0:0:
153,192,39104,1,0,0:0:0:0:
256,192,39504,1,0,0:0:0:0:
358,192,39904,1,0,0:0:0:0:
153,192,40304,128,0,41904:0:0:0:0:
51,192,40704,1,0,0:0:0:0:
460,192,41104,1,0,0:0:0:0:
256,192,41504,1,0,0:0:0:0:
460,192,41704,1,0,0:0:0:0:
358,192,41904,128,0,43504:0:0:0:0:
153,192,42704,1,0,0:0:0:0:
256,192,43304,1,0,0:0:0:0:
51,192,43504,128,0,44104:0:0:0:0:
358,192,43904,1,0,0:0:0:0:
256,192,44104,128,0,45104:0:0:0:0:
460,192,44304,1,0,0:0:0:0:
153,192,44704,1,0,0:0:0:0:
460,192,45104,128,0,46704:0:0:0:0:
153,192,45904,1,0,0:0:0:0:
256,192,46304,1,0,0:0:0:0:
51,192,46704,128,0,48304:0:0:0:0:
358,192,47104,1,0,0:0:0:0:
256,192,47504,1,0,0:0:0:0:
460,192,48104,1,0,0:0:0:0:
358,192,48304,128,0,49904:0:0:0:0:
51,192,48704,1,0,0:0:0:0:
153,192,49104,1,0,0:0:0:0:
460,192,49504,1,0,0:0:0:0:
153,192,49904,128,0,50704:0:0:0:0:
256,192,50304,1,0,0:0:0:0:
460,192,50704,128,0,51104:0:0:0:0:
51,192,51104,128,0,51504:0:0:0:0:
358,192,51504,1,0,0:0:0:70:kick.wav
460,192,51504,1,0,0:0:0:70:hat.wav
256,192,51704,1,0,0:0:0:0:
51,192,51904,1,0,0:0:0:70:kick.wav
153,192,51904,1,0,0:0:0:70:hat.wav
460,192,52104,1,0,0:0:0:0:
256,192,52304,1,0,0:0:0:70:snare.wav
358,192,52304,1,0,0:0:0:0:
51,192,52704,1,0,0:0:0:70:kick.wav
460,192,52704,1,0,0:0:0:70:hat.wav
153,192,53104,1,0,0:0:0:0:
256,192,53304,1,0,0:0:0:0:
358,192,53504,1,0,0:0:0:70:kick.wav
460,192,53504,1,0,0:0:0:70:hat.wav
51,192,53704,1,0,0:0:0:0:
153,192,53904,1,0,0:0:0:70:snare.wav
256,192,53904,1,0,0:0:0:0:
358,192,54104,1,0,0:0:0:70:kick.wav
460,192,54104,1,0,0:0:0:0:
51,192,54704,1,0,0:0:0:70:kick.wav
358,192,54704,1,0,0:0:0:0:
256,192,54904,1,0,0:0:0:0:
153,192,55104,1,0,0:0:0:70:kick.wav
460,192,55104,1,0,0:0:0:70:hat.wav
358,192,55304,1,0,0:0:0:0:
51,192,55504,1,0,0:0:0:70:snare.wav
256,192,55504,1,0,0:0:0:0:
51,192,55904,1,0,0:0:0:70:kick.wav
460,192,55904,1,0,0:0:0:70:hat.wav
153,192,56304,1,0,0:0:0:0:
256,192,56504,1,0,0:0:0:0:
51,192,56704,1,0,0:0:0:70:kick.wav
358,192,56704,1,0,0:0:0:70:hat.wav
153,192,56904,1,0,0:0:0:0:
256,192,57104,1,0,0:0:0:70:snare.wav
460,192,57104,1,0,0:0:0:0:
153,192,57304,1,0,0:0:0:70:kick.wav
358,192,57304,1,0,0:0:0:0:
153,192,57704,1,0,0:0:0:70:cowbell.wav
51,192,57904,1,0,0:0:0:70:kick.wav
153,192,57904,1,0,0:0:0:0:
256,192,58104,1,0,0:0:0:0:
358,192,58304,1,0,0:0:0:70:kick.wav
460,192,58304,1,0,0:0:0:70:hat.wav
51,192,58504,1,0,0:0:0:0:
153,192,58704,1,0,0:0:0:70:snare.wav
256,192,58704,1,0,0:0:0:0:
51,192,59104,1,0,0:0:0:70:kick.wav
460,192,59104,1,0,0:0:0:70:hat.wav
358,192,59504,1,0,0:0:0:0:
256,192,59704,1,0,0:0:0:0:
51,192,59904,1,0,0:0:0:70:kick.wav
153,192,59904,1,0,0:0:0:70:hat.wav
460,192,60104,1,0,0:0:0:0:
256,192,60304,1,0,0:0:0:70:snare.wav
358,192,60304,1,0,0:0:0:0:
51,192,60504,1,0,0:0:0:70:kick.wav
153,192,60504,1,0,0:0:0:0:
153,192,60904,1,0,0:0:0:0:
256,192,61104,1,0,0:0:0:70:kick.wav
460,192,61104,1,0,0:0:0:70:cymbal.wav
153,192,61504,1,0,0:0:0:70:kick.wav
460,192,61504,1,0,0:0:0:70:cymbal.wav
51,192,61904,1,0,0:0:0:70:kick.wav
256,192,61904,1,0,0:0:0:70:cymbal.wav
51,192,62304,1,0,0:0:0:70:kick.wav
358,192,62304,1,0,0:0:0:70:cymbal.wav
460,192,62704,128,0,63104:0:0:0:0:
153,192,63104,128,0,63504:0:0:0:0:
358,192,63504,128,0,63904:0:0:0:0:
153,192,63904,1,0,0:0:0:70:trap snare.wav
460,192,63904,1,0,0:0:0:70:cowbell.wav
256,192,64104,1,0,0:0:0:70:cowbell.wav
51,192,64304,1,0,0:0:0:70:strong kick.wav
460,192,64304,1,0,0:0:0:0:
358,192,64504,1,0,0:0:0:0:
256,192,64604,1,0,0:0:0:0:
51,192,64704,1,0,0:0:0:70:strong kick.wav
153,192,64704,1,0,0:0:0:70:cymbal.wav
460,192,64904,1,0,0:0:0:0:
153,192,65104,1,0,0:0:0:70:trap snare.wav
358,192,65104,1,0,0:0:0:70:cowbell.wav
256,192,65304,1,0,0:0:0:0:
51,192,65504,1,0,0:0:0:70:strong kick.wav
460,192,65504,1,0,0:0:0:70:hat.wav
358,192,65704,1,0,0:0:0:0:
51,192,65904,1,0,0:0:0:0:
153,192,66104,1,0,0:0:0:0:
256,192,66204,1,0,0:0:0:0:
358,192,66304,1,0,0:0:0:70:strong kick.wav
460,192,66304,1,0,0:0:0:70:hat.wav
51,192,66504,1,0,0:0:0:0:
153,192,66704,1,0,0:0:0:70:trap snare.wav
358,192,66704,1,0,0:0:0:70:cowbell.wav
256,192,66904,1,0,0:0:0:0:
51,192,67104,1,0,0:0:0:70:hat.wav
153,192,67304,1,0,0:0:0:0:
256,192,67504,1,0,0:0:0:70:strong kick.wav
460,192,67504,1,0,0:0:0:0:
358,192,67704,1,0,0:0:0:0:
256,192,67804,1,0,0:0:0:0:
51,192,67904,1,0,0:0:0:70:strong kick.wav
153,192,67904,1,0,0:0:0:70:hat.wav
460,192,68104,1,0,0:0:0:0:
153,192,68304,1,0,0:0:0:70:trap snare.wav
358,192,68304,1,0,0:0:0:70:cowbell.wav
256,192,68504,1,0,0:0:0:0:
51,192,68704,1,0,0:0:0:70:strong kick.wav
460,192,68704,1,0,0:0:0:70:hat.wav
358,192,68904,1,0,0:0:0:0:
153,192,69104,1,0,0:0:0:0:
256,192,69304,1,0,0:0:0:0:
153,192,69504,1,0,0:0:0:70:strong kick.wav
460,192,69504,1,0,0:0:0:70:hat.wav
358,192,69704,1,0,0:0:0:0:
51,192,69904,1,0,0:0:0:70:trap snare.wav
460,192,69904,1,0,0:0:0:70:cowbell.wav
153,192,70104,1,0,0:0:0:0:
358,192,70304,1,0,0:0:0:70:hat.wav
256,192,70504,1,0,0:0:0:0:
153,192,70904,1,0,0:0:0:0:
256,192,71004,1,0,0:0:0:0:
358,192,71104,1,0,0:0:0:70:strong kick.wav
460,192,71104,1,0,0:0:0:70:hat.wav
51,192,71304,1,0,0:0:0:0:
153,192,71504,1,0,0:0:0:70:trap snare.wav
358,192,71504,1,0,0:0:0:70:cowbell.wav
256,192,71704,1,0,0:0:0:0:
51,192,71904,1,0,0:0:0:70:strong kick.wav
460,192,71904,1,0,0:0:0:70:hat.wav
153,192,72104,1,0,0:0:0:0:
460,192,72304,1,0,0:0:0:0:
358,192,72504,1,0,0:0:0:0:
256,192,72604,1,0,0:0:0:0:
51,192,72704,1,0,0:0:0:70:strong kick.wav
153,192,72704,1,0,0:0:0:70:hat.wav
460,192,72904,1,0,0:0:0:0:
153,192,73104,1,0,0:0:0:70:trap snare.wav
358,192,73104,1,0,0:0:0:70:cowbell.wav
256,192,73304,1,0,0:0:0:0:
460,192,73504,1,0,0:0:0:70:hat.wav
358,192,73704,1,0,0:0:0:0:
51,192,73904,1,0,0:0:0:70:strong kick.wav
256,192,73904,1,0,0:0:0:0:
153,192,74104,1,0,0:0:0:0:
256,192,74204,1,0,0:0:0:0:
358,192,74304,1,0,0:0:0:70:strong kick.wav
460,192,74304,1,0,0:0:0:70:hat.wav
51,192,74504,1,0,0:0:0:0:
153,192,74704,1,0,0:0:0:70:trap snare.wav
358,192,74704,1,0,0:0:0:70:cowbell.wav
256,192,74904,1,0,0:0:0:0:
51,192,75104,1,0,0:0:0:70:strong kick.wav
460,192,75104,1,0,0:0:0:70:hat.wav
153,192,75304,1,0,0:0:0:0:
358,192,75504,1,0,0:0:0:0:
256,192,75704,1,0,0:0:0:0:
51,192,75904,1,0,0:0:0:70:strong kick.wav
460,192,75904,1,0,0:0:0:70:hat.wav
153,192,76104,1,0,0:0:0:70:cowbell.wav
256,192,76204,1,0,0:0:0:70:cowbell.wav
358,192,76304,1,0,0:0:0:70:trap snare.wav
51,192,76504,1,0,0:0:0:70:strong kick.wav
153,192,76704,1,0,0:0:0:70:trap snare.wav
460,192,76704,1,0,0:0:0:70:hat.wav
256,192,76904,1,0,0:0:0:0:
358,192,77304,1,0,0:0:0:0:
256,192,77404,1,0,0:0:0:0:
51,192,77504,1,0,0:0:0:70:strong kick.wav
153,192,77504,1,0,0:0:0:70:cymbal.wav
358,192,77704,1,0,0:0:0:0:
153,192,77904,1,0,0:0:0:70:trap snare.wav
460,192,77904,1,0,0:0:0:70:cowbell.wav
51,192,78204,1,0,0:0:0:70:strong kick.wav
358,192,78204,1,0,0:0:0:0:
256,192,78504,1,0,0:0:0:70:strong kick.wav
460,192,78504,1,0,0:0:0:0:
51,192,78704,1,0,0:0:0:70:hat.wav
153,192,78904,1,0,0:0:0:0:
256,192,79004,1,0,0:0:0:0:
358,192,79104,1,0,0:0:0:70:strong kick.wav
460,192,79104,1,0,0:0:0:70:hat.wav
153,192,79304,1,0,0:0:0:0:
51,192,79504,1,0,0:0:0:70:trap snare.wav
358,192,79504,1,0,0:0:0:70:cowbell.wav
153,192,79804,1,0,0:0:0:70:strong kick.wav
460,192,79804,1,0,0:0:0:0:
51,192,80104,1,0,0:0:0:70:strong kick.wav
256,192,80104,1,0,0:0:0:0:
51,192,80304,1,0,0:0:0:70:strong kick.wav
460,192,80304,1,0,0:0:0:70:hat.wav
358,192,80504,1,0,0:0:0:0:
256,192,80604,1,0,0:0:0:0:
51,192,80704,1,0,0:0:0:70:strong kick.wav
153,192,80704,1,0,0:0:0:70:hat.wav
358,192,80904,1,0,0:0:0:0:
153,192,81104,1,0,0:0:0:70:trap snare.wav
460,192,81104,1,0,0:0:0:70:cowbell.wav
51,192,81404,1,0,0:0:0:70:strong kick.wav
358,192,81404,1,0,0:0:0:0:
256,192,81704,1,0,0:0:0:70:strong kick.wav
460,192,81704,1,0,0:0:0:0:
51,192,81904,1,0,0:0:0:70:hat.wav
256,192,82104,1,0,0:0:0:0:
153,192,82304,1,0,0:0:0:70:strong kick.wav
460,192,82304,1,0,0:0:0:70:hat.wav
358,192,82504,1,0,0:0:0:0:
51,192,82704,1,0,0:0:0:70:trap snare.wav
460,192,82704,1,0,0:0:0:70:cowbell.wav
153,192,83004,1,0,0:0:0:70:strong kick.wav
358,192,83004,1,0,0:0:0:0:
256,192,83304,1,0,0:0:0:70:strong kick.wav
460,192,83304,1,0,0:0:0:0:
153,192,83704,1,0,0:0:0:70:strong kick.wav
256,192,83804,1,0,0:0:0:0:
358,192,83904,1,0,0:0:0:70:strong kick.wav
460,192,83904,1,0,0:0:0:70:cymbal.wav
153,192,84104,1,0,0:0:0:0:
51,192,84304,1,0,0:0:0:70:trap snare.wav
358,192,84304,1,0,0:0:0:70:cowbell.wav
153,192,84604,1,0,0:0:0:70:strong kick.wav
460,192,84604,1,0,0:0:0:0:
51,192,84904,1,0,0:0:0:70:strong kick.wav
256,192,84904,1,0,0:0:0:0:
51,192,85104,1,0,0:0:0:70:strong kick.wav
460,192,85104,1,0,0:0:0:70:hat.wav
358,192,85304,1,0,0:0:0:0:
256,192,85404,1,0,0:0:0:0:
51,192,85504,1,0,0:0:0:70:strong kick.wav
153,192,85504,1,0,0:0:0:70:hat.wav
358,192,85704,1,0,0:0:0:0:
153,192,85904,1,0,0:0:0:70:trap snare.wav
460,192,85904,1,0,0:0:0:70:cowbell.wav
51,192,86204,1,0,0:0:0:70:strong kick.wav
358,192,86204,1,0,0:0:0:0:
256,192,86504,1,0,0:0:0:70:strong kick.wav
460,192,86504,1,0,0:0:0:0:
51,192,86704,1,0,0:0:0:70:strong kick.wav
460,192,86704,1,0,0:0:0:70:hat.wav
153,192,86904,1,0,0:0:0:0:
256,192,87004,1,0,0:0:0:0:
358,192,87104,1,0,0:0:0:70:strong kick.wav
460,192,87104,1,0,0:0:0:70:hat.wav
153,192,87304,1,0,0:0:0:0:
51,192,87504,1,0,0:0:0:70:trap snare.wav
358,192,87504,1,0,0:0:0:70:cowbell.wav
153,192,87804,1,0,0:0:0:70:strong kick.wav
460,192,87804,1,0,0:0:0:0:
51,192,88104,1,0,0:0:0:70:strong kick.wav
256,192,88104,1,0,0:0:0:0:
51,192,88304,1,0,0:0:0:70:strong kick.wav
460,192,88304,1,0,0:0:0:0:
358,192,88504,1,0,0:0:0:0:
51,192,88704,1,0,0:0:0:70:hat.wav
153,192,88904,1,0,0:0:0:0:
358,192,89104,1,0,0:0:0:70:trap snare.wav
460,192,89104,1,0,0:0:0:70:cowbell.wav
256,192,89304,1,0,0:0:0:0:
153,192,89504,1,0,0:0:0:0:
51,192,89704,1,0,0:0:0:0:
358,192,89904,1,0,0:0:0:70:strong kick.wav
460,192,89904,1,0,0:0:0:0:
153,192,90304,128,0,90704:0:0:0:0:
358,192,90704,128,0,91104:0:0:0:70:snap.wav
256,192,91104,128,0,91504:0:0:0:0:
460,192,91504,1,0,0:0:0:0:
358,192,91904,128,0,92304:0:0:0:0:
153,192,92304,128,0,92704:0:0:0:70:snap.wav
256,192,92704,128,0,93104:0:0:0:0:
51,192,93104,1,0,0:0:0:70:strong kick.wav
358,192,93104,1,0,0:0:0:70:hat.wav
153,192,93304,1,0,0:0:0:0:
460,192,93504,1,0,0:0:0:70:hat.wav
153,192,93704,1,0,0:0:0:0:
460,192,93904,1,0,0:0:0:70:snap.wav
51,192,94304,1,0,0:0:0:70:strong kick.wav
256,192,94304,1,0,0:0:0:70:hat.wav
358,192,94504,1,0,0:0:0:0:
460,192,94704,128,0,95104:0:0:0:70:hat.wav
51,192,95104,1,0,0:0:0:70:strong kick.wav
153,192,95104,1,0,0:0:0:70:hat.wav
358,192,95304,128,0,95704:0:0:0:0:
51,192,95504,1,0,0:0:0:70:snap.wav
153,192,95704,1,0,0:0:0:0:
256,192,95904,128,0,96304:0:0:0:70:hat.wav
358,192,96304,1,0,0:0:0:70:strong kick.wav
460,192,96304,1,0,0:0:0:70:hat.wav
153,192,96504,1,0,0:0:0:0:
460,192,96704,128,0,97104:0:0:0:70:hat.wav
153,192,96904,1,0,0:0:0:0:
51,192,97104,128,0,97504:0:0:0:70:snap.wav
256,192,97504,128,0,97904:0:0:0:70:strong kick.wav
358,192,97504,1,0,0:0:0:70:hat.wav
153,192,97904,1,0,0:0:0:70:hat.wav
358,192,98104,1,0,0:0:0:0:
51,192,98304,128,0,98704:0:0:0:70:strong kick.wav
153,192,98304,1,0,0:0:0:70:hat.wav
358,192,98504,1,0,0:0:0:0:
460,192,98704,128,0,99104:0:0:0:70:snap.wav
256,192,99104,128,0,99504:0:0:0:70:hat.wav
153,192,99504,1,0,0:0:0:70:strong kick.wav
460,192,99504,1,0,0:0:0:70:hat.wav
358,192,99704,1,0,0:0:0:0:
51,192,99904,1,0,0:0:0:70:hat.wav
358,192,100104,1,0,0:0:0:0:
51,192,100304,1,0,0:0:0:70:snap.wav
358,192,100704,1,0,0:0:0:70:strong kick.wav
460,192,100704,1,0,0:0:0:70:hat.wav
51,192,101104,128,0,101304:0:0:0:70:hat.wav
256,192,101304,1,0,0:0:0:70:snap.wav
153,192,101504,128,0,101704:0:0:0:70:strong kick.wav
460,192,101504,1,0,0:0:0:70:hat.wav
358,192,101704,1,0,0:0:0:70:snap.wav
51,192,101904,1,0,0:0:0:70:snap.wav
256,192,101904,128,0,102304:0:0:0:70:hat.wav
358,192,102304,1,0,0:0:0:70:hat.wav
51,192,102704,1,0,0:0:0:70:strong kick.wav
256,192,102704,1,0,0:0:0:70:hat.wav
460,192,102904,1,0,0:0:0:0:
153,192,103104,128,0,103504:0:0:0:70:hat.wav
460,192,103304,1,0,0:0:0:0:
358,192,103504,128,0,103904:0:0:0:70:snap.wav
153,192,103904,1,0,0:0:0:70:strong kick.wav
256,192,103904,128,0,104304:0:0:0:70:hat.wav
460,192,104304,1,0,0:0:0:70:hat.wav
51,192,104504,1,0,0:0:0:70:snap.wav
256,192,104704,1,0,0:0:0:70:strong kick.wav
358,192,104704,128,0,105104:0:0:0:70:hat.wav
51,192,104904,1,0,0:0:0:0:
153,192,105104,128,0,105504:0:0:0:70:snap.wav
256,192,105504,128,0,105904:0:0:0:70:hat.wav
51,192,105904,1,0,0:0:0:70:strong kick.wav
358,192,105904,1,0,0:0:0:70:hat.wav
153,192,106104,1,0,0:0:0:0:
460,192,106304,1,0,0:0:0:70:hat.wav
153,192,106504,1,0,0:0:0:0:
460,192,106704,1,0,0:0:0:70:snap.wav
51,192,107104,1,0,0:0:0:70:strong kick.wav
256,192,107104,1,0,0:0:0:70:hat.wav
358,192,107304,1,0,0:0:0:0:
460,192,107504,128,0,107904:0:0:0:70:hat.wav
51,192,107904,1,0,0:0:0:70:strong kick.wav
153,192,107904,1,0,0:0:0:70:hat.wav
358,192,108104,128,0,108504:0:0:0:0:
51,192,108304,1,0,0:0:0:70:snap.wav
153,192,108504,1,0,0:0:0:0:
256,192,108704,128,0,109104:0:0:0:70:hat.wav
358,192,109104,1,0,0:0:0:70:strong kick.wav
460,192,109104,1,0,0:0:0:70:hat.wav
153,192,109304,1,0,0:0:0:0:
460,192,109504,128,0,109904:0:0:0:70:hat.wav
153,192,109704,1,0,0:0:0:0:
51,192,109904,128,0,110304:0:0:0:70:snap.wav
256,192,110304,128,0,110704:0:0:0:70:strong kick.wav
358,192,110304,1,0,0:0:0:70:hat.wav
153,192,110704,1,0,0:0:0:70:hat.wav
358,192,110904,1,0,0:0:0:70:snap.wav
51,192,111104,128,0,111504:0:0:0:70:strong kick.wav
153,192,111104,1,0,0:0:0:70:hat.wav
358,192,111304,1,0,0:0:0:0:
460,192,111504,128,0,111904:0:0:0:70:snap.wav
256,192,111904,128,0,112304:0:0:0:70:hat.wav
153,192,112304,1,0,0:0:0:70:strong kick.wav
460,192,112304,1,0,0:0:0:70:hat.wav
358,192,112504,1,0,0:0:0:0:
51,192,112704,1,0,0:0:0:70:hat.wav
358,192,112904,1,0,0:0:0:0:
51,192,113104,1,0,0:0:0:70:snap.wav
358,192,113504,1,0,0:0:0:70:strong kick.wav
460,192,113504,1,0,0:0:0:70:hat.wav
153,192,113904,128,0,114104:0:0:0:70:trap snare.wav
51,192,114104,1,0,0:0:0:70:trap snare.wav
358,192,114304,128,0,114504:0:0:0:70:trap snare.wav
256,192,114504,1,0,0:0:0:70:trap snare.wav
51,192,114704,1,0,0:0:0:70:trap snare.wav
153,192,114837,1,0,0:0:0:70:trap snare.wav
256,192,114970,1,0,0:0:0:70:trap snare.wav
460,192,115104,128,0,115504:0:0:0:70:trap snare.wav
51,192,115504,128,0,117104:0:0:0:70:strong kick.wav
153,192,115504,1,0,0:0:0:0:
358,192,115904,1,0,0:0:0:0:
256,192,116304,1,0,0:0:0:0:
153,192,116704,1,0,0:0:0:0:
358,192,117104,128,0,118704:0:0:0:0:
460,192,117504,1,0,0:0:0:0:
51,192,117904,1,0,0:0:0:0:
256,192,118304,1,0,0:0:0:0:
51,192,118504,1,0,0:0:0:0:
153,192,118704,128,0,120304:0:0:0:0:
358,192,119504,1,0,0:0:0:0:
256,192,120104,1,0,0:0:0:0:
460,192,120304,128,0,120904:0:0:0:0:
153,192,120704,1,0,0:0:0:0:
256,192,120904,128,0,121904:0:0:0:0:
51,192,121104,1,0,0:0:0:0:
358,192,121504,1,0,0:0:0:0:
51,192,121904,128,0,123504:0:0:0:0:
358,192,122704,1,0,0:0:0:0:
256,192,123104,1,0,0:0:0:0:
460,192,123504,128,0,125104:0:0:0:0:
153,192,123904,1,0,0:0:0:0:
256,192,124304,1,0,0:0:0:0:
51,192,124904,1,0,0:0:0:0:
153,192,125104,128,0,126704:0:0:0:0:
460,192,125504,1,0,0:0:0:0:
358,192,125904,1,0,0:0:0:0:
51,192,126304,1,0,0:0:0:0:
358,192,126704,128,0,127504:0:0:0:0:
256,192,127104,1,0,0:0:0:0:
51,192,127504,128,0,127904:0:0:0:0:
460,192,127904,128,0,128304:0:0:0:0:
51,192,128304,1,0,0:0:0:70:kick.wav
153,192,128304,1,0,0:0:0:70:hat.wav
256,192,128504,1,0,0:0:0:0:
358,192,128704,1,0,0:0:0:70:kick.wav
460,192,128704,1,0,0:0:0:70:hat.wav
51,192,128904,1,0,0:0:0:0:
153,192,129104,1,0,0:0:0:70:snare.wav
256,192,129104,1,0,0:0:0:0:
51,192,129504,1,0,0:0:0:70:kick.wav
460,192,129504,1,0,0:0:0:70:hat.wav
358,192,129904,1,0,0:0:0:0:
256,192,130104,1,0,0:0:0:0:
51,192,130304,1,0,0:0:0:70:kick.wav
153,192,130304,1,0,0:0:0:70:hat.wav
460,192,130504,1,0,0:0:0:0:
256,192,130704,1,0,0:0:0:70:snare.wav
358,192,130704,1,0,0:0:0:0:
51,192,130904,1,0,0:0:0:70:kick.wav
153,192,130904,1,0,0:0:0:0:
153,192,131504,1,0,0:0:0:70:kick.wav
460,192,131504,1,0,0:0:0:0:
256,192,131704,1,0,0:0:0:0:
51,192,131904,1,0,0:0:0:70:kick.wav
358,192,131904,1,0,0:0:0:70:hat.wav
153,192,132104,1,0,0:0:0:0:
256,192,132304,1,0,0:0:0:70:snare.wav
460,192,132304,1,0,0:0:0:0:
51,192,132704,1,0,0:0:0:70:kick.wav
460,192,132704,1,0,0:0:0:70:hat.wav
358,192,133104,1,0,0:0:0:0:
256,192,133304,1,0,0:0:0:0:
153,192,133504,1,0,0:0:0:70:kick.wav
460,192,133504,1,0,0:0:0:70:hat.wav
358,192,133704,1,0,0:0:0:0:
51,192,133904,1,0,0:0:0:70:snare.wav
256,192,133904,1,0,0:0:0:0:
153,192,134104,1,0,0:0:0:70:kick.wav
358,192,134104,1,0,0:0:0:0:
51,192,134504,1,0,0:0:0:70:cowbell.wav
153,192,134604,1,0,0:0:0:70:cowbell.wav
358,192,134704,1,0,0:0:0:70:kick.wav
460,192,134704,1,0,0:0:0:70:hat.wav
256,192,134904,1,0,0:0:0:0:
51,192,135104,1,0,0:0:0:70:kick.wav
153,192,135104,1,0,0:0:0:70:hat.wav
460,192,135304,1,0,0:0:0:0:
256,192,135504,1,0,0:0:0:70:snare.wav
358,192,135504,1,0,0:0:0:0:
51,192,135904,1,0,0:0:0:70:kick.wav
460,192,135904,1,0,0:0:0:70:hat.wav
153,192,136304,1,0,0:0:0:0:
256,192,136504,1,0,0:0:0:0:
358,192,136704,1,0,0:0:0:70:kick.wav
460,192,136704,1,0,0:0:0:70:hat.wav
51,192,136904,1,0,0:0:0:0:
153,192,137104,1,0,0:0:0:70:snare.wav
256,192,137104,1,0,0:0:0:0:
358,192,137304,1,0,0:0:0:70:kick.wav
460,192,137304,1,0,0:0:0:0:
51,192,137904,1,0,0:0:0:70:kick.wav
358,192,137904,1,0,0:0:0:0:
256,192,138104,1,0,0:0:0:0:
153,192,138304,1,0,0:0:0:70:kick.wav
460,192,138304,1,0,0:0:0:70:hat.wav
358,192,138504,1,0,0:0:0:0:
51,192,138704,1,0,0:0:0:70:snare.wav
256,192,138704,1,0,0:0:0:0:
51,192,139104,1,0,0:0:0:70:kick.wav
460,192,139104,1,0,0:0:0:70:hat.wav
153,192,139504,1,0,0:0:0:0:
256,192,139704,1,0,0:0:0:0:
51,192,139904,1,0,0:0:0:70:kick.wav
358,192,139904,1,0,0:0:0:70:hat.wav
153,192,140104,1,0,0:0:0:0:
256,192,140304,128,0,140504:0:0:0:70:snare.wav
460,192,140304,1,0,0:0:0:0:
51,192,140504,1,0,0:0:0:70:kick.wav
358,192,140704,128,0,140904:0:0:0:0:
153,192,140904,1,0,0:0:0:70:cowbell.wav
51,192,141104,1,0,0:0:0:70:kick.wav
460,192,141104,128,0,142704:0:0:0:70:hat.wav
51,192,141504,1,0,0:0:0:70:kick.wav
358,192,141504,1,0,0:0:0:70:hat.wav
153,192,141904,1,0,0:0:0:70:snare.wav
256,192,141904,1,0,0:0:0:0:
51,192,142304,1,0,0:0:0:70:kick.wav
358,192,142304,1,0,0:0:0:70:hat.wav
51,192,142704,128,0,144304:0:0:0:0:
153,192,143104,1,0,0:0:0:70:kick.wav
460,192,143104,1,0,0:0:0:70:hat.wav
256,192,143504,1,0,0:0:0:70:snare.wav
358,192,143504,1,0,0:0:0:0:
153,192,143704,1,0,0:0:0:70:kick.wav
256,192,144304,1,0,0:0:0:70:kick.wav
358,192,144304,128,0,145904:0:0:0:0:
51,192,144704,1,0,0:0:0:70:kick.wav
153,192,144704,1,0,0:0:0:70:hat.wav
51,192,145104,1,0,0:0:0:70:snare.wav
460,192,145104,1,0,0:0:0:0:
153,192,145504,1,0,0:0:0:70:kick.wav
256,192,145504,1,0,0:0:0:70:hat.wav
153,192,145904,128,0,147504:0:0:0:0:
256,192,146304,1,0,0:0:0:70:kick.wav
358,192,146304,1,0,0:0:0:70:hat.wav
51,192,146704,1,0,0:0:0:70:snare.wav
460,192,146704,1,0,0:0:0:0:
358,192,146904,1,0,0:0:0:70:kick.wav
51,192,147504,1,0,0:0:0:70:kick.wav
460,192,147504,128,0,149104:0:0:0:70:hat.wav
51,192,147904,1,0,0:0:0:70:kick.wav
358,192,147904,1,0,0:0:0:70:hat.wav
153,192,148304,1,0,0:0:0:70:snare.wav
256,192,148304,1,0,0:0:0:0:
51,192,148704,1,0,0:0:0:70:kick.wav
358,192,148704,1,0,0:0:0:70:hat.wav
51,192,149104,128,0,150704:0:0:0:0:
153,192,149504,1,0,0:0:0:70:kick.wav
460,192,149504,1,0,0:0:0:70:hat.wav
256,192,149904,1,0,0:0:0:70:snare.wav
358,192,149904,1,0,0:0:0:0:
153,192,150104,1,0,0:0:0:70:kick.wav
256,192,150704,1,0,0:0:0:70:kick.wav
460,192,150704,1,0,0:0:0:70:cymbal.wav
153,192,151104,1,0,0:0:0:70:kick.wav
460,192,151104,1,0,0:0:0:70:cymbal.wav
51,192,151504,1,0,0:0:0:70:kick.wav
256,192,151504,1,0,0:0:0:70:cymbal.wav
51,192,151904,1,0,0:0:0:70:kick.wav
358,192,151904,1,0,0:0:0:70:cymbal.wav
460,192,152304,128,0,152704:0:0:0:0:
153,192,152704,128,0,153104:0:0:0:0:
358,192,153104,128,0,153504:0:0:0:0:
153,192,153504,1,0,0:0:0:70:trap snare.wav
460,192,153504,1,0,0:0:0:70:cowbell.wav
256,192,153704,1,0,0:0:0:70:cowbell.wav
51,192,153904,1,0,0:0:0:70:strong kick.wav
460,192,153904,1,0,0:0:0:0:
153,192,154104,1,0,0:0:0:0:
256,192,154204,1,0,0:0:0:0:
358,192,154304,1,0,0:0:0:70:strong kick.wav
460,192,154304,1,0,0:0:0:70:cymbal.wav
51,192,154504,1,0,0:0:0:0:
153,192,154704,1,0,0:0:0:70:trap snare.wav
358,192,154704,1,0,0:0:0:70:cowbell.wav
256,192,154904,1,0,0:0:0:0:
51,192,155104,1,0,0:0:0:70:strong kick.wav
460,192,155104,1,0,0:0:0:70:hat.wav
153,192,155304,1,0,0:0:0:0:
460,192,155504,1,0,0:0:0:0:
358,192,155704,1,0,0:0:0:0:
256,192,155804,1,0,0:0:0:0:
51,192,155904,1,0,0:0:0:70:strong kick.wav
153,192,155904,1,0,0:0:0:70:hat.wav
460,192,156104,1,0,0:0:0:0:
153,192,156304,1,0,0:0:0:70:trap snare.wav
358,192,156304,1,0,0:0:0:70:cowbell.wav
256,192,156504,1,0,0:0:0:0:
460,192,156704,1,0,0:0:0:70:hat.wav
358,192,156904,1,0,0:0:0:0:
51,192,157104,1,0,0:0:0:70:strong kick.wav
256,192,157104,1,0,0:0:0:0:
153,192,157304,1,0,0:0:0:0:
256,192,157404,1,0,0:0:0:0:
358,192,157504,1,0,0:0:0:70:strong kick.wav
460,192,157504,1,0,0:0:0:70:hat.wav
51,192,157704,1,0,0:0:0:0:
153,192,157904,1,0,0:0:0:70:trap snare.wav
358,192,157904,1,0,0:0:0:70:cowbell.wav
256,192,158104,1,0,0:0:0:0:
51,192,158304,1,0,0:0:0:70:strong kick.wav
460,192,158304,1,0,0:0:0:70:hat.wav
153,192,158504,1,0,0:0:0:0:
358,192,158704,1,0,0:0:0:0:
256,192,158904,1,0,0:0:0:0:
51,192,159104,1,0,0:0:0:70:strong kick.wav
358,192,159104,1,0,0:0:0:70:hat.wav
153,192,159304,1,0,0:0:0:0:
51,192,159504,1,0,0:0:0:70:trap snare.wav
460,192,159504,1,0,0:0:0:70:cowbell.wav
358,192,159704,1,0,0:0:0:0:
153,192,159904,1,0,0:0:0:70:hat.wav
256,192,160104,1,0,0:0:0:0:
358,192,160504,1,0,0:0:0:0:
256,192,160604,1,0,0:0:0:0:
51,192,160704,1,0,0:0:0:70:strong kick.wav
153,192,160704,1,0,0:0:0:70:hat.wav
460,192,160904,1,0,0:0:0:0:
153,192,161104,1,0,0:0:0:70:trap snare.wav
358,192,161104,1,0,0:0:0:70:cowbell.wav
256,192,161304,1,0,0:0:0:0:
51,192,161504,1,0,0:0:0:70:strong kick.wav
460,192,161504,1,0,0:0:0:70:hat.wav
358,192,161704,1,0,0:0:0:0:
51,192,161904,1,0,0:0:0:0:
153,192,162104,1,0,0:0:0:0:
256,192,162204,1,0,0:0:0:0:
358,192,162304,1,0,0:0:0:70:strong kick.wav
460,192,162304,1,0,0:0:0:70:hat.wav
51,192,162504,1,0,0:0:0:0:
153,192,162704,1,0,0:0:0:70:trap snare.wav
358,192,162704,1,0,0:0:0:70:cowbell.wav
256,192,162904,1,0,0:0:0:0:
51,192,163104,1,0,0:0:0:70:hat.wav
153,192,163304,1,0,0:0:0:0:
256,192,163504,1,0,0:0:0:70:strong kick.wav
460,192,163504,1,0,0:0:0:0:
358,192,163704,1,0,0:0:0:0:
256,192,163804,1,0,0:0:0:0:
51,192,163904,1,0,0:0:0:70:strong kick.wav
153,192,163904,1,0,0:0:0:70:hat.wav
460,192,164104,1,0,0:0:0:0:
153,192,164304,1,0,0:0:0:70:trap snare.wav
358,192,164304,1,0,0:0:0:70:cowbell.wav
256,192,164504,1,0,0:0:0:0:
51,192,164704,1,0,0:0:0:70:strong kick.wav
460,192,164704,1,0,0:0:0:70:hat.wav
358,192,164904,1,0,0:0:0:0:
153,192,165104,1,0,0:0:0:0:
256,192,165304,1,0,0:0:0:0:
51,192,165504,1,0,0:0:0:70:strong kick.wav
460,192,165504,1,0,0:0:0:70:hat.wav
358,192,165704,1,0,0:0:0:70:cowbell.wav
256,192,165804,1,0,0:0:0:70:cowbell.wav
153,192,165904,1,0,0:0:0:70:trap snare.wav
460,192,166104,1,0,0:0:0:70:strong kick.wav
51,192,166304,1,0,0:0:0:70:trap snare.wav
358,192,166304,1,0,0:0:0:70:hat.wav
256,192,166504,1,0,0:0:0:0:
153,192,166904,1,0,0:0:0:0:
256,192,167004,1,0,0:0:0:0:
358,192,167104,1,0,0:0:0:70:strong kick.wav
460,192,167104,1,0,0:0:0:70:cymbal.wav
153,192,167304,1,0,0:0:0:0:
51,192,167504,1,0,0:0:0:70:trap snare.wav
358,192,167504,1,0,0:0:0:70:cowbell.wav
153,192,167804,1,0,0:0:0:70:strong kick.wav
460,192,167804,1,0,0:0:0:0:
51,192,168104,1,0,0:0:0:70:strong kick.wav
256,192,168104,1,0,0:0:0:0:
460,192,168304,1,0,0:0:0:70:hat.wav
358,192,168504,1,0,0:0:0:0:
256,192,168604,1,0,0:0:0:0:
51,192,168704,1,0,0:0:0:70:strong kick.wav
153,192,168704,1,0,0:0:0:70:hat.wav
358,192,168904,1,0,0:0:0:0:
153,192,169104,1,0,0:0:0:70:trap snare.wav
460,192,169104,1,0,0:0:0:70:cowbell.wav
51,192,169404,1,0,0:0:0:70:strong kick.wav
358,192,169404,1,0,0:0:0:0:
256,192,169704,1,0,0:0:0:70:strong kick.wav
460,192,169704,1,0,0:0:0:0:
51,192,169904,1,0,0:0:0:70:strong kick.wav
460,192,169904,1,0,0:0:0:70:hat.wav
153,192,170104,1,0,0:0:0:0:
256,192,170204,1,0,0:0:0:0:
358,192,170304,1,0,0:0:0:70:strong kick.wav
460,192,170304,1,0,0:0:0:70:hat.wav
153,192,170504,1,0,0:0:0:0:
51,192,170704,1,0,0:0:0:70:trap snare.wav
358,192,170704,1,0,0:0:0:70:cowbell.wav
153,192,171004,1,0,0:0:0:70:strong kick.wav
460,192,171004,1,0,0:0:0:0:
51,192,171304,1,0,0:0:0:70:strong kick.wav
256,192,171304,1,0,0:0:0:0:
460,192,171504,1,0,0:0:0:70:hat.wav
256,192,171704,1,0,0:0:0:0:
51,192,171904,1,0,0:0:0:70:strong kick.wav
358,192,171904,1,0,0:0:0:70:hat.wav
153,192,172104,1,0,0:0:0:0:
51,192,172304,1,0,0:0:0:70:trap snare.wav
460,192,172304,1,0,0:0:0:70:cowbell.wav
153,192,172604,1,0,0:0:0:70:strong kick.wav
358,192,172604,1,0,0:0:0:0:
51,192,172904,1,0,0:0:0:70:strong kick.wav
256,192,172904,1,0,0:0:0:0:
358,192,173304,1,0,0:0:0:70:strong kick.wav
256,192,173404,1,0,0:0:0:0:
51,192,173504,1,0,0:0:0:70:strong kick.wav
153,192,173504,1,0,0:0:0:70:cymbal.wav
358,192,173704,1,0,0:0:0:0:
153,192,173904,1,0,0:0:0:70:trap snare.wav
460,192,173904,1,0,0:0:0:70:cowbell.wav
51,192,174204,1,0,0:0:0:70:strong kick.wav
358,192,174204,1,0,0:0:0:0:
256,192,174504,1,0,0:0:0:70:strong kick.wav
460,192,174504,1,0,0:0:0:0:
51,192,174704,1,0,0:0:0:70:strong kick.wav
460,192,174704,1,0,0:0:0:70:hat.wav
153,192,174904,1,0,0:0:0:0:
256,192,175004,1,0,0:0:0:0:
358,192,175104,1,0,0:0:0:70:strong kick.wav
460,192,175104,1,0,0:0:0:70:hat.wav
153,192,175304,1,0,0:0:0:0:
51,192,175504,1,0,0:0:0:70:trap snare.wav
358,192,175504,1,0,0:0:0:70:cowbell.wav
153,192,175804,1,0,0:0:0:70:strong kick.wav
460,192,175804,1,0,0:0:0:0:
51,192,176104,1,0,0:0:0:70:strong kick.wav
256,192,176104,1,0,0:0:0:0:
51,192,176304,1,0,0:0:0:70:strong kick.wav
460,192,176304,1,0,0:0:0:70:hat.wav
358,192,176504,1,0,0:0:0:0:
256,192,176604,1,0,0:0:0:0:
51,192,176704,1,0,0:0:0:70:strong kick.wav
153,192,176704,1,0,0:0:0:70:hat.wav
358,192,176904,1,0,0:0:0:0:
256,192,177004,1,0,0:0:0:0:
153,192,177104,1,0,0:0:0:70:trap snare.wav
460,192,177104,1,0,0:0:0:70:cowbell.wav
51,192,177404,1,0,0:0:0:70:strong kick.wav
358,192,177404,1,0,0:0:0:0:
256,192,177704,1,0,0:0:0:70:strong kick.wav
460,192,177704,1,0,0:0:0:0:
51,192,177904,1,0,0:0:0:70:strong kick.wav
460,192,177904,1,0,0:0:0:0:
153,192,178104,1,0,0:0:0:0:
460,192,178304,1,0,0:0:0:0:
358,192,178504,1,0,0:0:0:0:
51,192,178704,1,0,0:0:0:70:snap.wav
153,192,178704,1,0,0:0:0:0:
256,192,178904,1,0,0:0:0:0:
358,192,179104,1,0,0:0:0:0:
51,192,179304,1,0,0:0:0:0:
