osu file format v14

[General]
AudioFilename: audio.mp3
AudioLeadIn: 0
PreviewTime: 153904
Countdown: 0
SampleSet: Soft
StackLeniency: 0.7
Mode: 3
LetterboxInBreaks: 0
EpilepsyWarning: 1
SpecialStyle: 0
WidescreenStoryboard: 1

[Editor]
Bookmarks: 304,13104,25904,38704,51504,64304,77104,89904,102704,115504,128304,141104,153904,166704
DistanceSpacing: 1
BeatDivisor: 8
GridSize: 32
TimelineZoom: 2.1

[Metadata]
Title:Rainy Girl
TitleUnicode:レイニーガール
Artist:HoneyComeBear
ArtistUnicode:ハニカムベアー
Creator:chocomilku-
Version:4K Hard
Source:
Tags:mg mpg mappers' guild featured artist fa HCB Kaako Monkey kawaii future bass electronic jpop j-pop japanese pop female vocalist vocals hybrid single above and beyond priority quest
BeatmapID:4464978
BeatmapSetID:2015361

[Difficulty]
HPDrainRate:7.5
CircleSize:4
OverallDifficulty:7.2
ApproachRate:5
SliderMultiplier:1.4
SliderTickRate:1

[Events]
//Background and Video events
0,0,"bg.jpg",0,0
//Break Periods
//Storyboard Layer 0 (Background)
Sprite,Background,Centre,"bg.jpg",320,240 F,0,0,,0
//Storyboard Layer 1 (Fail)
//Storyboard Layer 2 (Pass)
//Storyboard Layer 3 (Foreground)
Sprite,Foreground,Centre,"sb/miniFont/005b.png",285,431.75 S,0,64704,,0.5 F,0,64504,64704,0,1 F,0,89703,89903,1,0
Sprite,Foreground,Centre,"sb/miniFont/0034.png",293,431.75 S,0,64704,,0.5 F,0,64504,64704,0,1 F,0,89703,89903,1,0
Sprite,Foreground,Centre,"sb/miniFont/004b.png",302.25,431.75 S,0,64704,,0.5 F,0,64504,64704,0,1 F,0,89703,89903,1,0
Sprite,Foreground,Centre,"sb/miniFont/0048.png",318.5,431.75 S,0,64704,,0.5 F,0,64504,64704,0,1 F,0,89703,89903,1,0
Sprite,Foreground,Centre,"sb/miniFont/0061.png",327.75,431.75 S,0,64704,,0.5 F,0,64504,64704,0,1 F,0,89703,89903,1,0
Sprite,Foreground,Centre,"sb/miniFont/0072.png",337.25,431.75 S,0,64704,,0.5 F,0,64504,64704,0,1 F,0,89703,89903,1,0
Sprite,Foreground,Centre,"sb/miniFont/0064.png",346.75,431.75 S,0,64704,,0.5 F,0,64504,64704,0,1 F,0,89703,89903,1,0
Sprite,Foreground,Centre,"sb/miniFont/005d.png",355,431.75 S,0,64704,,0.5 F,0,64504,64704,0,1 F,0,89703,89903,1,0
Sprite,Foreground,Centre,"sb/miniFont/005b.png",285,431.75 S,0,154304,,0.5 F,0,154104,154304,0,1 F,0,177704,177904,1,0
Sprite,Foreground,Centre,"sb/miniFont/0034.png",293,431.75 S,0,154304,,0.5 F,0,154104,154304,0,1 F,0,177704,177904,1,0
Sprite,Foreground,Centre,"sb/miniFont/004b.png",302.25,431.75 S,0,154304,,0.5 F,0,154104,154304,0,1 F,0,177704,177904,1,0
Sprite,Foreground,Centre,"sb/miniFont/0048.png",318.5,431.75 S,0,154304,,0.5 F,0,154104,154304,0,1 F,0,177704,177904,1,0
Sprite,Foreground,Centre,"sb/miniFont/0061.png",327.75,431.75 S,0,154304,,0.5 F,0,154104,154304,0,1 F,0,177704,177904,1,0
Sprite,Foreground,Centre,"sb/miniFont/0072.png",337.25,431.75 S,0,154304,,0.5 F,0,154104,154304,0,1 F,0,177704,177904,1,0
Sprite,Foreground,Centre,"sb/miniFont/0064.png",346.75,431.75 S,0,154304,,0.5 F,0,154104,154304,0,1 F,0,177704,177904,1,0
Sprite,Foreground,Centre,"sb/miniFont/005d.png",355,431.75 S,0,154304,,0.5 F,0,154104,154304,0,1 F,0,177704,177904,1,0
Sprite,Foreground,Centre,"sb/p.png",426.75,240 V,0,0,,207.095,854 F,19,24854,25054,0,0.08 F,15,25054,25254,0.08,0 C,0,0,,247,239,158 P,0,24854,25254,A
Sprite,Foreground,Centre,"sb/p.png",213.25,240 V,0,0,,207.095,854 F,19,24904,25104,0,0.08 F,15,25104,25304,0.08,0 C,0,0,,247,239,158 P,0,24904,25304,A
Sprite,Foreground,Centre,"sb/p.png",-0.25,240 V,0,0,,207.095,854 F,19,36904,37104,0,0.08 F,15,37104,37304,0.08,0 C,0,0,,247,239,158 P,0,36904,37304,A
Sprite,Foreground,Centre,"sb/p.png",213.25,240 V,0,0,,207.095,854 F,19,37004,37204,0,0.08 F,15,37204,37404,0.08,0 C,0,0,,247,239,158 P,0,37004,37404,A
Sprite,Foreground,Centre,"sb/p.png",426.75,240 V,0,0,,207.095,854 F,19,37104,37304,0,0.08 F,15,37304,37504,0.08,0 C,0,0,,247,239,158 P,0,37104,37504,A
Sprite,Foreground,Centre,"sb/p.png",640.25,240 V,0,0,,207.095,854 F,19,37104,37304,0,0.08 F,15,37304,37504,0.08,0 C,0,0,,247,239,158 P,0,37104,37504,A
Sprite,Foreground,Centre,"sb/p.png",640.25,240 V,0,0,,207.095,854 F,19,37304,37504,0,0.08 F,15,37504,37704,0.08,0 C,0,0,,247,239,158 P,0,37304,37704,A
Sprite,Foreground,Centre,"sb/p.png",426.75,240 V,0,0,,207.095,854 F,19,37404,37604,0,0.08 F,15,37604,37804,0.08,0 C,0,0,,247,239,158 P,0,37404,37804,A
Sprite,Foreground,Centre,"sb/p.png",-0.25,240 V,0,0,,207.095,854 F,19,37504,37704,0,0.08 F,15,37704,37904,0.08,0 C,0,0,,247,239,158 P,0,37504,37904,A
Sprite,Foreground,Centre,"sb/p.png",213.25,240 V,0,0,,207.095,854 F,19,37504,37704,0,0.08 F,15,37704,37904,0.08,0 C,0,0,,247,239,158 P,0,37504,37904,A
Sprite,Foreground,Centre,"sb/p.png",-0.25,240 V,0,0,,207.095,854 F,19,37704,37904,0,0.08 F,15,37904,38104,0.08,0 C,0,0,,247,239,158 P,0,37704,38104,A
Sprite,Foreground,Centre,"sb/p.png",213.25,240 V,0,0,,207.095,854 F,19,37837,38037,0,0.08 F,15,38037,38237,0.08,0 C,0,0,,247,239,158 P,0,37837,38237,A
Sprite,Foreground,Centre,"sb/p.png",426.75,240 V,0,0,,207.095,854 F,19,37970,38170,0,0.08 F,15,38170,38370,0.08,0 C,0,0,,247,239,158 P,0,37970,38370,A
Sprite,Foreground,Centre,"sb/p.png",640.25,240 V,0,0,,207.095,854 F,19,38104,38304,0,0.08 F,15,38304,38504,0.08,0 C,0,0,,247,239,158 P,0,38104,38504,A
Sprite,Foreground,Centre,"sb/p.png",-0.25,240 V,0,0,,207.095,854 F,19,38154,38354,0,0.08 F,15,38354,38554,0.08,0 C,0,0,,247,239,158 P,0,38154,38554,A
Sprite,Foreground,Centre,"sb/p.png",213.25,240 V,0,0,,207.095,854 F,19,38204,38404,0,0.08 F,15,38404,38604,0.08,0 C,0,0,,247,239,158 P,0,38204,38604,A
Sprite,Foreground,Centre,"sb/p.png",426.75,240 V,0,0,,207.095,854 F,19,38254,38454,0,0.08 F,15,38454,38654,0.08,0 C,0,0,,247,239,158 P,0,38254,38654,A
Sprite,Foreground,Centre,"sb/p.png",640.25,240 V,0,0,,207.095,854 F,19,38304,38504,0,0.08 F,15,38504,38704,0.08,0 C,0,0,,247,239,158 P,0,38304,38704,A
Sprite,Foreground,Centre,"sb/p.png",-0.25,240 V,0,0,,207.095,854 F,19,50504,50704,0,0.08 F,15,50704,50904,0.08,0 C,0,0,,247,239,158 P,0,50504,50904,A
Sprite,Foreground,Centre,"sb/p.png",426.75,240 V,0,0,,207.095,854 F,19,50504,50704,0,0.08 F,15,50704,50904,0.08,0 C,0,0,,247,239,158 P,0,50504,50904,A
Sprite,Foreground,Centre,"sb/p.png",-0.25,240 V,0,0,,207.095,854 F,19,50904,51104,0,0.08 F,15,51104,51304,0.08,0 C,0,0,,247,239,158 P,0,50904,51304,A
Sprite,Foreground,Centre,"sb/p.png",640.25,240 V,0,0,,207.095,854 F,19,50904,51104,0,0.08 F,15,51104,51304,0.08,0 C,0,0,,247,239,158 P,0,50904,51304,A
Sprite,Foreground,Centre,"sb/p.png",-0.25,240 V,0,0,,207.095,854 F,19,60904,61104,0,0.08 F,15,61104,61304,0.08,0 C,0,0,,247,239,158 P,0,60904,61304,A
Sprite,Foreground,Centre,"sb/p.png",213.25,240 V,0,0,,207.095,854 F,19,60904,61104,0,0.08 F,15,61104,61304,0.08,0 C,0,0,,247,239,158 P,0,60904,61304,A
Sprite,Foreground,Centre,"sb/p.png",640.25,240 V,0,0,,207.095,854 F,19,60904,61104,0,0.08 F,15,61104,61304,0.08,0 C,0,0,,247,239,158 P,0,60904,61304,A
Sprite,Foreground,Centre,"sb/p.png",-0.25,240 V,0,0,,207.095,854 F,19,61304,61504,0,0.08 F,15,61504,61704,0.08,0 C,0,0,,247,239,158 P,0,61304,61704,A
Sprite,Foreground,Centre,"sb/p.png",426.75,240 V,0,0,,207.095,854 F,19,61304,61504,0,0.08 F,15,61504,61704,0.08,0 C,0,0,,247,239,158 P,0,61304,61704,A
Sprite,Foreground,Centre,"sb/p.png",640.25,240 V,0,0,,207.095,854 F,19,61304,61504,0,0.08 F,15,61504,61704,0.08,0 C,0,0,,247,239,158 P,0,61304,61704,A
Sprite,Foreground,Centre,"sb/p.png",213.25,240 V,0,0,,207.095,854 F,19,61704,61904,0,0.08 F,15,61904,62104,0.08,0 C,0,0,,247,239,158 P,0,61704,62104,A
Sprite,Foreground,Centre,"sb/p.png",426.75,240 V,0,0,,207.095,854 F,19,61704,61904,0,0.08 F,15,61904,62104,0.08,0 C,0,0,,247,239,158 P,0,61704,62104,A
Sprite,Foreground,Centre,"sb/p.png",640.25,240 V,0,0,,207.095,854 F,19,61704,61904,0,0.08 F,15,61904,62104,0.08,0 C,0,0,,247,239,158 P,0,61704,62104,A
Sprite,Foreground,Centre,"sb/p.png",-0.25,240 V,0,0,,207.095,854 F,19,62104,62304,0,0.08 F,15,62304,62504,0.08,0 C,0,0,,247,239,158 P,0,62104,62504,A
Sprite,Foreground,Centre,"sb/p.png",213.25,240 V,0,0,,207.095,854 F,19,62104,62304,0,0.08 F,15,62304,62504,0.08,0 C,0,0,,247,239,158 P,0,62104,62504,A
Sprite,Foreground,Centre,"sb/p.png",426.75,240 V,0,0,,207.095,854 F,19,62104,62304,0,0.08 F,15,62304,62504,0.08,0 C,0,0,,247,239,158 P,0,62104,62504,A
Sprite,Foreground,Centre,"sb/p.png",426.75,240 V,0,0,,207.095,854 F,19,75904,76104,0,0.08 F,15,76104,76304,0.08,0 C,0,0,,247,239,158 P,0,75904,76304,A
Sprite,Foreground,Centre,"sb/p.png",213.25,240 V,0,0,,207.095,854 F,19,76004,76204,0,0.08 F,15,76204,76404,0.08,0 C,0,0,,247,239,158 P,0,76004,76404,A
Sprite,Foreground,Centre,"sb/p.png",426.75,240 V,0,0,,207.095,854 F,19,76104,76304,0,0.08 F,15,76304,76504,0.08,0 C,0,0,,247,239,158 P,0,76104,76504,A
Sprite,Foreground,Centre,"sb/p.png",640.25,240 V,0,0,,207.095,854 F,19,76104,76304,0,0.08 F,15,76304,76504,0.08,0 C,0,0,,247,239,158 P,0,76104,76504,A
Sprite,Foreground,Centre,"sb/p.png",213.25,240 V,0,0,,207.095,854 F,19,76304,76504,0,0.08 F,15,76504,76704,0.08,0 C,0,0,,247,239,158 P,0,76304,76704,A
Sprite,Foreground,Centre,"sb/p.png",-0.25,240 V,0,0,,207.095,854 F,19,76504,76704,0,0.08 F,15,76704,76904,0.08,0 C,0,0,,247,239,158 P,0,76504,76904,A
Sprite,Foreground,Centre,"sb/p.png",640.25,240 V,0,0,,207.095,854 F,19,76504,76704,0,0.08 F,15,76704,76904,0.08,0 C,0,0,,247,239,158 P,0,76504,76904,A
Sprite,Foreground,Centre,"sb/p.png",213.25,240 V,0,0,,207.095,854 F,19,101104,101304,0,0.08 F,15,101304,101504,0.08,0 C,0,0,,247,239,158 P,0,101104,101504,A
Sprite,Foreground,Centre,"sb/p.png",426.75,240 V,0,0,,207.095,854 F,19,101504,101704,0,0.08 F,15,101704,101904,0.08,0 C,0,0,,247,239,158 P,0,101504,101904,A
Sprite,Foreground,Centre,"sb/p.png",213.25,240 V,0,0,,207.095,854 F,19,101654,101854,0,0.08 F,15,101854,102054,0.08,0 C,0,0,,247,239,158 P,0,101654,102054,A
Sprite,Foreground,Centre,"sb/p.png",426.75,240 V,0,0,,207.095,854 F,19,101704,101904,0,0.08 F,15,101904,102104,0.08,0 C,0,0,,247,239,158 P,0,101704,102104,A
Sprite,Foreground,Centre,"sb/p.png",640.25,240 V,0,0,,207.095,854 F,19,113704,113904,0,0.08 F,15,113904,114104,0.08,0 C,0,0,,247,239,158 P,0,113704,114104,A
Sprite,Foreground,Centre,"sb/p.png",426.75,240 V,0,0,,207.095,854 F,19,113804,114004,0,0.08 F,15,114004,114204,0.08,0 C,0,0,,247,239,158 P,0,113804,114204,A
Sprite,Foreground,Centre,"sb/p.png",-0.25,240 V,0,0,,207.095,854 F,19,113904,114104,0,0.08 F,15,114104,114304,0.08,0 C,0,0,,247,239,158 P,0,113904,114304,A
Sprite,Foreground,Centre,"sb/p.png",213.25,240 V,0,0,,207.095,854 F,19,113904,114104,0,0.08 F,15,114104,114304,0.08,0 C,0,0,,247,239,158 P,0,113904,114304,A
Sprite,Foreground,Centre,"sb/p.png",-0.25,240 V,0,0,,207.095,854 F,19,114104,114304,0,0.08 F,15,114304,114504,0.08,0 C,0,0,,247,239,158 P,0,114104,114504,A
Sprite,Foreground,Centre,"sb/p.png",213.25,240 V,0,0,,207.095,854 F,19,114204,114404,0,0.08 F,15,114404,114604,0.08,0 C,0,0,,247,239,158 P,0,114204,114604,A
Sprite,Foreground,Centre,"sb/p.png",426.75,240 V,0,0,,207.095,854 F,19,114304,114504,0,0.08 F,15,114504,114704,0.08,0 C,0,0,,247,239,158 P,0,114304,114704,A
Sprite,Foreground,Centre,"sb/p.png",640.25,240 V,0,0,,207.095,854 F,19,114304,114504,0,0.08 F,15,114504,114704,0.08,0 C,0,0,,247,239,158 P,0,114304,114704,A
Sprite,Foreground,Centre,"sb/p.png",640.25,240 V,0,0,,207.095,854 F,19,114504,114704,0,0.08 F,15,114704,114904,0.08,0 C,0,0,,247,239,158 P,0,114504,114904,A
Sprite,Foreground,Centre,"sb/p.png",426.75,240 V,0,0,,207.095,854 F,19,114637,114837,0,0.08 F,15,114837,115037,0.08,0 C,0,0,,247,239,158 P,0,114637,115037,A
Sprite,Foreground,Centre,"sb/p.png",213.25,240 V,0,0,,207.095,854 F,19,114770,114970,0,0.08 F,15,114970,115170,0.08,0 C,0,0,,247,239,158 P,0,114770,115170,A
Sprite,Foreground,Centre,"sb/p.png",-0.25,240 V,0,0,,207.095,854 F,19,114904,115104,0,0.08 F,15,115104,115304,0.08,0 C,0,0,,247,239,158 P,0,114904,115304,A
Sprite,Foreground,Centre,"sb/p.png",640.25,240 V,0,0,,207.095,854 F,19,114954,115154,0,0.08 F,15,115154,115354,0.08,0 C,0,0,,247,239,158 P,0,114954,115354,A
Sprite,Foreground,Centre,"sb/p.png",426.75,240 V,0,0,,207.095,854 F,19,115004,115204,0,0.08 F,15,115204,115404,0.08,0 C,0,0,,247,239,158 P,0,115004,115404,A
Sprite,Foreground,Centre,"sb/p.png",213.25,240 V,0,0,,207.095,854 F,19,115054,115254,0,0.08 F,15,115254,115454,0.08,0 C,0,0,,247,239,158 P,0,115054,115454,A
Sprite,Foreground,Centre,"sb/p.png",-0.25,240 V,0,0,,207.095,854 F,19,115104,115304,0,0.08 F,15,115304,115504,0.08,0 C,0,0,,247,239,158 P,0,115104,115504,A
Sprite,Foreground,Centre,"sb/p.png",213.25,240 V,0,0,,207.095,854 F,19,127304,127504,0,0.08 F,15,127504,127704,0.08,0 C,0,0,,247,239,158 P,0,127304,127704,A
Sprite,Foreground,Centre,"sb/p.png",640.25,240 V,0,0,,207.095,854 F,19,127304,127504,0,0.08 F,15,127504,127704,0.08,0 C,0,0,,247,239,158 P,0,127304,127704,A
Sprite,Foreground,Centre,"sb/p.png",-0.25,240 V,0,0,,207.095,854 F,19,127704,127904,0,0.08 F,15,127904,128104,0.08,0 C,0,0,,247,239,158 P,0,127704,128104,A
Sprite,Foreground,Centre,"sb/p.png",640.25,240 V,0,0,,207.095,854 F,19,127704,127904,0,0.08 F,15,127904,128104,0.08,0 C,0,0,,247,239,158 P,0,127704,128104,A
Sprite,Foreground,Centre,"sb/p.png",-0.25,240 V,0,0,,207.095,854 F,19,150504,150704,0,0.08 F,15,150704,150904,0.08,0 C,0,0,,247,239,158 P,0,150504,150904,A
Sprite,Foreground,Centre,"sb/p.png",426.75,240 V,0,0,,207.095,854 F,19,150504,150704,0,0.08 F,15,150704,150904,0.08,0 C,0,0,,247,239,158 P,0,150504,150904,A
Sprite,Foreground,Centre,"sb/p.png",640.25,240 V,0,0,,207.095,854 F,19,150504,150704,0,0.08 F,15,150704,150904,0.08,0 C,0,0,,247,239,158 P,0,150504,150904,A
Sprite,Foreground,Centre,"sb/p.png",-0.25,240 V,0,0,,207.095,854 F,19,150904,151104,0,0.08 F,15,151104,151304,0.08,0 C,0,0,,247,239,158 P,0,150904,151304,A
Sprite,Foreground,Centre,"sb/p.png",213.25,240 V,0,0,,207.095,854 F,19,150904,151104,0,0.08 F,15,151104,151304,0.08,0 C,0,0,,247,239,158 P,0,150904,151304,A
Sprite,Foreground,Centre,"sb/p.png",640.25,240 V,0,0,,207.095,854 F,19,150904,151104,0,0.08 F,15,151104,151304,0.08,0 C,0,0,,247,239,158 P,0,150904,151304,A
Sprite,Foreground,Centre,"sb/p.png",-0.25,240 V,0,0,,207.095,854 F,19,151304,151504,0,0.08 F,15,151504,151704,0.08,0 C,0,0,,247,239,158 P,0,151304,151704,A
Sprite,Foreground,Centre,"sb/p.png",213.25,240 V,0,0,,207.095,854 F,19,151304,151504,0,0.08 F,15,151504,151704,0.08,0 C,0,0,,247,239,158 P,0,151304,151704,A
Sprite,Foreground,Centre,"sb/p.png",426.75,240 V,0,0,,207.095,854 F,19,151304,151504,0,0.08 F,15,151504,151704,0.08,0 C,0,0,,247,239,158 P,0,151304,151704,A
Sprite,Foreground,Centre,"sb/p.png",213.25,240 V,0,0,,207.095,854 F,19,151704,151904,0,0.08 F,15,151904,152104,0.08,0 C,0,0,,247,239,158 P,0,151704,152104,A
Sprite,Foreground,Centre,"sb/p.png",426.75,240 V,0,0,,207.095,854 F,19,151704,151904,0,0.08 F,15,151904,152104,0.08,0 C,0,0,,247,239,158 P,0,151704,152104,A
Sprite,Foreground,Centre,"sb/p.png",640.25,240 V,0,0,,207.095,854 F,19,151704,151904,0,0.08 F,15,151904,152104,0.08,0 C,0,0,,247,239,158 P,0,151704,152104,A
Sprite,Foreground,Centre,"sb/p.png",213.25,240 V,0,0,,207.095,854 F,19,165504,165704,0,0.08 F,15,165704,165904,0.08,0 C,0,0,,247,239,158 P,0,165504,165904,A
Sprite,Foreground,Centre,"sb/p.png",426.75,240 V,0,0,,207.095,854 F,19,165604,165804,0,0.08 F,15,165804,166004,0.08,0 C,0,0,,247,239,158 P,0,165604,166004,A
Sprite,Foreground,Centre,"sb/p.png",-0.25,240 V,0,0,,207.095,854 F,19,165704,165904,0,0.08 F,15,165904,166104,0.08,0 C,0,0,,247,239,158 P,0,165704,166104,A
Sprite,Foreground,Centre,"sb/p.png",213.25,240 V,0,0,,207.095,854 F,19,165704,165904,0,0.08 F,15,165904,166104,0.08,0 C,0,0,,247,239,158 P,0,165704,166104,A
Sprite,Foreground,Centre,"sb/p.png",426.75,240 V,0,0,,207.095,854 F,19,165904,166104,0,0.08 F,15,166104,166304,0.08,0 C,0,0,,247,239,158 P,0,165904,166304,A
Sprite,Foreground,Centre,"sb/p.png",-0.25,240 V,0,0,,207.095,854 F,19,166104,166304,0,0.08 F,15,166304,166504,0.08,0 C,0,0,,247,239,158 P,0,166104,166504,A
Sprite,Foreground,Centre,"sb/p.png",640.25,240 V,0,0,,207.095,854 F,19,166104,166304,0,0.08 F,15,166304,166504,0.08,0 C,0,0,,247,239,158 P,0,166104,166504,A
Sprite,Foreground,Centre,"sb/p.png",640.25,240 V,0,0,,207.095,854 F,19,177704,177904,0,0.08 F,15,177904,178104,0.08,0 C,0,0,,247,239,158 P,0,177704,178104,A
Sprite,Foreground,Centre,"sb/p.png",426.75,240 V,0,0,,207.095,854 F,19,177904,178104,0,0.08 F,15,178104,178304,0.08,0 C,0,0,,247,239,158 P,0,177904,178304,A
Sprite,Foreground,Centre,"sb/p.png",-0.25,240 V,0,0,,207.095,854 F,19,178104,178304,0,0.08 F,15,178304,178504,0.08,0 C,0,0,,247,239,158 P,0,178104,178504,A
Sprite,Foreground,Centre,"sb/p.png",213.25,240 V,0,0,,207.095,854 F,19,178304,178504,0,0.08 F,15,178504,178704,0.08,0 C,0,0,,247,239,158 P,0,178304,178704,A
Sprite,Foreground,Centre,"sb/p.png",426.75,240 V,0,0,,207.095,854 F,19,178504,178704,0,0.08 F,15,178704,178904,0.08,0 C,0,0,,247,239,158 P,0,178504,178904,A
Sprite,Foreground,Centre,"sb/p.png",640.25,240 V,0,0,,207.095,854 F,19,178504,178704,0,0.08 F,15,178704,178904,0.08,0 C,0,0,,247,239,158 P,0,178504,178904,A
Sprite,Foreground,Centre,"sb/p.png",213.25,240 V,0,0,,207.095,854 F,19,178704,178904,0,0.08 F,15,178904,179104,0.08,0 C,0,0,,247,239,158 P,0,178704,179104,A
Sprite,Foreground,Centre,"sb/p.png",-0.25,240 V,0,0,,207.095,854 F,19,178904,179104,0,0.08 F,15,179104,179304,0.08,0 C,0,0,,247,239,158 P,0,178904,179304,A
Sprite,Foreground,Centre,"sb/p.png",640.25,240 V,0,0,,207.095,854 F,19,179104,179304,0,0.08 F,15,179304,179504,0.08,0 C,0,0,,247,239,158 P,0,179104,179504,A
//Storyboard Layer 4 (Overlay)
Sprite,Overlay,Centre,"sb/ripple.png",164.9471,328 S,22,40104,40504,0,0.85 S,0,40504,40904,0.85,1 F,17,40104,40304,0,0.85 F,17,40304,40904,0.85,0
Sprite,Overlay,Centre,"sb/ripple.png",369.5272,256 S,22,41704,42104,0,0.85 S,0,42104,42504,0.85,1 F,17,41704,41904,0,0.85 F,17,41904,42504,0.85,0
Sprite,Overlay,Centre,"sb/ripple.png",62.51192,256 S,22,43304,43704,0,0.85 S,0,43704,44104,0.85,1 F,17,43304,43504,0,0.85 F,17,43504,44104,0.85,0
Sprite,Overlay,Centre,"sb/ripple.png",-86.93678,223 S,22,44904,45304,0,0.85 S,0,45304,45704,0.85,1 F,17,44904,45104,0,0.85 F,17,45104,45704,0.85,0
Sprite,Overlay,Centre,"sb/ripple.png",324.7932,176 S,22,46504,46904,0,0.85 S,0,46904,47304,0.85,1 F,17,46504,46704,0,0.85 F,17,46704,47304,0.85,0
Sprite,Overlay,Centre,"sb/ripple.png",257.678,230 S,22,48104,48504,0,0.85 S,0,48504,48904,0.85,1 F,17,48104,48304,0,0.85 F,17,48304,48904,0.85,0
Sprite,Overlay,Centre,"sb/ripple.png",-28.57271,231 S,22,49704,50104,0,0.85 S,0,50104,50504,0.85,1 F,17,49704,49904,0,0.85 F,17,49904,50504,0.85,0
Sprite,Overlay,Centre,"sb/ripple.png",537.3107,108 S,22,49704,50104,0,0.85 S,0,50104,50504,0.85,1 F,17,49704,49904,0,0.85 F,17,49904,50504,0.85,0
Sprite,Overlay,Centre,"sb/ripple.png",349.384,378 S,22,116904,117304,0,0.85 S,0,117304,117704,0.85,1 F,17,116904,117104,0,0.85 F,17,117104,117704,0.85,0
Sprite,Overlay,Centre,"sb/ripple.png",175.4218,188 S,22,118504,118904,0,0.85 S,0,118904,119304,0.85,1 F,17,118504,118704,0,0.85 F,17,118704,119304,0.85,0
Sprite,Overlay,Centre,"sb/ripple.png",572.5901,337 S,22,120104,120504,0,0.85 S,0,120504,120904,0.85,1 F,17,120104,120304,0,0.85 F,17,120304,120904,0.85,0
Sprite,Overlay,Centre,"sb/ripple.png",535.2289,109 S,22,121704,122104,0,0.85 S,0,122104,122504,0.85,1 F,17,121704,121904,0,0.85 F,17,121904,122504,0.85,0
Sprite,Overlay,Centre,"sb/ripple.png",170.5624,247 S,22,123304,123704,0,0.85 S,0,123704,124104,0.85,1 F,17,123304,123504,0,0.85 F,17,123504,124104,0.85,0
Sprite,Overlay,Centre,"sb/ripple.png",334.087,292 S,22,124904,125304,0,0.85 S,0,125304,125704,0.85,1 F,17,124904,125104,0,0.85 F,17,125104,125704,0.85,0
Sprite,Overlay,Centre,"sb/ripple.png",-10.2451,122 S,22,126504,126904,0,0.85 S,0,126904,127304,0.85,1 F,17,126504,126704,0,0.85 F,17,126704,127304,0.85,0
Sprite,Overlay,Centre,"sb/ripple.png",707.0489,226 S,22,126504,126904,0,0.85 S,0,126904,127304,0.85,1 F,17,126504,126704,0,0.85 F,17,126704,127304,0.85,0
//Storyboard Sound Samples
Sample,85104,0,"hat.wav",70
Sample,101904,0,"hat.wav",70
Sample,174704,0,"hat.wav",70

[TimingPoints]
304,400.0,4,2,1,100,1,0
77504,-100.0,4,2,1,100,0,1
83304,-100.0,4,2,1,100,0,0
83904,-100.0,4,2,1,100,0,1
89904,-100.0,4,2,1,100,0,0
167104,-100.0,4,2,1,100,0,1
172904,-100.0,4,2,1,100,0,0
173504,-100.0,4,2,1,100,0,1
177904,-100.0,4,2,1,100,0,0

[HitObjects]
64,192,304,128,0,1904:0:0:0:70:cymbal.wav
448,192,304,1,0,0:0:0:0:
320,192,704,128,0,904:0:0:0:0:
448,192,1104,128,0,1304:0:0:0:0:
192,192,1504,128,0,1704:0:0:0:0:
448,192,1704,128,0,1904:0:0:0:0:
320,192,1904,128,0,3504:0:0:0:0:
448,192,2104,128,0,2304:0:0:0:0:
192,192,2304,128,0,2504:0:0:0:0:
64,192,2504,128,0,3104:0:0:0:0:
448,192,3104,1,0,0:0:0:0:
192,192,3504,128,0,5104:0:0:0:0:
64,192,3904,1,0,0:0:0:0:
64,192,4304,1,0,0:0:0:0:
448,192,5104,128,0,5704:0:0:0:0:
192,192,5504,1,0,0:0:0:0:
64,192,5704,128,0,6704:0:0:0:0:
320,192,6304,1,0,0:0:0:0:
448,192,6704,128,0,8304:0:0:0:70:cymbal.wav
192,192,7104,128,0,7304:0:0:0:0:
64,192,7504,128,0,7704:0:0:0:0:
320,192,7904,128,0,8104:0:0:0:0:
64,192,8104,128,0,8304:0:0:0:0:
192,192,8304,128,0,9904:0:0:0:0:
64,192,8504,128,0,8704:0:0:0:0:
320,192,8704,128,0,8904:0:0:0:0:
448,192,8904,128,0,9504:0:0:0:0:
64,192,9504,1,0,0:0:0:0:
320,192,9904,128,0,11504:0:0:0:0:
448,192,10304,1,0,0:0:0:0:
448,192,10704,1,0,0:0:0:0:
192,192,11104,1,0,0:0:0:0:
64,192,11504,128,0,11704:0:0:0:0:
448,192,11504,1,0,0:0:0:0:
192,192,11704,128,0,11904:0:0:0:0:
64,192,11904,1,0,0:0:0:0:
320,192,11904,128,0,12104:0:0:0:0:
448,192,12104,128,0,12304:0:0:0:0:
64,192,12304,128,0,13104:0:0:0:0:
192,192,12504,128,0,12704:0:0:0:0:
320,192,12704,128,0,12904:0:0:0:0:
448,192,12704,1,0,0:0:0:0:
448,192,12904,128,0,13104:0:0:0:0:
192,192,13104,1,0,0:0:0:70:strong kick.wav
320,192,13104,1,0,0:0:0:0:
192,192,13504,128,0,13904:0:0:0:0:
64,192,13904,1,0,0:0:0:70:snap.wav
448,192,13904,128,0,14304:0:0:0:0:
192,192,14304,1,0,0:0:0:70:strong kick.wav
320,192,14304,128,0,14704:0:0:0:0:
64,192,14704,1,0,0:0:0:0:
192,192,15104,1,0,0:0:0:70:strong kick.wav
320,192,15104,128,0,15504:0:0:0:0:
64,192,15504,128,0,15904:0:0:0:70:snap.wav
448,192,15504,1,0,0:0:0:0:
192,192,15904,128,0,16304:0:0:0:0:
320,192,16304,1,0,0:0:0:70:strong kick.wav
448,192,16304,1,0,0:0:0:0:
64,192,16704,1,0,0:0:0:0:
64,192,17104,1,0,0:0:0:70:snap.wav
448,192,17104,1,0,0:0:0:0:
320,192,17504,1,0,0:0:0:70:strong kick.wav
448,192,17504,1,0,0:0:0:0:
192,192,17704,1,0,0:0:0:0:
64,192,17904,128,0,18304:0:0:0:0:
320,192,18304,1,0,0:0:0:70:strong kick.wav
448,192,18304,1,0,0:0:0:0:
192,192,18504,128,0,18904:0:0:0:0:
64,192,18704,1,0,0:0:0:70:snap.wav
448,192,18704,1,0,0:0:0:0:
320,192,18904,1,0,0:0:0:0:
448,192,19104,128,0,19504:0:0:0:0:
64,192,19504,1,0,0:0:0:70:strong kick.wav
192,192,19504,1,0,0:0:0:0:
320,192,19904,128,0,20304:0:0:0:0:
64,192,20304,128,0,20704:0:0:0:70:snap.wav
448,192,20304,1,0,0:0:0:0:
192,192,20704,128,0,21104:0:0:0:70:strong kick.wav
320,192,20704,1,0,0:0:0:0:
448,192,21104,1,0,0:0:0:0:
192,192,21504,128,0,21904:0:0:0:70:strong kick.wav
320,192,21504,1,0,0:0:0:0:
64,192,21904,1,0,0:0:0:70:snap.wav
448,192,21904,128,0,22304:0:0:0:0:
320,192,22304,128,0,22704:0:0:0:0:
64,192,22704,1,0,0:0:0:70:strong kick.wav
192,192,22704,1,0,0:0:0:0:
448,192,23104,1,0,0:0:0:0:
64,192,23504,1,0,0:0:0:70:snap.wav
448,192,23504,1,0,0:0:0:0:
192,192,23904,1,0,0:0:0:70:strong kick.wav
320,192,23904,1,0,0:0:0:0:
64,192,24304,1,0,0:0:0:0:
64,192,24704,1,0,0:0:0:70:strong kick.wav
448,192,24704,1,0,0:0:0:0:
320,192,25054,1,0,0:0:0:0:
192,192,25104,1,0,0:0:0:70:snap.wav
320,192,25504,1,0,0:0:0:0:
64,192,25904,1,0,0:0:0:70:strong kick.wav
448,192,25904,1,0,0:0:0:70:hat.wav
192,192,26104,1,0,0:0:0:0:
320,192,26304,128,0,26504:0:0:0:70:hat.wav
448,192,26504,1,0,0:0:0:0:
64,192,26704,128,0,26904:0:0:0:70:snap.wav
192,192,26704,1,0,0:0:0:70:hat.wav
448,192,26904,1,0,0:0:0:0:
192,192,27104,128,0,27304:0:0:0:70:strong kick.wav
320,192,27104,1,0,0:0:0:70:hat.wav
64,192,27304,1,0,0:0:0:0:
448,192,27504,1,0,0:0:0:70:hat.wav
320,192,27704,1,0,0:0:0:0:
64,192,27904,1,0,0:0:0:70:strong kick.wav
192,192,27904,128,0,28104:0:0:0:70:hat.wav
320,192,28104,1,0,0:0:0:0:
64,192,28304,1,0,0:0:0:70:snap.wav
448,192,28304,128,0,28504:0:0:0:70:hat.wav
192,192,28504,1,0,0:0:0:0:
320,192,28704,128,0,28904:0:0:0:70:hat.wav
64,192,28904,1,0,0:0:0:70:hat open.wav
64,192,29104,1,0,0:0:0:70:strong kick.wav
320,192,29104,1,0,0:0:0:70:hat.wav
192,192,29304,1,0,0:0:0:0:
448,192,29504,128,0,29704:0:0:0:70:hat.wav
320,192,29704,1,0,0:0:0:0:
64,192,29904,128,0,30104:0:0:0:70:snap.wav
448,192,29904,1,0,0:0:0:70:hat.wav
192,192,30104,1,0,0:0:0:0:
320,192,30304,128,0,30504:0:0:0:70:strong kick.wav
448,192,30304,1,0,0:0:0:70:hat.wav
192,192,30504,128,0,30704:0:0:0:0:
448,192,30704,128,0,31104:0:0:0:70:hat.wav
320,192,30904,1,0,0:0:0:0:
64,192,31104,128,0,31304:0:0:0:70:strong kick.wav
192,192,31104,1,0,0:0:0:70:hat.wav
320,192,31304,128,0,31704:0:0:0:0:
64,192,31504,1,0,0:0:0:70:snap.wav
192,192,31504,1,0,0:0:0:70:hat.wav
448,192,31704,128,0,31904:0:0:0:0:
64,192,31904,128,0,32304:0:0:0:70:hat.wav
320,192,32104,1,0,0:0:0:70:hat open.wav
320,192,32304,1,0,0:0:0:70:strong kick.wav
448,192,32304,1,0,0:0:0:70:hat.wav
64,192,32504,1,0,0:0:0:0:
192,192,32704,128,0,32904:0:0:0:70:hat.wav
320,192,32904,1,0,0:0:0:0:
64,192,33104,1,0,0:0:0:70:snap.wav
448,192,33104,128,0,33304:0:0:0:70:hat.wav
192,192,33304,1,0,0:0:0:0:
320,192,33504,128,0,33704:0:0:0:70:strong kick.wav
448,192,33504,1,0,0:0:0:70:hat.wav
192,192,33704,1,0,0:0:0:0:
64,192,33904,1,0,0:0:0:70:hat.wav
448,192,34104,1,0,0:0:0:0:
64,192,34304,1,0,0:0:0:70:strong kick.wav
320,192,34304,128,0,34504:0:0:0:70:hat.wav
192,192,34504,1,0,0:0:0:0:
64,192,34704,128,0,34904:0:0:0:70:snap.wav
448,192,34704,1,0,0:0:0:70:hat.wav
320,192,34904,1,0,0:0:0:0:
192,192,35104,128,0,35304:0:0:0:70:hat.wav
448,192,35304,1,0,0:0:0:70:hat open.wav
192,192,35504,1,0,0:0:0:70:strong kick.wav
448,192,35504,1,0,0:0:0:70:hat.wav
320,192,35704,1,0,0:0:0:0:
64,192,35904,128,0,36104:0:0:0:70:hat.wav
192,192,36104,1,0,0:0:0:0:
64,192,36304,1,0,0:0:0:70:snap.wav
448,192,36304,128,0,36504:0:0:0:70:hat.wav
320,192,36504,1,0,0:0:0:0:
64,192,36704,1,0,0:0:0:70:strong kick.wav
192,192,36704,1,0,0:0:0:70:hat.wav
448,192,36904,1,0,0:0:0:0:
64,192,37104,1,0,0:0:0:70:trap snare.wav
192,192,37204,1,0,0:0:0:70:trap snare.wav
320,192,37304,1,0,0:0:0:70:trap snare.wav
448,192,37304,1,0,0:0:0:0:
448,192,37504,1,0,0:0:0:70:trap snare.wav
320,192,37604,1,0,0:0:0:70:trap snare.wav
64,192,37704,1,0,0:0:0:70:trap snare.wav
192,192,37704,1,0,0:0:0:0:
64,192,37904,1,0,0:0:0:70:trap snare.wav
192,192,38037,1,0,0:0:0:70:trap snare.wav
320,192,38170,1,0,0:0:0:70:trap snare.wav
448,192,38304,1,0,0:0:0:70:trap snare.wav
64,192,38354,1,0,0:0:0:0:
192,192,38404,1,0,0:0:0:70:trap snare.wav
320,192,38454,1,0,0:0:0:0:
448,192,38504,1,0,0:0:0:70:trap snare.wav
64,192,38704,1,0,0:0:0:70:strong kick.wav
448,192,38704,128,0,40304:0:0:0:0:
192,192,39104,128,0,39504:0:0:0:0:
320,192,39504,128,0,39904:0:0:0:0:
64,192,39904,128,0,40304:0:0:0:0:
192,192,40304,128,0,41904:0:0:0:0:
320,192,40704,128,0,41104:0:0:0:0:
448,192,41104,128,0,41504:0:0:0:0:
64,192,41504,128,0,41704:0:0:0:0:
448,192,41704,128,0,41904:0:0:0:0:
320,192,41904,128,0,43504:0:0:0:0:
64,192,42704,128,0,43104:0:0:0:0:
448,192,43304,128,0,43504:0:0:0:0:
64,192,43504,128,0,44104:0:0:0:0:
192,192,43904,128,0,44104:0:0:0:0:
448,192,44104,128,0,45104:0:0:0:0:
320,192,44304,128,0,44704:0:0:0:0:
192,192,44704,128,0,45104:0:0:0:0:
64,192,45104,128,0,46704:0:0:0:0:
448,192,45904,128,0,46304:0:0:0:0:
192,192,46304,128,0,46704:0:0:0:0:
320,192,46704,128,0,48304:0:0:0:0:
448,192,47104,128,0,47504:0:0:0:0:
64,192,47504,128,0,47904:0:0:0:0:
448,192,48104,128,0,48304:0:0:0:0:
192,192,48304,128,0,49904:0:0:0:0:
448,192,48704,128,0,49104:0:0:0:0:
64,192,49104,128,0,49504:0:0:0:0:
320,192,49504,128,0,49904:0:0:0:0:
64,192,49904,1,0,0:0:0:0:
448,192,49904,128,0,50704:0:0:0:0:
64,192,50304,128,0,50504:0:0:0:0:
192,192,50504,1,0,0:0:0:0:
64,192,50704,1,0,0:0:0:0:
320,192,50704,128,0,50904:0:0:0:0:
64,192,51104,1,0,0:0:0:0:
448,192,51104,128,0,51304:0:0:0:0:
192,192,51504,1,0,0:0:0:70:kick.wav
448,192,51504,1,0,0:0:0:70:hat.wav
320,192,51704,1,0,0:0:0:0:
64,192,51904,1,0,0:0:0:70:kick.wav
448,192,51904,128,0,52104:0:0:0:70:hat.wav
320,192,52104,1,0,0:0:0:0:
64,192,52304,1,0,0:0:0:70:snare.wav
192,192,52304,128,0,52504:0:0:0:0:
448,192,52504,1,0,0:0:0:0:
64,192,52704,1,0,0:0:0:70:kick.wav
320,192,52704,128,0,52904:0:0:0:70:hat.wav
192,192,52904,1,0,0:0:0:0:
64,192,53104,128,0,53304:0:0:0:0:
192,192,53304,1,0,0:0:0:0:
64,192,53504,1,0,0:0:0:70:kick.wav
448,192,53504,128,0,53704:0:0:0:70:hat.wav
320,192,53704,1,0,0:0:0:0:
64,192,53904,1,0,0:0:0:70:snare.wav
192,192,53904,128,0,54104:0:0:0:0:
320,192,54104,1,0,0:0:0:70:kick.wav
448,192,54104,1,0,0:0:0:0:
320,192,54304,128,0,54504:0:0:0:70:hat.wav
64,192,54504,128,0,54704:0:0:0:0:
192,192,54704,1,0,0:0:0:70:kick.wav
448,192,54704,1,0,0:0:0:0:
320,192,54904,1,0,0:0:0:0:
64,192,55104,1,0,0:0:0:70:kick.wav
448,192,55104,1,0,0:0:0:70:hat.wav
320,192,55304,1,0,0:0:0:0:
64,192,55504,128,0,55704:0:0:0:70:snare.wav
448,192,55504,1,0,0:0:0:0:
192,192,55704,1,0,0:0:0:0:
320,192,55904,1,0,0:0:0:70:kick.wav
448,192,55904,1,0,0:0:0:70:hat.wav
192,192,56104,128,0,56304:0:0:0:0:
448,192,56304,128,0,56504:0:0:0:0:
64,192,56504,1,0,0:0:0:0:
320,192,56704,128,0,56904:0:0:0:70:kick.wav
448,192,56704,1,0,0:0:0:70:hat.wav
192,192,56904,1,0,0:0:0:0:
64,192,57104,128,0,57304:0:0:0:70:snare.wav
448,192,57104,1,0,0:0:0:0:
192,192,57304,1,0,0:0:0:70:kick.wav
320,192,57304,1,0,0:0:0:0:
192,192,57504,128,0,57704:0:0:0:0:
448,192,57704,1,0,0:0:0:70:cowbell.wav
320,192,57804,1,0,0:0:0:70:cowbell.wav
64,192,57904,1,0,0:0:0:70:kick.wav
448,192,57904,128,0,58104:0:0:0:0:
192,192,58104,1,0,0:0:0:0:
64,192,58304,1,0,0:0:0:70:kick.wav
448,192,58304,1,0,0:0:0:70:hat.wav
192,192,58504,1,0,0:0:0:0:
64,192,58704,1,0,0:0:0:70:snare.wav
448,192,58704,128,0,58904:0:0:0:0:
320,192,58904,1,0,0:0:0:0:
64,192,59104,128,0,59304:0:0:0:70:kick.wav
448,192,59104,1,0,0:0:0:70:hat.wav
192,192,59304,1,0,0:0:0:0:
320,192,59504,128,0,59704:0:0:0:0:
64,192,59704,1,0,0:0:0:0:
192,192,59904,128,0,60104:0:0:0:70:kick.wav
448,192,59904,1,0,0:0:0:70:hat.wav
320,192,60104,1,0,0:0:0:0:
64,192,60304,1,0,0:0:0:70:snare.wav
448,192,60304,128,0,60504:0:0:0:0:
192,192,60504,1,0,0:0:0:70:kick.wav
320,192,60504,1,0,0:0:0:0:
448,192,60704,1,0,0:0:0:70:hat.wav
64,192,60904,1,0,0:0:0:0:
64,192,61104,128,0,61304:0:0:0:70:kick.wav
192,192,61104,128,0,61304:0:0:0:70:cymbal.wav
448,192,61104,128,0,61304:0:0:0:0:
64,192,61504,128,0,61704:0:0:0:70:kick.wav
320,192,61504,128,0,61704:0:0:0:70:cymbal.wav
448,192,61504,128,0,61704:0:0:0:0:
192,192,61904,128,0,62104:0:0:0:70:kick.wav
320,192,61904,128,0,62104:0:0:0:70:cymbal.wav
448,192,61904,128,0,62104:0:0:0:0:
64,192,62304,128,0,62504:0:0:0:70:kick.wav
192,192,62304,128,0,62504:0:0:0:70:cymbal.wav
320,192,62304,128,0,62504:0:0:0:0:
448,192,62704,128,0,63104:0:0:0:0:
64,192,63104,128,0,63504:0:0:0:0:
320,192,63504,128,0,63904:0:0:0:0:
64,192,63904,1,0,0:0:0:70:trap snare.wav
448,192,63904,1,0,0:0:0:70:cowbell.wav
320,192,64104,1,0,0:0:0:70:cowbell.wav
192,192,64204,1,0,0:0:0:70:cowbell.wav
64,192,64304,1,0,0:0:0:70:strong kick.wav
448,192,64304,1,0,0:0:0:0:
192,192,64504,1,0,0:0:0:0:
320,192,64604,1,0,0:0:0:0:
64,192,64704,1,0,0:0:0:70:strong kick.wav
448,192,64704,1,0,0:0:0:70:cymbal.wav
192,192,64804,1,0,0:0:0:0:
320,192,64904,1,0,0:0:0:0:
448,192,65004,1,0,0:0:0:0:
64,192,65104,128,0,65304:0:0:0:70:trap snare.wav
192,192,65104,1,0,0:0:0:70:cowbell.wav
320,192,65304,128,0,65504:0:0:0:0:
192,192,65504,128,0,65704:0:0:0:70:strong kick.wav
448,192,65504,1,0,0:0:0:70:hat.wav
448,192,65704,128,0,65904:0:0:0:0:
64,192,65904,1,0,0:0:0:0:
320,192,66104,1,0,0:0:0:0:
192,192,66204,1,0,0:0:0:0:
64,192,66304,1,0,0:0:0:70:strong kick.wav
448,192,66304,1,0,0:0:0:70:hat.wav
320,192,66404,1,0,0:0:0:0:
192,192,66504,1,0,0:0:0:0:
64,192,66604,1,0,0:0:0:0:
320,192,66704,1,0,0:0:0:70:trap snare.wav
448,192,66704,128,0,66904:0:0:0:70:cowbell.wav
192,192,66904,128,0,67104:0:0:0:0:
64,192,67104,1,0,0:0:0:70:hat.wav
320,192,67104,128,0,67304:0:0:0:0:
64,192,67304,128,0,67504:0:0:0:0:
320,192,67504,1,0,0:0:0:70:strong kick.wav
448,192,67504,1,0,0:0:0:0:
192,192,67704,1,0,0:0:0:0:
320,192,67804,1,0,0:0:0:0:
64,192,67904,1,0,0:0:0:70:strong kick.wav
448,192,67904,1,0,0:0:0:70:hat.wav
192,192,68004,1,0,0:0:0:0:
320,192,68104,1,0,0:0:0:0:
448,192,68204,1,0,0:0:0:0:
64,192,68304,128,0,68504:0:0:0:70:trap snare.wav
192,192,68304,1,0,0:0:0:70:cowbell.wav
320,192,68504,128,0,68704:0:0:0:0:
192,192,68704,128,0,68904:0:0:0:70:strong kick.wav
448,192,68704,1,0,0:0:0:70:hat.wav
448,192,68904,128,0,69104:0:0:0:0:
64,192,69104,128,0,69304:0:0:0:0:
192,192,69104,1,0,0:0:0:0:
192,192,69304,1,0,0:0:0:0:
320,192,69504,1,0,0:0:0:70:strong kick.wav
448,192,69504,128,0,69704:0:0:0:70:hat.wav
320,192,69704,1,0,0:0:0:0:
64,192,69904,1,0,0:0:0:70:trap snare.wav
192,192,69904,128,0,70104:0:0:0:70:cowbell.wav
64,192,70104,1,0,0:0:0:0:
320,192,70304,128,0,70504:0:0:0:70:hat.wav
448,192,70304,1,0,0:0:0:0:
448,192,70504,1,0,0:0:0:0:
64,192,70704,1,0,0:0:0:70:strong kick.wav
192,192,70704,1,0,0:0:0:0:
448,192,70904,1,0,0:0:0:0:
320,192,71004,1,0,0:0:0:0:
64,192,71104,1,0,0:0:0:70:strong kick.wav
192,192,71104,1,0,0:0:0:70:hat.wav
448,192,71204,1,0,0:0:0:0:
320,192,71304,1,0,0:0:0:0:
192,192,71404,1,0,0:0:0:0:
64,192,71504,1,0,0:0:0:70:trap snare.wav
448,192,71504,128,0,71704:0:0:0:70:cowbell.wav
64,192,71704,128,0,71904:0:0:0:0:
320,192,71904,128,0,72104:0:0:0:70:strong kick.wav
448,192,71904,1,0,0:0:0:70:hat.wav
192,192,72104,128,0,72304:0:0:0:0:
448,192,72304,1,0,0:0:0:0:
64,192,72504,1,0,0:0:0:0:
192,192,72604,1,0,0:0:0:0:
320,192,72704,1,0,0:0:0:70:strong kick.wav
448,192,72704,1,0,0:0:0:70:hat.wav
64,192,72804,1,0,0:0:0:0:
192,192,72904,1,0,0:0:0:0:
320,192,73004,1,0,0:0:0:0:
64,192,73104,128,0,73304:0:0:0:70:trap snare.wav
448,192,73104,1,0,0:0:0:70:cowbell.wav
448,192,73304,128,0,73504:0:0:0:0:
64,192,73504,1,0,0:0:0:70:hat.wav
192,192,73504,128,0,73704:0:0:0:0:
320,192,73704,128,0,73904:0:0:0:0:
64,192,73904,1,0,0:0:0:70:strong kick.wav
192,192,73904,1,0,0:0:0:0:
448,192,74104,1,0,0:0:0:0:
320,192,74204,1,0,0:0:0:0:
64,192,74304,1,0,0:0:0:70:strong kick.wav
192,192,74304,1,0,0:0:0:70:hat.wav
448,192,74404,1,0,0:0:0:0:
320,192,74504,1,0,0:0:0:0:
192,192,74604,1,0,0:0:0:0:
64,192,74704,1,0,0:0:0:70:trap snare.wav
448,192,74704,128,0,74904:0:0:0:70:cowbell.wav
64,192,74904,128,0,75104:0:0:0:0:
320,192,75104,128,0,75304:0:0:0:70:strong kick.wav
448,192,75104,1,0,0:0:0:70:hat.wav
192,192,75304,128,0,75504:0:0:0:0:
320,192,75504,1,0,0:0:0:0:
448,192,75504,128,0,75704:0:0:0:0:
64,192,75704,1,0,0:0:0:0:
64,192,75904,128,0,76104:0:0:0:70:strong kick.wav
192,192,75904,1,0,0:0:0:70:hat.wav
320,192,76104,1,0,0:0:0:70:cowbell.wav
192,192,76204,1,0,0:0:0:70:cowbell.wav
320,192,76304,1,0,0:0:0:70:trap snare.wav
448,192,76304,128,0,76504:0:0:0:70:cowbell.wav
192,192,76504,1,0,0:0:0:70:strong kick.wav
64,192,76704,128,0,76904:0:0:0:70:trap snare.wav
448,192,76704,1,0,0:0:0:70:hat.wav
320,192,76904,1,0,0:0:0:0:
64,192,77104,1,0,0:0:0:70:strong kick.wav
448,192,77104,128,0,77304:0:0:0:70:hat.wav
192,192,77304,1,0,0:0:0:0:
320,192,77404,1,0,0:0:0:0:
64,192,77504,1,0,0:0:0:70:strong kick.wav
448,192,77504,1,0,0:0:0:70:cymbal.wav
192,192,77604,1,0,0:0:0:0:
320,192,77704,1,0,0:0:0:0:
448,192,77804,1,0,0:0:0:0:
64,192,77904,1,0,0:0:0:70:trap snare.wav
192,192,77904,1,0,0:0:0:70:cowbell.wav
448,192,78004,1,0,0:0:0:0:
320,192,78104,1,0,0:0:0:0:
64,192,78204,1,0,0:0:0:70:strong kick.wav
192,192,78204,1,0,0:0:0:0:
448,192,78304,1,0,0:0:0:70:hat.wav
64,192,78504,128,0,78704:0:0:0:70:strong kick.wav
192,192,78504,1,0,0:0:0:0:
448,192,78704,1,0,0:0:0:70:hat.wav
320,192,78904,1,0,0:0:0:0:
192,192,79004,1,0,0:0:0:0:
64,192,79104,1,0,0:0:0:70:strong kick.wav
448,192,79104,1,0,0:0:0:70:hat.wav
320,192,79204,1,0,0:0:0:0:
192,192,79304,1,0,0:0:0:0:
64,192,79404,1,0,0:0:0:0:
320,192,79504,1,0,0:0:0:70:trap snare.wav
448,192,79504,1,0,0:0:0:70:cowbell.wav
64,192,79604,1,0,0:0:0:0:
192,192,79704,1,0,0:0:0:0:
320,192,79804,1,0,0:0:0:70:strong kick.wav
448,192,79804,1,0,0:0:0:0:
64,192,79904,1,0,0:0:0:70:hat.wav
320,192,80104,1,0,0:0:0:70:strong kick.wav
448,192,80104,128,0,80304:0:0:0:0:
64,192,80304,1,0,0:0:0:70:strong kick.wav
192,192,80304,1,0,0:0:0:70:hat.wav
192,192,80504,1,0,0:0:0:0:
320,192,80604,1,0,0:0:0:0:
64,192,80704,1,0,0:0:0:70:strong kick.wav
448,192,80704,1,0,0:0:0:70:hat.wav
192,192,80804,1,0,0:0:0:0:
320,192,80904,1,0,0:0:0:0:
448,192,81004,1,0,0:0:0:0:
64,192,81104,1,0,0:0:0:70:trap snare.wav
192,192,81104,1,0,0:0:0:70:cowbell.wav
448,192,81204,1,0,0:0:0:0:
320,192,81304,1,0,0:0:0:0:
64,192,81404,1,0,0:0:0:70:strong kick.wav
192,192,81404,1,0,0:0:0:0:
448,192,81504,1,0,0:0:0:70:hat.wav
64,192,81704,128,0,81904:0:0:0:70:strong kick.wav
192,192,81704,1,0,0:0:0:0:
320,192,81904,1,0,0:0:0:70:hat.wav
448,192,81904,128,0,82104:0:0:0:0:
192,192,82004,1,0,0:0:0:0:
64,192,82104,1,0,0:0:0:0:
64,192,82304,128,0,82504:0:0:0:70:strong kick.wav
192,192,82304,1,0,0:0:0:70:hat.wav
320,192,82404,1,0,0:0:0:0:
448,192,82504,1,0,0:0:0:0:
320,192,82704,1,0,0:0:0:70:trap snare.wav
448,192,82704,128,0,82904:0:0:0:70:cowbell.wav
320,192,83004,1,0,0:0:0:70:strong kick.wav
64,192,83104,128,0,83304:0:0:0:70:hat.wav
192,192,83104,1,0,0:0:0:0:
320,192,83304,1,0,0:0:0:70:strong kick.wav
64,192,83704,1,0,0:0:0:70:strong kick.wav
448,192,83704,1,0,0:0:0:0:
192,192,83804,1,0,0:0:0:0:
320,192,83904,1,0,0:0:0:70:strong kick.wav
448,192,83904,1,0,0:0:0:70:cymbal.wav
64,192,84004,1,0,0:0:0:0:
192,192,84104,1,0,0:0:0:0:
320,192,84204,1,0,0:0:0:0:
64,192,84304,1,0,0:0:0:70:trap snare.wav
448,192,84304,1,0,0:0:0:70:cowbell.wav
320,192,84404,1,0,0:0:0:0:
192,192,84504,1,0,0:0:0:0:
64,192,84604,1,0,0:0:0:70:strong kick.wav
448,192,84604,1,0,0:0:0:0:
320,192,84704,1,0,0:0:0:70:hat.wav
64,192,84904,1,0,0:0:0:70:strong kick.wav
448,192,84904,128,0,85104:0:0:0:0:
192,192,85104,1,0,0:0:0:70:strong kick.wav
448,192,85304,1,0,0:0:0:0:
320,192,85404,1,0,0:0:0:0:
64,192,85504,1,0,0:0:0:70:strong kick.wav
192,192,85504,1,0,0:0:0:70:hat.wav
448,192,85604,1,0,0:0:0:0:
320,192,85704,1,0,0:0:0:0:
192,192,85804,1,0,0:0:0:0:
64,192,85904,1,0,0:0:0:70:trap snare.wav
448,192,85904,1,0,0:0:0:70:cowbell.wav
192,192,86004,1,0,0:0:0:0:
320,192,86104,1,0,0:0:0:0:
64,192,86204,1,0,0:0:0:70:strong kick.wav
448,192,86204,1,0,0:0:0:0:
192,192,86304,1,0,0:0:0:70:hat.wav
64,192,86504,128,0,86704:0:0:0:70:strong kick.wav
448,192,86504,1,0,0:0:0:0:
320,192,86704,1,0,0:0:0:70:strong kick.wav
448,192,86704,1,0,0:0:0:70:hat.wav
64,192,86904,1,0,0:0:0:0:
192,192,87004,1,0,0:0:0:0:
320,192,87104,1,0,0:0:0:70:strong kick.wav
448,192,87104,1,0,0:0:0:70:hat.wav
64,192,87204,1,0,0:0:0:0:
192,192,87304,1,0,0:0:0:0:
320,192,87404,1,0,0:0:0:0:
64,192,87504,1,0,0:0:0:70:trap snare.wav
448,192,87504,1,0,0:0:0:70:cowbell.wav
320,192,87604,1,0,0:0:0:0:
192,192,87704,1,0,0:0:0:0:
64,192,87804,1,0,0:0:0:70:strong kick.wav
448,192,87804,1,0,0:0:0:0:
320,192,87904,1,0,0:0:0:70:hat.wav
64,192,88104,1,0,0:0:0:70:strong kick.wav
448,192,88104,1,0,0:0:0:0:
64,192,88304,128,0,88504:0:0:0:70:strong kick.wav
192,192,88304,1,0,0:0:0:0:
320,192,88404,1,0,0:0:0:0:
448,192,88504,1,0,0:0:0:0:
320,192,88704,1,0,0:0:0:70:hat.wav
448,192,88704,128,0,88904:0:0:0:0:
192,192,88804,1,0,0:0:0:0:
64,192,88904,1,0,0:0:0:0:
64,192,89104,128,0,89304:0:0:0:70:trap snare.wav
448,192,89104,1,0,0:0:0:70:cowbell.wav
192,192,89304,1,0,0:0:0:0:
64,192,89504,1,0,0:0:0:0:
448,192,89504,128,0,89704:0:0:0:0:
320,192,89704,1,0,0:0:0:0:
64,192,89904,1,0,0:0:0:70:strong kick.wav
448,192,89904,1,0,0:0:0:0:
320,192,90304,128,0,90704:0:0:0:0:
64,192,90704,128,0,91104:0:0:0:70:snap.wav
448,192,90704,1,0,0:0:0:0:
192,192,91104,128,0,91504:0:0:0:0:
448,192,91504,1,0,0:0:0:0:
192,192,91904,128,0,92304:0:0:0:0:
64,192,92304,1,0,0:0:0:70:snap.wav
448,192,92304,128,0,92704:0:0:0:0:
320,192,92704,128,0,93104:0:0:0:0:
192,192,93104,1,0,0:0:0:70:strong kick.wav
448,192,93104,1,0,0:0:0:70:hat.wav
320,192,93304,1,0,0:0:0:0:
64,192,93504,128,0,93704:0:0:0:70:hat.wav
192,192,93704,1,0,0:0:0:0:
64,192,93904,1,0,0:0:0:70:snap.wav
448,192,93904,128,0,94104:0:0:0:70:hat.wav
320,192,94104,1,0,0:0:0:0:
64,192,94304,1,0,0:0:0:70:strong kick.wav
192,192,94304,128,0,94504:0:0:0:70:hat.wav
320,192,94504,128,0,94704:0:0:0:0:
64,192,94704,128,0,95104:0:0:0:70:hat.wav
192,192,94904,1,0,0:0:0:0:
320,192,95104,1,0,0:0:0:70:strong kick.wav
448,192,95104,128,0,95304:0:0:0:70:hat.wav
192,192,95304,128,0,95704:0:0:0:0:
320,192,95504,1,0,0:0:0:70:snap.wav
448,192,95504,1,0,0:0:0:70:hat.wav
64,192,95704,128,0,95904:0:0:0:0:
448,192,95904,128,0,96304:0:0:0:70:hat.wav
192,192,96104,1,0,0:0:0:70:hat open.wav
64,192,96304,1,0,0:0:0:70:strong kick.wav
192,192,96304,1,0,0:0:0:70:hat.wav
448,192,96504,1,0,0:0:0:0:
320,192,96704,128,0,96904:0:0:0:70:hat.wav
192,192,96904,1,0,0:0:0:0:
64,192,97104,128,0,97304:0:0:0:70:snap.wav
448,192,97104,1,0,0:0:0:70:hat.wav
320,192,97304,1,0,0:0:0:0:
64,192,97504,1,0,0:0:0:70:strong kick.wav
192,192,97504,128,0,97704:0:0:0:70:hat.wav
320,192,97704,1,0,0:0:0:0:
448,192,97904,1,0,0:0:0:70:hat.wav
64,192,98104,1,0,0:0:0:0:
192,192,98304,128,0,98504:0:0:0:70:strong kick.wav
448,192,98304,1,0,0:0:0:70:hat.wav
320,192,98504,1,0,0:0:0:0:
64,192,98704,1,0,0:0:0:70:snap.wav
448,192,98704,128,0,98904:0:0:0:70:hat.wav
192,192,98904,1,0,0:0:0:0:
320,192,99104,128,0,99304:0:0:0:70:hat.wav
64,192,99304,1,0,0:0:0:70:hat open.wav
64,192,99504,1,0,0:0:0:70:strong kick.wav
320,192,99504,1,0,0:0:0:70:hat.wav
192,192,99704,1,0,0:0:0:0:
448,192,99904,128,0,100104:0:0:0:70:hat.wav
320,192,100104,1,0,0:0:0:0:
64,192,100304,128,0,100504:0:0:0:70:snap.wav
448,192,100304,1,0,0:0:0:70:hat.wav
192,192,100504,1,0,0:0:0:0:
64,192,100704,1,0,0:0:0:70:strong kick.wav
448,192,100704,1,0,0:0:0:70:hat.wav
320,192,100904,1,0,0:0:0:0:
64,192,101104,128,0,101304:0:0:0:70:hat.wav
192,192,101304,1,0,0:0:0:70:snap.wav
64,192,101504,1,0,0:0:0:70:strong kick.wav
448,192,101504,128,0,101704:0:0:0:70:hat.wav
320,192,101704,1,0,0:0:0:70:snap.wav
192,192,101854,1,0,0:0:0:0:
320,192,101904,1,0,0:0:0:70:snap.wav
448,192,102104,1,0,0:0:0:0:
192,192,102304,1,0,0:0:0:70:hat.wav
320,192,102504,1,0,0:0:0:70:hat open.wav
64,192,102704,1,0,0:0:0:70:strong kick.wav
448,192,102704,1,0,0:0:0:70:hat.wav
320,192,102904,1,0,0:0:0:0:
192,192,103104,128,0,103304:0:0:0:70:hat.wav
64,192,103304,1,0,0:0:0:0:
320,192,103504,1,0,0:0:0:70:snap.wav
448,192,103504,128,0,103704:0:0:0:70:hat.wav
64,192,103704,1,0,0:0:0:0:
192,192,103904,1,0,0:0:0:70:strong kick.wav
320,192,103904,128,0,104104:0:0:0:70:hat.wav
448,192,104104,1,0,0:0:0:0:
64,192,104304,1,0,0:0:0:70:hat.wav
192,192,104504,1,0,0:0:0:70:snap.wav
320,192,104704,128,0,104904:0:0:0:70:strong kick.wav
448,192,104704,1,0,0:0:0:70:hat.wav
192,192,104904,1,0,0:0:0:0:
64,192,105104,128,0,105304:0:0:0:70:snap.wav
448,192,105104,1,0,0:0:0:70:hat.wav
320,192,105304,1,0,0:0:0:0:
192,192,105504,128,0,105704:0:0:0:70:hat.wav
448,192,105704,1,0,0:0:0:70:hat open.wav
192,192,105904,1,0,0:0:0:70:strong kick.wav
448,192,105904,1,0,0:0:0:70:hat.wav
320,192,106104,1,0,0:0:0:0:
64,192,106304,128,0,106504:0:0:0:70:hat.wav
192,192,106504,1,0,0:0:0:0:
64,192,106704,1,0,0:0:0:70:snap.wav
448,192,106704,128,0,106904:0:0:0:70:hat.wav
320,192,106904,1,0,0:0:0:0:
64,192,107104,1,0,0:0:0:70:strong kick.wav
192,192,107104,128,0,107304:0:0:0:70:hat.wav
320,192,107304,128,0,107504:0:0:0:0:
64,192,107504,128,0,107904:0:0:0:70:hat.wav
192,192,107704,1,0,0:0:0:70:snap.wav
320,192,107904,1,0,0:0:0:70:strong kick.wav
448,192,107904,128,0,108104:0:0:0:70:hat.wav
192,192,108104,128,0,108504:0:0:0:0:
320,192,108304,1,0,0:0:0:70:snap.wav
448,192,108304,1,0,0:0:0:70:hat.wav
64,192,108504,128,0,108704:0:0:0:0:
448,192,108704,128,0,109104:0:0:0:70:hat.wav
192,192,108904,1,0,0:0:0:70:hat open.wav
64,192,109104,1,0,0:0:0:70:strong kick.wav
192,192,109104,1,0,0:0:0:70:hat.wav
448,192,109304,1,0,0:0:0:0:
320,192,109504,128,0,109704:0:0:0:70:hat.wav
192,192,109704,1,0,0:0:0:0:
64,192,109904,128,0,110104:0:0:0:70:snap.wav
448,192,109904,1,0,0:0:0:70:hat.wav
320,192,110104,1,0,0:0:0:0:
64,192,110304,1,0,0:0:0:70:strong kick.wav
192,192,110304,128,0,110504:0:0:0:70:hat.wav
320,192,110504,1,0,0:0:0:0:
448,192,110704,1,0,0:0:0:70:hat.wav
64,192,110904,1,0,0:0:0:70:snap.wav
192,192,111104,128,0,111304:0:0:0:70:strong kick.wav
448,192,111104,1,0,0:0:0:70:hat.wav
320,192,111304,1,0,0:0:0:0:
64,192,111504,1,0,0:0:0:70:snap.wav
448,192,111504,128,0,111704:0:0:0:70:hat.wav
192,192,111704,1,0,0:0:0:0:
320,192,111904,128,0,112104:0:0:0:70:hat.wav
64,192,112104,1,0,0:0:0:70:hat open.wav
64,192,112304,1,0,0:0:0:70:strong kick.wav
320,192,112304,1,0,0:0:0:70:hat.wav
192,192,112504,1,0,0:0:0:0:
448,192,112704,128,0,112904:0:0:0:70:hat.wav
320,192,112904,1,0,0:0:0:0:
64,192,113104,128,0,113304:0:0:0:70:snap.wav
448,192,113104,1,0,0:0:0:70:hat.wav
192,192,113304,1,0,0:0:0:0:
320,192,113504,1,0,0:0:0:70:strong kick.wav
448,192,113504,1,0,0:0:0:70:hat.wav
64,192,113704,1,0,0:0:0:0:
448,192,113904,1,0,0:0:0:70:trap snare.wav
320,192,114004,1,0,0:0:0:70:trap snare.wav
64,192,114104,1,0,0:0:0:70:trap snare.wav
192,192,114104,1,0,0:0:0:0:
64,192,114304,1,0,0:0:0:70:trap snare.wav
192,192,114404,1,0,0:0:0:70:trap snare.wav
320,192,114504,1,0,0:0:0:70:trap snare.wav
448,192,114504,1,0,0:0:0:0:
448,192,114704,1,0,0:0:0:70:trap snare.wav
320,192,114837,1,0,0:0:0:70:trap snare.wav
192,192,114970,1,0,0:0:0:70:trap snare.wav
64,192,115104,1,0,0:0:0:70:trap snare.wav
448,192,115154,1,0,0:0:0:0:
320,192,115204,1,0,0:0:0:70:trap snare.wav
192,192,115254,1,0,0:0:0:0:
64,192,115304,1,0,0:0:0:70:trap snare.wav
64,192,115504,128,0,117104:0:0:0:70:strong kick.wav
448,192,115504,1,0,0:0:0:0:
320,192,115904,128,0,116304:0:0:0:0:
192,192,116304,128,0,116704:0:0:0:0:
448,192,116704,128,0,117104:0:0:0:0:
320,192,117104,128,0,118704:0:0:0:0:
192,192,117504,128,0,117904:0:0:0:0:
64,192,117904,128,0,118304:0:0:0:0:
448,192,118304,128,0,118504:0:0:0:0:
64,192,118504,128,0,118704:0:0:0:0:
192,192,118704,128,0,120304:0:0:0:0:
448,192,119504,128,0,119904:0:0:0:0:
64,192,120104,128,0,120304:0:0:0:0:
448,192,120304,128,0,120904:0:0:0:0:
320,192,120704,128,0,120904:0:0:0:0:
64,192,120904,128,0,121904:0:0:0:0:
192,192,121104,128,0,121504:0:0:0:0:
448,192,121504,128,0,121704:0:0:0:0:
320,192,121704,128,0,121904:0:0:0:0:
448,192,121904,128,0,123504:0:0:0:0:
64,192,122704,128,0,123104:0:0:0:0:
320,192,123104,128,0,123504:0:0:0:0:
192,192,123504,128,0,125104:0:0:0:0:
64,192,123904,128,0,124304:0:0:0:0:
448,192,124304,128,0,124704:0:0:0:0:
64,192,124904,128,0,125104:0:0:0:0:
320,192,125104,128,0,126704:0:0:0:0:
64,192,125504,128,0,125904:0:0:0:0:
448,192,125904,128,0,126304:0:0:0:0:
192,192,126304,128,0,126704:0:0:0:0:
64,192,126704,128,0,127504:0:0:0:0:
448,192,126704,1,0,0:0:0:0:
448,192,127104,128,0,127304:0:0:0:0:
320,192,127304,1,0,0:0:0:0:
192,192,127504,128,0,127704:0:0:0:0:
448,192,127504,1,0,0:0:0:0:
64,192,127904,128,0,128104:0:0:0:0:
448,192,127904,1,0,0:0:0:0:
64,192,128304,1,0,0:0:0:70:kick.wav
320,192,128304,1,0,0:0:0:70:hat.wav
192,192,128504,1,0,0:0:0:0:
64,192,128704,128,0,128904:0:0:0:70:kick.wav
448,192,128704,1,0,0:0:0:70:hat.wav
192,192,128904,1,0,0:0:0:0:
320,192,129104,128,0,129304:0:0:0:70:snare.wav
448,192,129104,1,0,0:0:0:0:
64,192,129304,1,0,0:0:0:0:
192,192,129504,128,0,129704:0:0:0:70:kick.wav
448,192,129504,1,0,0:0:0:70:hat.wav
320,192,129704,1,0,0:0:0:0:
448,192,129904,128,0,130104:0:0:0:0:
320,192,130104,1,0,0:0:0:0:
64,192,130304,128,0,130504:0:0:0:70:kick.wav
448,192,130304,1,0,0:0:0:70:hat.wav
192,192,130504,1,0,0:0:0:0:
320,192,130704,128,0,130904:0:0:0:70:snare.wav
448,192,130704,1,0,0:0:0:0:
64,192,130904,1,0,0:0:0:70:kick.wav
192,192,130904,1,0,0:0:0:0:
192,192,131104,128,0,131304:0:0:0:70:hat.wav
448,192,131304,128,0,131504:0:0:0:0:
64,192,131504,1,0,0:0:0:70:kick.wav
320,192,131504,1,0,0:0:0:0:
192,192,131704,1,0,0:0:0:0:
64,192,131904,1,0,0:0:0:70:kick.wav
448,192,131904,1,0,0:0:0:70:hat.wav
192,192,132104,1,0,0:0:0:0:
64,192,132304,1,0,0:0:0:70:snare.wav
448,192,132304,128,0,132504:0:0:0:0:
320,192,132504,1,0,0:0:0:0:
64,192,132704,1,0,0:0:0:70:kick.wav
192,192,132704,1,0,0:0:0:70:hat.wav
320,192,132904,128,0,133104:0:0:0:0:
64,192,133104,128,0,133304:0:0:0:0:
448,192,133304,1,0,0:0:0:0:
64,192,133504,1,0,0:0:0:70:kick.wav
192,192,133504,128,0,133704:0:0:0:70:hat.wav
320,192,133704,1,0,0:0:0:0:
64,192,133904,1,0,0:0:0:70:snare.wav
448,192,133904,128,0,134104:0:0:0:0:
192,192,134104,1,0,0:0:0:70:kick.wav
320,192,134104,1,0,0:0:0:0:
320,192,134304,128,0,134504:0:0:0:0:
64,192,134504,1,0,0:0:0:70:cowbell.wav
192,192,134604,1,0,0:0:0:70:cowbell.wav
64,192,134704,128,0,134904:0:0:0:70:kick.wav
448,192,134704,1,0,0:0:0:70:hat.wav
320,192,134904,1,0,0:0:0:0:
64,192,135104,1,0,0:0:0:70:kick.wav
448,192,135104,1,0,0:0:0:70:hat.wav
320,192,135304,1,0,0:0:0:0:
64,192,135504,128,0,135704:0:0:0:70:snare.wav
448,192,135504,1,0,0:0:0:0:
192,192,135704,1,0,0:0:0:0:
64,192,135904,1,0,0:0:0:70:kick.wav
448,192,135904,128,0,136104:0:0:0:70:hat.wav
320,192,136104,1,0,0:0:0:0:
192,192,136304,128,0,136504:0:0:0:0:
448,192,136504,1,0,0:0:0:0:
64,192,136704,1,0,0:0:0:70:kick.wav
320,192,136704,128,0,136904:0:0:0:70:hat.wav
192,192,136904,1,0,0:0:0:0:
64,192,137104,128,0,137304:0:0:0:70:snare.wav
448,192,137104,1,0,0:0:0:0:
192,192,137304,1,0,0:0:0:70:kick.wav
320,192,137304,1,0,0:0:0:0:
64,192,137504,1,0,0:0:0:70:hat.wav
448,192,137704,1,0,0:0:0:0:
64,192,137904,1,0,0:0:0:70:kick.wav
320,192,137904,1,0,0:0:0:0:
192,192,138104,1,0,0:0:0:0:
64,192,138304,1,0,0:0:0:70:kick.wav
448,192,138304,1,0,0:0:0:70:hat.wav
192,192,138504,1,0,0:0:0:0:
64,192,138704,1,0,0:0:0:70:snare.wav
448,192,138704,128,0,138904:0:0:0:0:
320,192,138904,1,0,0:0:0:0:
64,192,139104,128,0,139304:0:0:0:70:kick.wav
448,192,139104,1,0,0:0:0:70:hat.wav
192,192,139304,1,0,0:0:0:0:
320,192,139504,128,0,139704:0:0:0:0:
64,192,139704,1,0,0:0:0:0:
192,192,139904,128,0,140104:0:0:0:70:kick.wav
448,192,139904,1,0,0:0:0:70:hat.wav
320,192,140104,1,0,0:0:0:0:
64,192,140304,1,0,0:0:0:70:snare.wav
448,192,140304,128,0,140504:0:0:0:0:
192,192,140504,1,0,0:0:0:70:kick.wav
320,192,140504,1,0,0:0:0:0:
448,192,140704,1,0,0:0:0:0:
192,192,140904,1,0,0:0:0:70:cowbell.wav
320,192,141004,1,0,0:0:0:70:cowbell.wav
64,192,141104,1,0,0:0:0:70:kick.wav
448,192,141104,128,0,142704:0:0:0:70:hat.wav
64,192,141304,1,0,0:0:0:0:
192,192,141504,1,0,0:0:0:70:kick.wav
320,192,141504,1,0,0:0:0:70:hat.wav
192,192,141704,1,0,0:0:0:0:
64,192,141904,1,0,0:0:0:70:snare.wav
320,192,141904,1,0,0:0:0:0:
64,192,142104,1,0,0:0:0:0:
192,192,142304,1,0,0:0:0:70:kick.wav
320,192,142304,1,0,0:0:0:70:hat.wav
320,192,142504,1,0,0:0:0:0:
192,192,142704,128,0,144304:0:0:0:0:
448,192,142904,1,0,0:0:0:0:
64,192,143104,1,0,0:0:0:70:kick.wav
320,192,143104,1,0,0:0:0:70:hat.wav
320,192,143304,1,0,0:0:0:0:
64,192,143504,1,0,0:0:0:70:snare.wav
448,192,143504,1,0,0:0:0:0:
320,192,143704,1,0,0:0:0:70:kick.wav
64,192,143904,1,0,0:0:0:70:hat.wav
448,192,144104,1,0,0:0:0:0:
64,192,144304,1,0,0:0:0:70:kick.wav
320,192,144304,128,0,145904:0:0:0:0:
64,192,144504,1,0,0:0:0:0:
192,192,144704,1,0,0:0:0:70:kick.wav
448,192,144704,1,0,0:0:0:70:hat.wav
192,192,144904,1,0,0:0:0:0:
64,192,145104,1,0,0:0:0:70:snare.wav
448,192,145104,1,0,0:0:0:0:
448,192,145304,1,0,0:0:0:0:
64,192,145504,1,0,0:0:0:70:kick.wav
192,192,145504,1,0,0:0:0:70:hat.wav
192,192,145704,1,0,0:0:0:0:
64,192,145904,128,0,147504:0:0:0:0:
192,192,146104,1,0,0:0:0:0:
320,192,146304,1,0,0:0:0:70:kick.wav
448,192,146304,1,0,0:0:0:70:hat.wav
320,192,146504,1,0,0:0:0:0:
192,192,146704,1,0,0:0:0:70:snare.wav
448,192,146704,1,0,0:0:0:0:
192,192,146904,1,0,0:0:0:70:kick.wav
448,192,147104,1,0,0:0:0:0:
320,192,147304,1,0,0:0:0:70:cowbell.wav
192,192,147404,1,0,0:0:0:70:cowbell.wav
320,192,147504,1,0,0:0:0:70:kick.wav
448,192,147504,128,0,149104:0:0:0:70:hat.wav
64,192,147704,1,0,0:0:0:0:
192,192,147904,1,0,0:0:0:70:kick.wav
320,192,147904,1,0,0:0:0:70:hat.wav
192,192,148104,1,0,0:0:0:0:
64,192,148304,1,0,0:0:0:70:snare.wav
320,192,148304,1,0,0:0:0:0:
320,192,148504,1,0,0:0:0:0:
64,192,148704,1,0,0:0:0:70:kick.wav
192,192,148704,1,0,0:0:0:70:hat.wav
64,192,148904,1,0,0:0:0:0:
192,192,149104,128,0,150704:0:0:0:0:
448,192,149304,1,0,0:0:0:0:
64,192,149504,1,0,0:0:0:70:kick.wav
320,192,149504,1,0,0:0:0:70:hat.wav
320,192,149704,1,0,0:0:0:0:
64,192,149904,1,0,0:0:0:70:snare.wav
448,192,149904,1,0,0:0:0:0:
320,192,150104,1,0,0:0:0:70:kick.wav
448,192,150304,1,0,0:0:0:70:hat.wav
64,192,150504,1,0,0:0:0:0:
64,192,150704,128,0,150904:0:0:0:70:kick.wav
320,192,150704,128,0,150904:0:0:0:70:cymbal.wav
448,192,150704,128,0,150904:0:0:0:0:
64,192,151104,128,0,151304:0:0:0:70:kick.wav
192,192,151104,128,0,151304:0:0:0:70:cymbal.wav
448,192,151104,128,0,151304:0:0:0:0:
64,192,151504,128,0,151704:0:0:0:70:kick.wav
192,192,151504,128,0,151704:0:0:0:70:cymbal.wav
320,192,151504,128,0,151704:0:0:0:0:
192,192,151904,128,0,152104:0:0:0:70:kick.wav
320,192,151904,128,0,152104:0:0:0:70:cymbal.wav
448,192,151904,128,0,152104:0:0:0:0:
64,192,152304,128,0,152704:0:0:0:0:
448,192,152704,128,0,153104:0:0:0:0:
192,192,153104,128,0,153504:0:0:0:0:
64,192,153504,1,0,0:0:0:70:trap snare.wav
448,192,153504,1,0,0:0:0:70:cowbell.wav
192,192,153704,1,0,0:0:0:70:cowbell.wav
320,192,153804,1,0,0:0:0:70:cowbell.wav
64,192,153904,1,0,0:0:0:70:strong kick.wav
448,192,153904,1,0,0:0:0:0:
320,192,154104,1,0,0:0:0:0:
192,192,154204,1,0,0:0:0:0:
64,192,154304,1,0,0:0:0:70:strong kick.wav
448,192,154304,1,0,0:0:0:70:cymbal.wav
320,192,154404,1,0,0:0:0:0:
192,192,154504,1,0,0:0:0:0:
64,192,154604,1,0,0:0:0:0:
320,192,154704,1,0,0:0:0:70:trap snare.wav
448,192,154704,128,0,154904:0:0:0:70:cowbell.wav
192,192,154904,128,0,155104:0:0:0:0:
64,192,155104,1,0,0:0:0:70:strong kick.wav
320,192,155104,128,0,155304:0:0:0:70:hat.wav
64,192,155304,128,0,155504:0:0:0:0:
448,192,155504,1,0,0:0:0:0:
192,192,155704,1,0,0:0:0:0:
320,192,155804,1,0,0:0:0:0:
64,192,155904,1,0,0:0:0:70:strong kick.wav
448,192,155904,1,0,0:0:0:70:hat.wav
192,192,156004,1,0,0:0:0:0:
320,192,156104,1,0,0:0:0:0:
448,192,156204,1,0,0:0:0:0:
64,192,156304,128,0,156504:0:0:0:70:trap snare.wav
192,192,156304,1,0,0:0:0:70:cowbell.wav
320,192,156504,128,0,156704:0:0:0:0:
192,192,156704,128,0,156904:0:0:0:70:hat.wav
448,192,156704,1,0,0:0:0:0:
448,192,156904,128,0,157104:0:0:0:0:
64,192,157104,1,0,0:0:0:70:strong kick.wav
192,192,157104,1,0,0:0:0:0:
320,192,157304,1,0,0:0:0:0:
192,192,157404,1,0,0:0:0:0:
64,192,157504,1,0,0:0:0:70:strong kick.wav
448,192,157504,1,0,0:0:0:70:hat.wav
320,192,157604,1,0,0:0:0:0:
192,192,157704,1,0,0:0:0:0:
64,192,157804,1,0,0:0:0:0:
320,192,157904,1,0,0:0:0:70:trap snare.wav
448,192,157904,128,0,158104:0:0:0:70:cowbell.wav
192,192,158104,128,0,158304:0:0:0:0:
64,192,158304,1,0,0:0:0:70:strong kick.wav
320,192,158304,128,0,158504:0:0:0:70:hat.wav
64,192,158504,128,0,158704:0:0:0:0:
320,192,158704,1,0,0:0:0:0:
448,192,158704,128,0,158904:0:0:0:0:
320,192,158904,1,0,0:0:0:0:
64,192,159104,128,0,159304:0:0:0:70:strong kick.wav
192,192,159104,1,0,0:0:0:70:hat.wav
192,192,159304,1,0,0:0:0:0:
320,192,159504,128,0,159704:0:0:0:70:trap snare.wav
448,192,159504,1,0,0:0:0:70:cowbell.wav
448,192,159704,1,0,0:0:0:0:
64,192,159904,1,0,0:0:0:70:hat.wav
192,192,159904,128,0,160104:0:0:0:0:
64,192,160104,1,0,0:0:0:0:
320,192,160304,1,0,0:0:0:70:strong kick.wav
448,192,160304,1,0,0:0:0:0:
64,192,160504,1,0,0:0:0:0:
192,192,160604,1,0,0:0:0:0:
320,192,160704,1,0,0:0:0:70:strong kick.wav
448,192,160704,1,0,0:0:0:70:hat.wav
64,192,160804,1,0,0:0:0:0:
192,192,160904,1,0,0:0:0:0:
320,192,161004,1,0,0:0:0:0:
64,192,161104,128,0,161304:0:0:0:70:trap snare.wav
448,192,161104,1,0,0:0:0:70:cowbell.wav
448,192,161304,128,0,161504:0:0:0:0:
64,192,161504,1,0,0:0:0:70:strong kick.wav
192,192,161504,128,0,161704:0:0:0:70:hat.wav
320,192,161704,128,0,161904:0:0:0:0:
64,192,161904,1,0,0:0:0:0:
448,192,162104,1,0,0:0:0:0:
320,192,162204,1,0,0:0:0:0:
64,192,162304,1,0,0:0:0:70:strong kick.wav
192,192,162304,1,0,0:0:0:70:hat.wav
448,192,162404,1,0,0:0:0:0:
320,192,162504,1,0,0:0:0:0:
192,192,162604,1,0,0:0:0:0:
64,192,162704,1,0,0:0:0:70:trap snare.wav
448,192,162704,128,0,162904:0:0:0:70:cowbell.wav
64,192,162904,128,0,163104:0:0:0:0:
320,192,163104,128,0,163304:0:0:0:70:hat.wav
448,192,163104,1,0,0:0:0:0:
192,192,163304,128,0,163504:0:0:0:0:
320,192,163504,1,0,0:0:0:70:strong kick.wav
448,192,163504,1,0,0:0:0:0:
64,192,163704,1,0,0:0:0:0:
192,192,163804,1,0,0:0:0:0:
320,192,163904,1,0,0:0:0:70:strong kick.wav
448,192,163904,1,0,0:0:0:70:hat.wav
64,192,164004,1,0,0:0:0:0:
192,192,164104,1,0,0:0:0:0:
320,192,164204,1,0,0:0:0:0:
64,192,164304,128,0,164504:0:0:0:70:trap snare.wav
448,192,164304,1,0,0:0:0:70:cowbell.wav
448,192,164504,128,0,164704:0:0:0:0:
64,192,164704,1,0,0:0:0:70:strong kick.wav
192,192,164704,128,0,164904:0:0:0:70:hat.wav
320,192,164904,128,0,165104:0:0:0:0:
64,192,165104,128,0,165304:0:0:0:0:
192,192,165104,1,0,0:0:0:0:
448,192,165304,1,0,0:0:0:0:
320,192,165504,1,0,0:0:0:70:strong kick.wav
448,192,165504,128,0,165704:0:0:0:70:hat.wav
192,192,165704,1,0,0:0:0:70:cowbell.wav
320,192,165804,1,0,0:0:0:70:cowbell.wav
64,192,165904,128,0,166104:0:0:0:70:trap snare.wav
192,192,165904,1,0,0:0:0:70:cowbell.wav
320,192,166104,1,0,0:0:0:70:strong kick.wav
64,192,166304,1,0,0:0:0:70:trap snare.wav
448,192,166304,128,0,166504:0:0:0:70:hat.wav
192,192,166504,1,0,0:0:0:0:
64,192,166704,128,0,166904:0:0:0:70:strong kick.wav
448,192,166704,1,0,0:0:0:70:hat.wav
320,192,166904,1,0,0:0:0:0:
192,192,167004,1,0,0:0:0:0:
64,192,167104,1,0,0:0:0:70:strong kick.wav
448,192,167104,1,0,0:0:0:70:cymbal.wav
320,192,167204,1,0,0:0:0:0:
192,192,167304,1,0,0:0:0:0:
64,192,167404,1,0,0:0:0:0:
320,192,167504,1,0,0:0:0:70:trap snare.wav
448,192,167504,1,0,0:0:0:70:cowbell.wav
64,192,167604,1,0,0:0:0:0:
192,192,167704,1,0,0:0:0:0:
320,192,167804,1,0,0:0:0:70:strong kick.wav
448,192,167804,1,0,0:0:0:0:
64,192,167904,1,0,0:0:0:70:hat.wav
320,192,168104,1,0,0:0:0:70:strong kick.wav
448,192,168104,128,0,168304:0:0:0:0:
64,192,168304,1,0,0:0:0:70:hat.wav
192,192,168504,1,0,0:0:0:0:
320,192,168604,1,0,0:0:0:0:
64,192,168704,1,0,0:0:0:70:strong kick.wav
448,192,168704,1,0,0:0:0:70:hat.wav
192,192,168804,1,0,0:0:0:0:
320,192,168904,1,0,0:0:0:0:
448,192,169004,1,0,0:0:0:0:
64,192,169104,1,0,0:0:0:70:trap snare.wav
192,192,169104,1,0,0:0:0:70:cowbell.wav
448,192,169204,1,0,0:0:0:0:
320,192,169304,1,0,0:0:0:0:
64,192,169404,1,0,0:0:0:70:strong kick.wav
192,192,169404,1,0,0:0:0:0:
448,192,169504,1,0,0:0:0:70:hat.wav
64,192,169704,128,0,169904:0:0:0:70:strong kick.wav
192,192,169704,1,0,0:0:0:0:
320,192,169904,1,0,0:0:0:70:strong kick.wav
448,192,169904,1,0,0:0:0:70:hat.wav
320,192,170104,1,0,0:0:0:0:
192,192,170204,1,0,0:0:0:0:
64,192,170304,1,0,0:0:0:70:strong kick.wav
448,192,170304,1,0,0:0:0:70:hat.wav
320,192,170404,1,0,0:0:0:0:
192,192,170504,1,0,0:0:0:0:
64,192,170604,1,0,0:0:0:0:
320,192,170704,1,0,0:0:0:70:trap snare.wav
448,192,170704,1,0,0:0:0:70:cowbell.wav
64,192,170804,1,0,0:0:0:0:
192,192,170904,1,0,0:0:0:0:
320,192,171004,1,0,0:0:0:70:strong kick.wav
448,192,171004,1,0,0:0:0:0:
64,192,171104,1,0,0:0:0:70:hat.wav
320,192,171304,1,0,0:0:0:70:strong kick.wav
448,192,171304,128,0,171504:0:0:0:0:
64,192,171504,128,0,171704:0:0:0:70:hat.wav
192,192,171504,1,0,0:0:0:0:
320,192,171604,1,0,0:0:0:0:
448,192,171704,1,0,0:0:0:0:
320,192,171904,1,0,0:0:0:70:strong kick.wav
448,192,171904,128,0,172104:0:0:0:70:hat.wav
192,192,172004,1,0,0:0:0:0:
64,192,172104,1,0,0:0:0:0:
64,192,172304,128,0,172504:0:0:0:70:trap snare.wav
192,192,172304,1,0,0:0:0:70:cowbell.wav
192,192,172604,1,0,0:0:0:70:strong kick.wav
320,192,172704,1,0,0:0:0:70:hat.wav
448,192,172704,128,0,172904:0:0:0:0:
192,192,172904,1,0,0:0:0:70:strong kick.wav
64,192,173304,1,0,0:0:0:70:strong kick.wav
448,192,173304,1,0,0:0:0:0:
320,192,173404,1,0,0:0:0:0:
64,192,173504,1,0,0:0:0:70:strong kick.wav
192,192,173504,1,0,0:0:0:70:cymbal.wav
448,192,173604,1,0,0:0:0:0:
320,192,173704,1,0,0:0:0:0:
192,192,173804,1,0,0:0:0:0:
64,192,173904,1,0,0:0:0:70:trap snare.wav
448,192,173904,1,0,0:0:0:70:cowbell.wav
192,192,174004,1,0,0:0:0:0:
320,192,174104,1,0,0:0:0:0:
64,192,174204,1,0,0:0:0:70:strong kick.wav
448,192,174204,1,0,0:0:0:0:
192,192,174304,1,0,0:0:0:70:hat.wav
64,192,174504,128,0,174704:0:0:0:70:strong kick.wav
448,192,174504,1,0,0:0:0:0:
320,192,174704,1,0,0:0:0:70:strong kick.wav
64,192,174904,1,0,0:0:0:0:
192,192,175004,1,0,0:0:0:0:
320,192,175104,1,0,0:0:0:70:strong kick.wav
448,192,175104,1,0,0:0:0:70:hat.wav
64,192,175204,1,0,0:0:0:0:
192,192,175304,1,0,0:0:0:0:
320,192,175404,1,0,0:0:0:0:
64,192,175504,1,0,0:0:0:70:trap snare.wav
448,192,175504,1,0,0:0:0:70:cowbell.wav
320,192,175604,1,0,0:0:0:0:
192,192,175704,1,0,0:0:0:0:
64,192,175804,1,0,0:0:0:70:strong kick.wav
448,192,175804,1,0,0:0:0:0:
320,192,175904,1,0,0:0:0:70:hat.wav
64,192,176104,1,0,0:0:0:70:strong kick.wav
448,192,176104,128,0,176304:0:0:0:0:
64,192,176304,1,0,0:0:0:70:strong kick.wav
192,192,176304,1,0,0:0:0:70:hat.wav
448,192,176504,1,0,0:0:0:0:
320,192,176604,1,0,0:0:0:0:
64,192,176704,1,0,0:0:0:70:strong kick.wav
192,192,176704,1,0,0:0:0:70:hat.wav
448,192,176804,1,0,0:0:0:0:
320,192,176904,1,0,0:0:0:0:
192,192,177004,1,0,0:0:0:0:
64,192,177104,1,0,0:0:0:70:trap snare.wav
448,192,177104,1,0,0:0:0:70:cowbell.wav
192,192,177204,1,0,0:0:0:0:
320,192,177304,1,0,0:0:0:0:
64,192,177404,1,0,0:0:0:70:strong kick.wav
448,192,177404,1,0,0:0:0:0:
192,192,177504,1,0,0:0:0:70:hat.wav
64,192,177704,1,0,0:0:0:70:strong kick.wav
448,192,177704,1,0,0:0:0:0:
448,192,177904,1,0,0:0:0:70:strong kick.wav
320,192,178104,1,0,0:0:0:0:
64,192,178304,1,0,0:0:0:0:
192,192,178504,1,0,0:0:0:0:
320,192,178704,1,0,0:0:0:70:snap.wav
448,192,178704,1,0,0:0:0:0:
192,192,178904,1,0,0:0:0:0:
64,192,179104,1,0,0:0:0:0:
448,192,179304,1,0,0:0:0:0:
