osu file format v14

[General]
AudioFilename: audio.mp3
AudioLeadIn: 0
PreviewTime: 153904
Countdown: 0
SampleSet: Soft
StackLeniency: 0.7
Mode: 3
LetterboxInBreaks: 0
EpilepsyWarning: 1
SpecialStyle: 0
WidescreenStoryboard: 1

[Editor]
Bookmarks: 304,13104,25904,38704,51504,64304,77104,89904,102704,115504,128304,141104,153904,166704
DistanceSpacing: 1
BeatDivisor: 4
GridSize: 32
TimelineZoom: 1.7

[Metadata]
Title:Rainy Girl
TitleUnicode:レイニーガール
Artist:HoneyComeBear
ArtistUnicode:ハニカムベアー
Creator:chocomilku-
Version:4K Easy
Source:
Tags:mg mpg mappers' guild featured artist fa HCB Kaako Monkey kawaii future bass electronic jpop j-pop japanese pop female vocalist vocals hybrid single above and beyond priority quest
BeatmapID:4469257
BeatmapSetID:2015361

[Difficulty]
HPDrainRate:6.5
CircleSize:4
OverallDifficulty:6.4
ApproachRate:5
SliderMultiplier:1.4
SliderTickRate:1

[Events]
//Background and Video events
0,0,"bg.jpg",0,0
//Break Periods
//Storyboard Layer 0 (Background)
Sprite,Background,Centre,"bg.jpg",320,240 F,0,0,,0
//Storyboard Layer 1 (Fail)
//Storyboard Layer 2 (Pass)
//Storyboard Layer 3 (Foreground)
Sprite,Foreground,Centre,"sb/miniFont/005b.png",285,431.75 S,0,64704,,0.5 F,0,64504,64704,0,1 F,0,89703,89903,1,0
Sprite,Foreground,Centre,"sb/miniFont/0034.png",293,431.75 S,0,64704,,0.5 F,0,64504,64704,0,1 F,0,89703,89903,1,0
Sprite,Foreground,Centre,"sb/miniFont/004b.png",302.25,431.75 S,0,64704,,0.5 F,0,64504,64704,0,1 F,0,89703,89903,1,0
Sprite,Foreground,Centre,"sb/miniFont/0045.png",318.75,431.75 S,0,64704,,0.5 F,0,64504,64704,0,1 F,0,89703,89903,1,0
Sprite,Foreground,Centre,"sb/miniFont/0061.png",328.25,431.75 S,0,64704,,0.5 F,0,64504,64704,0,1 F,0,89703,89903,1,0
Sprite,Foreground,Centre,"sb/miniFont/0073.png",337.75,431.75 S,0,64704,,0.5 F,0,64504,64704,0,1 F,0,89703,89903,1,0
Sprite,Foreground,Centre,"sb/miniFont/0079.png",347,431.75 S,0,64704,,0.5 F,0,64504,64704,0,1 F,0,89703,89903,1,0
Sprite,Foreground,Centre,"sb/miniFont/005d.png",355,431.75 S,0,64704,,0.5 F,0,64504,64704,0,1 F,0,89703,89903,1,0
Sprite,Foreground,Centre,"sb/miniFont/005b.png",285,431.75 S,0,154304,,0.5 F,0,154104,154304,0,1 F,0,177704,177904,1,0
Sprite,Foreground,Centre,"sb/miniFont/0034.png",293,431.75 S,0,154304,,0.5 F,0,154104,154304,0,1 F,0,177704,177904,1,0
Sprite,Foreground,Centre,"sb/miniFont/004b.png",302.25,431.75 S,0,154304,,0.5 F,0,154104,154304,0,1 F,0,177704,177904,1,0
Sprite,Foreground,Centre,"sb/miniFont/0045.png",318.75,431.75 S,0,154304,,0.5 F,0,154104,154304,0,1 F,0,177704,177904,1,0
Sprite,Foreground,Centre,"sb/miniFont/0061.png",328.25,431.75 S,0,154304,,0.5 F,0,154104,154304,0,1 F,0,177704,177904,1,0
Sprite,Foreground,Centre,"sb/miniFont/0073.png",337.75,431.75 S,0,154304,,0.5 F,0,154104,154304,0,1 F,0,177704,177904,1,0
Sprite,Foreground,Centre,"sb/miniFont/0079.png",347,431.75 S,0,154304,,0.5 F,0,154104,154304,0,1 F,0,177704,177904,1,0
Sprite,Foreground,Centre,"sb/miniFont/005d.png",355,431.75 S,0,154304,,0.5 F,0,154104,154304,0,1 F,0,177704,177904,1,0
Sprite,Foreground,Centre,"sb/p.png",640.25,240 V,0,0,,207.095,854 F,19,24904,25104,0,0.08 F,15,25104,25304,0.08,0 C,0,0,,247,239,158 P,0,24904,25304,A
Sprite,Foreground,Centre,"sb/p.png",-0.25,240 V,0,0,,207.095,854 F,19,36904,37104,0,0.08 F,15,37104,37304,0.08,0 C,0,0,,247,239,158 P,0,36904,37304,A
Sprite,Foreground,Centre,"sb/p.png",640.25,240 V,0,0,,207.095,854 F,19,37304,37504,0,0.08 F,15,37504,37704,0.08,0 C,0,0,,247,239,158 P,0,37304,37704,A
Sprite,Foreground,Centre,"sb/p.png",213.25,240 V,0,0,,207.095,854 F,19,37704,37904,0,0.08 F,15,37904,38104,0.08,0 C,0,0,,247,239,158 P,0,37704,38104,A
Sprite,Foreground,Centre,"sb/p.png",426.75,240 V,0,0,,207.095,854 F,19,38104,38304,0,0.08 F,15,38304,38504,0.08,0 C,0,0,,247,239,158 P,0,38104,38504,A
Sprite,Foreground,Centre,"sb/p.png",640.25,240 V,0,0,,207.095,854 F,19,50504,50704,0,0.08 F,15,50704,50904,0.08,0 C,0,0,,247,239,158 P,0,50504,50904,A
Sprite,Foreground,Centre,"sb/p.png",-0.25,240 V,0,0,,207.095,854 F,19,50904,51104,0,0.08 F,15,51104,51304,0.08,0 C,0,0,,247,239,158 P,0,50904,51304,A
Sprite,Foreground,Centre,"sb/p.png",-0.25,240 V,0,0,,207.095,854 F,19,60904,61104,0,0.08 F,15,61104,61304,0.08,0 C,0,0,,247,239,158 P,0,60904,61304,A
Sprite,Foreground,Centre,"sb/p.png",213.25,240 V,0,0,,207.095,854 F,19,60904,61104,0,0.08 F,15,61104,61304,0.08,0 C,0,0,,247,239,158 P,0,60904,61304,A
Sprite,Foreground,Centre,"sb/p.png",426.75,240 V,0,0,,207.095,854 F,19,61304,61504,0,0.08 F,15,61504,61704,0.08,0 C,0,0,,247,239,158 P,0,61304,61704,A
Sprite,Foreground,Centre,"sb/p.png",640.25,240 V,0,0,,207.095,854 F,19,61304,61504,0,0.08 F,15,61504,61704,0.08,0 C,0,0,,247,239,158 P,0,61304,61704,A
Sprite,Foreground,Centre,"sb/p.png",-0.25,240 V,0,0,,207.095,854 F,19,61704,61904,0,0.08 F,15,61904,62104,0.08,0 C,0,0,,247,239,158 P,0,61704,62104,A
Sprite,Foreground,Centre,"sb/p.png",213.25,240 V,0,0,,207.095,854 F,19,61704,61904,0,0.08 F,15,61904,62104,0.08,0 C,0,0,,247,239,158 P,0,61704,62104,A
Sprite,Foreground,Centre,"sb/p.png",426.75,240 V,0,0,,207.095,854 F,19,62104,62304,0,0.08 F,15,62304,62504,0.08,0 C,0,0,,247,239,158 P,0,62104,62504,A
Sprite,Foreground,Centre,"sb/p.png",640.25,240 V,0,0,,207.095,854 F,19,62104,62304,0,0.08 F,15,62304,62504,0.08,0 C,0,0,,247,239,158 P,0,62104,62504,A
Sprite,Foreground,Centre,"sb/p.png",-0.25,240 V,0,0,,207.095,854 F,19,76104,76304,0,0.08 F,15,76304,76504,0.08,0 C,0,0,,247,239,158 P,0,76104,76504,A
Sprite,Foreground,Centre,"sb/p.png",213.25,240 V,0,0,,207.095,854 F,19,76504,76704,0,0.08 F,15,76704,76904,0.08,0 C,0,0,,247,239,158 P,0,76504,76904,A
Sprite,Foreground,Centre,"sb/p.png",-0.25,240 V,0,0,,207.095,854 F,19,101104,101304,0,0.08 F,15,101304,101504,0.08,0 C,0,0,,247,239,158 P,0,101104,101504,A
Sprite,Foreground,Centre,"sb/p.png",213.25,240 V,0,0,,207.095,854 F,19,101504,101704,0,0.08 F,15,101704,101904,0.08,0 C,0,0,,247,239,158 P,0,101504,101904,A
Sprite,Foreground,Centre,"sb/p.png",-0.25,240 V,0,0,,207.095,854 F,19,101704,101904,0,0.08 F,15,101904,102104,0.08,0 C,0,0,,247,239,158 P,0,101704,102104,A
Sprite,Foreground,Centre,"sb/p.png",640.25,240 V,0,0,,207.095,854 F,19,113704,113904,0,0.08 F,15,113904,114104,0.08,0 C,0,0,,247,239,158 P,0,113704,114104,A
Sprite,Foreground,Centre,"sb/p.png",-0.25,240 V,0,0,,207.095,854 F,19,114104,114304,0,0.08 F,15,114304,114504,0.08,0 C,0,0,,247,239,158 P,0,114104,114504,A
Sprite,Foreground,Centre,"sb/p.png",426.75,240 V,0,0,,207.095,854 F,19,114504,114704,0,0.08 F,15,114704,114904,0.08,0 C,0,0,,247,239,158 P,0,114504,114904,A
Sprite,Foreground,Centre,"sb/p.png",213.25,240 V,0,0,,207.095,854 F,19,114904,115104,0,0.08 F,15,115104,115304,0.08,0 C,0,0,,247,239,158 P,0,114904,115304,A
Sprite,Foreground,Centre,"sb/p.png",-0.25,240 V,0,0,,207.095,854 F,19,127304,127504,0,0.08 F,15,127504,127704,0.08,0 C,0,0,,247,239,158 P,0,127304,127704,A
Sprite,Foreground,Centre,"sb/p.png",640.25,240 V,0,0,,207.095,854 F,19,127704,127904,0,0.08 F,15,127904,128104,0.08,0 C,0,0,,247,239,158 P,0,127704,128104,A
Sprite,Foreground,Centre,"sb/p.png",-0.25,240 V,0,0,,207.095,854 F,19,150504,150704,0,0.08 F,15,150704,150904,0.08,0 C,0,0,,247,239,158 P,0,150504,150904,A
Sprite,Foreground,Centre,"sb/p.png",213.25,240 V,0,0,,207.095,854 F,19,150504,150704,0,0.08 F,15,150704,150904,0.08,0 C,0,0,,247,239,158 P,0,150504,150904,A
Sprite,Foreground,Centre,"sb/p.png",426.75,240 V,0,0,,207.095,854 F,19,150904,151104,0,0.08 F,15,151104,151304,0.08,0 C,0,0,,247,239,158 P,0,150904,151304,A
Sprite,Foreground,Centre,"sb/p.png",640.25,240 V,0,0,,207.095,854 F,19,150904,151104,0,0.08 F,15,151104,151304,0.08,0 C,0,0,,247,239,158 P,0,150904,151304,A
Sprite,Foreground,Centre,"sb/p.png",-0.25,240 V,0,0,,207.095,854 F,19,151304,151504,0,0.08 F,15,151504,151704,0.08,0 C,0,0,,247,239,158 P,0,151304,151704,A
Sprite,Foreground,Centre,"sb/p.png",213.25,240 V,0,0,,207.095,854 F,19,151304,151504,0,0.08 F,15,151504,151704,0.08,0 C,0,0,,247,239,158 P,0,151304,151704,A
Sprite,Foreground,Centre,"sb/p.png",426.75,240 V,0,0,,207.095,854 F,19,151704,151904,0,0.08 F,15,151904,152104,0.08,0 C,0,0,,247,239,158 P,0,151704,152104,A
Sprite,Foreground,Centre,"sb/p.png",640.25,240 V,0,0,,207.095,854 F,19,151704,151904,0,0.08 F,15,151904,152104,0.08,0 C,0,0,,247,239,158 P,0,151704,152104,A
Sprite,Foreground,Centre,"sb/p.png",640.25,240 V,0,0,,207.095,854 F,19,165704,165904,0,0.08 F,15,165904,166104,0.08,0 C,0,0,,247,239,158 P,0,165704,166104,A
Sprite,Foreground,Centre,"sb/p.png",426.75,240 V,0,0,,207.095,854 F,19,166104,166304,0,0.08 F,15,166304,166504,0.08,0 C,0,0,,247,239,158 P,0,166104,166504,A
Sprite,Foreground,Centre,"sb/p.png",640.25,240 V,0,0,,207.095,854 F,19,177704,177904,0,0.08 F,15,177904,178104,0.08,0 C,0,0,,247,239,158 P,0,177704,178104,A
Sprite,Foreground,Centre,"sb/p.png",426.75,240 V,0,0,,207.095,854 F,19,178104,178304,0,0.08 F,15,178304,178504,0.08,0 C,0,0,,247,239,158 P,0,178104,178504,A
Sprite,Foreground,Centre,"sb/p.png",-0.25,240 V,0,0,,207.095,854 F,19,178504,178704,0,0.08 F,15,178704,178904,0.08,0 C,0,0,,247,239,158 P,0,178504,178904,A
Sprite,Foreground,Centre,"sb/p.png",213.25,240 V,0,0,,207.095,854 F,19,178904,179104,0,0.08 F,15,179104,179304,0.08,0 C,0,0,,247,239,158 P,0,178904,179304,A
Sprite,Foreground,Centre,"sb/p.png",426.75,240 V,0,0,,207.095,854 F,19,179104,179304,0,0.08 F,15,179304,179504,0.08,0 C,0,0,,247,239,158 P,0,179104,179504,A
//Storyboard Layer 4 (Overlay)
Sprite,Overlay,Centre,"sb/ripple.png",378.4471,328 S,22,40104,40504,0,0.85 S,0,40504,40904,0.85,1 F,17,40104,40304,0,0.85 F,17,40304,40904,0.85,0
Sprite,Overlay,Centre,"sb/ripple.png",156.0271,256 S,22,41704,42104,0,0.85 S,0,42104,42504,0.85,1 F,17,41704,41904,0,0.85 F,17,41904,42504,0.85,0
Sprite,Overlay,Centre,"sb/ripple.png",703.0119,256 S,22,43304,43704,0,0.85 S,0,43704,44104,0.85,1 F,17,43304,43504,0,0.85 F,17,43504,44104,0.85,0
Sprite,Overlay,Centre,"sb/ripple.png",553.5632,223 S,22,44904,45304,0,0.85 S,0,45304,45704,0.85,1 F,17,44904,45104,0,0.85 F,17,45104,45704,0.85,0
Sprite,Overlay,Centre,"sb/ripple.png",111.2931,176 S,22,46504,46904,0,0.85 S,0,46904,47304,0.85,1 F,17,46504,46704,0,0.85 F,17,46704,47304,0.85,0
Sprite,Overlay,Centre,"sb/ripple.png",471.178,230 S,22,48104,48504,0,0.85 S,0,48504,48904,0.85,1 F,17,48104,48304,0,0.85 F,17,48304,48904,0.85,0
Sprite,Overlay,Centre,"sb/ripple.png",-28.57271,231 S,22,49704,50104,0,0.85 S,0,50104,50504,0.85,1 F,17,49704,49904,0,0.85 F,17,49904,50504,0.85,0
Sprite,Overlay,Centre,"sb/ripple.png",110.3107,108 S,22,116904,117304,0,0.85 S,0,117304,117704,0.85,1 F,17,116904,117104,0,0.85 F,17,117104,117704,0.85,0
Sprite,Overlay,Centre,"sb/ripple.png",349.384,378 S,22,118504,118904,0,0.85 S,0,118904,119304,0.85,1 F,17,118504,118704,0,0.85 F,17,118704,119304,0.85,0
Sprite,Overlay,Centre,"sb/ripple.png",-38.07817,188 S,22,120104,120504,0,0.85 S,0,120504,120904,0.85,1 F,17,120104,120304,0,0.85 F,17,120304,120904,0.85,0
Sprite,Overlay,Centre,"sb/ripple.png",-67.90984,337 S,22,121704,122104,0,0.85 S,0,122104,122504,0.85,1 F,17,121704,121904,0,0.85 F,17,121904,122504,0.85,0
Sprite,Overlay,Centre,"sb/ripple.png",321.7289,109 S,22,123304,123704,0,0.85 S,0,123704,124104,0.85,1 F,17,123304,123504,0,0.85 F,17,123504,124104,0.85,0
Sprite,Overlay,Centre,"sb/ripple.png",170.5624,247 S,22,124904,125304,0,0.85 S,0,125304,125704,0.85,1 F,17,124904,125104,0,0.85 F,17,125104,125704,0.85,0
Sprite,Overlay,Centre,"sb/ripple.png",547.587,292 S,22,126504,126904,0,0.85 S,0,126904,127304,0.85,1 F,17,126504,126704,0,0.85 F,17,126704,127304,0.85,0
//Storyboard Sound Samples
Sample,25904,0,"hat.wav",70
Sample,26704,0,"hat.wav",70
Sample,27104,0,"hat.wav",70
Sample,27904,0,"hat.wav",70
Sample,28304,0,"hat.wav",70
Sample,29104,0,"hat.wav",70
Sample,29904,0,"hat.wav",70
Sample,30304,0,"hat.wav",70
Sample,32304,0,"hat.wav",70
Sample,33104,0,"hat.wav",70
Sample,33504,0,"hat.wav",70
Sample,34304,0,"hat.wav",70
Sample,34704,0,"hat.wav",70
Sample,35504,0,"hat.wav",70
Sample,36304,0,"hat.wav",70
Sample,36704,0,"hat.wav",70
Sample,51504,0,"hat.wav",70
Sample,51904,0,"hat.wav",70
Sample,52704,0,"hat.wav",70
Sample,53504,0,"hat.wav",70
Sample,55104,0,"hat.wav",70
Sample,55904,0,"hat.wav",70
Sample,56704,0,"hat.wav",70
Sample,58304,0,"hat.wav",70
Sample,59104,0,"hat.wav",70
Sample,59904,0,"hat.wav",70
Sample,64704,0,"cymbal.wav",70
Sample,65104,0,"cowbell.wav",70
Sample,65504,0,"hat.wav",70
Sample,66304,0,"hat.wav",70
Sample,66704,0,"cowbell.wav",70
Sample,67904,0,"hat.wav",70
Sample,68304,0,"cowbell.wav",70
Sample,68704,0,"hat.wav",70
Sample,69504,0,"hat.wav",70
Sample,69904,0,"cowbell.wav",70
Sample,71104,0,"hat.wav",70
Sample,71504,0,"cowbell.wav",70
Sample,71904,0,"hat.wav",70
Sample,72704,0,"hat.wav",70
Sample,73104,0,"cowbell.wav",70
Sample,74304,0,"hat.wav",70
Sample,74704,0,"cowbell.wav",70
Sample,75104,0,"hat.wav",70
Sample,75904,0,"hat.wav",70
Sample,76304,0,"cowbell.wav",70
Sample,76704,0,"hat.wav",70
Sample,77104,0,"hat.wav",70
Sample,77504,0,"cymbal.wav",70
Sample,77904,0,"cowbell.wav",70
Sample,79104,0,"hat.wav",70
Sample,79504,0,"cowbell.wav",70
Sample,80304,0,"hat.wav",70
Sample,80704,0,"hat.wav",70
Sample,81104,0,"cowbell.wav",70
Sample,82304,0,"hat.wav",70
Sample,82704,0,"cowbell.wav",70
Sample,83904,0,"cymbal.wav",70
Sample,84304,0,"cowbell.wav",70
Sample,85104,0,"hat.wav",70
Sample,85504,0,"hat.wav",70
Sample,85904,0,"cowbell.wav",70
Sample,86704,0,"hat.wav",70
Sample,87104,0,"hat.wav",70
Sample,87504,0,"cowbell.wav",70
Sample,89104,0,"cowbell.wav",70
Sample,93104,0,"hat.wav",70
Sample,93904,0,"hat.wav",70
Sample,94304,0,"hat.wav",70
Sample,96304,0,"hat.wav",70
Sample,97104,0,"hat.wav",70
Sample,97504,0,"hat.wav",70
Sample,98304,0,"hat.wav",70
Sample,98704,0,"hat.wav",70
Sample,99504,0,"hat.wav",70
Sample,100304,0,"hat.wav",70
Sample,100704,0,"hat.wav",70
Sample,101504,0,"hat.wav",70
Sample,101904,0,"hat.wav",70
Sample,102704,0,"hat.wav",70
Sample,103504,0,"hat.wav",70
Sample,103904,0,"hat.wav",70
Sample,104704,0,"hat.wav",70
Sample,105104,0,"hat.wav",70
Sample,105904,0,"hat.wav",70
Sample,106704,0,"hat.wav",70
Sample,107104,0,"hat.wav",70
Sample,109104,0,"hat.wav",70
Sample,109904,0,"hat.wav",70
Sample,110304,0,"hat.wav",70
Sample,111104,0,"hat.wav",70
Sample,111504,0,"hat.wav",70
Sample,112304,0,"hat.wav",70
Sample,113104,0,"hat.wav",70
Sample,113504,0,"hat.wav",70
Sample,128304,0,"hat.wav",70
Sample,128704,0,"hat.wav",70
Sample,129504,0,"hat.wav",70
Sample,130304,0,"hat.wav",70
Sample,131904,0,"hat.wav",70
Sample,132704,0,"hat.wav",70
Sample,133504,0,"hat.wav",70
Sample,134704,0,"hat.wav",70
Sample,135104,0,"hat.wav",70
Sample,135904,0,"hat.wav",70
Sample,136704,0,"hat.wav",70
Sample,138304,0,"hat.wav",70
Sample,139104,0,"hat.wav",70
Sample,139904,0,"hat.wav",70
Sample,141104,0,"hat.wav",70
Sample,141504,0,"hat.wav",70
Sample,142304,0,"hat.wav",70
Sample,143104,0,"hat.wav",70
Sample,144704,0,"hat.wav",70
Sample,145504,0,"hat.wav",70
Sample,146304,0,"hat.wav",70
Sample,147504,0,"hat.wav",70
Sample,147904,0,"hat.wav",70
Sample,148704,0,"hat.wav",70
Sample,149504,0,"hat.wav",70
Sample,154304,0,"cymbal.wav",70
Sample,154704,0,"cowbell.wav",70
Sample,155104,0,"hat.wav",70
Sample,155904,0,"hat.wav",70
Sample,156304,0,"cowbell.wav",70
Sample,157504,0,"hat.wav",70
Sample,157904,0,"cowbell.wav",70
Sample,158304,0,"hat.wav",70
Sample,159104,0,"hat.wav",70
Sample,159504,0,"cowbell.wav",70
Sample,160704,0,"hat.wav",70
Sample,161104,0,"cowbell.wav",70
Sample,161504,0,"hat.wav",70
Sample,162304,0,"hat.wav",70
Sample,162704,0,"cowbell.wav",70
Sample,163904,0,"hat.wav",70
Sample,164304,0,"cowbell.wav",70
Sample,164704,0,"hat.wav",70
Sample,165504,0,"hat.wav",70
Sample,165904,0,"cowbell.wav",70
Sample,166304,0,"hat.wav",70
Sample,166704,0,"hat.wav",70
Sample,167104,0,"cymbal.wav",70
Sample,167504,0,"cowbell.wav",70
Sample,168704,0,"hat.wav",70
Sample,169104,0,"cowbell.wav",70
Sample,169904,0,"hat.wav",70
Sample,170304,0,"hat.wav",70
Sample,170704,0,"cowbell.wav",70
Sample,171904,0,"hat.wav",70
Sample,172304,0,"cowbell.wav",70
Sample,173504,0,"cymbal.wav",70
Sample,173904,0,"cowbell.wav",70
Sample,174704,0,"hat.wav",70
Sample,175104,0,"hat.wav",70
Sample,175504,0,"cowbell.wav",70
Sample,176304,0,"hat.wav",70
Sample,176704,0,"hat.wav",70
Sample,177104,0,"cowbell.wav",70

[TimingPoints]
304,400.0,4,2,1,100,1,0
77504,-100.0,4,2,1,100,0,1
83304,-100.0,4,2,1,100,0,0
83904,-100.0,4,2,1,100,0,1
89904,-100.0,4,2,1,100,0,0
167104,-100.0,4,2,1,100,0,1
172904,-100.0,4,2,1,100,0,0
173504,-100.0,4,2,1,100,0,1
177904,-100.0,4,2,1,100,0,0

[HitObjects]
64,192,304,128,0,1904:0:0:0:70:cymbal.wav
320,192,1904,128,0,3504:0:0:0:0:
192,192,3504,128,0,5104:0:0:0:0:
448,192,5104,128,0,5704:0:0:0:0:
64,192,5704,128,0,6704:0:0:0:0:
448,192,6704,128,0,8304:0:0:0:70:cymbal.wav
192,192,8304,128,0,9904:0:0:0:0:
320,192,9904,128,0,11504:0:0:0:0:
64,192,11504,128,0,11904:0:0:0:0:
192,192,11904,128,0,12304:0:0:0:0:
448,192,12304,128,0,12704:0:0:0:0:
320,192,12704,128,0,13104:0:0:0:0:
64,192,13104,1,0,0:0:0:70:strong kick.wav
448,192,13504,128,0,13904:0:0:0:0:
320,192,13904,128,0,14304:0:0:0:70:snap.wav
192,192,14304,128,0,14704:0:0:0:70:strong kick.wav
192,192,15104,128,0,15504:0:0:0:70:strong kick.wav
320,192,15504,128,0,15904:0:0:0:70:snap.wav
448,192,15904,128,0,16304:0:0:0:0:
64,192,16304,1,0,0:0:0:70:strong kick.wav
448,192,16704,1,0,0:0:0:0:
448,192,17104,1,0,0:0:0:70:snap.wav
192,192,17504,128,0,17904:0:0:0:70:strong kick.wav
448,192,17904,128,0,18304:0:0:0:0:
320,192,18504,128,0,18904:0:0:0:0:
192,192,19104,128,0,19504:0:0:0:0:
448,192,19504,1,0,0:0:0:70:strong kick.wav
64,192,19904,128,0,20304:0:0:0:0:
192,192,20304,128,0,20704:0:0:0:70:snap.wav
320,192,20704,128,0,21104:0:0:0:70:strong kick.wav
320,192,21504,128,0,21904:0:0:0:70:strong kick.wav
192,192,21904,128,0,22304:0:0:0:70:snap.wav
64,192,22304,128,0,22704:0:0:0:0:
448,192,22704,1,0,0:0:0:70:strong kick.wav
64,192,23104,1,0,0:0:0:0:
64,192,23504,1,0,0:0:0:70:snap.wav
320,192,23904,1,0,0:0:0:70:strong kick.wav
192,192,24304,1,0,0:0:0:0:
192,192,24704,1,0,0:0:0:70:strong kick.wav
448,192,25104,128,0,25904:0:0:0:70:snap.wav
64,192,25904,1,0,0:0:0:70:strong kick.wav
192,192,26104,1,0,0:0:0:0:
448,192,26304,128,0,26704:0:0:0:70:hat.wav
320,192,26704,128,0,27104:0:0:0:70:snap.wav
192,192,27104,128,0,27504:0:0:0:70:strong kick.wav
448,192,27504,1,0,0:0:0:70:hat.wav
320,192,27704,1,0,0:0:0:0:
192,192,27904,128,0,28304:0:0:0:70:strong kick.wav
320,192,28304,128,0,28704:0:0:0:70:snap.wav
448,192,28704,128,0,29104:0:0:0:70:hat.wav
64,192,29104,1,0,0:0:0:70:strong kick.wav
192,192,29304,1,0,0:0:0:0:
448,192,29504,1,0,0:0:0:70:hat.wav
448,192,29904,1,0,0:0:0:70:snap.wav
192,192,30304,128,0,30704:0:0:0:70:strong kick.wav
448,192,30704,128,0,31104:0:0:0:70:hat.wav
320,192,31304,128,0,31704:0:0:0:0:
192,192,31904,128,0,32304:0:0:0:70:hat.wav
448,192,32304,1,0,0:0:0:70:strong kick.wav
320,192,32504,1,0,0:0:0:0:
64,192,32704,128,0,33104:0:0:0:70:hat.wav
192,192,33104,128,0,33504:0:0:0:70:snap.wav
320,192,33504,128,0,33904:0:0:0:70:strong kick.wav
64,192,33904,1,0,0:0:0:70:hat.wav
192,192,34104,1,0,0:0:0:0:
320,192,34304,128,0,34704:0:0:0:70:strong kick.wav
192,192,34704,128,0,35104:0:0:0:70:snap.wav
64,192,35104,128,0,35504:0:0:0:70:hat.wav
448,192,35504,1,0,0:0:0:70:strong kick.wav
320,192,35704,1,0,0:0:0:0:
64,192,35904,1,0,0:0:0:70:hat.wav
64,192,36304,1,0,0:0:0:70:snap.wav
320,192,36704,1,0,0:0:0:70:strong kick.wav
64,192,37104,128,0,37504:0:0:0:70:trap snare.wav
448,192,37504,128,0,37904:0:0:0:70:trap snare.wav
192,192,37904,128,0,38304:0:0:0:70:trap snare.wav
320,192,38304,128,0,38704:0:0:0:70:trap snare.wav
64,192,38704,128,0,40304:0:0:0:70:strong kick.wav
320,192,40304,128,0,41904:0:0:0:0:
192,192,41904,128,0,43504:0:0:0:0:
448,192,43504,128,0,44104:0:0:0:0:
64,192,44104,128,0,45104:0:0:0:0:
448,192,45104,128,0,46704:0:0:0:0:
192,192,46704,128,0,48304:0:0:0:0:
320,192,48304,128,0,49904:0:0:0:0:
64,192,49904,128,0,50704:0:0:0:0:
448,192,50704,128,0,51104:0:0:0:0:
64,192,51104,128,0,51504:0:0:0:0:
448,192,51504,1,0,0:0:0:70:kick.wav
320,192,51904,1,0,0:0:0:70:kick.wav
64,192,52304,1,0,0:0:0:70:snare.wav
192,192,52304,1,0,0:0:0:0:
320,192,52704,1,0,0:0:0:70:kick.wav
320,192,53504,1,0,0:0:0:70:kick.wav
64,192,53904,1,0,0:0:0:70:snare.wav
192,192,53904,1,0,0:0:0:0:
448,192,54104,1,0,0:0:0:70:kick.wav
64,192,54704,1,0,0:0:0:70:kick.wav
192,192,55104,1,0,0:0:0:70:kick.wav
320,192,55504,1,0,0:0:0:70:snare.wav
448,192,55504,1,0,0:0:0:0:
192,192,55904,1,0,0:0:0:70:kick.wav
192,192,56704,1,0,0:0:0:70:kick.wav
320,192,57104,1,0,0:0:0:70:snare.wav
448,192,57104,1,0,0:0:0:0:
64,192,57304,1,0,0:0:0:70:kick.wav
448,192,57904,1,0,0:0:0:70:kick.wav
320,192,58304,1,0,0:0:0:70:kick.wav
64,192,58704,1,0,0:0:0:70:snare.wav
192,192,58704,1,0,0:0:0:0:
320,192,59104,1,0,0:0:0:70:kick.wav
320,192,59904,1,0,0:0:0:70:kick.wav
64,192,60304,1,0,0:0:0:70:snare.wav
192,192,60304,1,0,0:0:0:0:
448,192,60504,1,0,0:0:0:70:kick.wav
64,192,61104,1,0,0:0:0:70:kick.wav
192,192,61104,1,0,0:0:0:70:cymbal.wav
320,192,61504,1,0,0:0:0:70:kick.wav
448,192,61504,1,0,0:0:0:70:cymbal.wav
64,192,61904,1,0,0:0:0:70:kick.wav
192,192,61904,1,0,0:0:0:70:cymbal.wav
320,192,62304,1,0,0:0:0:70:kick.wav
448,192,62304,1,0,0:0:0:70:cymbal.wav
192,192,63904,1,0,0:0:0:70:trap snare.wav
320,192,63904,1,0,0:0:0:70:cowbell.wav
64,192,64304,1,0,0:0:0:70:strong kick.wav
448,192,64504,1,0,0:0:0:0:
320,192,64704,1,0,0:0:0:70:strong kick.wav
192,192,64904,1,0,0:0:0:0:
64,192,65104,128,0,65504:0:0:0:70:trap snare.wav
448,192,65504,128,0,65904:0:0:0:70:strong kick.wav
320,192,65904,1,0,0:0:0:0:
64,192,66104,1,0,0:0:0:0:
192,192,66304,1,0,0:0:0:70:strong kick.wav
320,192,66504,1,0,0:0:0:0:
448,192,66704,128,0,67104:0:0:0:70:trap snare.wav
64,192,67104,128,0,67504:0:0:0:70:hat.wav
192,192,67504,1,0,0:0:0:70:strong kick.wav
448,192,67704,1,0,0:0:0:0:
320,192,67904,1,0,0:0:0:70:strong kick.wav
192,192,68104,1,0,0:0:0:0:
64,192,68304,128,0,68704:0:0:0:70:trap snare.wav
448,192,68704,128,0,69104:0:0:0:70:strong kick.wav
192,192,69104,128,0,69504:0:0:0:0:
320,192,69504,128,0,69904:0:0:0:70:strong kick.wav
64,192,69904,128,0,70304:0:0:0:70:trap snare.wav
448,192,70304,128,0,70704:0:0:0:70:hat.wav
320,192,70704,1,0,0:0:0:70:strong kick.wav
64,192,70904,1,0,0:0:0:0:
320,192,71104,1,0,0:0:0:70:strong kick.wav
192,192,71304,1,0,0:0:0:0:
448,192,71504,128,0,71904:0:0:0:70:trap snare.wav
64,192,71904,128,0,72304:0:0:0:70:strong kick.wav
192,192,72304,1,0,0:0:0:0:
448,192,72504,1,0,0:0:0:0:
192,192,72704,1,0,0:0:0:70:strong kick.wav
320,192,72904,1,0,0:0:0:0:
64,192,73104,128,0,73504:0:0:0:70:trap snare.wav
448,192,73504,128,0,73904:0:0:0:70:hat.wav
320,192,73904,1,0,0:0:0:70:strong kick.wav
64,192,74104,1,0,0:0:0:0:
320,192,74304,1,0,0:0:0:70:strong kick.wav
192,192,74504,1,0,0:0:0:0:
448,192,74704,128,0,75104:0:0:0:70:trap snare.wav
64,192,75104,128,0,75504:0:0:0:70:strong kick.wav
448,192,75504,1,0,0:0:0:0:
320,192,75904,1,0,0:0:0:70:strong kick.wav
64,192,76304,1,0,0:0:0:70:trap snare.wav
192,192,76704,1,0,0:0:0:70:trap snare.wav
64,192,77104,1,0,0:0:0:70:strong kick.wav
448,192,77304,1,0,0:0:0:0:
320,192,77504,1,0,0:0:0:70:strong kick.wav
192,192,77704,1,0,0:0:0:0:
64,192,77904,1,0,0:0:0:70:trap snare.wav
320,192,78204,1,0,0:0:0:70:strong kick.wav
320,192,78504,1,0,0:0:0:70:strong kick.wav
448,192,78704,1,0,0:0:0:70:hat.wav
64,192,78904,1,0,0:0:0:0:
192,192,79104,1,0,0:0:0:70:strong kick.wav
320,192,79304,1,0,0:0:0:0:
448,192,79504,1,0,0:0:0:70:trap snare.wav
192,192,79804,1,0,0:0:0:70:strong kick.wav
192,192,80104,1,0,0:0:0:70:strong kick.wav
64,192,80304,1,0,0:0:0:70:strong kick.wav
448,192,80504,1,0,0:0:0:0:
320,192,80704,1,0,0:0:0:70:strong kick.wav
192,192,80904,1,0,0:0:0:0:
64,192,81104,1,0,0:0:0:70:trap snare.wav
320,192,81404,1,0,0:0:0:70:strong kick.wav
320,192,81704,1,0,0:0:0:70:strong kick.wav
448,192,81904,128,0,82304:0:0:0:70:hat.wav
64,192,82304,128,0,82704:0:0:0:70:strong kick.wav
320,192,82704,128,0,83004:0:0:0:70:trap snare.wav
192,192,83004,1,0,0:0:0:70:strong kick.wav
448,192,83304,1,0,0:0:0:70:strong kick.wav
64,192,83704,1,0,0:0:0:70:strong kick.wav
320,192,83904,1,0,0:0:0:70:strong kick.wav
192,192,84104,1,0,0:0:0:0:
448,192,84304,1,0,0:0:0:70:trap snare.wav
320,192,84604,1,0,0:0:0:70:strong kick.wav
320,192,84904,1,0,0:0:0:70:strong kick.wav
192,192,85104,1,0,0:0:0:70:strong kick.wav
448,192,85304,1,0,0:0:0:0:
192,192,85504,1,0,0:0:0:70:strong kick.wav
320,192,85704,1,0,0:0:0:0:
64,192,85904,1,0,0:0:0:70:trap snare.wav
192,192,86204,1,0,0:0:0:70:strong kick.wav
192,192,86504,1,0,0:0:0:70:strong kick.wav
320,192,86704,1,0,0:0:0:70:strong kick.wav
64,192,86904,1,0,0:0:0:0:
320,192,87104,1,0,0:0:0:70:strong kick.wav
192,192,87304,1,0,0:0:0:0:
448,192,87504,1,0,0:0:0:70:trap snare.wav
320,192,87804,1,0,0:0:0:70:strong kick.wav
320,192,88104,1,0,0:0:0:70:strong kick.wav
64,192,88304,1,0,0:0:0:70:strong kick.wav
192,192,88704,1,0,0:0:0:70:hat.wav
448,192,89104,1,0,0:0:0:70:trap snare.wav
320,192,89504,1,0,0:0:0:0:
448,192,89904,1,0,0:0:0:70:strong kick.wav
64,192,90304,128,0,90704:0:0:0:0:
192,192,90704,128,0,91104:0:0:0:70:snap.wav
320,192,91104,128,0,91504:0:0:0:0:
320,192,91904,128,0,92304:0:0:0:0:
192,192,92304,128,0,92704:0:0:0:70:snap.wav
64,192,92704,128,0,93104:0:0:0:0:
448,192,93104,1,0,0:0:0:70:strong kick.wav
320,192,93304,1,0,0:0:0:0:
64,192,93504,1,0,0:0:0:70:hat.wav
64,192,93904,1,0,0:0:0:70:snap.wav
320,192,94304,128,0,94704:0:0:0:70:strong kick.wav
64,192,94704,128,0,95104:0:0:0:70:hat.wav
192,192,95304,128,0,95704:0:0:0:0:
320,192,95904,128,0,96304:0:0:0:70:hat.wav
64,192,96304,1,0,0:0:0:70:strong kick.wav
192,192,96504,1,0,0:0:0:0:
448,192,96704,128,0,97104:0:0:0:70:hat.wav
320,192,97104,128,0,97504:0:0:0:70:snap.wav
192,192,97504,128,0,97904:0:0:0:70:strong kick.wav
448,192,97904,1,0,0:0:0:70:hat.wav
320,192,98104,1,0,0:0:0:0:
192,192,98304,128,0,98704:0:0:0:70:strong kick.wav
320,192,98704,128,0,99104:0:0:0:70:snap.wav
448,192,99104,128,0,99504:0:0:0:70:hat.wav
64,192,99504,1,0,0:0:0:70:strong kick.wav
192,192,99704,1,0,0:0:0:0:
448,192,99904,1,0,0:0:0:70:hat.wav
448,192,100304,1,0,0:0:0:70:snap.wav
192,192,100704,1,0,0:0:0:70:strong kick.wav
320,192,101104,1,0,0:0:0:70:hat.wav
64,192,101304,1,0,0:0:0:70:snap.wav
320,192,101504,1,0,0:0:0:70:strong kick.wav
192,192,101704,1,0,0:0:0:70:snap.wav
64,192,101904,128,0,102704:0:0:0:70:snap.wav
448,192,102704,1,0,0:0:0:70:strong kick.wav
320,192,102904,1,0,0:0:0:0:
64,192,103104,128,0,103504:0:0:0:70:hat.wav
192,192,103504,128,0,103904:0:0:0:70:snap.wav
320,192,103904,128,0,104304:0:0:0:70:strong kick.wav
64,192,104304,1,0,0:0:0:70:hat.wav
192,192,104504,1,0,0:0:0:70:snap.wav
320,192,104704,128,0,105104:0:0:0:70:strong kick.wav
192,192,105104,128,0,105504:0:0:0:70:snap.wav
64,192,105504,128,0,105904:0:0:0:70:hat.wav
448,192,105904,1,0,0:0:0:70:strong kick.wav
320,192,106104,1,0,0:0:0:0:
64,192,106304,1,0,0:0:0:70:hat.wav
64,192,106704,1,0,0:0:0:70:snap.wav
320,192,107104,128,0,107504:0:0:0:70:strong kick.wav
64,192,107504,128,0,107904:0:0:0:70:hat.wav
192,192,108104,128,0,108504:0:0:0:0:
320,192,108704,128,0,109104:0:0:0:70:hat.wav
64,192,109104,1,0,0:0:0:70:strong kick.wav
192,192,109304,1,0,0:0:0:0:
448,192,109504,128,0,109904:0:0:0:70:hat.wav
320,192,109904,128,0,110304:0:0:0:70:snap.wav
192,192,110304,128,0,110704:0:0:0:70:strong kick.wav
448,192,110704,1,0,0:0:0:70:hat.wav
320,192,110904,1,0,0:0:0:70:snap.wav
192,192,111104,128,0,111504:0:0:0:70:strong kick.wav
320,192,111504,128,0,111904:0:0:0:70:snap.wav
448,192,111904,128,0,112304:0:0:0:70:hat.wav
64,192,112304,1,0,0:0:0:70:strong kick.wav
192,192,112504,1,0,0:0:0:0:
448,192,112704,1,0,0:0:0:70:hat.wav
448,192,113104,1,0,0:0:0:70:snap.wav
192,192,113504,1,0,0:0:0:70:strong kick.wav
448,192,113904,128,0,114304:0:0:0:70:trap snare.wav
64,192,114304,128,0,114704:0:0:0:70:trap snare.wav
320,192,114704,128,0,115104:0:0:0:70:trap snare.wav
192,192,115104,128,0,115504:0:0:0:70:trap snare.wav
448,192,115504,128,0,117104:0:0:0:70:strong kick.wav
192,192,117104,128,0,118704:0:0:0:0:
320,192,118704,128,0,120304:0:0:0:0:
64,192,120304,128,0,120904:0:0:0:0:
448,192,120904,128,0,121904:0:0:0:0:
64,192,121904,128,0,123504:0:0:0:0:
320,192,123504,128,0,125104:0:0:0:0:
192,192,125104,128,0,126704:0:0:0:0:
448,192,126704,128,0,127504:0:0:0:0:
64,192,127504,128,0,127904:0:0:0:0:
448,192,127904,128,0,128304:0:0:0:0:
64,192,128304,1,0,0:0:0:70:kick.wav
192,192,128704,1,0,0:0:0:70:kick.wav
320,192,129104,1,0,0:0:0:70:snare.wav
448,192,129104,1,0,0:0:0:0:
192,192,129504,1,0,0:0:0:70:kick.wav
192,192,130304,1,0,0:0:0:70:kick.wav
320,192,130704,1,0,0:0:0:70:snare.wav
448,192,130704,1,0,0:0:0:0:
64,192,130904,1,0,0:0:0:70:kick.wav
448,192,131504,1,0,0:0:0:70:kick.wav
320,192,131904,1,0,0:0:0:70:kick.wav
64,192,132304,1,0,0:0:0:70:snare.wav
192,192,132304,1,0,0:0:0:0:
320,192,132704,1,0,0:0:0:70:kick.wav
320,192,133504,1,0,0:0:0:70:kick.wav
64,192,133904,1,0,0:0:0:70:snare.wav
192,192,133904,1,0,0:0:0:0:
448,192,134104,1,0,0:0:0:70:kick.wav
64,192,134704,1,0,0:0:0:70:kick.wav
192,192,135104,1,0,0:0:0:70:kick.wav
320,192,135504,1,0,0:0:0:70:snare.wav
448,192,135504,1,0,0:0:0:0:
192,192,135904,1,0,0:0:0:70:kick.wav
192,192,136704,1,0,0:0:0:70:kick.wav
320,192,137104,1,0,0:0:0:70:snare.wav
448,192,137104,1,0,0:0:0:0:
64,192,137304,1,0,0:0:0:70:kick.wav
448,192,137904,1,0,0:0:0:70:kick.wav
320,192,138304,1,0,0:0:0:70:kick.wav
64,192,138704,1,0,0:0:0:70:snare.wav
192,192,138704,1,0,0:0:0:0:
320,192,139104,1,0,0:0:0:70:kick.wav
320,192,139904,1,0,0:0:0:70:kick.wav
64,192,140304,1,0,0:0:0:70:snare.wav
192,192,140304,1,0,0:0:0:0:
448,192,140504,1,0,0:0:0:70:kick.wav
64,192,141104,128,0,142704:0:0:0:70:kick.wav
448,192,141504,1,0,0:0:0:70:kick.wav
192,192,141904,1,0,0:0:0:70:snare.wav
448,192,142304,1,0,0:0:0:70:kick.wav
320,192,142704,128,0,144304:0:0:0:0:
448,192,143104,1,0,0:0:0:70:kick.wav
192,192,143504,1,0,0:0:0:70:snare.wav
64,192,143704,1,0,0:0:0:70:kick.wav
192,192,144304,128,0,145904:0:0:0:70:kick.wav
448,192,144704,1,0,0:0:0:70:kick.wav
64,192,145104,1,0,0:0:0:70:snare.wav
320,192,145504,1,0,0:0:0:70:kick.wav
448,192,145904,128,0,147504:0:0:0:0:
64,192,146304,1,0,0:0:0:70:kick.wav
320,192,146704,1,0,0:0:0:70:snare.wav
192,192,146904,1,0,0:0:0:70:kick.wav
64,192,147504,128,0,149104:0:0:0:70:kick.wav
448,192,147904,1,0,0:0:0:70:kick.wav
192,192,148304,1,0,0:0:0:70:snare.wav
448,192,148704,1,0,0:0:0:70:kick.wav
320,192,149104,128,0,150704:0:0:0:0:
448,192,149504,1,0,0:0:0:70:kick.wav
64,192,149904,1,0,0:0:0:70:snare.wav
192,192,150104,1,0,0:0:0:70:kick.wav
64,192,150704,1,0,0:0:0:70:kick.wav
192,192,150704,1,0,0:0:0:70:cymbal.wav
320,192,151104,1,0,0:0:0:70:kick.wav
448,192,151104,1,0,0:0:0:70:cymbal.wav
64,192,151504,1,0,0:0:0:70:kick.wav
192,192,151504,1,0,0:0:0:70:cymbal.wav
320,192,151904,1,0,0:0:0:70:kick.wav
448,192,151904,1,0,0:0:0:70:cymbal.wav
192,192,153504,1,0,0:0:0:70:trap snare.wav
320,192,153504,1,0,0:0:0:70:cowbell.wav
448,192,153904,1,0,0:0:0:70:strong kick.wav
64,192,154104,1,0,0:0:0:0:
192,192,154304,1,0,0:0:0:70:strong kick.wav
320,192,154504,1,0,0:0:0:0:
448,192,154704,128,0,155104:0:0:0:70:trap snare.wav
64,192,155104,128,0,155504:0:0:0:70:strong kick.wav
192,192,155504,1,0,0:0:0:0:
448,192,155704,1,0,0:0:0:0:
320,192,155904,1,0,0:0:0:70:strong kick.wav
192,192,156104,1,0,0:0:0:0:
64,192,156304,128,0,156704:0:0:0:70:trap snare.wav
448,192,156704,128,0,157104:0:0:0:70:hat.wav
320,192,157104,1,0,0:0:0:70:strong kick.wav
64,192,157304,1,0,0:0:0:0:
192,192,157504,1,0,0:0:0:70:strong kick.wav
320,192,157704,1,0,0:0:0:0:
448,192,157904,128,0,158304:0:0:0:70:trap snare.wav
64,192,158304,128,0,158704:0:0:0:70:strong kick.wav
320,192,158704,128,0,159104:0:0:0:0:
192,192,159104,128,0,159504:0:0:0:70:strong kick.wav
448,192,159504,128,0,159904:0:0:0:70:trap snare.wav
64,192,159904,128,0,160304:0:0:0:70:hat.wav
192,192,160304,1,0,0:0:0:70:strong kick.wav
448,192,160504,1,0,0:0:0:0:
192,192,160704,1,0,0:0:0:70:strong kick.wav
320,192,160904,1,0,0:0:0:0:
64,192,161104,128,0,161504:0:0:0:70:trap snare.wav
448,192,161504,128,0,161904:0:0:0:70:strong kick.wav
320,192,161904,1,0,0:0:0:0:
64,192,162104,1,0,0:0:0:0:
320,192,162304,1,0,0:0:0:70:strong kick.wav
192,192,162504,1,0,0:0:0:0:
448,192,162704,128,0,163104:0:0:0:70:trap snare.wav
64,192,163104,128,0,163504:0:0:0:70:hat.wav
192,192,163504,1,0,0:0:0:70:strong kick.wav
448,192,163704,1,0,0:0:0:0:
192,192,163904,1,0,0:0:0:70:strong kick.wav
320,192,164104,1,0,0:0:0:0:
64,192,164304,128,0,164704:0:0:0:70:trap snare.wav
448,192,164704,128,0,165104:0:0:0:70:strong kick.wav
64,192,165104,1,0,0:0:0:0:
192,192,165504,1,0,0:0:0:70:strong kick.wav
448,192,165904,1,0,0:0:0:70:trap snare.wav
320,192,166304,1,0,0:0:0:70:trap snare.wav
448,192,166704,1,0,0:0:0:70:strong kick.wav
64,192,166904,1,0,0:0:0:0:
192,192,167104,1,0,0:0:0:70:strong kick.wav
320,192,167304,1,0,0:0:0:0:
448,192,167504,1,0,0:0:0:70:trap snare.wav
192,192,167804,1,0,0:0:0:70:strong kick.wav
192,192,168104,1,0,0:0:0:70:strong kick.wav
64,192,168304,1,0,0:0:0:70:hat.wav
448,192,168504,1,0,0:0:0:0:
320,192,168704,1,0,0:0:0:70:strong kick.wav
192,192,168904,1,0,0:0:0:0:
64,192,169104,1,0,0:0:0:70:trap snare.wav
320,192,169404,1,0,0:0:0:70:strong kick.wav
320,192,169704,1,0,0:0:0:70:strong kick.wav
448,192,169904,1,0,0:0:0:70:strong kick.wav
64,192,170104,1,0,0:0:0:0:
192,192,170304,1,0,0:0:0:70:strong kick.wav
320,192,170504,1,0,0:0:0:0:
448,192,170704,1,0,0:0:0:70:trap snare.wav
192,192,171004,1,0,0:0:0:70:strong kick.wav
192,192,171304,1,0,0:0:0:70:strong kick.wav
64,192,171504,128,0,171904:0:0:0:70:hat.wav
448,192,171904,128,0,172304:0:0:0:70:strong kick.wav
192,192,172304,128,0,172604:0:0:0:70:trap snare.wav
320,192,172604,1,0,0:0:0:70:strong kick.wav
64,192,172904,1,0,0:0:0:70:strong kick.wav
448,192,173304,1,0,0:0:0:70:strong kick.wav
192,192,173504,1,0,0:0:0:70:strong kick.wav
320,192,173704,1,0,0:0:0:0:
64,192,173904,1,0,0:0:0:70:trap snare.wav
192,192,174204,1,0,0:0:0:70:strong kick.wav
192,192,174504,1,0,0:0:0:70:strong kick.wav
320,192,174704,1,0,0:0:0:70:strong kick.wav
64,192,174904,1,0,0:0:0:0:
320,192,175104,1,0,0:0:0:70:strong kick.wav
192,192,175304,1,0,0:0:0:0:
448,192,175504,1,0,0:0:0:70:trap snare.wav
320,192,175804,1,0,0:0:0:70:strong kick.wav
320,192,176104,1,0,0:0:0:70:strong kick.wav
192,192,176304,1,0,0:0:0:70:strong kick.wav
448,192,176504,1,0,0:0:0:0:
192,192,176704,1,0,0:0:0:70:strong kick.wav
320,192,176904,1,0,0:0:0:0:
64,192,177104,1,0,0:0:0:70:trap snare.wav
192,192,177404,1,0,0:0:0:70:strong kick.wav
192,192,177704,1,0,0:0:0:70:strong kick.wav
448,192,177904,1,0,0:0:0:70:strong kick.wav
320,192,178304,1,0,0:0:0:0:
64,192,178704,1,0,0:0:0:70:snap.wav
192,192,179104,1,0,0:0:0:0:
320,192,179304,1,0,0:0:0:0:
