osu file format v14

[General]
AudioFilename: audio.mp3
AudioLeadIn: 0
PreviewTime: -1
Countdown: 0
SampleSet: Normal
StackLeniency: 0.7
Mode: 3
LetterboxInBreaks: 0
SpecialStyle: 0
WidescreenStoryboard: 0

[Editor]
DistanceSpacing: 0.8
BeatDivisor: 4
GridSize: 16
TimelineZoom: 1.100001

[Metadata]
Title:Rainy Girl
TitleUnicode:Rainy Girl
Artist:HoneyComeBear
ArtistUnicode:HoneyComeBear
Creator:Shinuki
Version:Rain
Source:J-Pop
Tags:
BeatmapID:1889431
BeatmapSetID:905262

[Difficulty]
HPDrainRate:8
CircleSize:4
OverallDifficulty:8
ApproachRate:5
SliderMultiplier:1.4
SliderTickRate:1

[Events]
//Background and Video events
0,0,"43154591_1160679054083958_5965003833707855872_n.jpg",0,0
//Break Periods
//Storyboard Layer 0 (Background)
//Storyboard Layer 1 (Fail)
//Storyboard Layer 2 (Pass)
//Storyboard Layer 3 (Foreground)
//Storyboard Sound Samples

[TimingPoints]
140,400,4,1,0,0,1,0

[HitObjects]
64,192,12940,5,0,0:0:0:0:
448,192,12940,1,0,0:0:0:0:
448,192,13340,128,0,13740:0:0:0:0:
64,192,13740,1,0,0:0:0:0:
320,192,13740,128,0,14140:0:0:0:0:
448,192,14140,1,0,0:0:0:0:
64,192,14140,1,0,0:0:0:0:
192,192,14140,128,0,14540:0:0:0:0:
448,192,14540,1,0,0:0:0:0:
64,192,14940,1,0,0:0:0:0:
448,192,14940,1,0,0:0:0:0:
192,192,14940,128,0,15340:0:0:0:0:
64,192,15340,1,0,0:0:0:0:
448,192,15340,1,0,0:0:0:0:
320,192,15340,128,0,15740:0:0:0:0:
64,192,15740,1,0,0:0:0:0:
192,192,15740,1,0,0:0:0:0:
448,192,15740,128,0,16140:0:0:0:0:
64,192,16140,1,0,0:0:0:0:
320,192,16140,1,0,0:0:0:0:
320,192,16540,1,0,0:0:0:0:
64,192,16940,1,0,0:0:0:0:
320,192,16940,1,0,0:0:0:0:
448,192,16940,1,0,0:0:0:0:
64,192,17340,1,0,0:0:0:0:
448,192,17340,1,0,0:0:0:0:
320,192,17340,128,0,17540:0:0:0:0:
448,192,17540,128,0,17740:0:0:0:0:
192,192,17740,128,0,18140:0:0:0:0:
64,192,18140,1,0,0:0:0:0:
448,192,18140,1,0,0:0:0:0:
320,192,18140,128,0,18340:0:0:0:0:
448,192,18340,128,0,18740:0:0:0:0:
64,192,18540,1,0,0:0:0:0:
192,192,18540,1,0,0:0:0:0:
64,192,18740,128,0,19040:0:0:0:0:
192,192,19040,1,0,0:0:0:0:
320,192,19040,128,0,19340:0:0:0:0:
64,192,19340,1,0,0:0:0:0:
448,192,19340,1,0,0:0:0:0:
64,192,19740,128,0,20140:0:0:0:0:
448,192,19740,1,0,0:0:0:0:
320,192,20140,1,0,0:0:0:0:
448,192,20140,1,0,0:0:0:0:
192,192,20140,128,0,20540:0:0:0:0:
448,192,20540,1,0,0:0:0:0:
64,192,20540,1,0,0:0:0:0:
320,192,20540,128,0,20940:0:0:0:0:
64,192,20940,1,0,0:0:0:0:
64,192,21340,1,0,0:0:0:0:
448,192,21340,1,0,0:0:0:0:
320,192,21340,128,0,21740:0:0:0:0:
64,192,21740,1,0,0:0:0:0:
192,192,21740,1,0,0:0:0:0:
448,192,21740,128,0,22140:0:0:0:0:
64,192,22140,1,0,0:0:0:0:
320,192,22140,128,0,22540:0:0:0:0:
64,192,22540,1,0,0:0:0:0:
448,192,22540,1,0,0:0:0:0:
64,192,22940,1,0,0:0:0:0:
64,192,23340,1,0,0:0:0:0:
448,192,23340,1,0,0:0:0:0:
192,192,23740,1,0,0:0:0:0:
320,192,23740,1,0,0:0:0:0:
320,192,24140,1,0,0:0:0:0:
64,192,24540,1,0,0:0:0:0:
448,192,24540,1,0,0:0:0:0:
64,192,24940,1,0,0:0:0:0:
448,192,24940,1,0,0:0:0:0:
320,192,25006,1,0,0:0:0:0:
448,192,25340,1,0,0:0:0:0:
64,192,25740,1,0,0:0:0:0:
448,192,25740,1,0,0:0:0:0:
192,192,26140,128,0,26540:0:0:0:0:
64,192,26540,1,0,0:0:0:0:
448,192,26540,1,0,0:0:0:0:
320,192,26540,128,0,26940:0:0:0:0:
448,192,26940,1,0,0:0:0:0:
192,192,26940,1,0,0:0:0:0:
64,192,26940,128,0,27340:0:0:0:0:
448,192,27340,1,0,0:0:0:0:
64,192,27740,1,0,0:0:0:0:
448,192,27740,1,0,0:0:0:0:
192,192,27740,128,0,28140:0:0:0:0:
64,192,28140,1,0,0:0:0:0:
448,192,28140,1,0,0:0:0:0:
320,192,28140,128,0,28540:0:0:0:0:
64,192,28540,1,0,0:0:0:0:
448,192,28540,128,0,28940:0:0:0:0:
64,192,28940,1,0,0:0:0:0:
192,192,28940,1,0,0:0:0:0:
192,192,29340,1,0,0:0:0:0:
64,192,29740,1,0,0:0:0:0:
448,192,29740,1,0,0:0:0:0:
64,192,30140,1,0,0:0:0:0:
192,192,30140,1,0,0:0:0:0:
448,192,30140,128,0,30540:0:0:0:0:
192,192,30540,128,0,30940:0:0:0:0:
320,192,30540,1,0,0:0:0:0:
64,192,30940,1,0,0:0:0:0:
448,192,30940,1,0,0:0:0:0:
320,192,30940,128,0,31140:0:0:0:0:
192,192,31140,128,0,31340:0:0:0:0:
448,192,31340,1,0,0:0:0:0:
64,192,31340,1,0,0:0:0:0:
192,192,31540,128,0,31740:0:0:0:0:
448,192,31740,1,0,0:0:0:0:
64,192,31740,128,0,32140:0:0:0:0:
320,192,32140,1,0,0:0:0:0:
448,192,32140,1,0,0:0:0:0:
320,192,32540,128,0,32940:0:0:0:0:
64,192,32940,1,0,0:0:0:0:
192,192,32940,128,0,33340:0:0:0:0:
64,192,33340,1,0,0:0:0:0:
320,192,33340,1,0,0:0:0:0:
448,192,33340,128,0,33740:0:0:0:0:
64,192,33740,1,0,0:0:0:0:
448,192,34140,1,0,0:0:0:0:
320,192,34140,1,0,0:0:0:0:
192,192,34140,128,0,34540:0:0:0:0:
64,192,34540,128,0,34940:0:0:0:0:
320,192,34540,1,0,0:0:0:0:
320,192,34940,1,0,0:0:0:0:
448,192,34940,128,0,35340:0:0:0:0:
64,192,35340,1,0,0:0:0:0:
320,192,35340,1,0,0:0:0:0:
448,192,35740,1,0,0:0:0:0:
64,192,36140,1,0,0:0:0:0:
448,192,36140,1,0,0:0:0:0:
192,192,36540,1,0,0:0:0:0:
320,192,36540,1,0,0:0:0:0:
64,192,36940,1,0,0:0:0:0:
192,192,37006,1,0,0:0:0:0:
64,192,37073,1,0,0:0:0:0:
320,192,37073,1,0,0:0:0:0:
448,192,37140,1,0,0:0:0:0:
192,192,37140,1,0,0:0:0:0:
448,192,37340,1,0,0:0:0:0:
320,192,37406,1,0,0:0:0:0:
448,192,37473,1,0,0:0:0:0:
192,192,37473,1,0,0:0:0:0:
320,192,37540,1,0,0:0:0:0:
64,192,37540,1,0,0:0:0:0:
192,192,37740,1,0,0:0:0:0:
64,192,37740,128,0,38073:0:0:0:0:
448,192,37873,1,0,0:0:0:0:
320,192,38006,1,0,0:0:0:0:
448,192,38140,1,0,0:0:0:0:
192,192,38140,1,0,0:0:0:0:
320,192,38206,1,0,0:0:0:0:
64,192,38206,1,0,0:0:0:0:
192,192,38273,1,0,0:0:0:0:
448,192,38273,1,0,0:0:0:0:
64,192,38340,1,0,0:0:0:0:
320,192,38340,1,0,0:0:0:0:
192,192,38406,1,0,0:0:0:0:
64,192,38540,1,0,0:0:0:0:
448,192,38540,1,0,0:0:0:0:
320,192,38540,1,0,0:0:0:0:
320,192,38940,128,0,39340:0:0:0:0:
64,192,39340,128,0,39740:0:0:0:0:
192,192,39740,128,0,40140:0:0:0:0:
448,192,40140,128,0,40540:0:0:0:0:
320,192,40140,1,0,0:0:0:0:
192,192,40540,128,0,40940:0:0:0:0:
320,192,40940,128,0,41340:0:0:0:0:
64,192,41340,128,0,41540:0:0:0:0:
192,192,41540,128,0,42140:0:0:0:0:
448,192,41740,1,0,0:0:0:0:
192,192,42540,128,0,43040:0:0:0:0:
320,192,43040,128,0,43340:0:0:0:0:
64,192,43340,128,0,43740:0:0:0:0:
448,192,43340,1,0,0:0:0:0:
192,192,43740,128,0,44140:0:0:0:0:
320,192,44140,128,0,44540:0:0:0:0:
192,192,44540,128,0,44940:0:0:0:0:
448,192,44940,128,0,45340:0:0:0:0:
64,192,44940,1,0,0:0:0:0:
64,192,45740,128,0,46140:0:0:0:0:
320,192,46140,128,0,46540:0:0:0:0:
192,192,46540,128,0,46940:0:0:0:0:
448,192,46540,1,0,0:0:0:0:
320,192,46940,128,0,47340:0:0:0:0:
192,192,47340,128,0,47740:0:0:0:0:
192,192,47940,128,0,48140:0:0:0:0:
448,192,48140,128,0,48540:0:0:0:0:
64,192,48140,1,0,0:0:0:0:
64,192,48540,128,0,48940:0:0:0:0:
192,192,48940,128,0,49340:0:0:0:0:
64,192,49340,128,0,49740:0:0:0:0:
320,192,49740,128,0,50140:0:0:0:0:
448,192,49740,1,0,0:0:0:0:
64,192,50140,1,0,0:0:0:0:
64,192,50540,1,0,0:0:0:0:
192,192,50540,1,0,0:0:0:0:
448,192,50540,128,0,50940:0:0:0:0:
64,192,50940,1,0,0:0:0:0:
320,192,50940,128,0,51340:0:0:0:0:
64,192,51340,1,0,0:0:0:0:
448,192,51340,1,0,0:0:0:0:
320,192,51540,1,0,0:0:0:0:
64,192,51740,1,0,0:0:0:0:
448,192,51740,128,0,52140:0:0:0:0:
192,192,52140,1,0,0:0:0:0:
64,192,52140,1,0,0:0:0:0:
320,192,52140,128,0,52540:0:0:0:0:
64,192,52540,1,0,0:0:0:0:
192,192,52540,128,0,52940:0:0:0:0:
448,192,52940,128,0,53340:0:0:0:0:
320,192,52940,1,0,0:0:0:0:
64,192,52940,1,0,0:0:0:0:
64,192,53340,1,0,0:0:0:0:
320,192,53340,128,0,53740:0:0:0:0:
448,192,53740,1,0,0:0:0:0:
64,192,53740,128,0,54140:0:0:0:0:
192,192,54140,128,0,54340:0:0:0:0:
64,192,54340,128,0,54540:0:0:0:0:
320,192,54540,1,0,0:0:0:0:
448,192,54540,1,0,0:0:0:0:
64,192,54940,1,0,0:0:0:0:
320,192,54940,1,0,0:0:0:0:
192,192,55340,1,0,0:0:0:0:
448,192,55340,1,0,0:0:0:0:
64,192,55340,128,0,55740:0:0:0:0:
320,192,55740,1,0,0:0:0:0:
448,192,55740,1,0,0:0:0:0:
192,192,55740,128,0,55940:0:0:0:0:
320,192,55940,128,0,56140:0:0:0:0:
448,192,56140,128,0,56540:0:0:0:0:
64,192,56540,1,0,0:0:0:0:
192,192,56540,1,0,0:0:0:0:
320,192,56540,128,0,56940:0:0:0:0:
192,192,56940,128,0,57340:0:0:0:0:
64,192,56940,1,0,0:0:0:0:
448,192,57340,128,0,57740:0:0:0:0:
64,192,57540,1,0,0:0:0:0:
192,192,57640,1,0,0:0:0:0:
64,192,57740,1,0,0:0:0:0:
320,192,57740,128,0,58140:0:0:0:0:
64,192,58140,1,0,0:0:0:0:
448,192,58540,1,0,0:0:0:0:
320,192,58540,128,0,58940:0:0:0:0:
192,192,58940,128,0,59340:0:0:0:0:
64,192,58940,1,0,0:0:0:0:
320,192,59340,1,0,0:0:0:0:
448,192,59340,1,0,0:0:0:0:
64,192,59340,128,0,59740:0:0:0:0:
320,192,59740,1,0,0:0:0:0:
192,192,59740,128,0,60140:0:0:0:0:
64,192,60140,1,0,0:0:0:0:
448,192,60140,1,0,0:0:0:0:
320,192,60140,128,0,60640:0:0:0:0:
448,192,60640,1,0,0:0:0:0:
448,192,60940,1,0,0:0:0:0:
64,192,60940,128,0,61740:0:0:0:0:
192,192,60940,1,0,0:0:0:0:
320,192,61340,1,0,0:0:0:0:
320,192,61740,1,0,0:0:0:0:
448,192,61740,1,0,0:0:0:0:
192,192,61740,128,0,62140:0:0:0:0:
64,192,62140,1,0,0:0:0:0:
320,192,62140,128,0,62540:0:0:0:0:
64,192,63740,1,0,0:0:0:0:
320,192,63740,1,0,0:0:0:0:
64,192,64040,1,0,0:0:0:0:
192,192,64140,1,0,0:0:0:0:
448,192,64340,1,0,0:0:0:0:
320,192,64440,1,0,0:0:0:0:
448,192,64540,1,0,0:0:0:0:
64,192,64540,128,0,64740:0:0:0:0:
320,192,64640,1,0,0:0:0:0:
448,192,64740,1,0,0:0:0:0:
320,192,64840,1,0,0:0:0:0:
448,192,64940,128,0,65140:0:0:0:0:
64,192,64940,128,0,65140:0:0:0:0:
320,192,65140,1,0,0:0:0:0:
192,192,65340,1,0,0:0:0:0:
64,192,65340,1,0,0:0:0:0:
320,192,65540,1,0,0:0:0:0:
448,192,65740,128,0,65940:0:0:0:0:
64,192,65940,1,0,0:0:0:0:
192,192,66040,1,0,0:0:0:0:
64,192,66140,1,0,0:0:0:0:
448,192,66140,128,0,66340:0:0:0:0:
192,192,66240,1,0,0:0:0:0:
64,192,66340,1,0,0:0:0:0:
192,192,66440,1,0,0:0:0:0:
64,192,66540,128,0,66740:0:0:0:0:
192,192,66740,1,0,0:0:0:0:
320,192,66940,1,0,0:0:0:0:
64,192,66940,1,0,0:0:0:0:
448,192,66940,128,0,67140:0:0:0:0:
192,192,67340,1,0,0:0:0:0:
320,192,67340,1,0,0:0:0:0:
320,192,67540,1,0,0:0:0:0:
192,192,67640,1,0,0:0:0:0:
320,192,67740,1,0,0:0:0:0:
64,192,67740,128,0,67940:0:0:0:0:
192,192,67840,1,0,0:0:0:0:
320,192,67940,1,0,0:0:0:0:
192,192,68040,1,0,0:0:0:0:
320,192,68140,128,0,68340:0:0:0:0:
64,192,68140,128,0,68340:0:0:0:0:
448,192,68340,1,0,0:0:0:0:
192,192,68540,1,0,0:0:0:0:
64,192,68740,1,0,0:0:0:0:
320,192,68940,1,0,0:0:0:0:
448,192,68940,128,0,69140:0:0:0:0:
64,192,69140,1,0,0:0:0:0:
448,192,69340,1,0,0:0:0:0:
64,192,69340,128,0,69540:0:0:0:0:
192,192,69540,1,0,0:0:0:0:
448,192,69740,1,0,0:0:0:0:
64,192,69740,1,0,0:0:0:0:
448,192,69940,1,0,0:0:0:0:
320,192,70140,1,0,0:0:0:0:
448,192,70140,128,0,70340:0:0:0:0:
192,192,70340,1,0,0:0:0:0:
64,192,70540,1,0,0:0:0:0:
448,192,70540,1,0,0:0:0:0:
448,192,70740,1,0,0:0:0:0:
320,192,70840,1,0,0:0:0:0:
448,192,70940,1,0,0:0:0:0:
64,192,70940,128,0,71140:0:0:0:0:
320,192,71040,1,0,0:0:0:0:
448,192,71140,1,0,0:0:0:0:
320,192,71240,1,0,0:0:0:0:
448,192,71340,128,0,71540:0:0:0:0:
64,192,71340,128,0,71540:0:0:0:0:
320,192,71540,1,0,0:0:0:0:
192,192,71740,1,0,0:0:0:0:
64,192,71740,1,0,0:0:0:0:
64,192,71940,1,0,0:0:0:0:
448,192,72140,128,0,72340:0:0:0:0:
64,192,72340,1,0,0:0:0:0:
192,192,72440,1,0,0:0:0:0:
64,192,72540,1,0,0:0:0:0:
448,192,72540,128,0,72740:0:0:0:0:
192,192,72640,1,0,0:0:0:0:
64,192,72740,1,0,0:0:0:0:
192,192,72840,1,0,0:0:0:0:
64,192,72940,128,0,73140:0:0:0:0:
448,192,72940,1,0,0:0:0:0:
192,192,73140,1,0,0:0:0:0:
320,192,73340,1,0,0:0:0:0:
64,192,73340,128,0,73540:0:0:0:0:
448,192,73540,1,0,0:0:0:0:
192,192,73740,1,0,0:0:0:0:
320,192,73740,1,0,0:0:0:0:
448,192,73940,1,0,0:0:0:0:
64,192,74040,1,0,0:0:0:0:
448,192,74140,1,0,0:0:0:0:
192,192,74140,128,0,74340:0:0:0:0:
64,192,74240,1,0,0:0:0:0:
448,192,74340,1,0,0:0:0:0:
64,192,74440,1,0,0:0:0:0:
448,192,74540,128,0,74740:0:0:0:0:
192,192,74540,128,0,74740:0:0:0:0:
320,192,74740,1,0,0:0:0:0:
192,192,74940,1,0,0:0:0:0:
64,192,74940,1,0,0:0:0:0:
448,192,74940,1,0,0:0:0:0:
320,192,75140,1,0,0:0:0:0:
448,192,75340,1,0,0:0:0:0:
320,192,75540,1,0,0:0:0:0:
192,192,75740,1,0,0:0:0:0:
448,192,75740,1,0,0:0:0:0:
320,192,75940,1,0,0:0:0:0:
64,192,76140,1,0,0:0:0:0:
448,192,76140,1,0,0:0:0:0:
448,192,76340,1,0,0:0:0:0:
320,192,76540,1,0,0:0:0:0:
192,192,76740,1,0,0:0:0:0:
64,192,76940,1,0,0:0:0:0:
192,192,77006,1,0,0:0:0:0:
320,192,77073,1,0,0:0:0:0:
64,192,77140,1,0,0:0:0:0:
320,192,77240,1,0,0:0:0:0:
64,192,77340,1,0,0:0:0:0:
448,192,77340,128,0,77540:0:0:0:0:
320,192,77440,1,0,0:0:0:0:
64,192,77540,1,0,0:0:0:0:
320,192,77640,1,0,0:0:0:0:
64,192,77740,128,0,77940:0:0:0:0:
448,192,77740,128,0,77940:0:0:0:0:
320,192,77940,1,0,0:0:0:0:
448,192,78140,1,0,0:0:0:0:
192,192,78340,1,0,0:0:0:0:
64,192,78540,1,0,0:0:0:0:
448,192,78540,1,0,0:0:0:0:
448,192,78740,1,0,0:0:0:0:
64,192,78740,1,0,0:0:0:0:
192,192,78840,1,0,0:0:0:0:
320,192,78840,1,0,0:0:0:0:
64,192,78940,1,0,0:0:0:0:
448,192,78940,1,0,0:0:0:0:
192,192,79040,1,0,0:0:0:0:
320,192,79040,1,0,0:0:0:0:
64,192,79140,1,0,0:0:0:0:
448,192,79140,1,0,0:0:0:0:
192,192,79240,1,0,0:0:0:0:
320,192,79240,1,0,0:0:0:0:
448,192,79340,128,0,79540:0:0:0:0:
64,192,79340,1,0,0:0:0:0:
320,192,79540,1,0,0:0:0:0:
192,192,79740,1,0,0:0:0:0:
448,192,79940,1,0,0:0:0:0:
64,192,79940,1,0,0:0:0:0:
64,192,80140,1,0,0:0:0:0:
192,192,80140,1,0,0:0:0:0:
448,192,80340,1,0,0:0:0:0:
192,192,80340,1,0,0:0:0:0:
320,192,80440,1,0,0:0:0:0:
64,192,80440,1,0,0:0:0:0:
448,192,80540,1,0,0:0:0:0:
192,192,80540,1,0,0:0:0:0:
64,192,80640,1,0,0:0:0:0:
320,192,80640,1,0,0:0:0:0:
192,192,80740,1,0,0:0:0:0:
448,192,80740,1,0,0:0:0:0:
320,192,80840,1,0,0:0:0:0:
64,192,80840,1,0,0:0:0:0:
192,192,80940,128,0,81140:0:0:0:0:
448,192,80940,128,0,81140:0:0:0:0:
320,192,81140,1,0,0:0:0:0:
64,192,81140,1,0,0:0:0:0:
192,192,81340,1,0,0:0:0:0:
448,192,81340,1,0,0:0:0:0:
320,192,81540,1,0,0:0:0:0:
64,192,81740,128,0,81940:0:0:0:0:
448,192,81740,128,0,81940:0:0:0:0:
320,192,81940,1,0,0:0:0:0:
64,192,82140,1,0,0:0:0:0:
192,192,82140,1,0,0:0:0:0:
320,192,82140,1,0,0:0:0:0:
448,192,82140,128,0,82340:0:0:0:0:
192,192,82340,1,0,0:0:0:0:
320,192,82540,1,0,0:0:0:0:
448,192,82540,1,0,0:0:0:0:
64,192,82740,1,0,0:0:0:0:
64,192,82940,1,0,0:0:0:0:
320,192,82940,1,0,0:0:0:0:
192,192,82940,128,0,83140:0:0:0:0:
448,192,83140,1,0,0:0:0:0:
64,192,83540,1,0,0:0:0:0:
192,192,83640,1,0,0:0:0:0:
64,192,83740,1,0,0:0:0:0:
448,192,83740,128,0,83940:0:0:0:0:
192,192,83840,1,0,0:0:0:0:
64,192,83940,1,0,0:0:0:0:
192,192,84040,1,0,0:0:0:0:
64,192,84140,128,0,84340:0:0:0:0:
192,192,84340,1,0,0:0:0:0:
320,192,84540,1,0,0:0:0:0:
192,192,84740,1,0,0:0:0:0:
64,192,84740,1,0,0:0:0:0:
64,192,84940,128,0,85140:0:0:0:0:
448,192,85140,1,0,0:0:0:0:
320,192,85240,1,0,0:0:0:0:
448,192,85340,1,0,0:0:0:0:
64,192,85340,128,0,85540:0:0:0:0:
320,192,85440,1,0,0:0:0:0:
448,192,85540,1,0,0:0:0:0:
320,192,85640,1,0,0:0:0:0:
448,192,85740,128,0,85940:0:0:0:0:
320,192,85940,1,0,0:0:0:0:
192,192,86140,1,0,0:0:0:0:
64,192,86140,128,0,86340:0:0:0:0:
448,192,86340,1,0,0:0:0:0:
320,192,86540,1,0,0:0:0:0:
192,192,86540,1,0,0:0:0:0:
64,192,86740,1,0,0:0:0:0:
448,192,86740,1,0,0:0:0:0:
192,192,86840,1,0,0:0:0:0:
320,192,86840,1,0,0:0:0:0:
64,192,86940,1,0,0:0:0:0:
448,192,86940,1,0,0:0:0:0:
192,192,87040,1,0,0:0:0:0:
320,192,87040,1,0,0:0:0:0:
64,192,87140,1,0,0:0:0:0:
448,192,87140,1,0,0:0:0:0:
192,192,87240,1,0,0:0:0:0:
320,192,87240,1,0,0:0:0:0:
64,192,87340,128,0,87540:0:0:0:0:
448,192,87340,128,0,87540:0:0:0:0:
192,192,87540,1,0,0:0:0:0:
320,192,87540,1,0,0:0:0:0:
448,192,87740,128,0,87940:0:0:0:0:
192,192,87740,128,0,87940:0:0:0:0:
320,192,87940,1,0,0:0:0:0:
64,192,87940,1,0,0:0:0:0:
192,192,88140,1,0,0:0:0:0:
64,192,88140,128,0,88340:0:0:0:0:
320,192,88340,1,0,0:0:0:0:
192,192,88540,1,0,0:0:0:0:
448,192,88540,128,0,88740:0:0:0:0:
320,192,88740,1,0,0:0:0:0:
64,192,88740,1,0,0:0:0:0:
64,192,88940,1,0,0:0:0:0:
448,192,88940,1,0,0:0:0:0:
320,192,89140,1,0,0:0:0:0:
192,192,89340,1,0,0:0:0:0:
448,192,89340,128,0,89540:0:0:0:0:
64,192,89540,1,0,0:0:0:0:
192,192,89740,1,0,0:0:0:0:
320,192,89740,1,0,0:0:0:0:
64,192,90140,128,0,90540:0:0:0:0:
448,192,90140,1,0,0:0:0:0:
448,192,90540,1,0,0:0:0:0:
320,192,90540,1,0,0:0:0:0:
192,192,90540,128,0,90940:0:0:0:0:
320,192,90940,128,0,91340:0:0:0:0:
64,192,91340,1,0,0:0:0:0:
192,192,91740,1,0,0:0:0:0:
64,192,91740,128,0,92140:0:0:0:0:
192,192,92140,1,0,0:0:0:0:
320,192,92140,128,0,92540:0:0:0:0:
64,192,92540,1,0,0:0:0:0:
448,192,92540,128,0,92940:0:0:0:0:
64,192,92940,1,0,0:0:0:0:
192,192,92940,1,0,0:0:0:0:
448,192,93340,1,0,0:0:0:0:
448,192,93740,1,0,0:0:0:0:
192,192,93740,1,0,0:0:0:0:
64,192,94140,1,0,0:0:0:0:
448,192,94140,1,0,0:0:0:0:
320,192,94140,128,0,94540:0:0:0:0:
448,192,94540,128,0,94940:0:0:0:0:
64,192,94540,1,0,0:0:0:0:
192,192,94940,1,0,0:0:0:0:
320,192,94940,128,0,95140:0:0:0:0:
64,192,95140,128,0,95540:0:0:0:0:
192,192,95540,128,0,95740:0:0:0:0:
448,192,95740,1,0,0:0:0:0:
64,192,95740,128,0,96140:0:0:0:0:
320,192,96140,1,0,0:0:0:0:
192,192,96140,1,0,0:0:0:0:
64,192,96540,1,0,0:0:0:0:
320,192,96540,128,0,96940:0:0:0:0:
64,192,96940,1,0,0:0:0:0:
192,192,96940,1,0,0:0:0:0:
448,192,96940,128,0,97340:0:0:0:0:
320,192,97340,1,0,0:0:0:0:
64,192,97340,1,0,0:0:0:0:
192,192,97340,128,0,97740:0:0:0:0:
448,192,97740,1,0,0:0:0:0:
320,192,98140,1,0,0:0:0:0:
448,192,98140,1,0,0:0:0:0:
64,192,98140,128,0,98540:0:0:0:0:
448,192,98540,1,0,0:0:0:0:
192,192,98540,128,0,98940:0:0:0:0:
64,192,98940,128,0,99340:0:0:0:0:
192,192,99340,1,0,0:0:0:0:
448,192,99340,1,0,0:0:0:0:
448,192,99740,1,0,0:0:0:0:
448,192,100140,1,0,0:0:0:0:
64,192,100140,1,0,0:0:0:0:
64,192,100540,1,0,0:0:0:0:
192,192,100540,1,0,0:0:0:0:
192,192,100940,1,0,0:0:0:0:
320,192,101140,1,0,0:0:0:0:
64,192,101340,1,0,0:0:0:0:
448,192,101340,1,0,0:0:0:0:
64,192,101640,1,0,0:0:0:0:
448,192,101640,1,0,0:0:0:0:
320,192,101740,1,0,0:0:0:0:
192,192,102140,1,0,0:0:0:0:
192,192,102540,1,0,0:0:0:0:
448,192,102540,1,0,0:0:0:0:
64,192,102540,128,0,104240:0:0:0:0:
448,192,102940,128,0,103340:0:0:0:0:
192,192,102940,1,0,0:0:0:0:
320,192,103340,1,0,0:0:0:0:
192,192,103340,128,0,103740:0:0:0:0:
448,192,103740,1,0,0:0:0:0:
320,192,103740,128,0,104240:0:0:0:0:
192,192,104240,1,0,0:0:0:0:
448,192,104240,128,0,105740:0:0:0:0:
192,192,104540,1,0,0:0:0:0:
320,192,104540,128,0,104940:0:0:0:0:
64,192,104940,1,0,0:0:0:0:
192,192,104940,128,0,105340:0:0:0:0:
64,192,105340,128,0,105740:0:0:0:0:
320,192,105340,1,0,0:0:0:0:
192,192,105740,128,0,107340:0:0:0:0:
320,192,105740,1,0,0:0:0:0:
448,192,106140,1,0,0:0:0:0:
320,192,106540,1,0,0:0:0:0:
448,192,106540,1,0,0:0:0:0:
448,192,106940,128,0,107340:0:0:0:0:
64,192,106940,1,0,0:0:0:0:
320,192,107340,128,0,108940:0:0:0:0:
64,192,107340,128,0,107740:0:0:0:0:
448,192,107740,1,0,0:0:0:0:
192,192,107740,128,0,108040:0:0:0:0:
64,192,108040,128,0,108340:0:0:0:0:
448,192,108140,1,0,0:0:0:0:
192,192,108340,128,0,108540:0:0:0:0:
448,192,108540,128,0,108940:0:0:0:0:
192,192,108940,1,0,0:0:0:0:
64,192,108940,128,0,110540:0:0:0:0:
320,192,109340,1,0,0:0:0:0:
448,192,109340,128,0,109740:0:0:0:0:
192,192,109740,128,0,110140:0:0:0:0:
320,192,109740,1,0,0:0:0:0:
448,192,110140,1,0,0:0:0:0:
320,192,110140,128,0,110540:0:0:0:0:
192,192,110540,1,0,0:0:0:0:
448,192,110540,128,0,112140:0:0:0:0:
320,192,110740,1,0,0:0:0:0:
64,192,110940,1,0,0:0:0:0:
192,192,110940,128,0,111340:0:0:0:0:
320,192,111340,1,0,0:0:0:0:
64,192,111340,128,0,111740:0:0:0:0:
192,192,111740,128,0,112140:0:0:0:0:
320,192,111740,1,0,0:0:0:0:
64,192,112140,1,0,0:0:0:0:
320,192,112140,128,0,113640:0:0:0:0:
192,192,112540,1,0,0:0:0:0:
64,192,112940,1,0,0:0:0:0:
448,192,112940,1,0,0:0:0:0:
192,192,113340,1,0,0:0:0:0:
64,192,113340,1,0,0:0:0:0:
64,192,113740,1,0,0:0:0:0:
192,192,113806,1,0,0:0:0:0:
320,192,113873,1,0,0:0:0:0:
448,192,113940,1,0,0:0:0:0:
448,192,114140,1,0,0:0:0:0:
320,192,114206,1,0,0:0:0:0:
192,192,114273,1,0,0:0:0:0:
64,192,114340,1,0,0:0:0:0:
64,192,114540,1,0,0:0:0:0:
192,192,114673,1,0,0:0:0:0:
320,192,114806,1,0,0:0:0:0:
64,192,114873,1,0,0:0:0:0:
192,192,114940,1,0,0:0:0:0:
320,192,115006,1,0,0:0:0:0:
64,192,115006,1,0,0:0:0:0:
192,192,115073,1,0,0:0:0:0:
320,192,115140,1,0,0:0:0:0:
64,192,115140,1,0,0:0:0:0:
192,192,115206,1,0,0:0:0:0:
64,192,115340,1,0,0:0:0:0:
448,192,115340,1,0,0:0:0:0:
320,192,115740,128,0,116140:0:0:0:0:
192,192,116140,128,0,116540:0:0:0:0:
448,192,116540,128,0,116840:0:0:0:0:
64,192,116940,128,0,117340:0:0:0:0:
192,192,116940,1,0,0:0:0:0:
192,192,117340,128,0,117740:0:0:0:0:
320,192,117740,128,0,118140:0:0:0:0:
448,192,118140,128,0,118340:0:0:0:0:
64,192,118340,128,0,118940:0:0:0:0:
192,192,118340,1,0,0:0:0:0:
64,192,119340,128,0,119940:0:0:0:0:
192,192,119940,128,0,120240:0:0:0:0:
64,192,120240,128,0,120640:0:0:0:0:
448,192,120640,1,0,0:0:0:0:
320,192,120640,128,0,120940:0:0:0:0:
192,192,120940,128,0,121340:0:0:0:0:
320,192,121340,128,0,121740:0:0:0:0:
64,192,121340,1,0,0:0:0:0:
448,192,121740,128,0,122140:0:0:0:0:
64,192,121740,1,0,0:0:0:0:
320,192,122540,128,0,122940:0:0:0:0:
192,192,122540,1,0,0:0:0:0:
192,192,122940,128,0,123340:0:0:0:0:
320,192,123340,1,0,0:0:0:0:
64,192,123340,128,0,123740:0:0:0:0:
320,192,123740,1,0,0:0:0:0:
448,192,123740,128,0,124140:0:0:0:0:
320,192,124140,128,0,124540:0:0:0:0:
192,192,124540,1,0,0:0:0:0:
192,192,124740,128,0,124940:0:0:0:0:
320,192,124940,128,0,125340:0:0:0:0:
448,192,124940,1,0,0:0:0:0:
192,192,125340,1,0,0:0:0:0:
64,192,125340,128,0,125740:0:0:0:0:
192,192,125740,1,0,0:0:0:0:
448,192,125740,128,0,126140:0:0:0:0:
320,192,126140,128,0,126540:0:0:0:0:
192,192,126140,1,0,0:0:0:0:
64,192,126540,1,0,0:0:0:0:
448,192,126540,1,0,0:0:0:0:
192,192,126540,128,0,126940:0:0:0:0:
448,192,126940,1,0,0:0:0:0:
320,192,126940,1,0,0:0:0:0:
448,192,127340,1,0,0:0:0:0:
64,192,127340,1,0,0:0:0:0:
192,192,127340,128,0,127740:0:0:0:0:
448,192,127740,1,0,0:0:0:0:
64,192,127740,1,0,0:0:0:0:
320,192,127740,128,0,128140:0:0:0:0:
64,192,128140,1,0,0:0:0:0:
192,192,128140,1,0,0:0:0:0:
448,192,128140,1,0,0:0:0:0:
192,192,128340,1,0,0:0:0:0:
64,192,128540,1,0,0:0:0:0:
320,192,128540,128,0,128940:0:0:0:0:
64,192,128940,1,0,0:0:0:0:
192,192,128940,128,0,129340:0:0:0:0:
320,192,129340,1,0,0:0:0:0:
448,192,129340,1,0,0:0:0:0:
64,192,129340,128,0,129740:0:0:0:0:
192,192,129740,1,0,0:0:0:0:
320,192,129740,128,0,130140:0:0:0:0:
192,192,130140,128,0,130540:0:0:0:0:
64,192,130140,1,0,0:0:0:0:
448,192,130140,1,0,0:0:0:0:
448,192,130540,1,0,0:0:0:0:
320,192,130540,1,0,0:0:0:0:
64,192,130540,128,0,130940:0:0:0:0:
192,192,130940,1,0,0:0:0:0:
448,192,130940,128,0,131140:0:0:0:0:
320,192,131140,128,0,131740:0:0:0:0:
64,192,131340,1,0,0:0:0:0:
64,192,131740,1,0,0:0:0:0:
448,192,131740,1,0,0:0:0:0:
448,192,132140,1,0,0:0:0:0:
64,192,132140,1,0,0:0:0:0:
320,192,132140,128,0,132540:0:0:0:0:
192,192,132540,1,0,0:0:0:0:
64,192,132540,1,0,0:0:0:0:
320,192,132740,128,0,132940:0:0:0:0:
64,192,132740,1,0,0:0:0:0:
448,192,132940,128,0,133340:0:0:0:0:
192,192,132940,1,0,0:0:0:0:
320,192,133340,1,0,0:0:0:0:
64,192,133340,128,0,133740:0:0:0:0:
192,192,133740,1,0,0:0:0:0:
448,192,133740,1,0,0:0:0:0:
320,192,133740,128,0,134140:0:0:0:0:
448,192,134140,1,0,0:0:0:0:
192,192,134140,128,0,134540:0:0:0:0:
64,192,134540,128,0,134940:0:0:0:0:
320,192,134540,1,0,0:0:0:0:
320,192,134940,1,0,0:0:0:0:
192,192,135340,128,0,135740:0:0:0:0:
64,192,135340,1,0,0:0:0:0:
448,192,135540,1,0,0:0:0:0:
448,192,135740,128,0,136140:0:0:0:0:
64,192,135740,1,0,0:0:0:0:
192,192,136140,1,0,0:0:0:0:
64,192,136140,128,0,136540:0:0:0:0:
192,192,136540,1,0,0:0:0:0:
320,192,136540,128,0,136940:0:0:0:0:
192,192,136940,1,0,0:0:0:0:
448,192,136940,128,0,137340:0:0:0:0:
64,192,137340,1,0,0:0:0:0:
192,192,137740,1,0,0:0:0:0:
320,192,137740,1,0,0:0:0:0:
192,192,138140,1,0,0:0:0:0:
320,192,138140,1,0,0:0:0:0:
320,192,138540,128,0,138940:0:0:0:0:
192,192,138540,1,0,0:0:0:0:
192,192,138940,1,0,0:0:0:0:
448,192,138940,128,0,139340:0:0:0:0:
64,192,139340,1,0,0:0:0:0:
192,192,139340,128,0,139740:0:0:0:0:
448,192,139740,1,0,0:0:0:0:
320,192,139740,1,0,0:0:0:0:
64,192,139740,128,0,140140:0:0:0:0:
448,192,140140,1,0,0:0:0:0:
192,192,140140,128,0,140540:0:0:0:0:
448,192,140540,1,0,0:0:0:0:
64,192,140540,128,0,140940:0:0:0:0:
320,192,140940,1,0,0:0:0:0:
320,192,141340,1,0,0:0:0:0:
192,192,141340,1,0,0:0:0:0:
448,192,141340,128,0,141740:0:0:0:0:
64,192,141740,1,0,0:0:0:0:
320,192,141740,128,0,142140:0:0:0:0:
64,192,142140,1,0,0:0:0:0:
192,192,142140,128,0,142540:0:0:0:0:
64,192,142540,1,0,0:0:0:0:
320,192,142540,128,0,142940:0:0:0:0:
64,192,142940,128,0,143340:0:0:0:0:
448,192,142940,1,0,0:0:0:0:
192,192,143340,1,0,0:0:0:0:
448,192,143340,1,0,0:0:0:0:
320,192,143340,128,0,143740:0:0:0:0:
192,192,143740,1,0,0:0:0:0:
448,192,143740,128,0,143940:0:0:0:0:
192,192,143940,128,0,144940:0:0:0:0:
64,192,144140,1,0,0:0:0:0:
320,192,144140,1,0,0:0:0:0:
320,192,144540,1,0,0:0:0:0:
64,192,144540,1,0,0:0:0:0:
448,192,144940,1,0,0:0:0:0:
64,192,144940,128,0,145140:0:0:0:0:
448,192,145140,128,0,145340:0:0:0:0:
192,192,145340,128,0,145740:0:0:0:0:
320,192,145340,1,0,0:0:0:0:
320,192,145740,1,0,0:0:0:0:
448,192,145740,128,0,146140:0:0:0:0:
64,192,146140,1,0,0:0:0:0:
192,192,146140,1,0,0:0:0:0:
320,192,146140,128,0,146540:0:0:0:0:
448,192,146540,1,0,0:0:0:0:
64,192,146540,1,0,0:0:0:0:
192,192,146540,128,0,146940:0:0:0:0:
64,192,146940,1,0,0:0:0:0:
320,192,146940,128,0,147140:0:0:0:0:
448,192,147140,128,0,147340:0:0:0:0:
192,192,147340,1,0,0:0:0:0:
64,192,147340,1,0,0:0:0:0:
64,192,147740,1,0,0:0:0:0:
192,192,147740,1,0,0:0:0:0:
448,192,147740,128,0,148140:0:0:0:0:
192,192,148140,1,0,0:0:0:0:
320,192,148140,128,0,148540:0:0:0:0:
64,192,148540,128,0,148940:0:0:0:0:
448,192,148540,1,0,0:0:0:0:
192,192,148940,1,0,0:0:0:0:
320,192,148940,128,0,149340:0:0:0:0:
448,192,149340,1,0,0:0:0:0:
64,192,149340,1,0,0:0:0:0:
192,192,149340,128,0,149740:0:0:0:0:
64,192,149740,1,0,0:0:0:0:
320,192,149740,1,0,0:0:0:0:
448,192,149740,128,0,150140:0:0:0:0:
320,192,150140,128,0,150340:0:0:0:0:
64,192,150340,1,0,0:0:0:0:
448,192,150340,1,0,0:0:0:0:
192,192,150340,128,0,151240:0:0:0:0:
64,192,150640,1,0,0:0:0:0:
320,192,150640,1,0,0:0:0:0:
448,192,150640,1,0,0:0:0:0:
64,192,150940,1,0,0:0:0:0:
320,192,150940,1,0,0:0:0:0:
448,192,150940,1,0,0:0:0:0:
64,192,151340,1,0,0:0:0:0:
192,192,151340,1,0,0:0:0:0:
320,192,151340,128,0,151740:0:0:0:0:
448,192,151740,1,0,0:0:0:0:
192,192,151740,1,0,0:0:0:0:
64,192,151740,128,0,152140:0:0:0:0:
64,192,153340,1,0,0:0:0:0:
448,192,153340,1,0,0:0:0:0:
448,192,153640,1,0,0:0:0:0:
320,192,153740,1,0,0:0:0:0:
64,192,153940,1,0,0:0:0:0:
192,192,154040,1,0,0:0:0:0:
64,192,154140,1,0,0:0:0:0:
192,192,154240,1,0,0:0:0:0:
64,192,154340,1,0,0:0:0:0:
192,192,154440,1,0,0:0:0:0:
64,192,154540,128,0,154740:0:0:0:0:
192,192,154740,1,0,0:0:0:0:
320,192,154940,1,0,0:0:0:0:
448,192,155140,1,0,0:0:0:0:
64,192,155340,128,0,155540:0:0:0:0:
320,192,155540,1,0,0:0:0:0:
448,192,155640,1,0,0:0:0:0:
320,192,155740,1,0,0:0:0:0:
448,192,155840,1,0,0:0:0:0:
320,192,155940,1,0,0:0:0:0:
448,192,156040,1,0,0:0:0:0:
320,192,156140,128,0,156340:0:0:0:0:
448,192,156340,1,0,0:0:0:0:
64,192,156540,1,0,0:0:0:0:
320,192,156740,1,0,0:0:0:0:
192,192,156940,1,0,0:0:0:0:
320,192,156940,1,0,0:0:0:0:
64,192,157140,1,0,0:0:0:0:
448,192,157140,1,0,0:0:0:0:
192,192,157240,1,0,0:0:0:0:
320,192,157240,1,0,0:0:0:0:
64,192,157340,1,0,0:0:0:0:
448,192,157340,1,0,0:0:0:0:
320,192,157440,1,0,0:0:0:0:
192,192,157440,1,0,0:0:0:0:
64,192,157540,1,0,0:0:0:0:
448,192,157540,1,0,0:0:0:0:
192,192,157640,1,0,0:0:0:0:
320,192,157640,1,0,0:0:0:0:
64,192,157740,128,0,157940:0:0:0:0:
448,192,157740,128,0,157940:0:0:0:0:
192,192,157940,1,0,0:0:0:0:
320,192,157940,1,0,0:0:0:0:
192,192,158140,128,0,158340:0:0:0:0:
320,192,158140,128,0,158340:0:0:0:0:
448,192,158340,1,0,0:0:0:0:
64,192,158340,1,0,0:0:0:0:
448,192,158540,1,0,0:0:0:0:
64,192,158540,128,0,158740:0:0:0:0:
320,192,158740,1,0,0:0:0:0:
64,192,158940,1,0,0:0:0:0:
192,192,158940,1,0,0:0:0:0:
448,192,158940,128,0,159140:0:0:0:0:
320,192,159140,1,0,0:0:0:0:
192,192,159340,1,0,0:0:0:0:
448,192,159540,1,0,0:0:0:0:
192,192,159740,1,0,0:0:0:0:
448,192,159740,128,0,159940:0:0:0:0:
64,192,159940,1,0,0:0:0:0:
448,192,160140,1,0,0:0:0:0:
64,192,160140,1,0,0:0:0:0:
192,192,160340,1,0,0:0:0:0:
320,192,160340,1,0,0:0:0:0:
64,192,160440,1,0,0:0:0:0:
448,192,160440,1,0,0:0:0:0:
192,192,160540,1,0,0:0:0:0:
320,192,160540,1,0,0:0:0:0:
64,192,160640,1,0,0:0:0:0:
448,192,160640,1,0,0:0:0:0:
192,192,160740,1,0,0:0:0:0:
320,192,160740,1,0,0:0:0:0:
64,192,160840,1,0,0:0:0:0:
448,192,160840,1,0,0:0:0:0:
192,192,160940,128,0,161140:0:0:0:0:
320,192,160940,128,0,161140:0:0:0:0:
448,192,161140,1,0,0:0:0:0:
64,192,161140,1,0,0:0:0:0:
64,192,161340,128,0,161540:0:0:0:0:
448,192,161340,128,0,161540:0:0:0:0:
192,192,161540,1,0,0:0:0:0:
320,192,161540,1,0,0:0:0:0:
192,192,161740,128,0,161940:0:0:0:0:
448,192,161940,1,0,0:0:0:0:
64,192,162040,1,0,0:0:0:0:
448,192,162140,1,0,0:0:0:0:
320,192,162140,128,0,162340:0:0:0:0:
64,192,162240,1,0,0:0:0:0:
448,192,162340,1,0,0:0:0:0:
64,192,162440,1,0,0:0:0:0:
448,192,162540,128,0,162740:0:0:0:0:
320,192,162740,1,0,0:0:0:0:
64,192,162940,1,0,0:0:0:0:
448,192,162940,128,0,163140:0:0:0:0:
320,192,163140,1,0,0:0:0:0:
64,192,163340,1,0,0:0:0:0:
192,192,163340,1,0,0:0:0:0:
64,192,163540,1,0,0:0:0:0:
448,192,163640,1,0,0:0:0:0:
64,192,163740,1,0,0:0:0:0:
320,192,163740,128,0,163940:0:0:0:0:
448,192,163840,1,0,0:0:0:0:
64,192,163940,1,0,0:0:0:0:
448,192,164040,1,0,0:0:0:0:
64,192,164140,128,0,164340:0:0:0:0:
320,192,164140,128,0,164340:0:0:0:0:
192,192,164340,1,0,0:0:0:0:
320,192,164540,1,0,0:0:0:0:
192,192,164740,1,0,0:0:0:0:
448,192,164940,1,0,0:0:0:0:
320,192,165140,1,0,0:0:0:0:
64,192,165240,128,0,166540:0:0:0:0:
448,192,165240,128,0,166540:0:0:0:0:
320,192,165340,1,0,0:0:0:0:
192,192,165540,1,0,0:0:0:0:
192,192,165740,1,0,0:0:0:0:
320,192,165740,1,0,0:0:0:0:
320,192,165940,1,0,0:0:0:0:
192,192,166140,1,0,0:0:0:0:
320,192,166340,1,0,0:0:0:0:
192,192,166540,1,0,0:0:0:0:
320,192,166540,1,0,0:0:0:0:
320,192,166740,1,0,0:0:0:0:
64,192,166840,1,0,0:0:0:0:
320,192,166940,1,0,0:0:0:0:
448,192,166940,128,0,167140:0:0:0:0:
64,192,167040,1,0,0:0:0:0:
320,192,167140,1,0,0:0:0:0:
64,192,167240,1,0,0:0:0:0:
320,192,167340,128,0,167540:0:0:0:0:
192,192,167340,128,0,167540:0:0:0:0:
448,192,167540,1,0,0:0:0:0:
448,192,167740,1,0,0:0:0:0:
192,192,167940,1,0,0:0:0:0:
64,192,168140,128,0,168340:0:0:0:0:
320,192,168140,128,0,168340:0:0:0:0:
192,192,168340,1,0,0:0:0:0:
448,192,168440,1,0,0:0:0:0:
192,192,168540,1,0,0:0:0:0:
64,192,168540,128,0,168740:0:0:0:0:
448,192,168640,1,0,0:0:0:0:
192,192,168740,1,0,0:0:0:0:
448,192,168840,1,0,0:0:0:0:
192,192,168940,128,0,169140:0:0:0:0:
320,192,169140,1,0,0:0:0:0:
64,192,169140,1,0,0:0:0:0:
448,192,169340,1,0,0:0:0:0:
64,192,169340,128,0,169540:0:0:0:0:
320,192,169540,1,0,0:0:0:0:
64,192,169740,1,0,0:0:0:0:
448,192,169740,1,0,0:0:0:0:
192,192,169940,1,0,0:0:0:0:
320,192,169940,1,0,0:0:0:0:
64,192,170040,1,0,0:0:0:0:
448,192,170040,1,0,0:0:0:0:
192,192,170140,1,0,0:0:0:0:
320,192,170140,1,0,0:0:0:0:
64,192,170240,1,0,0:0:0:0:
448,192,170240,1,0,0:0:0:0:
192,192,170340,1,0,0:0:0:0:
320,192,170340,1,0,0:0:0:0:
64,192,170440,1,0,0:0:0:0:
448,192,170440,1,0,0:0:0:0:
192,192,170540,128,0,170740:0:0:0:0:
320,192,170740,1,0,0:0:0:0:
448,192,170940,1,0,0:0:0:0:
192,192,171140,1,0,0:0:0:0:
64,192,171340,128,0,171540:0:0:0:0:
448,192,171340,1,0,0:0:0:0:
320,192,171540,1,0,0:0:0:0:
192,192,171740,1,0,0:0:0:0:
448,192,171740,1,0,0:0:0:0:
64,192,171740,128,0,171940:0:0:0:0:
320,192,171940,1,0,0:0:0:0:
448,192,172140,1,0,0:0:0:0:
64,192,172140,1,0,0:0:0:0:
192,192,172140,1,0,0:0:0:0:
320,192,172340,1,0,0:0:0:0:
192,192,172540,1,0,0:0:0:0:
448,192,172540,128,0,172740:0:0:0:0:
64,192,172740,1,0,0:0:0:0:
64,192,173140,1,0,0:0:0:0:
320,192,173240,1,0,0:0:0:0:
64,192,173340,1,0,0:0:0:0:
448,192,173340,128,0,173540:0:0:0:0:
320,192,173440,1,0,0:0:0:0:
64,192,173540,1,0,0:0:0:0:
320,192,173640,1,0,0:0:0:0:
64,192,173740,128,0,173940:0:0:0:0:
448,192,173740,128,0,173940:0:0:0:0:
192,192,173940,1,0,0:0:0:0:
448,192,174140,1,0,0:0:0:0:
320,192,174340,1,0,0:0:0:0:
64,192,174540,128,0,174740:0:0:0:0:
448,192,174740,1,0,0:0:0:0:
192,192,174840,1,0,0:0:0:0:
448,192,174940,1,0,0:0:0:0:
64,192,174940,128,0,175140:0:0:0:0:
192,192,175040,1,0,0:0:0:0:
448,192,175140,1,0,0:0:0:0:
192,192,175240,1,0,0:0:0:0:
448,192,175340,128,0,175540:0:0:0:0:
192,192,175540,1,0,0:0:0:0:
320,192,175740,1,0,0:0:0:0:
64,192,175740,128,0,175940:0:0:0:0:
448,192,175940,1,0,0:0:0:0:
192,192,176140,1,0,0:0:0:0:
320,192,176140,1,0,0:0:0:0:
64,192,176340,1,0,0:0:0:0:
448,192,176340,1,0,0:0:0:0:
192,192,176440,1,0,0:0:0:0:
320,192,176440,1,0,0:0:0:0:
64,192,176540,1,0,0:0:0:0:
448,192,176540,1,0,0:0:0:0:
192,192,176640,1,0,0:0:0:0:
320,192,176640,1,0,0:0:0:0:
64,192,176740,1,0,0:0:0:0:
448,192,176740,1,0,0:0:0:0:
192,192,176840,1,0,0:0:0:0:
320,192,176840,1,0,0:0:0:0:
64,192,176940,128,0,177140:0:0:0:0:
448,192,176940,128,0,177140:0:0:0:0:
192,192,177140,128,0,177340:0:0:0:0:
320,192,177140,128,0,177340:0:0:0:0:
64,192,177340,1,0,0:0:0:0:
448,192,177340,1,0,0:0:0:0:
320,192,177540,1,0,0:0:0:0:
192,192,177540,1,0,0:0:0:0:
448,192,177740,1,0,0:0:0:0:
320,192,177940,1,0,0:0:0:0:
448,192,178140,1,0,0:0:0:0:
192,192,178340,1,0,0:0:0:0:
448,192,178540,1,0,0:0:0:0:
64,192,178540,1,0,0:0:0:0:
320,192,178740,1,0,0:0:0:0:
192,192,178940,1,0,0:0:0:0:
64,192,179140,128,0,180140:0:0:0:0:
