osu file format v14

[General]
AudioFilename: audio.mp3
AudioLeadIn: 0
PreviewTime: 0
Countdown: 0
SampleSet: Soft
StackLeniency: 0.2
Mode: 0
LetterboxInBreaks: 0
WidescreenStoryboard: 0

[Editor]
Bookmarks: 9639,48039,67295,86546,96146,105746,124895,144095,153695,163295,172946,182546,192146,201746,211346
DistanceSpacing: 3.2
BeatDivisor: 4
GridSize: 4
TimelineZoom: 1.856

[Metadata]
Title:Mirror
TitleUnicode:Mirror
Artist:HoneyComeBear
ArtistUnicode:HoneyComeBear
Creator:Foxy Grandpa
Version:Obsession
Source:
Tags:future bass Mentai KKipalt FoxyGrandpa
BeatmapID:1708088
BeatmapSetID:814535

[Difficulty]
HPDrainRate:5
CircleSize:4.5
OverallDifficulty:8.5
ApproachRate:9.2
SliderMultiplier:2.2
SliderTickRate:1

[Events]
//Background and Video events
0,0,"withyou.png",0,0
//Break Periods
//Storyboard Layer 0 (Background)
//Storyboard Layer 1 (Fail)
//Storyboard Layer 2 (Pass)
//Storyboard Layer 3 (Foreground)
//Storyboard Sound Samples

[TimingPoints]
146,600,4,2,10,50,1,0
146,-133.333333333333,4,2,10,50,0,0
596,-133.333333333333,4,2,12,50,0,0
1046,-133.333333333333,4,2,10,50,0,0
1646,-133.333333333333,4,2,10,50,0,0
1946,-133.333333333333,4,2,10,50,0,0
2246,-133.333333333333,4,2,12,50,0,0
2546,-133.333333333333,4,2,11,50,0,0
2996,-133.333333333333,4,2,12,50,0,0
3446,-133.333333333333,4,2,11,50,0,0
4046,-133.333333333333,4,2,12,50,0,0
4346,-133.333333333333,4,2,11,50,0,0
4646,-133.333333333333,4,2,12,50,0,0
4946,-133.333333333333,4,2,10,50,0,0
5396,-133.333333333333,4,2,12,50,0,0
5846,-133.333333333333,4,2,10,50,0,0
6446,-133.333333333333,4,2,10,50,0,0
6746,-133.333333333333,4,2,11,50,0,0
7046,-133.333333333333,4,2,12,50,0,0
7346,-133.333333333333,4,2,11,50,0,0
7796,-133.333333333333,4,2,12,50,0,0
8246,-133.333333333333,4,2,11,50,0,0
8846,-133.333333333333,4,2,12,50,0,0
9146,-133.333333333333,4,2,11,50,0,0
9446,-133.333333333333,4,2,12,50,0,0
9746,-100,4,2,1,60,0,0
10346,-100,4,2,1,50,0,0
15746,-100,4,2,1,60,0,0
16046,-100,4,2,1,50,0,0
16346,-100,4,2,1,40,0,0
16646,-100,4,2,1,30,0,0
16946,-100,4,2,1,50,0,0
21746,-100,4,2,1,40,0,0
22646,-100,4,2,1,35,0,0
24146,-100,4,2,1,50,0,0
27671,-100,4,2,1,5,0,0
27746,-100,4,2,2,50,0,0
28046,-100,4,2,2,60,0,0
28271,-100,4,2,1,5,0,0
28346,-125,4,2,2,50,0,0
28571,-125,4,2,1,5,0,0
28646,-166.666666666667,4,2,2,40,0,0
28871,-166.666666666667,4,2,1,5,0,0
28946,-100,4,2,1,55,0,0
34946,-100,4,2,1,65,0,0
35246,-100,4,2,1,55,0,0
35546,-100,4,2,1,45,0,0
35846,-100,4,2,1,35,0,0
36146,-100,4,2,1,45,0,0
37046,-100,4,2,1,55,0,0
46946,-100,4,2,2,45,0,0
47246,-100,4,2,2,65,0,0
47546,-80,4,2,2,60,0,0
47846,-80,4,2,2,50,0,0
48090,-76.9230769230769,4,2,2,50,0,0
48146,-76.9230769230769,4,2,2,65,0,0
65996,-76.9230769230769,4,2,3,25,0,0
66046,-76.9230769230769,4,2,3,35,0,0
66096,-76.9230769230769,4,2,3,45,0,0
66146,-76.9230769230769,4,2,3,65,0,0
66446,-66.6666666666667,4,2,3,50,0,0
66746,-100,4,2,2,50,0,0
67046,-200,4,2,3,50,0,0
67346,-400,4,2,2,50,0,0
76946,-1000,4,2,1,50,0,0
81746,-200,4,2,1,40,0,0
82346,-100,4,2,1,45,0,0
82946,-66.6666666666667,4,2,1,55,0,0
83546,-50,4,2,1,60,0,0
84146,-66.6666666666667,4,2,3,65,0,0
85946,-100,4,2,3,50,0,0
86096,-100,4,2,1,5,0,0
86246,-200,4,2,2,50,0,0
86471,-200,4,2,1,5,0,0
86546,-40,4,2,4,75,0,1
86771,-40,4,2,4,5,0,1
86846,-40,4,2,4,75,0,1
87071,-40,4,2,4,5,0,1
87146,-40,4,2,2,75,0,0
87446,-33.3333333333333,4,2,4,75,0,1
87671,-33.3333333333333,4,2,4,5,0,1
87746,-33.3333333333333,4,2,4,75,0,1
87971,-33.3333333333333,4,2,4,5,0,1
88046,-33.3333333333333,4,2,2,60,0,0
88346,-28.5714285714286,4,2,4,75,0,1
88421,-28.5714285714286,4,2,4,5,0,1
88496,-28.5714285714286,4,2,4,75,0,1
88571,-28.5714285714286,4,2,4,5,0,1
88646,-28.5714285714286,4,2,4,75,0,1
88871,-28.5714285714286,4,2,4,5,0,1
88946,-40,4,2,4,75,0,1
89171,-40,4,2,4,5,0,1
89246,-40,4,2,4,75,0,1
89546,-40,4,2,4,60,0,0
89846,-50,4,2,4,75,0,1
90071,-50,4,2,4,5,0,1
90146,-50,4,2,4,75,0,1
90371,-50,4,2,4,5,0,1
90446,-50,4,2,4,75,0,0
90746,-33.3333333333333,4,2,4,75,0,1
90821,-33.3333333333333,4,2,4,5,0,1
90896,-50,4,2,4,75,0,1
90971,-50,4,2,4,5,0,1
91046,-100,4,2,4,75,0,1
91271,-100,4,2,4,5,0,1
91346,-40,4,2,4,75,0,1
91571,-40,4,2,4,5,0,1
91646,-40,4,2,4,75,0,1
91946,-40,4,2,4,75,0,0
92246,-33.3333333333333,4,2,4,75,0,1
92471,-33.3333333333333,4,2,4,5,0,1
92546,-33.3333333333333,4,2,4,75,0,1
92771,-33.3333333333333,4,2,4,5,0,1
92846,-33.3333333333333,4,2,4,75,0,0
93146,-28.5714285714286,4,2,4,75,0,1
93371,-28.5714285714286,4,2,4,5,0,1
93446,-28.5714285714286,4,2,4,75,0,1
93671,-28.5714285714286,4,2,4,5,0,1
93746,-40,4,2,4,75,0,1
93971,-40,4,2,4,5,0,1
94046,-40,4,2,4,75,0,1
94346,-40,4,2,4,75,0,0
94646,-50,4,2,4,75,0,1
94871,-50,4,2,4,5,0,1
94946,-50,4,2,4,75,0,1
95171,-50,4,2,4,5,0,1
95246,-50,4,2,4,75,0,0
95546,-33.3333333333333,4,2,4,75,0,1
95621,-33.3333333333333,4,2,4,5,0,1
95696,-50,4,2,4,75,0,1
95771,-50,4,2,4,5,0,1
95846,-100,4,2,4,75,0,0
96071,-100,4,2,4,5,0,0
96146,-40,4,2,4,75,0,1
96371,-40,4,2,4,5,0,1
96446,-40,4,2,4,75,0,1
96746,-66.6666666666667,4,2,4,75,0,0
97046,-33.3333333333333,4,2,4,75,0,1
97271,-33.3333333333333,4,2,4,5,0,1
97346,-33.3333333333333,4,2,4,75,0,1
97571,-33.3333333333333,4,2,4,5,0,1
97646,-33.3333333333333,4,2,4,75,0,0
97946,-28.5714285714286,4,2,4,75,0,1
98171,-28.5714285714286,4,2,4,5,0,1
98246,-28.5714285714286,4,2,4,75,0,1
98471,-28.5714285714286,4,2,4,5,0,1
98546,-40,4,2,4,75,0,1
98771,-40,4,2,4,5,0,1
98846,-40,4,2,4,75,0,1
99146,-40,4,2,4,75,0,0
99446,-50,4,2,4,75,0,1
99671,-50,4,2,4,5,0,1
99746,-50,4,2,4,75,0,1
99971,-50,4,2,4,5,0,1
100046,-50,4,2,4,75,0,0
100346,-33.3333333333333,4,2,4,75,0,1
100421,-33.3333333333333,4,2,4,5,0,1
100496,-50,4,2,4,75,0,1
100571,-50,4,2,4,5,0,1
100646,-100,4,2,4,75,0,1
100871,-100,4,2,4,5,0,1
100946,-40,4,2,4,75,0,1
101171,-40,4,2,4,5,0,1
101246,-40,4,2,4,75,0,1
101546,-40,4,2,4,75,0,0
101846,-33.3333333333333,4,2,4,75,0,1
102071,-33.3333333333333,4,2,4,5,0,1
102146,-33.3333333333333,4,2,4,75,0,1
102371,-33.3333333333333,4,2,4,5,0,1
102446,-33.3333333333333,4,2,4,75,0,0
102746,-28.5714285714286,4,2,4,75,0,1
102971,-28.5714285714286,4,2,4,5,0,1
103046,-28.5714285714286,4,2,4,75,0,1
103271,-28.5714285714286,4,2,4,5,0,1
103346,-40,4,2,4,75,0,1
103571,-40,4,2,4,5,0,1
103646,-40,4,2,4,75,0,1
103946,-40,4,2,4,75,0,0
104246,-50,4,2,4,75,0,1
104471,-50,4,2,4,5,0,1
104546,-50,4,2,4,75,0,1
104771,-50,4,2,4,5,0,1
104846,-50,4,2,2,75,0,0
105146,-25,4,2,4,75,0,1
105221,-25,4,2,4,5,0,1
105296,-50,4,2,4,75,0,1
105371,-50,4,2,4,5,0,1
105446,-200,4,2,4,60,0,0
105671,-200,4,2,4,5,0,0
105746,-100,4,2,1,55,0,0
112046,-100,4,2,1,45,0,0
112346,-100,4,2,1,35,0,0
112646,-100,4,2,1,25,0,0
112946,-100,4,2,1,55,0,0
124046,-100,4,2,2,55,0,0
124346,-80,4,2,2,60,0,0
124946,-76.9230769230769,4,2,2,60,0,0
142796,-76.9230769230769,4,2,3,20,0,0
142846,-76.9230769230769,4,2,3,30,0,0
142896,-76.9230769230769,4,2,3,40,0,0
142946,-76.9230769230769,4,2,3,60,0,0
143246,-66.6666666666667,4,2,2,60,0,0
143546,-100,4,2,2,60,0,0
143846,-100,4,2,3,60,0,0
144146,-400,4,2,2,60,0,0
153746,-1000,4,2,1,60,0,0
158546,-200,4,2,1,60,0,0
159146,-100,4,2,1,60,0,0
159746,-66.6666666666667,4,2,1,60,0,0
160346,-50,4,2,1,60,0,0
160946,-66.6666666666667,4,2,3,60,0,0
162746,-100,4,2,1,60,0,0
163046,-200,4,2,1,60,0,0
163271,-200,4,2,1,5,0,0
163346,-40,4,2,4,75,0,1
163571,-40,4,2,4,5,0,1
163646,-40,4,2,4,75,0,1
163871,-40,4,2,4,5,0,1
163946,-40,4,2,2,75,0,1
164246,-33.3333333333333,4,2,4,75,0,1
164471,-33.3333333333333,4,2,4,5,0,1
164546,-33.3333333333333,4,2,4,75,0,1
164771,-33.3333333333333,4,2,4,5,0,1
164846,-33.3333333333333,4,2,2,75,0,1
165146,-28.5714285714286,4,2,4,75,0,1
165221,-28.5714285714286,4,2,4,5,0,1
165296,-28.5714285714286,4,2,4,75,0,1
165371,-28.5714285714286,4,2,4,5,0,1
165446,-28.5714285714286,4,2,4,75,0,0
165746,-40,4,2,4,75,0,1
165971,-40,4,2,4,5,0,1
166046,-40,4,2,4,75,0,1
166346,-40,4,2,4,75,0,1
166646,-50,4,2,4,75,0,1
166871,-50,4,2,4,5,0,1
166946,-50,4,2,4,75,0,1
167171,-50,4,2,4,5,0,1
167246,-50,4,2,4,75,0,1
167546,-33.3333333333333,4,2,4,75,0,1
167621,-33.3333333333333,4,2,4,5,0,1
167696,-50,4,2,4,75,0,1
167771,-50,4,2,4,5,0,1
167846,-100,4,2,4,75,0,1
168071,-100,4,2,4,5,0,1
168146,-40,4,2,4,75,0,1
168371,-40,4,2,4,5,0,1
168446,-40,4,2,4,75,0,1
168746,-40,4,2,4,75,0,1
169046,-33.3333333333333,4,2,4,75,0,1
169271,-33.3333333333333,4,2,4,5,0,1
169346,-33.3333333333333,4,2,4,75,0,1
169571,-33.3333333333333,4,2,4,5,0,1
169646,-33.3333333333333,4,2,4,75,0,1
169946,-28.5714285714286,4,2,4,75,0,1
170171,-28.5714285714286,4,2,4,5,0,1
170246,-28.5714285714286,4,2,4,75,0,1
170471,-28.5714285714286,4,2,4,5,0,1
170546,-40,4,2,4,75,0,1
170771,-40,4,2,4,5,0,1
170846,-40,4,2,4,75,0,1
171146,-40,4,2,4,75,0,1
171446,-50,4,2,4,75,0,1
171671,-50,4,2,4,5,0,1
171746,-25,4,2,4,75,0,1
171971,-25,4,2,4,5,0,1
172046,-200,4,2,4,75,0,1
172346,-33.3333333333333,4,2,4,75,0,1
172421,-33.3333333333333,4,2,4,5,0,1
172496,-50,4,2,4,75,0,1
172571,-50,4,2,4,5,0,1
172646,-100,4,2,2,75,0,1
172871,-100,4,2,4,5,0,1
172946,-40,4,2,4,75,0,1
173446,-28.5714285714286,4,2,4,75,0,1
173546,-28.5714285714286,4,2,4,75,0,0
173846,-40,4,2,4,75,0,1
174071,-40,4,2,4,5,0,1
174146,-40,4,2,4,75,0,1
174371,-40,4,2,4,5,0,1
174446,-40,4,2,4,75,0,1
174746,-33.3333333333333,4,2,4,75,0,1
174971,-33.3333333333333,4,2,4,5,0,1
175046,-33.3333333333333,4,2,4,75,0,1
175271,-33.3333333333333,4,2,4,5,0,1
175346,-33.3333333333333,4,2,4,75,0,1
175571,-33.3333333333333,4,2,4,5,0,1
175646,-33.3333333333333,4,2,4,75,0,1
175721,-33.3333333333333,4,2,4,5,0,1
175796,-33.3333333333333,4,2,4,75,0,1
176321,-33.3333333333333,4,2,4,5,0,1
176396,-33.3333333333333,4,2,4,75,0,1
176771,-33.3333333333333,4,2,4,5,0,1
176846,-33.3333333333333,4,2,4,75,0,1
177146,-33.3333333333333,4,2,4,75,0,1
177371,-33.3333333333333,4,2,4,5,0,1
177446,-33.3333333333333,4,2,4,75,0,1
177746,-100,4,2,4,75,0,1
178046,-50,4,2,4,75,0,1
178646,-33.3333333333333,4,2,4,75,0,1
178871,-33.3333333333333,4,2,4,5,0,1
178946,-33.3333333333333,4,2,4,75,0,1
179621,-33.3333333333333,4,2,4,5,0,1
179696,-33.3333333333333,4,2,4,75,0,1
179771,-33.3333333333333,4,2,4,5,0,1
179846,-100,4,2,4,75,0,1
180446,-50,4,2,4,75,0,1
181046,-33.3333333333333,4,2,4,75,0,1
181346,-28.5714285714286,4,2,4,75,0,1
181571,-28.5714285714286,4,2,4,5,0,1
181646,-28.5714285714286,4,2,4,75,0,1
182021,-28.5714285714286,4,2,4,5,0,1
182096,-28.5714285714286,4,2,4,75,0,1
182171,-28.5714285714286,4,2,4,5,0,1
182246,-100,4,2,4,75,0,0
182471,-100,4,2,4,5,0,0
182546,-28.5714285714286,4,2,4,75,0,1
183146,-28.5714285714286,4,2,4,75,0,0
183446,-33.3333333333333,4,2,4,75,0,1
183671,-33.3333333333333,4,2,4,5,0,1
183746,-33.3333333333333,4,2,4,75,0,1
183971,-33.3333333333333,4,2,4,5,0,1
184046,-50,4,2,4,75,0,1
184346,-28.5714285714286,4,2,4,75,0,1
184571,-28.5714285714286,4,2,4,5,0,1
184646,-28.5714285714286,4,2,4,75,0,1
184871,-28.5714285714286,4,2,4,5,0,1
184946,-28.5714285714286,4,2,4,75,0,1
185171,-28.5714285714286,4,2,4,5,0,1
185246,-28.5714285714286,4,2,4,75,0,1
185321,-28.5714285714286,4,2,4,5,0,1
185396,-28.5714285714286,4,2,4,75,0,1
185921,-28.5714285714286,4,2,4,5,0,1
185996,-28.5714285714286,4,2,4,75,0,1
186371,-28.5714285714286,4,2,4,5,0,1
186446,-28.5714285714286,4,2,4,75,0,1
186746,-33.3333333333333,4,2,4,75,0,1
186971,-33.3333333333333,4,2,4,5,0,1
187046,-33.3333333333333,4,2,4,75,0,1
187346,-66.6666666666667,4,2,4,75,0,1
187646,-40,4,2,4,75,0,1
188246,-28.5714285714286,4,2,4,75,0,1
188471,-28.5714285714286,4,2,4,5,0,1
188546,-28.5714285714286,4,2,4,75,0,1
189221,-28.5714285714286,4,2,4,5,0,1
189296,-28.5714285714286,4,2,4,75,0,1
189371,-28.5714285714286,4,2,4,5,0,1
189446,-100,4,2,4,75,0,1
189671,-100,4,2,4,5,0,1
189746,-33.3333333333333,4,2,4,75,0,1
189971,-33.3333333333333,4,2,4,5,0,1
190046,-33.3333333333333,4,2,4,75,0,1
190121,-33.3333333333333,4,2,4,5,0,1
190196,-33.3333333333333,4,2,4,75,0,1
190946,-25,4,2,4,75,0,1
191171,-25,4,2,4,5,0,1
191246,-33.3333333333333,4,2,2,75,0,1
191546,-25,4,2,4,75,0,1
191621,-25,4,2,4,5,0,1
191696,-25,4,2,4,75,0,1
191771,-25,4,2,4,5,0,1
191846,-74.0740740740741,4,2,4,75,0,1
192071,-74.0740740740741,4,2,4,5,0,1
192146,-40,4,2,4,75,0,1
192446,-40,4,2,4,75,0,1
192646,-25,4,2,4,75,0,1
192746,-40,4,2,4,75,0,0
193046,-33.3333333333333,4,2,4,75,0,1
193271,-33.3333333333333,4,2,4,5,0,1
193346,-33.3333333333333,4,2,4,75,0,1
193571,-33.3333333333333,4,2,4,5,0,1
193646,-33.3333333333333,4,2,4,75,0,1
193946,-28.5714285714286,4,2,4,75,0,1
194171,-28.5714285714286,4,2,4,5,0,1
194246,-28.5714285714286,4,2,4,75,0,1
194471,-28.5714285714286,4,2,4,5,0,1
194546,-40,4,2,4,75,0,1
194771,-40,4,2,4,5,0,1
194846,-40,4,2,4,75,0,1
195146,-40,4,2,4,75,0,1
195446,-50,4,2,4,75,0,1
195671,-50,4,2,4,5,0,1
195746,-50,4,2,4,75,0,1
195971,-50,4,2,4,5,0,1
196046,-50,4,2,4,75,0,1
196346,-33.3333333333333,4,2,4,75,0,1
196421,-33.3333333333333,4,2,4,5,0,1
196496,-50,4,2,4,75,0,1
196571,-50,4,2,4,5,0,1
196646,-100,4,2,4,75,0,1
196871,-100,4,2,4,5,0,1
196946,-40,4,2,4,75,0,1
197171,-40,4,2,4,5,0,1
197246,-40,4,2,4,75,0,1
197546,-40,4,2,4,75,0,1
197846,-33.3333333333333,4,2,4,75,0,1
198071,-33.3333333333333,4,2,4,5,0,1
198146,-33.3333333333333,4,2,4,75,0,1
198371,-33.3333333333333,4,2,4,5,0,1
198446,-33.3333333333333,4,2,4,75,0,1
198746,-28.5714285714286,4,2,4,75,0,1
198971,-28.5714285714286,4,2,4,5,0,1
199046,-28.5714285714286,4,2,4,75,0,1
199271,-28.5714285714286,4,2,4,5,0,1
199346,-40,4,2,4,75,0,1
199571,-40,4,2,4,5,0,1
199646,-40,4,2,4,75,0,1
199946,-40,4,2,4,75,0,1
200246,-50,4,2,4,75,0,1
200471,-50,4,2,4,5,0,1
200546,-22.2222222222222,4,2,4,75,0,1
200771,-22.2222222222222,4,2,4,5,0,1
200846,-100,4,2,4,75,0,1
201146,-33.3333333333333,4,2,4,75,0,1
201296,-50,4,2,4,75,0,1
201371,-50,4,2,4,5,0,1
201446,-200,4,2,4,75,0,0
201746,-40,4,2,4,75,0,1
201971,-40,4,2,4,5,0,1
202046,-40,4,2,4,75,0,1
202346,-66.6666666666667,4,2,4,75,0,1
202646,-33.3333333333333,4,2,4,75,0,1
202871,-33.3333333333333,4,2,4,5,0,1
202946,-33.3333333333333,4,2,4,75,0,1
203171,-33.3333333333333,4,2,4,5,0,1
203246,-33.3333333333333,4,2,4,75,0,1
203546,-28.5714285714286,4,2,4,75,0,1
203771,-28.5714285714286,4,2,4,5,0,1
203846,-28.5714285714286,4,2,4,75,0,1
204071,-28.5714285714286,4,2,4,5,0,1
204146,-40,4,2,4,75,0,1
204371,-40,4,2,4,5,0,1
204446,-40,4,2,4,75,0,1
204746,-40,4,2,4,75,0,1
205046,-50,4,2,4,75,0,1
205271,-50,4,2,4,5,0,1
205346,-50,4,2,4,75,0,1
205571,-50,4,2,4,5,0,1
205646,-100,4,2,4,75,0,1
205946,-33.3333333333333,4,2,4,75,0,1
206171,-33.3333333333333,4,2,4,5,0,1
206246,-100,4,2,4,75,0,1
206471,-100,4,2,4,5,0,1
206546,-40,4,2,4,75,0,1
206771,-40,4,2,4,5,0,1
206846,-40,4,2,4,75,0,1
207146,-40,4,2,4,75,0,1
207446,-33.3333333333333,4,2,4,75,0,1
207671,-33.3333333333333,4,2,4,5,0,1
207746,-33.3333333333333,4,2,4,75,0,1
207971,-33.3333333333333,4,2,4,5,0,1
208046,-33.3333333333333,4,2,4,75,0,1
208346,-28.5714285714286,4,2,4,75,0,1
208571,-28.5714285714286,4,2,4,5,0,1
208646,-28.5714285714286,4,2,4,75,0,1
208871,-28.5714285714286,4,2,4,5,0,1
208946,-40,4,2,4,75,0,1
209171,-40,4,2,4,5,0,1
209246,-40,4,2,4,75,0,1
209546,-40,4,2,4,75,0,1
209846,-50,4,2,4,75,0,1
210071,-50,4,2,4,5,0,1
210146,-50,4,2,4,75,0,1
210371,-50,4,2,4,5,0,1
210446,-50,4,2,2,75,0,0
210746,-25,4,2,4,75,0,1
210821,-25,4,2,4,5,0,1
210896,-50,4,2,4,75,0,1
210971,-50,4,2,4,5,0,1
211046,-200,4,2,2,75,0,1
211346,-200,4,2,2,75,0,0

[Colours]
Combo1 : 106,255,255
Combo2 : 187,226,255
Combo3 : 192,192,192
Combo4 : 137,128,255
Combo5 : 55,55,255

[HitObjects]
254,113,146,6,0,P|211:122|183:162,1,82.5000031471254,2|0,0:0|0:0,0:0:0:0:
251,192,596,2,0,L|359:160,1,82.5000031471254
186,150,1046,2,0,L|107:173,2,82.5000031471254,2|0|2,0:0|0:0|0:3,0:0:0:0:
330,168,1946,5,0,0:0:0:0:
176,260,2246,1,0,0:0:0:0:
253,316,2546,6,0,P|296:307|324:267,1,82.5000031471254,2|0,0:3|0:0,0:0:0:0:
256,237,2996,2,0,L|148:269,1,82.5000031471254,0|0,0:0|0:0,0:0:0:0:
320,278,3446,2,0,L|399:255,1,82.5000031471254,8|0,0:0|0:0,0:0:0:0:
176,260,4046,5,0,0:0:0:0:
330,168,4346,1,0,0:0:0:0:
253,316,4646,1,0,0:3:0:0:
186,149,4946,6,0,P|213:120|253:112,1,82.5000031471254,2|0,0:0|0:0,0:0:0:0:
330,168,5396,2,0,L|251:192,1,82.5000031471254
107,173,5846,2,0,L|186:150,2,82.5000031471254,2|0|2,0:0|0:0|0:3,0:0:0:0:
176,260,6746,5,0,0:0:0:0:
330,168,7046,1,0,0:0:0:0:
320,277,7346,6,0,P|292:307|253:315,1,82.5000031471254,2|0,0:3|0:0,0:0:0:0:
176,260,7796,2,0,L|256:237,1,82.5000031471254,0|0,0:0|0:0,0:0:0:0:
399,255,8246,2,0,L|320:278,1,82.5000031471254,8|0,0:0|0:0,0:0:0:0:
330,168,8846,5,0,0:0:0:0:
176,260,9146,1,0,0:0:0:0:
253,316,9446,1,0,0:3:0:0:
162,174,9746,5,0,3:0:0:0:
162,174,10346,2,0,P|197:133|247:109,2,110,8|0|0,0:3|0:0|0:0,0:0:0:0:
273,220,11246,1,0,3:0:0:0:
246,109,11546,1,8,0:0:0:0:
77,232,12146,6,0,P|128:216|163:174,1,110,0|0,3:0|0:0,0:0:0:0:
78,144,12746,1,8,0:3:0:0:
201,295,13046,1,0,3:0:0:0:
201,295,13346,2,0,P|289:288|228:204,1,220,0|8,0:0|0:0,0:0:0:0:
366,370,14546,6,0,P|408:335|446:273,1,110,0|0,3:0|0:0,0:0:0:0:
245,202,15146,2,0,P|300:254|338:270,1,110,8|0,0:3|0:0,0:0:0:0:
254,93,15746,5,2,0:0:0:0:
176,103,16046,1,2,3:2:0:0:
141,147,16346,1,10,0:0:0:0:
139,164,16646,1,2,0:0:0:0:
148,170,16946,6,0,P|80:152|68:279,1,220,0|8,3:0|0:3,0:0:0:0:
112,36,17846,2,0,P|62:105|113:231,1,220,0|0,3:0|3:0,0:0:0:0:
0,17,18746,1,8,0:0:0:0:
184,306,19346,6,0,P|198:251|223:204,1,110,0|0,3:0|0:0,0:0:0:0:
320,137,19946,2,0,P|226:99|121:143,1,220,8|0,0:3|0:0,0:0:0:0:
222,204,20846,5,0,3:0:0:0:
270,113,21146,1,8,0:0:0:0:
285,298,21446,1,0,0:0:0:0:
449,125,21746,6,0,P|386:131|337:164,1,110,0|0,3:0|0:0,0:0:0:0:
391,39,22346,1,8,0:3:0:0:
248,190,22646,2,0,P|310:261|409:205,1,220,0|0,3:0|0:0,0:0:0:0:
360,124,23546,1,8,0:0:0:0:
336,150,23846,1,0,0:0:0:0:
338,163,24146,6,0,P|339:100|300:58,1,110,0|0,3:0|0:0,0:0:0:0:
407,210,24746,1,8,0:3:0:0:
265,117,25046,2,0,P|174:125|222:204,1,220,0|0,0:0|3:0,0:0:0:0:
42,132,25946,2,0,P|94:196|101:229,1,110,8|0,0:0|0:0,0:0:0:0:
290,335,26546,6,0,P|236:343|183:329,1,110,0|0,3:0|0:0,0:0:0:0:
355,285,27146,1,8,0:3:0:0:
192,163,27446,2,0,P|200:204|220:240,1,82.5,0|0,3:0|0:0,0:0:0:0:
285,191,27746,5,0,0:0:0:0:
293,210,27896,1,0,0:0:0:0:
249,51,28046,6,0,P|273:63|308:106,1,82.5,2|0,0:0|0:0,0:0:0:0:
435,127,28346,6,0,P|410:139|386:180,1,66,2|0,0:0|0:0,0:0:0:0:
285,191,28646,6,0,P|308:202|325:220,1,49.4999984893799,2|0,0:0|0:0,0:0:0:0:
383,317,28946,6,0,P|336:324|276:364,1,110,2|0,3:0|0:0,0:0:0:0:
324,219,29396,1,0,0:0:0:0:
216,295,29546,1,8,0:3:0:0:
440,273,29846,2,0,P|453:297|523:348,1,110,0|0,0:0|0:0,0:0:0:0:
475,110,30446,5,0,3:0:0:0:
411,26,30746,1,8,0:2:0:0:
395,209,31046,1,0,0:2:0:0:
298,75,31346,6,0,P|226:105|199:141,1,110,0|0,3:0|0:0,0:0:0:0:
189,42,31796,1,0,0:0:0:0:
135,176,31946,1,8,0:3:0:0:
70,0,32246,2,0,P|101:36|109:100,1,110,0|0,3:0|0:0,0:0:0:0:
75,301,32846,5,0,0:0:0:0:
158,228,33146,1,8,0:0:0:0:
131,199,33446,1,0,0:0:0:0:
131,211,33746,6,0,P|196:209|241:169,1,110,0|0,3:0|0:0,0:0:0:0:
285,113,34196,1,0,0:0:0:0:
304,256,34346,2,0,P|349:226|403:228,1,110,8|0,0:3|0:0,0:0:0:0:
507,338,34946,5,2,0:2:0:0:
340,258,35246,1,2,3:2:0:0:
463,268,35546,1,10,0:2:0:0:
421,210,35846,1,2,0:2:0:0:
412,219,36146,6,0,P|458:181|455:128,1,110,0|0,3:0|0:0,0:0:0:0:
427,319,36596,1,0,0:0:0:0:
339,257,36746,2,0,L|230:249,1,110,8|0,0:3|3:0,0:0:0:0:
217,245,37196,1,0,0:0:0:0:
136,155,37346,1,0,0:0:0:0:
341,173,37646,5,0,3:2:0:0:
332,76,37946,1,8,0:2:0:0:
313,57,38246,1,0,0:2:0:0:
301,56,38546,6,0,P|353:80|411:57,1,110,0|0,3:0|0:0,0:0:0:0:
342,0,38996,1,0,0:0:0:0:
399,154,39146,2,0,L|398:213,1,55,8|0,0:3|0:0,0:0:0:0:
502,54,39446,2,0,P|450:30|392:53,1,110
291,160,40046,5,0,3:2:0:0:
207,203,40346,1,8,0:2:0:0:
87,116,40646,1,0,0:2:0:0:
203,17,40946,6,0,P|218:77|203:142,1,110,0|0,3:0|0:0,0:0:0:0:
124,15,41396,1,0,0:0:0:0:
285,21,41546,2,0,P|291:52|290:81,1,55,8|0,0:3|0:0,0:0:0:0:
298,266,41846,2,0,P|284:214|291:160,1,110,0|0,3:0|0:0,0:0:0:0:
383,312,42446,5,0,0:2:0:0:
220,318,42746,1,8,0:2:0:0:
187,268,43046,1,0,0:2:0:0:
193,236,43346,6,0,P|214:282|189:340,1,110,0|0,3:0|0:0,0:0:0:0:
116,221,43796,1,0,0:0:0:0:
294,277,43946,2,0,P|309:248|305:227,1,55,8|0,0:3|0:0,0:0:0:0:
141,148,44246,2,0,P|195:131|252:143,1,110,0|0,0:0|0:0,0:0:0:0:
384,261,44846,5,0,3:0:0:0:
476,179,45146,1,8,0:0:0:0:
406,24,45446,1,0,0:0:0:0:
369,147,45746,6,0,P|373:117|316:69,1,110,0|0,3:0|0:0,0:0:0:0:
463,123,46196,1,0,0:0:0:0:
334,259,46346,2,0,P|319:241|313:206,1,55,8|0,0:3|0:0,0:0:0:0:
418,343,46646,2,0,P|432:269|418:209,1,110,0|0,3:0|0:0,0:0:0:0:
414,233,47096,1,0,0:0:0:0:
242,333,47246,5,8,3:0:0:0:
312,210,47396,1,2,3:0:0:0:
166,249,47546,6,0,P|134:213|192:218,1,137.5,8|8,0:1|3:0,0:0:0:0:
93,303,48146,6,0,B|84:273|42:254|42:254|26:221|51:184,1,142.99999345398,4|0,3:1|0:0,0:0:0:0:
221,121,48596,1,0,0:0:0:0:
132,93,48746,2,0,P|89:83|61:87,1,71.4999967269899,8|0,0:1|0:0,0:0:0:0:
173,191,49046,2,0,P|208:194|297:140,1,142.99999345398,0|0,0:0|0:0,0:0:0:0:
294,129,49496,1,0,0:0:0:0:
225,48,49646,6,0,B|261:51|261:51|295:40,1,71.4999967269899,4|0,3:2|0:0,0:0:0:0:
379,155,49946,2,0,P|362:187|336:211,1,71.4999967269899,8|0,0:0|0:0,0:0:0:0:
146,126,50246,2,0,B|152:160|152:160|172:190,1,71.4999967269899,2|0,0:3|0:0,0:0:0:0:
273,328,50546,6,0,B|315:316|314:377|243:381|205:341,1,142.99999345398,0|0,3:0|0:0,0:0:0:0:
172,190,50996,1,0,0:0:0:0:
58,268,51146,2,0,P|69:311|65:346,1,71.4999967269899,8|0,0:1|0:0,0:0:0:0:
172,190,51446,2,0,P|170:119|191:51,1,142.99999345398,0|0,3:0|0:0,0:0:0:0:
207,43,51896,1,0,0:0:0:0:
411,49,52046,6,0,B|390:56|390:56|364:109,1,71.4999967269899,4|0,0:0|0:0,0:0:0:0:
423,268,52346,2,0,P|443:233|432:186,1,71.4999967269899,8|0,0:0|0:0,0:0:0:0:
248,246,52646,2,0,P|279:267|318:286,1,71.4999967269899,8|0,0:3|0:0,0:0:0:0:
230,50,52946,6,0,B|182:82|187:148|187:148|171:150|148:137,1,142.99999345398,0|0,3:2|0:0,0:0:0:0:
142,17,53396,1,0,0:0:0:0:
347,34,53546,2,0,P|364:64|364:100,1,71.4999967269899,8|0,0:1|0:0,0:0:0:0:
248,246,53846,2,0,P|252:164|300:127,1,142.99999345398,0|0,0:0|0:0,0:0:0:0:
308,133,54296,1,0,0:0:0:0:
371,240,54446,6,0,P|343:233|367:216,1,71.4999967269899,4|0,3:2|0:0,0:0:0:0:
340,370,54746,2,0,P|276:374|256:367,1,71.4999967269899,8|0,0:0|0:0,0:0:0:0:
174,165,55046,2,0,B|162:198|162:198|160:234,1,71.4999967269899,2|0,0:3|0:0,0:0:0:0:
138,323,55346,6,0,B|139:341|155:353|155:353|97:356|63:294,1,142.99999345398,0|0,3:0|0:0,0:0:0:0:
174,165,55796,1,0,0:0:0:0:
311,213,55946,2,0,L|245:247,1,71.4999967269899,8|0,0:1|0:0,0:0:0:0:
43,149,56246,2,0,L|83:209,1,71.4999967269899,0|0,3:0|0:0,0:0:0:0:
215,87,56546,1,0,0:0:0:0:
160,234,56696,1,0,0:0:0:0:
114,13,56846,6,0,B|102:-2|102:-2|166:10,1,71.4999967269899,4|0,3:2|0:0,0:0:0:0:
356,41,57146,2,0,P|353:74|333:109,1,71.4999967269899,8|0,0:0|0:0,0:0:0:0:
193,155,57446,2,0,L|216:82,1,71.4999967269899,8|0,0:3|0:0,0:0:0:0:
344,263,57746,6,0,B|377:273|377:273|316:300|274:273,1,142.99999345398,4|0,3:1|0:0,0:0:0:0:
262,154,58196,1,0,0:0:0:0:
438,160,58346,2,0,P|413:182|369:194,1,71.4999967269899,8|0,0:1|0:0,0:0:0:0:
193,155,58646,2,0,P|263:153|308:100,1,142.99999345398,0|0,0:0|0:0,0:0:0:0:
299,94,59096,1,0,0:0:0:0:
377,193,59246,6,0,B|394:220|394:220|407:233|407:233|424:255,1,71.4999967269899,4|0,3:2|0:0,0:0:0:0:
418,39,59546,2,0,P|429:75|421:117,1,71.4999967269899,8|0,0:0|0:0,0:0:0:0:
227,227,59846,2,0,B|261:238|261:238|297:234,1,71.4999967269899,2|0,0:3|0:0,0:0:0:0:
222,83,60146,6,0,B|177:64|126:86|123:125|123:125|133:119|145:120,1,142.99999345398,0|0,3:0|0:0,0:0:0:0:
227,227,60596,1,0,0:0:0:0:
288,43,60746,2,0,P|258:23|223:14,1,71.4999967269899,8|0,0:1|0:0,0:0:0:0:
293,126,61046,2,0,P|352:165|420:143,1,142.99999345398,0|0,3:0|0:0,0:0:0:0:
418,136,61496,1,0,0:0:0:0:
433,339,61646,6,0,B|396:345|396:345|364:333,1,71.4999967269899,4|0,0:0|0:0,0:0:0:0:
227,227,61946,2,0,P|264:219|294:232,1,71.4999967269899,8|0,0:0|0:0,0:0:0:0:
140,375,62246,2,0,L|145:303,1,71.4999967269899,8|0,0:3|0:0,0:0:0:0:
294,231,62546,6,0,B|304:277|286:298|286:298|289:312|289:312|272:334|282:373,1,142.99999345398,0|0,3:2|0:0,0:0:0:0:
144,303,62996,1,0,0:0:0:0:
172,183,63146,2,0,P|199:196|229:231,1,71.4999967269899,8|0,0:1|0:0,0:0:0:0:
57,245,63446,2,0,B|55:219|70:197|70:197|49:157|77:92,1,142.99999345398,0|0,0:0|0:0,0:0:0:0:
83,105,63896,1,0,0:0:0:0:
340,126,64046,6,0,P|366:113|339:102,1,71.4999967269899,4|0,3:2|0:0,0:0:0:0:
319,224,64346,2,0,P|353:235|389:237,1,71.4999967269899,8|0,0:0|0:0,0:0:0:0:
238,64,64646,2,0,B|227:84|235:103|235:103|232:143,1,71.4999967269899,2|0,0:3|0:0,0:0:0:0:
201,365,64946,6,0,B|148:323|152:274|152:274|131:280|110:275,1,142.99999345398,0|0,3:2|0:0,0:0:0:0:
147,174,65396,1,0,0:0:0:0:
240,272,65546,2,0,P|242:236|263:208,1,71.4999967269899,8|0,0:1|0:0,0:0:0:0:
379,245,65846,1,0,3:0:0:0:
233,107,65996,6,0,L|227:83,3,23.83333224233,8|8|8|8,0:1|0:1|0:1|0:1,0:0:0:0:
263,208,66296,1,8,0:1:0:0:
364,138,66446,6,0,P|359:93|334:58,1,82.5000031471254,4|0,3:2|3:0,0:0:0:0:
233,107,66746,6,0,P|253:113|287:109,1,55,8|0,0:0|0:0,0:0:0:0:
287,20,67046,5,8,0:1:0:0:
270,41,67196,1,8,0:1:0:0:
450,128,67346,6,0,P|450:87|393:54,1,110,4|0,0:3|0:0,0:0:0:0:
385,165,68846,2,0,L|387:219,1,55,2|0,0:0|0:0,0:0:0:0:
382,338,69746,6,0,B|361:328|347:296|347:296|321:318|293:313,1,110,2|0,0:0|0:0,0:0:0:0:
166,360,71546,2,0,L|157:333,1,27.5,2|0,0:0|0:0,0:0:0:0:
151,310,71996,1,0,0:0:0:0:
77,263,72146,6,0,L|65:289,1,27.5,2|0,0:0|0:0,0:0:0:0:
145,211,72746,2,0,L|133:186,1,27.5
36,199,73346,1,0,0:0:0:0:
36,199,73646,2,0,L|19:147,1,55,2|0,0:0|0:0,0:0:0:0:
16,132,74396,1,0,0:0:0:0:
199,109,74546,6,0,L|211:83,1,27.5,2|0,0:0|0:0,0:0:0:0:
121,161,75146,2,0,L|132:185,1,27.5
193,276,75746,2,0,L|210:224,1,55,0|2,0:0|0:0,0:0:0:0:
219,206,76646,1,0,0:0:0:0:
111,143,76946,6,0,L|110:121,1,22,2|8,3:0|3:2,0:0:0:0:
401,241,78146,2,0,L|402:263,1,22,2|8,3:0|3:2,0:0:0:0:
110,263,79346,6,0,L|111:241,1,22,2|8,3:0|3:2,0:0:0:0:
402,121,80546,2,0,L|401:143,1,22,2|8,3:0|3:2,0:0:0:0:
174,303,81746,6,0,P|203:314|225:336,1,55,2|0,3:0|3:0,0:0:0:0:
392,221,82346,6,0,P|334:243|290:287,1,110,8|0,3:2|3:0,0:0:0:0:
79,145,82946,6,0,P|176:175|220:219,1,165.000006294251,2|0,3:0|3:0,0:0:0:0:
488,65,83546,6,0,P|340:119|296:163,1,220,8|0,3:2|3:0,0:0:0:0:
238,106,84146,6,0,P|278:131|301:173,1,82.5000031471254,8|0,3:1|3:0,0:0:0:0:
152,125,84446,1,0,3:0:0:0:
292,51,84596,1,8,3:1:0:0:
141,232,84746,6,0,P|101:207|78:165,1,82.5000031471254,8|0,3:2|3:0,0:0:0:0:
227,213,85046,1,8,3:1:0:0:
87,302,85196,1,0,3:0:0:0:
98,48,85346,6,0,L|97:71,3,27.5000010490418,8|8|8|8,3:1|0:1|0:1|3:1,0:0:0:0:
82,177,85646,6,0,P|105:211|141:232,1,82.5000031471254,8|0,3:1|3:0,0:0:0:0:
140,354,85946,6,0,P|166:347|188:330,1,55,4|0,0:3|0:0,0:0:0:0:
301,384,86246,6,0,P|307:364|306:344,1,41.25,2|0,0:0|0:0,0:0:0:0:
256,256,86546,6,0,P|333:247|390:129,1,206.25,2|0,0:0|0:0,0:0:0:0:
379,122,86846,2,0,P|340:213|244:236,1,206.25,2|0,0:0|0:0,0:0:0:0:
188,190,87146,1,8,0:0:0:0:
188,190,87446,6,0,P|102:207|115:349,1,247.500009441376,2|0,0:0|0:0,0:0:0:0:
176,368,87746,2,0,P|282:338|242:235,1,247.500009441376,2|0,0:0|0:0,0:0:0:0:
114,97,88046,5,2,3:0:0:0:
168,276,88196,1,8,3:0:0:0:
301,57,88346,6,0,P|243:63|202:79,1,96.2500009179115,8|0,0:1|0:0,0:0:0:0:
242,235,88496,2,0,P|286:248|325:222,1,96.2500009179115,2|0,3:0|0:0,0:0:0:0:
371,129,88646,2,0,P|224:150|91:224,1,288.750002753735,2|0,3:0|0:0,0:0:0:0:
65,345,88946,6,0,B|140:352|167:277|167:277|181:315|216:329,1,206.25,4|0,3:2|0:0,0:0:0:0:
371,248,89246,2,0,P|293:221|225:247,1,137.5,0|0,0:0|3:0,0:0:0:0:
415,354,89546,1,8,0:2:0:0:
415,354,89846,6,0,P|446:274|422:172,1,165,2|0,3:0|0:0,0:0:0:0:
390,91,90146,2,0,P|359:171|383:273,1,165,0|0,0:0|0:0,0:0:0:0:
287,69,90446,5,8,3:0:0:0:
434,197,90596,1,4,3:0:0:0:
470,73,90746,6,0,P|449:37|413:18,1,82.5000031471254,10|0,0:2|0:0,0:0:0:0:
232,175,90896,2,0,L|286:172,1,55,2|0,0:0|0:0,0:0:0:0:
287,69,91046,6,0,L|201:74,1,82.5,2|0,0:0|0:0,0:0:0:0:
47,102,91346,6,0,B|69:48|139:55|154:145|82:204,1,206.25,2|0,3:0|0:0,0:0:0:0:
114,280,91646,2,0,P|47:271|12:215,1,137.5,0|0,0:0|3:0,0:0:0:0:
177,218,91946,1,8,0:0:0:0:
177,218,92246,6,0,P|196:327|65:363,1,247.500009441376,2|0,3:0|0:0,0:0:0:0:
92,194,92546,2,0,B|136:129|208:146|208:146|245:86|304:105,1,247.500009441376,0|0,0:0|0:0,0:0:0:0:
177,218,92846,5,8,3:0:0:0:
227,33,92996,1,0,3:0:0:0:
362,235,93146,6,0,P|241:319|108:275,1,288.750002753735,10|0,0:0|0:0,0:0:0:0:
93,71,93446,2,0,B|190:69|226:32|226:32|252:69|376:74,1,288.750002753735,2|0,0:0|0:0,0:0:0:0:
455,167,93746,6,0,B|436:148|391:146|391:146|314:187|257:157,1,206.25,2|0,3:0|0:0,0:0:0:0:
363,73,94046,2,0,B|397:76|414:113|414:113|406:210,1,137.5,0|0,0:0|3:0,0:0:0:0:
398,312,94346,1,8,0:0:0:0:
398,312,94646,6,0,P|391:242|435:280,1,165,0|0,3:0|0:0,0:0:0:0:
319,354,94946,2,0,B|293:364|293:364|250:368|143:354,1,165,0|0,0:0|0:0,0:0:0:0:
177,207,95246,5,8,3:0:0:0:
272,258,95396,1,4,3:0:0:0:
88,319,95546,6,0,B|81:335|81:335|79:264,1,82.5000031471254,8|0,3:1|0:0,0:0:0:0:
0,128,95696,2,0,P|5:140|43:175,1,55,2|0,3:0|0:0,0:0:0:0:
177,207,95846,6,0,P|209:182|230:147,1,82.5,2|0,3:0|0:0,0:0:0:0:
134,49,96146,6,0,B|110:48|103:64|103:64|152:88|192:65|192:65|225:85|273:65,1,206.25,4|0,3:2|0:0,0:0:0:0:
449,17,96446,2,0,B|447:-1|461:-12|461:-12|492:36|444:91,1,137.5,0|0,0:0|3:0,0:0:0:0:
352,205,96745,1,8,0:0:0:0:
352,205,97046,6,0,B|289:304|361:370|361:370|385:328|356:311,1,247.500009441376,2|0,3:0|0:0,0:0:0:0:
270,155,97346,2,0,P|293:249|443:245,1,247.500009441376
419,95,97646,5,8,3:0:0:0:
352,205,97796,1,4,3:0:0:0:
509,92,97946,6,0,B|523:53|488:-4|348:-8|267:63,1,288.750002753735,10|0,0:0|0:0,0:0:0:0:
191,203,98246,2,0,P|280:271|261:153,1,288.750002753735,2|0,0:0|0:0,0:0:0:0:
92,88,98546,6,0,B|28:167|125:201|77:287,1,206.25,2|0,3:0|0:0,0:0:0:0:
204,109,98846,2,0,P|136:130|90:81,1,137.5,0|0,0:0|3:0,0:0:0:0:
276,55,99146,1,8,0:0:0:0:
276,55,99446,6,0,B|341:83|349:145|349:145|334:203,1,165,2|0,3:0|0:0,0:0:0:0:
265,263,99746,2,0,B|236:236|227:157|272:135|272:135|265:157|277:179,1,165,0|0,0:0|0:0,0:0:0:0:
345,310,100046,5,8,3:0:0:0:
188,344,100196,1,0,3:0:0:0:
407,228,100346,6,0,L|414:342,1,82.5000031471254,10|0,0:0|0:0,0:0:0:0:
306,369,100496,2,0,L|252:372,1,55,2|0,0:0|0:0,0:0:0:0:
80,285,100646,6,0,L|162:279,1,82.5000031471254,2|0,0:0|0:0,0:0:0:0:
204,200,100946,6,0,B|198:175|198:175|120:132|49:176|49:176|34:215,1,206.25,2|0,3:0|0:0,0:0:0:0:
243,275,101246,2,0,P|301:221|295:156,1,137.5,0|0,0:0|3:0,0:0:0:0:
242,60,101546,1,8,0:0:0:0:
242,60,101846,6,0,B|233:75|233:75|268:92|309:48|309:48|361:23|427:85|368:129|340:108,1,247.500009441376,2|0,3:0|0:0,0:0:0:0:
204,200,102146,2,0,P|107:137|127:14,1,247.500009441376,0|0,0:0|0:0,0:0:0:0:
242,60,102446,5,8,3:0:0:0:
20,118,102596,1,0,3:0:0:0:
204,200,102746,6,0,B|223:232|291:237|291:237|172:232|115:332,1,288.750002753735,10|0,0:0|0:0,0:0:0:0:
340,313,103046,2,0,B|342:338|342:338|412:272|388:164|311:109,1,288.750002753735,2|0,0:0|0:0,0:0:0:0:
124,104,103346,6,0,P|112:195|204:199,1,206.25,2|0,3:0|0:0,0:0:0:0:
123,19,103646,2,0,B|60:3|22:33|22:33|15:82,1,137.5,2|0,0:0|3:0,0:0:0:0:
17,215,103946,1,8,0:0:0:0:
17,215,104246,6,0,B|53:237|90:213|90:213|96:220|96:220|131:197|182:241,1,165,2|0,3:0|0:0,0:0:0:0:
176,320,104546,2,0,P|251:307|254:231,1,165
43,123,104846,5,8,3:0:0:0:
87,330,104996,1,2,3:0:0:0:
148,93,105146,6,0,P|111:76|136:107,1,110,8|0,0:1|0:0,0:0:0:0:
43,123,105296,6,0,P|57:147|78:164,1,55,2|0,3:0|0:0,0:0:0:0:
213,57,105446,6,0,P|203:40|189:25,1,41.25,2|0,3:0|0:0,0:0:0:0:
248,115,105746,6,0,P|233:174|259:216,1,110,0|0,3:0|0:0,0:0:0:0:
148,93,106196,1,0,0:0:0:0:
151,213,106346,1,8,0:3:0:0:
295,39,106646,2,0,P|324:72|318:141,1,110,0|0,0:0|0:0,0:0:0:0:
271,360,107246,5,0,3:0:0:0:
308,284,107546,1,8,0:2:0:0:
243,194,107846,1,0,0:2:0:0:
169,328,108146,6,0,P|149:288|91:264,1,110,0|0,3:0|0:0,0:0:0:0:
258,301,108596,1,0,0:0:0:0:
210,384,108746,1,8,0:3:0:0:
121,182,109046,2,0,P|172:202|212:240,1,110,0|0,3:0|0:0,0:0:0:0:
19,128,109646,5,0,0:0:0:0:
102,65,109946,1,8,0:0:0:0:
162,88,110246,1,0,0:0:0:0:
156,97,110546,6,0,P|188:72|256:69,1,110,0|0,3:0|0:0,0:0:0:0:
211,149,110996,1,0,0:0:0:0:
389,98,111146,2,0,P|354:124|284:124,1,110,8|0,0:3|0:0,0:0:0:0:
314,253,111746,5,2,0:2:0:0:
455,147,112046,1,2,3:2:0:0:
432,227,112346,1,10,0:2:0:0:
464,222,112646,1,2,0:2:0:0:
464,230,112946,6,0,P|426:265|419:322,1,110,0|0,3:0|0:0,0:0:0:0:
339,382,113396,1,0,0:0:0:0:
329,246,113546,2,0,P|280:226|226:240,1,110,8|0,0:3|3:0,0:0:0:0:
226,251,113996,1,0,0:0:0:0:
238,120,114146,1,0,0:0:0:0:
63,308,114446,5,0,3:2:0:0:
24,213,114746,1,8,0:2:0:0:
62,148,115046,1,0,0:2:0:0:
76,141,115346,6,0,P|75:189|17:212,1,110,0|0,3:0|0:0,0:0:0:0:
16,98,115796,1,0,0:0:0:0:
165,137,115946,2,0,L|226:140,1,55,8|0,0:3|0:0,0:0:0:0:
133,221,116246,2,0,L|20:213,1,110,0|0,0:0|0:0,0:0:0:0:
205,358,116846,5,0,3:2:0:0:
281,271,117146,1,8,0:2:0:0:
397,366,117446,1,0,0:2:0:0:
427,181,117746,6,0,P|396:211|396:276,1,110,0|0,3:0|0:0,0:0:0:0:
485,255,118196,1,0,0:0:0:0:
489,134,118346,2,0,P|471:120|437:113,1,55,8|0,0:3|0:0,0:0:0:0:
431,338,118646,2,0,P|475:308|485:255,1,110,0|0,3:0|0:0,0:0:0:0:
262,109,119246,5,0,0:2:0:0:
200,247,119546,1,8,0:2:0:0:
291,240,119846,1,0,0:2:0:0:
280,237,120146,6,0,L|287:366,1,110,0|0,3:0|0:0,0:0:0:0:
357,277,120596,1,0,0:0:0:0:
204,192,120746,2,0,L|200:246,1,55,8|0,0:3|0:0,0:0:0:0:
347,200,121046,2,0,L|340:90,1,110,0|0,0:0|0:0,0:0:0:0:
126,32,121646,5,0,3:0:0:0:
191,131,121946,1,8,0:0:0:0:
77,273,122246,1,0,0:0:0:0:
349,213,122546,6,0,P|279:199|218:237,1,110,0|0,3:0|0:0,0:0:0:0:
298,296,122996,1,0,0:0:0:0:
428,252,123146,2,0,P|431:210|424:188,1,55,8|0,0:3|0:0,0:0:0:0:
348,108,123446,2,0,P|333:160|348:212,1,110,0|0,3:0|0:0,0:0:0:0:
357,206,123896,1,0,0:0:0:0:
181,229,124046,5,8,3:0:0:0:
236,40,124196,1,2,3:0:0:0:
63,121,124346,6,0,P|108:109|55:89,1,137.5,8|8,0:1|3:0,0:0:0:0:
105,223,124946,6,0,B|173:264|180:197|251:239,1,142.99999345398,4|0,3:1|0:0,0:0:0:0:
98,330,125396,1,0,0:0:0:0:
157,161,125546,2,0,P|184:138|218:127,1,71.4999967269899,8|0,0:1|0:0,0:0:0:0:
325,281,125846,2,0,P|296:302|190:292,1,142.99999345398,0|0,0:0|0:0,0:0:0:0:
184,285,126296,1,0,0:0:0:0:
218,127,126446,6,0,P|186:128|211:147,1,71.4999967269899,4|0,3:2|0:0,0:0:0:0:
369,42,126746,2,0,P|346:29|299:23,1,71.4999967269899,8|0,0:0|0:0,0:0:0:0:
407,254,127046,2,0,B|435:222|435:222|441:194,1,71.4999967269899,2|0,0:3|0:0,0:0:0:0:
194,219,127346,6,0,B|201:260|184:285|184:285|221:304|229:367,1,142.99999345398,0|0,3:0|0:0,0:0:0:0:
112,230,127796,1,0,0:0:0:0:
273,161,127946,2,0,P|275:198|263:236,1,71.4999967269899,8|0,0:1|0:0,0:0:0:0:
95,93,128246,2,0,P|85:155|118:238,1,142.99999345398,0|0,3:0|0:0,0:0:0:0:
128,232,128696,1,0,0:0:0:0:
140,30,128846,6,0,P|99:19|57:27,1,71.4999967269899,4|0,0:0|0:0,0:0:0:0:
259,93,129146,2,0,P|264:60|255:17,1,71.4999967269899,8|0,0:0|0:0,0:0:0:0:
389,141,129446,2,0,L|390:217,1,71.4999967269899,8|0,0:3|0:0,0:0:0:0:
408,335,129746,6,0,B|373:355|354:343|354:343|333:350|333:350|311:331|267:352,1,142.99999345398,0|0,3:2|0:0,0:0:0:0:
158,325,130196,1,0,0:0:0:0:
281,262,130346,2,0,B|297:273|297:273|287:222,1,71.4999967269899,8|0,0:1|0:0,0:0:0:0:
44,316,130646,2,0,B|27:349|27:349|2:302|46:246,1,142.99999345398,0|0,0:0|0:0,0:0:0:0:
53,248,131096,1,0,0:0:0:0:
251,125,131246,6,0,P|250:94|221:104,1,71.4999967269899,4|0,3:2|0:0,0:0:0:0:
121,109,131546,2,0,P|103:139|102:175,1,71.4999967269899,8|0,0:0|0:0,0:0:0:0:
365,107,131846,2,0,P|363:71|345:41,1,71.4999967269899,2|0,0:3|0:0,0:0:0:0:
356,229,132146,6,0,B|401:214|432:244|432:244|468:216|449:186,1,142.99999345398,0|0,3:0|0:0,0:0:0:0:
365,107,132596,1,0,0:0:0:0:
355,299,132746,2,0,L|292:342,1,71.4999967269899,8|0,0:1|0:0,0:0:0:0:
93,282,133046,2,0,L|156:325,1,71.4999967269899,0|0,3:0|0:0,0:0:0:0:
226,162,133346,1,0,0:0:0:0:
223,338,133496,1,0,0:0:0:0:
196,46,133646,6,0,P|171:56|147:103,1,71.4999967269899,4|0,3:2|0:0,0:0:0:0:
218,233,133946,2,0,L|228:152,1,71.4999967269899,8|0,0:0|0:0,0:0:0:0:
71,61,134246,2,0,B|68:96|68:96|81:142,1,71.4999967269899,8|0,0:3|0:0,0:0:0:0:
317,63,134546,6,0,B|373:51|409:96|409:96|398:82|370:97,1,142.99999345398,4|0,3:1|0:0,0:0:0:0:
226,162,134996,1,0,0:0:0:0:
364,243,135146,2,0,P|369:207|363:172,1,71.4999967269899,8|0,0:1|0:0,0:0:0:0:
218,233,135446,2,0,P|209:303|220:374,1,142.99999345398,0|0,0:0|0:0,0:0:0:0:
241,376,135896,1,0,0:0:0:0:
44,325,136046,6,0,P|53:290|50:255,1,71.4999967269899,4|0,3:2|0:0,0:0:0:0:
166,114,136346,2,0,B|161:151|161:151|173:184,1,71.4999967269899,8|0,0:0|0:0,0:0:0:0:
19,94,136646,2,0,L|21:10,1,71.4999967269899,2|0,0:3|0:0,0:0:0:0:
264,16,136946,6,0,B|281:53|263:76|263:76|270:90|270:90|247:115|259:164,1,142.99999345398,0|0,3:0|0:0,0:0:0:0:
174,44,137396,1,0,0:0:0:0:
350,11,137546,2,0,P|348:52|329:102,1,71.4999967269899,8|0,0:1|0:0,0:0:0:0:
152,241,137846,2,0,P|162:153|203:111,1,142.99999345398,0|0,3:0|0:0,0:0:0:0:
211,111,138296,1,0,0:0:0:0:
434,154,138446,6,0,P|435:120|415:140,1,71.4999967269899,4|0,0:0|0:0,0:0:0:0:
257,246,138746,2,0,B|263:214|263:214|305:190,1,71.4999967269899,8|0,0:0|0:0,0:0:0:0:
453,335,139046,2,0,P|441:299|416:266,1,71.4999967269899,8|0,0:3|0:0,0:0:0:0:
274,349,139346,6,0,B|310:366|319:307|243:290|186:344,1,142.99999345398,0|0,3:2|0:0,0:0:0:0:
88,366,139796,1,0,0:0:0:0:
69,224,139946,2,0,P|99:227|143:254,1,71.4999967269899,8|0,0:1|0:0,0:0:0:0:
370,195,140246,2,0,P|313:200|231:251,1,142.99999345398,0|0,0:0|0:0,0:0:0:0:
237,256,140696,1,0,0:0:0:0:
156,110,140846,6,0,B|148:147|169:177,1,71.4999967269899,4|0,3:2|0:0,0:0:0:0:
293,88,141146,2,0,L|291:16,1,71.4999967269899,8|0,0:0|0:0,0:0:0:0:
370,195,141446,2,0,L|367:267,1,71.4999967269899,2|0,0:3|0:0,0:0:0:0:
473,26,141746,6,0,B|498:74|468:113|468:113|484:139|476:177,1,142.99999345398,0|0,3:2|0:0,0:0:0:0:
399,64,142196,1,0,0:0:0:0:
369,194,142346,2,0,P|405:231|432:239,1,71.4999967269899,8|0,0:1|0:0,0:0:0:0:
268,183,142646,1,0,3:0:0:0:
370,335,142796,6,0,L|335:347,3,23.83333224233,8|8|8|8,0:1|0:1|0:1|0:1,0:0:0:0:
231,379,143096,1,8,0:1:0:0:
112,309,143246,6,0,P|117:264|142:229,1,82.5000031471254,4|0,3:2|3:0,0:0:0:0:
243,278,143546,6,0,P|223:284|189:280,1,55,8|0,0:0|0:0,0:0:0:0:
189,191,143846,5,8,0:1:0:0:
206,212,143996,1,8,0:1:0:0:
26,299,144146,6,0,B|19:273|31:253|31:253|39:254|39:254|54:230|42:200,1,110,4|0,0:3|0:0,0:0:0:0:
0,97,145646,2,0,L|56:98,1,55,2|0,0:0|0:0,0:0:0:0:
217,87,146546,6,0,B|227:65|196:49|163:79|197:137,1,110,2|0,0:0|0:0,0:0:0:0:
328,214,148346,2,0,L|327:185,1,27.5,2|0,0:0|0:0,0:0:0:0:
327,155,148796,1,0,0:0:0:0:
414,107,148946,6,0,L|415:136,1,27.5,2|0,0:0|0:0,0:0:0:0:
336,68,149546,2,0,L|335:39,1,27.5
477,41,150146,1,0,0:0:0:0:
484,150,150446,2,0,L|486:208,1,55,2|0,0:0|0:0,0:0:0:0:
488,226,151196,1,0,0:0:0:0:
398,177,151346,6,0,L|397:206,1,27.5,2|0,0:0|0:0,0:0:0:0:
476,138,151946,2,0,L|477:109,1,27.5
328,220,152546,1,0,0:0:0:0:
328,220,153146,2,0,L|327:249,1,27.5,2|0,0:0|0:0,0:0:0:0:
158,81,153746,6,0,P|163:91|166:104,1,22,2|8,3:0|3:2,0:0:0:0:
354,303,154946,2,0,P|349:293|346:280,1,22,2|8,3:0|3:2,0:0:0:0:
354,81,156146,6,0,P|349:91|346:104,1,22,2|8,3:0|3:2,0:0:0:0:
158,303,157346,2,0,P|163:293|166:280,1,22,2|8,3:0|3:2,0:0:0:0:
174,81,158546,6,0,P|203:70|225:48,1,55,2|0,3:0|3:0,0:0:0:0:
392,163,159146,6,0,P|334:141|290:97,1,110,8|0,3:2|3:0,0:0:0:0:
79,239,159746,6,0,P|176:209|220:165,1,165.000006294251,2|0,3:0|3:0,0:0:0:0:
488,319,160346,6,0,P|340:265|296:221,1,220,8|0,3:2|3:0,0:0:0:0:
238,277,160946,6,0,P|278:252|301:210,1,82.5000031471254,8|0,3:1|3:0,0:0:0:0:
152,258,161246,1,0,3:0:0:0:
292,332,161396,1,8,3:1:0:0:
111,165,161546,6,0,P|71:190|48:232,1,82.5000031471254,8|0,3:2|3:0,0:0:0:0:
197,184,161846,1,8,3:1:0:0:
57,95,161996,1,0,3:0:0:0:
68,349,162146,6,0,L|66:321,3,27.5000010490418,8|8|8|8,3:1|0:1|0:1|3:1,0:0:0:0:
52,220,162446,6,0,P|75:186|111:165,1,82.5000031471254,8|0,3:1|3:0,0:0:0:0:
110,43,162746,6,0,P|136:50|158:67,1,55,4|0,0:3|0:0,0:0:0:0:
276,29,163046,6,0,P|283:53|279:78,1,41.25,2|0,0:0|0:0,0:0:0:0:
294,167,163346,6,0,P|344:96|356:179,1,206.25,2|0,0:0|0:0,0:0:0:0:
213,165,163646,2,0,B|193:167|193:167|276:98|388:187,1,206.25,2|0,0:0|0:0,0:0:0:0:
252,237,163946,1,8,0:2:0:0:
252,237,164246,6,0,P|146:221|190:88,1,247.500009441376,2|0,0:0|0:0,0:0:0:0:
213,165,164546,2,0,P|157:244|22:339,1,247.500009441376,2|0,0:0|0:0,0:0:0:0:
49,144,164846,5,8,3:0:0:0:
215,340,164996,1,2,3:0:0:0:
296,111,165146,6,0,P|312:177|293:222,1,96.2500009179115,8|0,3:1|0:0,0:0:0:0:
156,104,165296,2,0,P|151:36|178:-5,1,96.2500009179115,2|0,3:3|0:0,0:0:0:0:
379,57,165446,1,2,3:0:0:0:
379,57,165746,6,0,B|430:-2|525:103|362:209,1,206.25,4|0,3:2|0:0,0:0:0:0:
304,202,166046,2,0,B|251:180|239:265|297:292,1,137.5,0|0,0:0|3:0,0:0:0:0:
419,361,166346,1,8,0:0:0:0:
419,361,166646,6,0,P|307:368|241:348,1,165,2|0,3:0|0:0,0:0:0:0:
178,143,166946,2,0,B|176:208|168:227|168:227|179:249|191:321,1,165
376,160,167246,5,8,3:0:0:0:
261,282,167396,1,0,3:0:0:0:
325,82,167546,6,0,P|361:67|414:73,1,82.5000031471254,10|0,0:2|0:0,0:0:0:0:
414,250,167696,2,0,P|392:258|361:255,1,55,2|0,0:0|0:0,0:0:0:0:
293,168,167846,6,0,L|376:160,1,82.5,2|0,0:0|0:0,0:0:0:0:
509,155,168146,6,0,B|449:125|376:160|376:160|426:164|441:191,1,206.25,2|0,3:0|0:0,0:0:0:0:
261,282,168446,2,0,B|265:272|299:269|299:269|249:245|207:265,1,137.5,0|0,0:0|3:0,0:0:0:0:
70,349,168746,1,8,0:0:0:0:
70,349,169046,6,0,B|10:232|134:232|66:98,1,247.500009441376,2|0,3:0|0:0,0:0:0:0:
10,46,169346,2,0,B|81:2|132:49|132:49|134:22|134:22|170:50|226:27,1,247.500009441376,0|0,0:0|0:0,0:0:0:0:
384,23,169646,5,8,3:0:0:0:
239,168,169796,1,0,3:0:0:0:
217,30,169946,6,0,B|241:27|250:8|250:8|381:74|334:259,1,288.750002753735,10|0,0:0|0:0,0:0:0:0:
140,371,170246,2,0,B|125:351|104:353|104:353|96:206|279:155,1,288.750002753735,2|0,0:0|0:0,0:0:0:0:
425,312,170546,6,0,B|362:313|326:335|326:335|291:288|237:280,1,206.25,2|0,3:0|0:0,0:0:0:0:
38,299,170846,2,0,P|97:366|163:367,1,137.5,0|0,0:0|3:0,0:0:0:0:
143,132,171146,1,8,0:0:0:0:
143,132,171446,6,0,P|184:89|107:93,1,165,2|0,3:0|0:0,0:0:0:0:
0,212,171746,6,0,B|115:250|225:180|225:180|263:221|312:215,1,330,2|0,0:0|0:0,0:0:0:0:
400,112,172046,6,0,L|395:142,1,27.5,8|4,3:0|3:0,0:0:0:0:
299,297,172346,6,0,L|312:201,1,82.5000031471254,8|0,0:0|0:0,0:0:0:0:
455,240,172496,2,0,L|447:294,1,55,2|0,0:0|0:0,0:0:0:0:
289,138,172646,6,0,B|288:125|301:108|301:108|296:97|296:97|311:81|309:50,1,82.5,2|0,0:0|0:0,0:0:0:0:
385,42,172946,6,0,P|450:58|471:120,1,137.5,6|0,3:2|3:0,0:0:0:0:
181,84,173246,1,0,3:0:0:0:
181,84,173446,6,0,B|200:103|216:109|216:109|171:96|123:117,1,128.333334557215,0|8,3:0|3:2,0:0:0:0:
100,300,173846,6,0,B|110:350|110:350|179:287|96:200,1,206.25,6|0,3:2|0:0,0:0:0:0:
29,107,174146,2,0,B|19:57|19:57|-50:120|33:207,1,206.25,2|0,0:0|0:0,0:0:0:0:
214,215,174446,2,0,P|210:147|182:85,1,137.5,8|0,3:0|3:0,0:0:0:0:
100,300,174746,6,0,P|190:358|314:290,1,247.500009441376,8|0,0:1|0:0,0:0:0:0:
384,183,175046,2,0,P|279:128|214:220,1,247.500009441376,2|0,0:0|0:0,0:0:0:0:
391,317,175346,6,0,P|457:230|420:72,1,247.500009441376,2|0,3:0|0:0,0:0:0:0:
238,24,175646,2,0,P|252:56|297:89,1,82.5000031471254,2|0,0:0|0:0,0:0:0:0:
384,183,175796,1,2,3:0:0:0:
462,22,175946,1,8,3:2:0:0:
238,24,176246,6,0,P|224:56|179:89,1,82.5000031471254,2|0,3:0|0:0,0:0:0:0:
91,186,176396,1,2,0:0:0:0:
14,22,176546,2,0,P|86:117|2:211,1,247.500009441376,2|0,0:0|0:0,0:0:0:0:
1,114,176846,5,8,3:0:0:0:
196,166,176996,1,0,3:0:0:0:
14,297,177146,6,0,B|79:331|127:295|127:295|137:315|137:315|182:283|240:319,1,247.500009441376,8|0,0:0|0:0,0:0:0:0:
295,201,177446,5,2,0:0:0:0:
267,334,177596,1,2,0:0:0:0:
276,106,177746,6,0,P|277:78|265:51,1,55,2|0,3:2|0:0,0:0:0:0:
196,166,178046,2,0,P|241:196|302:201,1,110,2|0,0:0|3:0,0:0:0:0:
184,66,178346,1,10,0:0:0:0:
184,66,178646,2,0,P|134:90|57:255,1,247.500009441376,2|0,3:2|0:0,0:0:0:0:
226,282,178946,6,0,B|198:232|126:251|111:337|155:376|264:389|324:294,1,330.000012588501,2|8,0:0|3:0,0:0:0:0:
343,286,179396,1,4,3:0:0:0:
196,166,179546,6,0,P|228:190|268:202,1,82.5000031471254,8|0,0:0|0:0,0:0:0:0:
450,168,179696,2,0,P|417:192|377:204,1,82.5000031471254
326,45,179846,5,2,0:0:0:0:
322,142,179996,1,2,0:0:0:0:
184,66,180146,6,0,P|156:69|135:85,1,55,2|0,3:2|0:0,0:0:0:0:
182,271,180446,2,0,P|203:220|196:167,1,110,2|0,0:0|3:0,0:0:0:0:
8,172,180746,1,8,0:0:0:0:
8,172,181046,2,0,P|60:225|92:163,1,165.000006294251,2|0,3:2|0:0,0:0:0:0:
46,0,181346,6,0,P|36:136|79:281,1,288.750002753735,2|0,0:0|0:0,0:0:0:0:
196,167,181646,5,8,3:0:0:0:
185,368,181796,1,0,3:0:0:0:
131,107,181946,6,0,P|185:69|235:71,1,96.2500009179115,8|0,3:2|0:0,0:0:0:0:
266,220,182096,2,0,P|212:258|162:256,1,96.2500009179115,2|0,3:2|0:0,0:0:0:0:
318,57,182246,6,0,L|357:149,1,82.5,2|0,0:0|0:0,0:0:0:0:
407,203,182546,6,0,B|371:266|444:318|444:318|547:204|439:97,1,385.000003671646,4|4,3:2|3:0,0:0:0:0:
292,355,182996,1,0,3:0:0:0:
260,83,183146,1,8,0:1:0:0:
260,83,183446,6,0,P|176:124|277:168,1,247.500009441376,2|0,3:2|0:0,0:0:0:0:
292,355,183746,2,0,P|218:262|91:246,1,247.500009441376,2|0,0:0|0:0,0:0:0:0:
154,384,184046,2,0,L|210:283,1,110,8|4,3:0|3:0,0:0:0:0:
269,177,184346,6,0,B|344:103|435:113|477:198|386:278|344:192,1,288.750002753735,10|0,0:0|0:0,0:0:0:0:
167,149,184646,2,0,P|253:80|435:81,1,288.750002753735,2|0,0:0|0:0,0:0:0:0:
465,287,184946,6,0,P|373:341|366:202,1,288.750002753735,2|0,3:2|0:0,0:0:0:0:
215,381,185246,2,0,P|202:329|207:287,1,96.2500009179115,2|0,0:0|0:0,0:0:0:0:
269,177,185396,1,2,3:2:0:0:
82,192,185546,1,10,0:0:0:0:
294,3,185846,6,0,P|306:49|302:96,1,96.2500009179115,2|0,3:2|0:0,0:0:0:0:
206,287,185997,1,2,0:0:0:0:
47,96,186146,2,0,P|161:53|157:176,1,288.750002753735,2|0,0:0|0:0,0:0:0:0:
118,114,186446,5,8,3:0:0:0:
2,12,186596,1,0,3:0:0:0:
11,175,186746,6,0,B|54:202|40:250|40:250|92:220|137:289|195:238,1,247.500009441376,8|0,0:0|0:2,0:0:0:0:
268,232,187046,5,2,0:0:0:0:
264,326,187196,1,2,0:0:0:0:
296,121,187346,6,0,P|257:108|217:115,1,82.5000031471254,2|0,3:0|0:0,0:0:0:0:
397,137,187646,2,0,P|448:92|472:28,1,137.5,2|0,0:0|3:0,0:0:0:0:
334,215,187946,1,8,0:0:0:0:
334,215,188246,2,0,P|219:271|316:352,1,288.750002753735,2|0,3:2|0:0,0:0:0:0:
383,290,188546,6,0,B|324:264|246:294|246:294|221:262|179:224|58:228|64:346|148:364|157:293,1,385.000003671646,2|8,0:0|3:0,0:0:0:0:
159,316,188996,1,0,3:0:0:0:
50,132,189146,6,0,P|68:161|126:183,1,96.2500009179115,10|0,0:0|0:0,0:0:0:0:
286,133,189296,2,0,P|267:162|209:184,1,96.2500009179115,2|0,0:0|0:0,0:0:0:0:
168,24,189446,6,0,L|168:107,1,82.5,2|0,0:0|0:0,0:0:0:0:
211,183,189746,6,0,P|187:97|128:188,1,247.500009441376,2|0,3:2|0:0,0:0:0:0:
54,270,190046,2,0,P|99:312|140:319,1,82.5000031471254,2|0,0:0|0:0,0:0:0:0:
211,183,190196,1,2,3:2:0:0:
13,165,190346,1,10,0:0:0:0:
13,165,190646,6,0,B|56:98|32:41|32:41|32:65|18:87,1,165.000006294251,2|2,3:0|0:0,0:0:0:0:
55,270,190946,6,0,B|155:327|218:281|218:281|288:226|363:277,1,330,6|0,0:0|0:0,0:0:0:0:
203,64,191246,6,0,B|151:118|189:194|189:194|210:183,1,165.000006294251,8|2,3:0|3:0,3:0:0:0:
380,107,191546,6,0,P|351:52|283:32,1,110,8|0,3:1|0:0,0:0:0:0:
263,302,191696,2,0,P|324:304|375:255,1,110,2|0,3:2|0:0,0:0:0:0:
91,81,191846,6,0,P|58:132|74:201,1,111.375000424862,2|0,0:0|0:0,0:0:0:0:
145,330,192146,6,0,P|185:279|153:223,1,137.5,4|0,3:2|3:0,0:0:0:0:
262,146,192446,1,4,3:0:0:0:
262,146,192646,6,0,B|234:176|199:170|199:170|174:136|113:146,1,146.666666666667,0|8,3:0|3:1,0:0:0:0:
131,145,193046,6,0,P|242:185|263:302,1,247.500009441376,2|0,3:2|0:0,0:0:0:0:
265,383,193346,2,0,P|285:266|396:226,1,247.500009441376,2|0,0:0|0:0,0:0:0:0:
262,146,193646,5,8,3:0:0:0:
335,342,193796,1,2,3:0:0:0:
447,60,193946,6,0,B|486:48|523:73|523:73|443:132|410:35|314:96,1,288.750002753735,10|0,0:0|0:0,0:0:0:0:
128,144,194246,2,0,P|248:134|197:243,1,288.750002753735,2|0,0:0|0:0,0:0:0:0:
52,340,194546,6,0,P|32:240|50:115,1,206.25,4|0,3:2|0:0,0:0:0:0:
218,75,194846,2,0,P|192:136|126:143,1,137.5,0|0,0:0|3:0,0:0:0:0:
42,12,195146,1,8,0:2:0:0:
42,12,195446,6,0,B|122:-10|123:44|205:9,1,165,2|0,3:0|0:0,0:0:0:0:
379,72,195746,2,0,B|299:94|298:40|216:75,1,165
232,311,196046,5,8,3:0:0:0:
187,168,196196,1,0,3:0:0:0:
370,304,196346,6,0,P|372:263|405:276,1,82.5000031471254,10|0,0:2|0:0,0:0:0:0:
432,132,196496,2,0,P|458:171|463:192,1,55,2|0,0:0|0:0,0:0:0:0:
497,384,196646,6,0,P|466:356|461:298,1,82.5,2|0,0:0|0:0,0:0:0:0:
349,170,196946,6,0,P|354:85|457:46,1,206.25,2|0,3:0|0:0,0:0:0:0:
401,270,197246,2,0,B|335:285|252:267,1,137.5,0|0,0:0|3:0,0:0:0:0:
94,210,197546,1,8,0:0:0:0:
94,210,197846,6,0,P|142:137|54:22,1,247.500009441376,2|0,3:0|0:0,0:0:0:0:
23,270,198146,2,0,B|134:313|134:227|264:269,1,247.500009441376
94,210,198446,5,8,3:0:0:0:
232,351,198596,1,0,3:0:0:0:
231,163,198746,6,0,B|323:166|371:251|342:334|342:334|327:310|334:280,1,288.750002753735,10|0,0:0|0:0,0:0:0:0:
391,172,199046,2,0,P|299:73|173:123,1,288.750002753735,2|0,0:0|0:0,0:0:0:0:
457,299,199346,6,0,B|463:251|516:225|516:225|525:171|476:127,1,206.25,2|0,3:0|0:0,0:0:0:0:
331,58,199646,2,0,P|342:124|391:172,1,137.5,0|0,0:0|3:0,0:0:0:0:
479,43,199946,1,8,0:0:0:0:
479,43,200246,6,0,B|434:27|402:44|402:44|404:53|404:53|366:77|323:56,1,165,0|0,3:0|0:0,0:0:0:0:
27,87,200546,6,0,P|183:11|307:134,1,371.250014162064,2|0,0:0|0:0,0:0:0:0:
142,213,200846,2,0,P|116:222|89:221,1,55,8|0,3:0|3:0,0:0:0:0:
479,43,201146,6,0,P|360:33|307:134,1,247.500009441376,10|0,0:0|0:0,0:0:0:0:
470,188,201446,2,0,P|483:192|496:190,1,27.5,2|0,0:0|0:0,0:0:0:0:
315,297,201746,6,0,P|236:261|261:336,1,206.25,4|0,3:2|0:0,0:0:0:0:
460,316,202046,2,0,B|493:294|496:244|496:244|495:163,1,137.5,0|0,0:0|3:0,0:0:0:0:
489,78,202346,1,8,0:0:0:0:
489,78,202646,6,0,B|371:194|273:103|365:27|380:95,1,247.500009441376,2|0,3:0|0:0,0:0:0:0:
276,161,202946,2,0,B|166:166|119:77|119:77|134:111|109:140,1,247.500009441376
221,55,203246,5,8,3:0:0:0:
38,173,203396,1,4,3:0:0:0:
182,276,203546,6,0,B|219:232|144:215|115:249|97:341|227:375|262:202|344:329,1,288.750002753735,10|0,0:0|0:0,0:0:0:0:
482,365,203846,2,0,P|493:254|342:234,1,288.750002753735,2|0,0:0|0:0,0:0:0:0:
390,285,204146,6,0,P|409:184|377:88,1,206.25,2|0,3:0|0:0,0:0:0:0:
269,32,204446,2,0,P|252:107|289:173,1,137.5,0|0,0:0|3:0,0:0:0:0:
470,36,204746,1,8,0:0:0:0:
470,36,205046,6,0,P|398:16|377:88,1,165,2|0,3:0|0:0,0:0:0:0:
270,324,205346,2,0,P|265:244|276:158,1,165,0|0,0:0|0:0,0:0:0:0:
460,165,205646,2,0,L|458:230,1,55,8|0,3:0|3:0,0:0:0:0:
270,324,205946,6,0,B|261:356|261:356|221:287|221:200|276:159,1,247.500009441376,8|0,0:0|0:0,0:0:0:0:
403,95,206246,2,0,P|387:142|364:167,1,82.5,2|0,0:0|0:0,0:0:0:0:
152,88,206546,6,0,P|239:40|328:84,1,206.25,2|0,3:0|0:0,0:0:0:0:
114,175,206846,2,0,P|63:104|68:53,1,137.5,0|0,0:0|3:0,0:0:0:0:
299,229,207146,1,8,0:0:0:0:
299,229,207446,6,0,P|202:223|275:159,1,247.500009441376,2|0,3:0|0:0,0:0:0:0:
352,327,207746,2,0,P|235:362|125:312,1,247.500009441376,0|0,0:0|0:0,0:0:0:0:
124,95,208046,5,8,3:0:0:0:
299,229,208196,1,0,3:0:0:0:
62,287,208346,6,0,B|48:323|50:348|50:348|-26:257|59:130,1,288.750002753735,10|0,0:0|0:0,0:0:0:0:
206,137,208646,2,0,B|286:173|319:71|275:-2|94:37|113:151,1,288.750002753735,2|0,0:0|0:0,0:0:0:0:
299,229,208946,6,0,P|350:149|329:33,1,206.25,2|0,3:0|0:0,0:0:0:0:
214,229,209246,2,0,P|231:332|267:364,1,137.5,2|0,0:0|3:0,0:0:0:0:
433,354,209546,1,8,0:0:0:0:
433,354,209846,6,0,P|441:273|496:212,1,165,2|0,3:0|0:0,0:0:0:0:
335,42,210146,2,0,P|388:103|396:184,1,165
341,281,210446,5,8,3:0:0:0:
489,99,210596,1,2,3:0:0:0:
258,62,210746,6,0,P|226:93|209:166,1,110,8|0,0:1|0:0,0:0:0:0:
84,184,210896,6,0,P|120:223|133:275,1,55,2|0,3:0|0:0,0:0:0:0:
226,263,211046,6,0,P|189:302|176:354,1,55,0|4,3:0|0:3,0:0:0:0:
