osu file format v14

[General]
AudioFilename: audio.mp3
AudioLeadIn: 0
PreviewTime: 0
Countdown: 0
SampleSet: Soft
StackLeniency: 0.3
Mode: 0
LetterboxInBreaks: 0
WidescreenStoryboard: 1

[Editor]
Bookmarks: 9639,48039,67295,86546,96146,105746,124895,144095,153695,163295,172946,182546,192146,201746,211346
DistanceSpacing: 1.2
BeatDivisor: 4
GridSize: 8
TimelineZoom: 1.556

[Metadata]
Title:Mirror
TitleUnicode:Mirror
Artist:HoneyComeBear
ArtistUnicode:HoneyComeBear
Creator:Foxy Grandpa
Version:KKip's Hard
Source:
Tags:future bass Mentai KKipalt FoxyGrandpa
BeatmapID:1785839
BeatmapSetID:814535

[Difficulty]
HPDrainRate:4
CircleSize:3.4
OverallDifficulty:5.2
ApproachRate:7.5
SliderMultiplier:2.2
SliderTickRate:1

[Events]
//Background and Video events
0,0,"withyou.png",0,0
//Break Periods
//Storyboard Layer 0 (Background)
//Storyboard Layer 1 (Fail)
//Storyboard Layer 2 (Pass)
//Storyboard Layer 3 (Foreground)
//Storyboard Sound Samples

[TimingPoints]
146,600,4,2,10,50,1,0
146,-133.333333333333,4,2,10,50,0,0
596,-133.333333333333,4,2,12,50,0,0
1046,-133.333333333333,4,2,10,50,0,0
1646,-133.333333333333,4,2,10,50,0,0
1946,-133.333333333333,4,2,11,50,0,0
2246,-133.333333333333,4,2,12,50,0,0
2546,-133.333333333333,4,2,11,50,0,0
2996,-133.333333333333,4,2,12,50,0,0
3446,-133.333333333333,4,2,11,50,0,0
4046,-133.333333333333,4,2,12,50,0,0
4346,-133.333333333333,4,2,11,50,0,0
4646,-133.333333333333,4,2,12,50,0,0
4946,-133.333333333333,4,2,10,50,0,0
5396,-133.333333333333,4,2,12,50,0,0
5846,-133.333333333333,4,2,10,50,0,0
6446,-133.333333333333,4,2,10,50,0,0
6746,-133.333333333333,4,2,11,50,0,0
7046,-133.333333333333,4,2,12,50,0,0
7346,-133.333333333333,4,2,11,50,0,0
7796,-133.333333333333,4,2,12,50,0,0
8246,-133.333333333333,4,2,11,50,0,0
8846,-133.333333333333,4,2,12,50,0,0
9146,-133.333333333333,4,2,11,50,0,0
9446,-133.333333333333,4,2,12,50,0,0
9746,-133.333333333333,4,2,1,60,0,0
10346,-133.333333333333,4,2,1,50,0,0
15746,-100,4,2,1,60,0,0
16046,-100,4,2,1,50,0,0
16346,-100,4,2,1,40,0,0
16646,-133.333333333333,4,2,1,30,0,0
16946,-133.333333333333,4,2,1,50,0,0
21746,-133.333333333333,4,2,1,40,0,0
22646,-133.333333333333,4,2,1,35,0,0
24146,-133.333333333333,4,2,1,50,0,0
27746,-100,4,2,2,50,0,0
28046,-100,4,2,2,60,0,0
28271,-100,4,2,1,5,0,0
28346,-100,4,2,2,50,0,0
28571,-100,4,2,1,5,0,0
28646,-100,4,2,2,40,0,0
28871,-100,4,2,1,5,0,0
28946,-133.333333333333,4,2,1,55,0,0
34946,-100,4,2,1,65,0,0
35246,-100,4,2,1,55,0,0
35546,-100,4,2,1,45,0,0
35846,-100,4,2,1,35,0,0
36146,-133.333333333333,4,2,1,45,0,0
37046,-133.333333333333,4,2,1,55,0,0
46946,-100,4,2,2,45,0,0
47246,-100,4,2,2,65,0,0
47546,-100,4,2,2,60,0,0
47846,-133.333333333333,4,2,2,50,0,0
48146,-133.333333333333,4,2,2,65,0,0
65996,-133.333333333333,4,2,3,25,0,0
66046,-133.333333333333,4,2,3,35,0,0
66096,-100,4,2,3,45,0,0
66146,-100,4,2,3,65,0,0
66446,-100,4,2,3,50,0,0
66746,-100,4,2,2,50,0,0
67046,-133.333333333333,4,2,3,50,0,0
67346,-200,4,2,2,50,0,0
76946,-166.666666666667,4,2,1,50,0,0
81746,-166.666666666667,4,2,1,40,0,0
82346,-166.666666666667,4,2,1,45,0,0
82946,-166.666666666667,4,2,1,55,0,0
83546,-166.666666666667,4,2,1,60,0,0
84146,-133.333333333333,4,2,3,65,0,0
85946,-100,4,2,3,50,0,0
86096,-100,4,2,1,5,0,0
86246,-100,4,2,2,50,0,0
86471,-100,4,2,1,5,0,0
86546,-76.9230769230769,4,2,4,75,0,0
86771,-76.9230769230769,4,2,4,5,0,0
86846,-76.9230769230769,4,2,4,75,0,0
87071,-76.9230769230769,4,2,4,5,0,0
87146,-76.9230769230769,4,2,2,75,0,0
87446,-76.9230769230769,4,2,4,75,0,0
87671,-76.9230769230769,4,2,4,5,0,0
87746,-76.9230769230769,4,2,4,75,0,0
87971,-76.9230769230769,4,2,4,5,0,0
88046,-76.9230769230769,4,2,2,60,0,0
88346,-76.9230769230769,4,2,4,75,0,0
88421,-76.9230769230769,4,2,4,5,0,0
88496,-76.9230769230769,4,2,4,75,0,0
88571,-76.9230769230769,4,2,4,5,0,0
88646,-76.9230769230769,4,2,4,75,0,0
88871,-76.9230769230769,4,2,4,5,0,0
88946,-76.9230769230769,4,2,4,75,0,0
89171,-76.9230769230769,4,2,4,5,0,0
89246,-76.9230769230769,4,2,4,75,0,0
89546,-76.9230769230769,4,2,4,60,0,0
89846,-76.9230769230769,4,2,4,75,0,0
90071,-76.9230769230769,4,2,4,5,0,0
90146,-76.9230769230769,4,2,4,75,0,0
90371,-76.9230769230769,4,2,4,5,0,0
90446,-76.9230769230769,4,2,4,75,0,0
90821,-76.9230769230769,4,2,4,5,0,0
90896,-76.9230769230769,4,2,4,75,0,0
90971,-76.9230769230769,4,2,4,5,0,0
91046,-76.9230769230769,4,2,4,75,0,0
91271,-76.9230769230769,4,2,4,5,0,0
91346,-76.9230769230769,4,2,4,75,0,0
91571,-76.9230769230769,4,2,4,5,0,0
91646,-76.9230769230769,4,2,4,75,0,0
92471,-76.9230769230769,4,2,4,5,0,0
92546,-76.9230769230769,4,2,4,75,0,0
92771,-76.9230769230769,4,2,4,5,0,0
92846,-76.9230769230769,4,2,4,75,0,0
93371,-76.9230769230769,4,2,4,5,0,0
93446,-76.9230769230769,4,2,4,75,0,0
93671,-76.9230769230769,4,2,4,5,0,0
93746,-76.9230769230769,4,2,4,75,0,0
93971,-76.9230769230769,4,2,4,5,0,0
94046,-76.9230769230769,4,2,4,75,0,0
94871,-76.9230769230769,4,2,4,5,0,0
94946,-76.9230769230769,4,2,4,75,0,0
95171,-76.9230769230769,4,2,4,5,0,0
95246,-76.9230769230769,4,2,4,75,0,0
95621,-76.9230769230769,4,2,4,5,0,0
95696,-76.9230769230769,4,2,4,75,0,0
95771,-76.9230769230769,4,2,4,5,0,0
95846,-76.9230769230769,4,2,4,75,0,0
96071,-76.9230769230769,4,2,4,5,0,0
96146,-76.9230769230769,4,2,4,75,0,0
96371,-76.9230769230769,4,2,4,5,0,0
96446,-76.9230769230769,4,2,4,75,0,0
97271,-76.9230769230769,4,2,4,5,0,0
97346,-76.9230769230769,4,2,4,75,0,0
97571,-76.9230769230769,4,2,4,5,0,0
97646,-76.9230769230769,4,2,4,75,0,0
98171,-76.9230769230769,4,2,4,5,0,0
98246,-76.9230769230769,4,2,4,75,0,0
98471,-76.9230769230769,4,2,4,5,0,0
98546,-76.9230769230769,4,2,4,75,0,0
98771,-76.9230769230769,4,2,4,5,0,0
98846,-76.9230769230769,4,2,4,75,0,0
99671,-76.9230769230769,4,2,4,5,0,0
99746,-76.9230769230769,4,2,4,75,0,0
99971,-76.9230769230769,4,2,4,50,0,0
100046,-76.9230769230769,4,2,4,75,0,0
100421,-76.9230769230769,4,2,4,5,0,0
100496,-76.9230769230769,4,2,4,75,0,0
100571,-76.9230769230769,4,2,4,5,0,0
100646,-76.9230769230769,4,2,4,75,0,0
100871,-76.9230769230769,4,2,4,5,0,0
100946,-76.9230769230769,4,2,4,75,0,0
101171,-76.9230769230769,4,2,4,5,0,0
101246,-76.9230769230769,4,2,4,75,0,0
102071,-76.9230769230769,4,2,4,5,0,0
102146,-76.9230769230769,4,2,4,75,0,0
102371,-76.9230769230769,4,2,4,5,0,0
102446,-76.9230769230769,4,2,4,75,0,0
102971,-76.9230769230769,4,2,4,5,0,0
103046,-76.9230769230769,4,2,4,75,0,0
103271,-76.9230769230769,4,2,4,5,0,0
103346,-76.9230769230769,4,2,4,75,0,0
103571,-76.9230769230769,4,2,4,5,0,0
103646,-76.9230769230769,4,2,4,75,0,0
104471,-76.9230769230769,4,2,4,5,0,0
104546,-76.9230769230769,4,2,4,75,0,0
104771,-76.9230769230769,4,2,4,5,0,0
104846,-76.9230769230769,4,2,2,75,0,0
105146,-76.9230769230769,4,2,4,75,0,0
105221,-76.9230769230769,4,2,4,5,0,0
105296,-76.9230769230769,4,2,4,75,0,0
105371,-76.9230769230769,4,2,4,5,0,0
105446,-76.9230769230769,4,2,4,60,0,0
105671,-76.9230769230769,4,2,4,5,0,0
105746,-133.333333333333,4,2,1,55,0,0
112046,-133.333333333333,4,2,1,45,0,0
112346,-133.333333333333,4,2,1,35,0,0
112646,-133.333333333333,4,2,1,25,0,0
112946,-133.333333333333,4,2,1,55,0,0
124046,-133.333333333333,4,2,2,55,0,0
124346,-133.333333333333,4,2,2,60,0,0
142796,-133.333333333333,4,2,3,20,0,0
142846,-133.333333333333,4,2,3,30,0,0
142896,-133.333333333333,4,2,3,40,0,0
142946,-133.333333333333,4,2,3,60,0,0
143246,-133.333333333333,4,2,2,60,0,0
143846,-133.333333333333,4,2,3,60,0,0
144146,-200,4,2,2,60,0,0
153746,-166.666666666667,4,2,1,60,0,0
160796,-133.333333333333,4,2,1,60,0,0
160946,-133.333333333333,4,2,3,60,0,0
162746,-100,4,2,1,60,0,0
163271,-100,4,2,1,5,0,0
163346,-76.9230769230769,4,2,4,75,0,0
163571,-76.9230769230769,4,2,4,5,0,0
163646,-76.9230769230769,4,2,4,75,0,0
163871,-76.9230769230769,4,2,4,5,0,0
163946,-76.9230769230769,4,2,2,75,0,0
164246,-76.9230769230769,4,2,4,75,0,0
164471,-76.9230769230769,4,2,4,5,0,0
164546,-76.9230769230769,4,2,4,75,0,0
164771,-76.9230769230769,4,2,4,5,0,0
164846,-76.9230769230769,4,2,2,75,0,0
165146,-76.9230769230769,4,2,4,75,0,0
165221,-76.9230769230769,4,2,4,5,0,0
165296,-76.9230769230769,4,2,4,75,0,0
165371,-76.9230769230769,4,2,4,5,0,0
165446,-76.9230769230769,4,2,4,75,0,0
165971,-76.9230769230769,4,2,4,5,0,0
166046,-76.9230769230769,4,2,4,75,0,0
166871,-76.9230769230769,4,2,4,5,0,0
166946,-76.9230769230769,4,2,4,75,0,0
167171,-76.9230769230769,4,2,4,5,0,0
167246,-76.9230769230769,4,2,4,75,0,0
167621,-76.9230769230769,4,2,4,5,0,0
167696,-76.9230769230769,4,2,4,75,0,0
167771,-76.9230769230769,4,2,4,5,0,0
167846,-76.9230769230769,4,2,4,75,0,0
168071,-76.9230769230769,4,2,4,5,0,0
168146,-76.9230769230769,4,2,4,75,0,0
168371,-76.9230769230769,4,2,4,5,0,0
168446,-76.9230769230769,4,2,4,75,0,0
169271,-76.9230769230769,4,2,4,5,0,0
169346,-76.9230769230769,4,2,4,75,0,0
169571,-76.9230769230769,4,2,4,5,0,0
169646,-76.9230769230769,4,2,4,75,0,0
170171,-76.9230769230769,4,2,4,5,0,0
170246,-76.9230769230769,4,2,4,75,0,0
170471,-76.9230769230769,4,2,4,5,0,0
170546,-76.9230769230769,4,2,4,75,0,0
170771,-76.9230769230769,4,2,4,5,0,0
170846,-76.9230769230769,4,2,4,75,0,0
171671,-76.9230769230769,4,2,4,5,0,0
171746,-76.9230769230769,4,2,4,75,0,0
171971,-76.9230769230769,4,2,4,5,0,0
172046,-76.9230769230769,4,2,4,75,0,0
172421,-76.9230769230769,4,2,4,5,0,0
172496,-76.9230769230769,4,2,4,75,0,0
172571,-76.9230769230769,4,2,4,5,0,0
172646,-76.9230769230769,4,2,2,75,0,0
172871,-76.9230769230769,4,2,4,5,0,0
172946,-76.9230769230769,4,2,4,75,0,0
174071,-76.9230769230769,4,2,4,5,0,0
174146,-76.9230769230769,4,2,4,75,0,0
174371,-76.9230769230769,4,2,4,5,0,0
174446,-76.9230769230769,4,2,4,75,0,0
174971,-76.9230769230769,4,2,4,5,0,0
175046,-76.9230769230769,4,2,4,75,0,0
175271,-76.9230769230769,4,2,4,5,0,0
175346,-76.9230769230769,4,2,4,75,0,0
175571,-76.9230769230769,4,2,4,5,0,0
175646,-76.9230769230769,4,2,4,75,0,0
175721,-76.9230769230769,4,2,4,5,0,0
175796,-76.9230769230769,4,2,4,75,0,0
176321,-76.9230769230769,4,2,4,5,0,0
176396,-76.9230769230769,4,2,4,75,0,0
176771,-76.9230769230769,4,2,4,5,0,0
176846,-76.9230769230769,4,2,4,75,0,0
178871,-76.9230769230769,4,2,4,5,0,0
178946,-76.9230769230769,4,2,4,75,0,0
179621,-76.9230769230769,4,2,4,5,0,0
179696,-76.9230769230769,4,2,4,75,0,0
179771,-76.9230769230769,4,2,4,5,0,0
179846,-76.9230769230769,4,2,4,75,0,0
181571,-76.9230769230769,4,2,4,5,0,0
181646,-76.9230769230769,4,2,4,75,0,0
182021,-76.9230769230769,4,2,4,5,0,0
182096,-76.9230769230769,4,2,4,75,0,0
182171,-76.9230769230769,4,2,4,5,0,0
182246,-76.9230769230769,4,2,4,75,0,0
182471,-76.9230769230769,4,2,4,5,0,0
182546,-76.9230769230769,4,2,4,75,0,0
183671,-76.9230769230769,4,2,4,5,0,0
183746,-76.9230769230769,4,2,4,75,0,0
183971,-76.9230769230769,4,2,4,5,0,0
184046,-76.9230769230769,4,2,4,75,0,0
184571,-76.9230769230769,4,2,4,5,0,0
184646,-76.9230769230769,4,2,4,75,0,0
184871,-76.9230769230769,4,2,4,5,0,0
184946,-76.9230769230769,4,2,4,75,0,0
185171,-76.9230769230769,4,2,4,5,0,0
185246,-76.9230769230769,4,2,4,75,0,0
185321,-76.9230769230769,4,2,4,5,0,0
185396,-76.9230769230769,4,2,4,75,0,0
185921,-76.9230769230769,4,2,4,5,0,0
185996,-76.9230769230769,4,2,4,75,0,0
186371,-76.9230769230769,4,2,4,5,0,0
186446,-76.9230769230769,4,2,4,75,0,0
188471,-76.9230769230769,4,2,4,5,0,0
188546,-76.9230769230769,4,2,4,75,0,0
189221,-76.9230769230769,4,2,4,5,0,0
189296,-76.9230769230769,4,2,4,75,0,0
189371,-76.9230769230769,4,2,4,5,0,0
189446,-76.9230769230769,4,2,4,75,0,0
189671,-76.9230769230769,4,2,4,5,0,0
189746,-76.9230769230769,4,2,4,75,0,0
189971,-76.9230769230769,4,2,4,5,0,0
190046,-76.9230769230769,4,2,4,75,0,0
190121,-76.9230769230769,4,2,4,5,0,0
190196,-76.9230769230769,4,2,4,75,0,0
191171,-76.9230769230769,4,2,4,5,0,0
191246,-76.9230769230769,4,2,2,75,0,0
191546,-76.9230769230769,4,2,4,75,0,0
191621,-76.9230769230769,4,2,4,5,0,0
191696,-76.9230769230769,4,2,4,75,0,0
191771,-76.9230769230769,4,2,4,5,0,0
191846,-76.9230769230769,4,2,4,75,0,0
192071,-76.9230769230769,4,2,4,5,0,0
192146,-76.9230769230769,4,2,4,75,0,0
193271,-76.9230769230769,4,2,4,5,0,0
193346,-76.9230769230769,4,2,4,75,0,0
193571,-76.9230769230769,4,2,4,5,0,0
193646,-76.9230769230769,4,2,4,75,0,0
194171,-76.9230769230769,4,2,4,5,0,0
194246,-76.9230769230769,4,2,4,75,0,0
194471,-76.9230769230769,4,2,4,5,0,0
194546,-76.9230769230769,4,2,4,75,0,0
194771,-76.9230769230769,4,2,4,5,0,0
194846,-76.9230769230769,4,2,4,75,0,0
195671,-76.9230769230769,4,2,4,5,0,0
195746,-76.9230769230769,4,2,4,75,0,0
195971,-76.9230769230769,4,2,4,5,0,0
196046,-76.9230769230769,4,2,4,75,0,0
196421,-76.9230769230769,4,2,4,5,0,0
196496,-76.9230769230769,4,2,4,75,0,0
196571,-76.9230769230769,4,2,4,5,0,0
196646,-76.9230769230769,4,2,4,75,0,0
196871,-76.9230769230769,4,2,4,5,0,0
196946,-76.9230769230769,4,2,4,75,0,0
197171,-76.9230769230769,4,2,4,5,0,0
197246,-76.9230769230769,4,2,4,75,0,0
198071,-76.9230769230769,4,2,4,5,0,0
198146,-76.9230769230769,4,2,4,75,0,0
198371,-76.9230769230769,4,2,4,5,0,0
198446,-76.9230769230769,4,2,4,75,0,0
198971,-76.9230769230769,4,2,4,5,0,0
199046,-76.9230769230769,4,2,4,75,0,0
199271,-76.9230769230769,4,2,4,5,0,0
199346,-76.9230769230769,4,2,4,75,0,0
199571,-76.9230769230769,4,2,4,5,0,0
199646,-76.9230769230769,4,2,4,75,0,0
200471,-76.9230769230769,4,2,4,5,0,0
200546,-76.9230769230769,4,2,4,75,0,0
200771,-76.9230769230769,4,2,4,5,0,0
200846,-76.9230769230769,4,2,4,75,0,0
201371,-76.9230769230769,4,2,4,5,0,0
201446,-76.9230769230769,4,2,4,75,0,0
201971,-76.9230769230769,4,2,4,5,0,0
202046,-76.9230769230769,4,2,4,75,0,0
202871,-76.9230769230769,4,2,4,5,0,0
202946,-76.9230769230769,4,2,4,75,0,0
203171,-76.9230769230769,4,2,4,5,0,0
203246,-76.9230769230769,4,2,4,75,0,0
203771,-76.9230769230769,4,2,4,5,0,0
203846,-76.9230769230769,4,2,4,75,0,0
204071,-76.9230769230769,4,2,4,5,0,0
204146,-76.9230769230769,4,2,4,75,0,0
204371,-76.9230769230769,4,2,4,5,0,0
204446,-76.9230769230769,4,2,4,75,0,0
205271,-76.9230769230769,4,2,4,5,0,0
205346,-76.9230769230769,4,2,4,75,0,0
205571,-76.9230769230769,4,2,4,5,0,0
205646,-76.9230769230769,4,2,4,75,0,0
206171,-76.9230769230769,4,2,4,5,0,0
206246,-76.9230769230769,4,2,4,75,0,0
206471,-76.9230769230769,4,2,4,5,0,0
206546,-76.9230769230769,4,2,4,75,0,0
206771,-76.9230769230769,4,2,4,5,0,0
206846,-76.9230769230769,4,2,4,75,0,0
207671,-76.9230769230769,4,2,4,5,0,0
207746,-76.9230769230769,4,2,4,75,0,0
207971,-76.9230769230769,4,2,4,5,0,0
208046,-76.9230769230769,4,2,4,75,0,0
208571,-76.9230769230769,4,2,4,5,0,0
208646,-76.9230769230769,4,2,4,75,0,0
208871,-76.9230769230769,4,2,4,5,0,0
208946,-76.9230769230769,4,2,4,75,0,0
209171,-76.9230769230769,4,2,4,5,0,0
209246,-76.9230769230769,4,2,4,75,0,0
210071,-76.9230769230769,4,2,4,5,0,0
210146,-76.9230769230769,4,2,4,75,0,0
210371,-76.9230769230769,4,2,4,5,0,0
210446,-76.9230769230769,4,2,2,75,0,0
210746,-76.9230769230769,4,2,4,75,0,0
210821,-76.9230769230769,4,2,4,5,0,0
210896,-76.9230769230769,4,2,4,75,0,0
210971,-76.9230769230769,4,2,4,5,0,0
211046,-100,4,2,2,75,0,0

[Colours]
Combo1 : 106,255,255
Combo2 : 187,226,255
Combo3 : 192,192,192
Combo4 : 137,128,255
Combo5 : 55,55,255

[HitObjects]
363,274,146,6,0,L|477:285,1,82.5000031471254,2|0,0:0|0:0,0:0:0:0:
480,310,596,2,0,P|476:240|522:187,1,123.750004720688,0|2,0:0|0:0,0:0:0:0:
356,93,1646,1,2,0:3:0:0:
356,93,1946,1,0,0:0:0:0:
360,183,2246,1,0,0:0:0:0:
270,61,2546,6,0,L|156:50,1,82.5000031471254,2|0,0:3|0:0,0:0:0:0:
157,19,2996,2,0,P|161:89|115:142,1,123.750004720688,0|8,0:0|0:0,0:0:0:0:
234,280,4046,1,0,0:0:0:0:
169,213,4346,1,0,0:0:0:0:
75,206,4646,1,0,0:3:0:0:
0,267,4946,6,0,L|11:357,1,82.5000031471254,2|0,0:0|0:0,0:0:0:0:
47,381,5396,2,0,P|134:368|182:390,1,123.750004720688,0|2,0:0|0:0,0:0:0:0:
318,298,6446,1,2,0:3:0:0:
318,298,6746,1,0,0:0:0:0:
228,302,7046,1,0,0:0:0:0:
408,294,7346,6,0,L|416:179,1,82.5000031471254,2|0,0:3|0:0,0:0:0:0:
381,181,7796,2,0,P|293:193|245:171,1,123.750004720688,0|8,0:0|0:0,0:0:0:0:
432,18,8846,1,0,0:0:0:0:
435,108,9146,1,0,0:0:0:0:
512,61,9446,1,0,0:3:0:0:
354,72,9746,6,0,L|204:81,1,123.750004720688,0|0,3:0|0:0,0:0:0:0:
189,99,10346,2,0,L|199:2,2,82.5000031471254,8|0|0,0:3|0:0|0:0,0:0:0:0:
134,171,11246,1,0,3:0:0:0:
43,178,11546,1,8,0:0:0:0:
43,178,12146,6,0,P|29:222|36:291,1,82.5000031471254,0|0,3:0|0:0,0:0:0:0:
46,300,12596,1,0,0:0:0:0:
78,332,12746,1,8,0:3:0:0:
162,299,13046,1,0,3:0:0:0:
167,309,13346,2,0,B|296:302|296:302|338:325,1,165.000006294251,0|8,0:0|0:0,0:0:0:0:
327,319,14546,6,0,L|477:328,1,123.750004720688,0|0,3:0|0:0,0:0:0:0:
478,290,15146,2,0,L|468:193,2,82.5000031471254,8|0|2,0:3|0:0|0:0,0:0:0:0:
375,226,16046,1,2,3:2:0:0:
379,131,16346,1,10,0:0:0:0:
386,140,16646,1,2,0:0:0:0:
304,96,16946,6,0,P|259:109|190:102,1,82.5000031471254,0|0,3:0|0:0,0:0:0:0:
182,93,17396,1,0,0:0:0:0:
150,61,17546,1,8,0:3:0:0:
70,105,17846,2,0,B|77:234|77:234|54:276,1,165.000006294251,0|0,3:0|3:0,0:0:0:0:
10,341,18746,2,0,L|107:351,1,82.5000031471254,8|0,0:0|0:0,0:0:0:0:
167,298,19346,6,0,L|317:289,1,123.750004720688,0|0,3:0|0:0,0:0:0:0:
332,271,19946,2,0,L|322:368,2,82.5000031471254,8|0|0,0:3|0:0|0:0,0:0:0:0:
398,209,20846,1,0,3:0:0:0:
488,215,21146,2,0,L|480:133,1,82.5000031471254,8|0,0:0|0:0,0:0:0:0:
496,43,21746,6,0,P|451:56|382:49,1,82.5000031471254,0|0,3:0|0:0,0:0:0:0:
374,40,22196,1,0,0:0:0:0:
342,8,22346,1,8,0:3:0:0:
282,76,22646,1,0,3:0:0:0:
282,76,23246,2,0,L|292:173,2,82.5000031471254,0|8|0,0:0|0:0|0:0,0:0:0:0:
201,33,24146,6,0,L|86:38,1,82.5000031471254,0|0,3:0|0:0,0:0:0:0:
84,67,24596,2,0,L|18:64,2,41.2500015735627,0|8|0,0:0|0:3|0:0,0:0:0:0:
148,131,25196,2,0,P|158:167|144:253,1,123.750004720688,0|0,0:0|3:0,0:0:0:0:
70,302,25946,1,8,0:0:0:0:
150,344,26246,1,0,0:0:0:0:
226,295,26546,6,0,P|270:281|339:288,1,82.5000031471254,0|0,3:0|0:0,0:0:0:0:
348,298,26996,1,0,0:0:0:0:
380,330,27146,1,8,0:3:0:0:
434,257,27446,2,0,L|423:112,1,123.750004720688,0|0,3:0|0:0,0:0:0:0:
397,97,28046,1,2,0:0:0:0:
410,3,28346,1,2,0:0:0:0:
480,62,28646,1,2,0:0:0:0:
324,44,28946,6,0,L|174:53,1,123.750004720688,2|0,3:0|0:0,0:0:0:0:
179,91,29546,1,8,0:3:0:0:
93,61,29846,2,0,L|84:143,1,82.5000031471254,0|0,0:0|0:0,0:0:0:0:
32,217,30446,1,0,3:0:0:0:
122,228,30746,2,0,L|130:310,1,82.5000031471254,8|0,0:2|0:2,0:0:0:0:
201,367,31346,6,0,P|245:380|314:373,1,82.5000031471254,0|0,3:0|0:0,0:0:0:0:
323,364,31796,1,0,0:0:0:0:
355,332,31946,1,8,0:3:0:0:
347,241,32246,1,0,3:0:0:0:
352,251,32546,2,0,B|481:244|481:244|523:267,1,165.000006294251,0|8,0:0|0:0,0:0:0:0:
512,170,33446,1,0,0:0:0:0:
432,125,33746,6,0,L|439:1,1,123.750004720688,0|0,3:0|0:0,0:0:0:0:
401,26,34346,1,8,0:3:0:0:
324,74,34646,2,0,L|227:64,1,82.5000031471254,0|2,0:0|0:2,0:0:0:0:
159,27,35246,1,2,3:2:0:0:
163,122,35546,1,10,0:2:0:0:
170,113,35846,1,2,0:2:0:0:
249,156,36146,6,0,P|262:200|255:269,1,82.5000031471254,0|0,3:0|0:0,0:0:0:0:
246,278,36596,1,0,0:0:0:0:
214,310,36746,1,8,0:3:0:0:
277,374,37046,2,0,B|148:367|148:367|106:390,1,165.000006294251,0|0,3:0|3:2,0:0:0:0:
43,331,37946,2,0,L|34:248,1,82.5000031471254,8|0,0:2|0:2,0:0:0:0:
107,194,38546,6,0,L|124:44,1,123.750004720688,0|0,3:0|0:0,0:0:0:0:
86,43,39146,1,8,0:3:0:0:
168,4,39446,2,0,L|265:14,1,82.5000031471254,0|0,0:0|0:0,0:0:0:0:
276,99,40046,1,0,3:2:0:0:
339,34,40346,2,0,L|421:25,1,82.5000031471254,8|0,0:2|0:2,0:0:0:0:
497,74,40946,6,0,P|510:118|503:187,1,82.5000031471254,0|0,3:0|0:0,0:0:0:0:
494,196,41396,1,0,0:0:0:0:
462,228,41546,1,8,0:3:0:0:
371,235,41846,1,0,3:0:0:0:
371,235,42446,2,0,L|270:242,2,82.5000031471254,0|8|0,0:2|0:2|0:2,0:0:0:0:
328,332,43346,6,0,L|213:327,1,82.5000031471254,0|0,3:0|0:0,0:0:0:0:
207,354,43796,2,0,L|141:356,2,41.2500015735627,0|8|0,0:0|0:3|0:0,0:0:0:0:
176,268,44396,2,0,P|166:232|180:146,1,123.750004720688,0|0,0:0|3:0,0:0:0:0:
102,99,45146,1,8,0:0:0:0:
182,56,45446,1,0,0:0:0:0:
259,103,45746,6,0,P|303:116|372:109,1,82.5000031471254,0|0,3:0|0:0,0:0:0:0:
381,100,46196,1,0,0:0:0:0:
413,68,46346,1,8,0:3:0:0:
492,112,46646,2,0,L|481:257,1,123.750004720688,0|0,3:0|0:0,0:0:0:0:
443,257,47246,1,8,3:0:0:0:
448,302,47396,1,2,3:0:0:0:
452,347,47546,1,8,0:1:0:0:
364,371,47846,1,8,3:0:0:0:
305,301,48146,6,0,L|197:292,1,82.5000031471254,4|0,3:1|0:0,0:0:0:0:
183,318,48596,1,0,0:0:0:0:
179,273,48746,1,8,0:1:0:0:
98,231,49046,1,0,0:0:0:0:
93,276,49196,1,0,0:0:0:0:
89,321,49346,1,0,0:0:0:0:
10,366,49646,1,4,3:2:0:0:
6,275,49946,2,0,L|-1:174,1,82.5000031471254,8|2,0:0|0:3,0:0:0:0:
59,123,50546,6,0,L|166:131,1,82.5000031471254,0|0,3:0|0:0,0:0:0:0:
181,106,50996,1,0,0:0:0:0:
185,151,51146,1,8,0:1:0:0:
269,184,51446,1,0,3:0:0:0:
274,139,51596,1,0,0:0:0:0:
278,94,51746,1,0,0:0:0:0:
371,83,52046,2,0,L|368:17,2,41.2500015735627,4|0|8,0:0|0:0|0:0,0:0:0:0:
440,141,52646,1,8,0:3:0:0:
419,229,52946,5,0,3:2:0:0:
459,238,53096,1,0,0:0:0:0:
490,264,53246,1,0,0:0:0:0:
506,302,53396,1,0,0:0:0:0:
503,342,53546,1,8,0:1:0:0:
421,384,53846,1,0,0:0:0:0:
376,380,53996,1,0,0:0:0:0:
331,375,54146,1,0,0:0:0:0:
276,302,54446,2,0,L|175:309,1,82.5000031471254,4|8,3:2|0:0,0:0:0:0:
103,317,55046,1,2,0:3:0:0:
36,254,55346,5,0,3:0:0:0:
76,245,55496,1,0,0:0:0:0:
107,219,55646,1,0,0:0:0:0:
123,181,55796,1,0,0:0:0:0:
120,141,55946,1,8,0:1:0:0:
61,71,56246,2,0,L|58:5,2,41.2500015735627,0|0|0,3:0|0:0|0:0,0:0:0:0:
151,57,56846,2,0,L|154:-9,2,41.2500015735627,4|0|8,3:2|0:0|0:0,0:0:0:0:
208,128,57446,1,8,0:3:0:0:
268,195,57746,6,0,L|376:186,1,82.5000031471254,4|0,3:1|0:0,0:0:0:0:
378,152,58196,1,0,0:0:0:0:
423,156,58346,1,8,0:1:0:0:
502,199,58646,1,0,0:0:0:0:
497,244,58796,1,0,0:0:0:0:
493,289,58946,1,0,0:0:0:0:
512,373,59246,1,4,3:2:0:0:
424,348,59546,2,0,L|341:353,1,82.5000031471254,8|2,0:0|0:3,0:0:0:0:
267,300,60146,6,0,L|159:291,1,82.5000031471254,0|0,3:0|0:0,0:0:0:0:
157,257,60596,1,0,0:0:0:0:
112,261,60746,1,8,0:1:0:0:
36,210,61046,1,0,3:0:0:0:
41,165,61196,1,0,0:0:0:0:
45,120,61346,1,0,0:0:0:0:
118,66,61646,2,0,L|115:0,2,41.2500015735627,4|0|8,0:0|0:0|0:0,0:0:0:0:
187,124,62246,1,8,0:3:0:0:
259,69,62546,5,0,3:2:0:0:
297,58,62696,1,0,0:0:0:0:
338,64,62846,1,0,0:0:0:0:
371,90,62996,1,0,0:0:0:0:
388,125,63146,1,8,0:1:0:0:
385,215,63446,1,0,0:0:0:0:
430,211,63596,1,0,0:0:0:0:
475,206,63746,1,0,0:0:0:0:
512,306,64046,2,0,L|429:300,1,82.5000031471254,4|8,3:2|0:0,0:0:0:0:
348,340,64646,1,2,0:3:0:0:
272,289,64946,5,0,3:2:0:0:
232,286,65096,1,0,0:0:0:0:
194,302,65246,1,0,0:0:0:0:
168,333,65396,1,0,0:0:0:0:
159,373,65546,1,8,0:1:0:0:
75,333,65846,5,0,3:0:0:0:
81,326,65996,2,0,L|79:290,2,20.6250007867813,8|8|8,0:1|0:1|0:1,0:0:0:0:
35,232,66296,1,8,0:1:0:0:
42,226,66446,1,4,3:2:0:0:
44,183,66596,1,0,3:0:0:0:
47,139,66746,1,8,0:0:0:0:
50,96,66896,1,0,0:0:0:0:
52,53,67046,6,0,L|103:46,1,41.2500015735627,8|8,0:1|0:1,0:0:0:0:
198,66,67346,6,0,B|171:49|195:14|245:46|210:94|210:94|171:146|219:203,1,220,4|0,0:3|0:0,0:0:0:0:
287,252,68846,2,0,P|302:209|276:145,1,110,2|0,0:0|0:0,0:0:0:0:
239,324,69746,6,0,B|295:355|340:316|340:316|382:358|452:330,1,220,2|0,0:0|0:0,0:0:0:0:
443,333,71546,2,0,P|450:306|447:279,1,55,2|0,0:0|0:0,0:0:0:0:
388,165,72146,6,0,P|385:192|393:219,1,55,2|0,0:0|0:0,0:0:0:0:
467,134,72746,2,0,P|450:112|426:99,1,55
337,103,73346,2,0,P|309:99|286:85,2,55,0|2|0,0:0|0:0|0:0,0:0:0:0:
337,21,74246,1,0,0:0:0:0:
228,31,74546,6,0,P|214:54|210:81,1,55,2|0,0:0|0:0,0:0:0:0:
249,193,75146,2,0,P|262:169|266:142,1,55
172,167,75746,1,0,0:0:0:0:
172,167,76346,1,2,0:0:0:0:
96,101,76646,1,0,0:0:0:0:
96,101,76946,6,0,L|84:237,1,131.99999597168,2|8,3:0|3:2,0:0:0:0:
214,168,78146,2,0,L|225:304,1,131.99999597168,2|8,3:0|3:2,0:0:0:0:
361,107,79346,5,2,3:0:0:0:
349,238,79946,1,8,3:2:0:0:
477,179,80546,1,2,3:0:0:0:
488,310,81146,1,8,3:2:0:0:
507,164,81746,6,0,L|513:94,1,65.9999979858399,2|0,3:0|3:0,0:0:0:0:
419,42,82346,2,0,L|424:107,1,65.9999979858399,8|0,3:2|3:0,0:0:0:0:
331,167,82946,2,0,L|337:97,1,65.9999979858399,2|0,3:0|3:0,0:0:0:0:
243,45,83546,2,0,L|248:110,1,65.9999979858399,8|0,3:2|3:0,0:0:0:0:
162,170,84146,6,0,L|166:119,2,41.2500015735627,8|0|0,3:1|3:0|3:0,0:0:0:0:
76,165,84596,1,8,3:1:0:0:
76,165,84746,2,0,L|80:215,1,41.2500015735627,8|0,3:2|3:0,0:0:0:0:
14,285,85046,1,8,3:1:0:0:
14,285,85196,1,0,3:0:0:0:
14,285,85346,2,0,L|64:289,2,27.5000010490418,8|8|8,3:1|0:1|0:1,0:0:0:0:
86,293,85646,2,0,L|144:297,1,41.2500015735627,0|0,3:0|0:0,0:0:0:0:
158,301,85946,2,0,L|281:315,1,110,4|2,0:3|0:0,0:0:0:0:
441,299,86546,6,0,P|437:353|420:395,1,71.4999967269899,2|0,0:0|0:0,0:0:0:0:
347,359,86846,2,0,P|350:304|367:262,1,71.4999967269899,2|0,0:0|0:0,0:0:0:0:
407,219,87146,1,8,0:0:0:0:
198,149,87446,6,0,P|201:203|218:245,1,71.4999967269899,2|0,0:0|0:0,0:0:0:0:
292,209,87746,2,0,P|288:154|271:112,1,71.4999967269899,2|0,0:0|0:0,0:0:0:0:
232,69,88046,1,8,3:0:0:0:
189,67,88196,1,2,3:0:0:0:
145,64,88346,1,8,0:1:0:0:
102,61,88496,1,2,3:0:0:0:
59,59,88646,1,2,3:0:0:0:
10,212,88946,6,0,P|44:220|80:219,1,71.4999967269899,4|0,3:2|0:0,0:0:0:0:
163,240,89246,2,0,P|127:239|92:247,1,71.4999967269899,0|0,0:0|3:0,0:0:0:0:
51,323,89546,1,8,0:2:0:0:
51,323,89696,1,0,0:0:0:0:
114,380,89846,6,0,P|149:380|184:372,1,71.4999967269899,2|0,3:0|0:0,0:0:0:0:
264,338,90146,2,0,P|228:337|193:345,2,71.4999967269899,0|0|8,0:0|0:0|3:0,0:0:0:0:
343,370,90596,1,4,3:0:0:0:
415,324,90746,2,0,L|408:243,1,71.4999967269899,10|2,0:2|0:0,0:0:0:0:
487,208,91046,2,0,L|493:136,1,71.4999967269899,2|0,0:0|0:0,0:0:0:0:
448,63,91346,6,0,P|413:54|377:54,1,71.4999967269899,2|0,3:0|0:0,0:0:0:0:
297,84,91646,2,0,P|331:75|367:75,1,71.4999967269899,0|0,0:0|3:0,0:0:0:0:
345,158,91946,1,8,0:0:0:0:
345,158,92096,1,0,0:0:0:0:
283,218,92246,6,0,P|248:226|212:226,1,71.4999967269899,2|0,3:0|0:0,0:0:0:0:
132,197,92546,2,0,P|166:205|202:205,2,71.4999967269899,0|0|8,0:0|0:0|3:0,0:0:0:0:
91,121,92996,1,0,3:0:0:0:
48,195,93146,2,0,L|54:266,1,71.4999967269899,10|0,0:0|0:0,0:0:0:0:
133,357,93446,2,0,L|139:285,1,71.4999967269899,2|0,0:0|0:0,0:0:0:0:
265,322,93746,6,0,P|299:313|335:314,1,71.4999967269899,2|0,3:0|0:0,0:0:0:0:
392,379,94046,2,0,P|367:352|349:321,1,71.4999967269899,0|0,0:0|3:0,0:0:0:0:
390,245,94346,1,8,0:0:0:0:
390,245,94496,1,0,0:0:0:0:
416,163,94646,6,0,P|381:154|345:155,1,71.4999967269899,0|0,3:0|0:0,0:0:0:0:
289,220,94946,2,0,P|313:193|331:162,1,71.4999967269899,0|0,0:0|0:0,0:0:0:0:
291,86,95246,1,8,3:0:0:0:
291,86,95396,1,4,3:0:0:0:
351,25,95546,2,0,L|432:32,1,71.4999967269899,8|2,3:1|3:0,0:0:0:0:
205,96,95846,2,0,L|133:102,1,71.4999967269899,2|0,3:0|0:0,0:0:0:0:
46,119,96146,6,0,P|29:150|20:185,1,71.4999967269899,4|0,3:2|0:0,0:0:0:0:
112,184,96446,2,0,P|116:238|133:280,1,71.4999967269899,0|0,0:0|3:0,0:0:0:0:
196,307,96746,1,8,0:0:0:0:
196,307,96896,1,0,0:0:0:0:
279,286,97046,6,0,P|275:340|258:382,1,71.4999967269899,2|0,3:0|0:0,0:0:0:0:
345,221,97346,2,0,P|361:252|370:287,1,71.4999967269899,0|0,0:0|0:0,0:0:0:0:
452,311,97646,1,8,3:0:0:0:
454,268,97796,1,4,3:0:0:0:
457,224,97946,1,10,0:0:0:0:
460,181,98096,1,0,0:0:0:0:
462,138,98246,1,2,0:0:0:0:
279,52,98546,6,0,P|314:52|349:44,1,71.4999967269899,2|0,3:0|0:0,0:0:0:0:
367,137,98846,2,0,P|331:136|296:144,1,71.4999967269899,0|0,0:0|3:0,0:0:0:0:
216,113,99146,1,8,0:0:0:0:
216,113,99296,1,0,0:0:0:0:
154,53,99446,6,0,P|118:53|83:45,1,71.4999967269899,2|0,3:0|0:0,0:0:0:0:
66,138,99746,2,0,P|101:137|136:145,2,71.4999967269899,0|0|8,0:0|0:0|3:0,0:0:0:0:
5,199,100196,1,0,3:0:0:0:
51,270,100346,2,0,L|132:263,1,71.4999967269899,10|2,0:0|0:0,0:0:0:0:
189,316,100646,2,0,L|260:322,1,71.4999967269899,2|0,0:0|0:0,0:0:0:0:
338,368,100946,6,0,P|346:333|346:297,1,71.4999967269899,2|0,3:0|0:0,0:0:0:0:
425,251,101246,2,0,P|433:285|433:321,1,71.4999967269899,0|0,0:0|3:0,0:0:0:0:
348,214,101546,1,8,0:0:0:0:
348,214,101696,1,0,0:0:0:0:
266,175,101846,6,0,P|258:140|258:104,1,71.4999967269899,2|0,3:0|0:0,0:0:0:0:
179,58,102146,2,0,P|171:92|171:128,2,71.4999967269899,0|0|8,0:0|0:0|3:0,0:0:0:0:
255,20,102596,1,0,3:0:0:0:
332,56,102746,2,0,L|403:62,1,71.4999967269899,10|0,0:0|0:0,0:0:0:0:
491,160,103046,2,0,L|419:166,1,71.4999967269899,2|0,0:0|0:0,0:0:0:0:
373,238,103346,6,0,P|337:237|303:227,1,71.4999967269899,2|0,3:0|0:0,0:0:0:0:
265,150,103646,2,0,P|282:182|291:217,1,71.4999967269899,2|0,0:0|3:0,0:0:0:0:
232,280,103946,1,8,0:0:0:0:
232,280,104096,1,0,0:0:0:0:
164,218,104246,6,0,P|143:247|132:281,1,71.4999967269899,2|0,3:0|0:0,0:0:0:0:
174,356,104546,2,0,P|156:324|133:296,1,71.4999967269899,0|0,0:0|0:0,0:0:0:0:
49,309,104846,1,8,3:0:0:0:
49,309,104996,1,2,3:0:0:0:
2,236,105146,2,0,L|9:155,1,71.4999967269899,8|2,0:1|3:0,0:0:0:0:
123,140,105446,2,0,L|117:68,1,71.4999967269899,2|0,3:0|0:0,0:0:0:0:
61,3,105746,5,0,3:0:0:0:
211,104,106346,2,0,L|221:7,2,82.5000031471254,8|0|0,0:3|0:0|0:0,0:0:0:0:
274,169,107246,1,0,3:0:0:0:
365,162,107546,1,8,0:2:0:0:
365,162,108146,6,0,L|372:275,1,82.5000031471254,0|0,3:0|0:0,0:0:0:0:
357,289,108596,1,0,0:0:0:0:
342,332,108746,1,8,0:3:0:0:
427,361,109046,1,0,3:0:0:0:
422,371,109346,2,0,B|293:364|293:364|251:387,1,165.000006294251,0|8,0:0|0:0,0:0:0:0:
261,381,110546,6,0,L|137:373,1,123.750004720688,0|0,3:0|0:0,0:0:0:0:
100,347,111146,2,0,L|90:250,2,82.5000031471254,8|0|2,0:3|0:0|0:2,0:0:0:0:
190,299,112046,1,2,3:2:0:0:
194,204,112346,1,10,0:2:0:0:
201,213,112646,1,2,0:2:0:0:
107,247,112946,6,0,L|100:134,1,82.5000031471254,0|0,3:0|0:0,0:0:0:0:
115,120,113396,1,0,0:0:0:0:
130,87,113546,1,8,0:3:0:0:
47,48,113846,2,0,B|176:55|176:55|218:32,1,165.000006294251,0|0,3:0|3:2,0:0:0:0:
286,1,114746,2,0,L|383:11,1,82.5000031471254,8|0,0:2|0:2,0:0:0:0:
347,98,115346,6,0,L|497:89,1,123.750004720688,0|0,3:0|0:0,0:0:0:0:
503,122,115946,2,0,L|513:25,2,82.5000031471254,8|0|0,0:3|0:0|0:0,0:0:0:0:
435,182,116846,1,0,3:2:0:0:
512,221,117146,2,0,L|504:303,1,82.5000031471254,8|0,0:2|0:2,0:0:0:0:
436,364,117746,6,0,L|323:370,1,82.5000031471254,0|0,3:0|0:0,0:0:0:0:
310,355,118196,1,0,0:0:0:0:
266,341,118346,1,8,0:3:0:0:
182,305,118646,1,0,3:0:0:0:
182,305,119246,2,0,L|192:208,2,82.5000031471254,0|8|0,0:2|0:2|0:2,0:0:0:0:
110,360,120146,6,0,L|-5:365,1,82.5000031471254,0|0,3:0|0:0,0:0:0:0:
1,330,120596,2,0,L|-2:264,2,41.2500015735627,0|8|0,0:0|0:3|0:0,0:0:0:0:
86,273,121196,2,0,P|100:213|89:152,1,123.750004720688,0|0,0:0|3:0,0:0:0:0:
10,107,121946,1,8,0:0:0:0:
88,61,122246,1,0,0:0:0:0:
166,107,122546,6,0,L|279:113,1,82.5000031471254,0|0,3:0|0:0,0:0:0:0:
293,99,122996,1,0,0:0:0:0:
336,86,123146,1,8,0:3:0:0:
421,55,123446,2,0,L|410:200,1,123.750004720688,0|0,3:0|0:0,0:0:0:0:
371,212,124046,1,8,3:0:0:0:
381,302,124346,1,8,0:1:0:0:
454,247,124646,1,8,3:0:0:0:
295,265,124946,6,0,L|187:256,1,82.5000031471254,4|0,3:1|0:0,0:0:0:0:
178,288,125396,1,0,0:0:0:0:
133,292,125546,1,8,0:1:0:0:
92,210,125846,1,0,0:0:0:0:
47,205,125996,1,0,0:0:0:0:
2,201,126146,1,0,0:0:0:0:
35,116,126446,1,4,3:2:0:0:
125,110,126746,2,0,L|226:103,1,82.5000031471254,8|2,0:0|0:3,0:0:0:0:
252,25,127346,6,0,L|360:34,1,82.5000031471254,0|0,3:0|0:0,0:0:0:0:
369,2,127796,1,0,0:0:0:0:
414,0,127946,1,8,0:1:0:0:
422,90,128246,1,0,3:0:0:0:
467,95,128396,1,0,0:0:0:0:
512,99,128546,1,0,0:0:0:0:
466,177,128846,2,0,L|469:243,2,41.2500015735627,4|0|8,0:0|0:0|0:0,0:0:0:0:
376,194,129446,1,8,0:3:0:0:
399,281,129746,5,0,3:2:0:0:
365,259,129896,1,0,0:0:0:0:
324,256,130046,1,0,0:0:0:0:
286,271,130196,1,0,0:0:0:0:
260,302,130346,1,8,0:1:0:0:
225,384,130646,1,0,0:0:0:0:
180,380,130796,1,0,0:0:0:0:
135,375,130946,1,0,0:0:0:0:
95,293,131246,2,0,L|-6:300,1,82.5000031471254,4|8,3:2|0:0,0:0:0:0:
52,214,131846,1,2,0:3:0:0:
141,212,132146,5,0,3:0:0:0:
133,173,132296,1,0,0:0:0:0:
108,139,132446,1,0,0:0:0:0:
71,123,132596,1,0,0:0:0:0:
30,124,132746,1,8,0:1:0:0:
64,40,133046,2,0,L|130:37,2,41.2500015735627,0|0|0,3:0|0:0|0:0,0:0:0:0:
151,66,133646,2,0,L|192:67,2,41.2500015735627,4|0|8,3:2|0:0|0:0,0:0:0:0:
234,31,134246,1,8,0:3:0:0:
275,111,134546,6,0,L|383:102,1,82.5000031471254,4|0,3:1|0:0,0:0:0:0:
398,84,134996,1,0,0:0:0:0:
394,129,135146,1,8,0:1:0:0:
465,184,135446,1,0,0:0:0:0:
460,229,135596,1,0,0:0:0:0:
456,274,135746,1,0,0:0:0:0:
493,356,136046,1,4,3:2:0:0:
402,347,136346,2,0,L|319:352,1,82.5000031471254,8|0,0:0|0:0,0:0:0:0:
253,289,136946,6,0,L|145:280,1,82.5000031471254,0|0,3:0|0:0,0:0:0:0:
130,262,137396,1,0,0:0:0:0:
134,307,137546,1,8,0:1:0:0:
43,300,137846,1,0,3:0:0:0:
48,255,137996,1,0,0:0:0:0:
52,210,138146,1,0,0:0:0:0:
16,126,138446,2,0,L|13:60,2,41.2500015735627,4|0|8,0:0|0:0|0:0,0:0:0:0:
106,138,139046,1,8,0:3:0:0:
169,72,139346,5,0,3:2:0:0:
207,61,139496,1,0,0:0:0:0:
248,67,139646,1,0,0:0:0:0:
281,93,139796,1,0,0:0:0:0:
298,128,139946,1,8,0:1:0:0:
210,152,140246,1,0,0:0:0:0:
214,197,140396,1,0,0:0:0:0:
219,242,140546,1,0,0:0:0:0:
282,306,140846,2,0,L|365:312,1,82.5000031471254,4|8,3:2|0:0,0:0:0:0:
431,250,141446,1,2,0:3:0:0:
379,171,141746,5,0,3:2:0:0:
349,199,141896,1,0,0:0:0:0:
335,237,142046,1,0,0:0:0:0:
340,278,142196,1,0,0:0:0:0:
363,311,142346,1,8,0:1:0:0:
278,343,142646,5,0,3:0:0:0:
271,349,142796,2,0,L|235:347,2,20.6250007867813,8|8|8,0:1|0:1|0:1,0:0:0:0:
207,271,143096,1,8,0:1:0:0:
201,278,143246,1,4,3:2:0:0:
158,280,143396,1,0,3:0:0:0:
114,283,143546,1,8,0:0:0:0:
71,286,143696,1,0,0:0:0:0:
28,288,143846,6,0,L|35:237,1,41.2500015735627,8|8,0:1|0:1,0:0:0:0:
50,164,144146,6,0,B|106:141|158:172|158:172|158:188|158:188|196:207|249:190,1,220,4|0,0:3|0:0,0:0:0:0:
337,146,145646,2,0,P|348:198|323:246,1,110,2|0,0:0|0:0,0:0:0:0:
236,315,146546,6,0,B|286:355|331:325|331:325|333:340|333:340|380:302|434:329,1,220,2|0,0:0|0:0,0:0:0:0:
427,326,148346,2,0,P|441:292|432:252,1,55,2|0,0:0|0:0,0:0:0:0:
348,189,148946,6,0,P|349:216|361:240,1,55,2|0,0:0|0:0,0:0:0:0:
432,199,149546,2,0,P|455:184|470:161,1,55
399,122,150146,2,0,P|374:109|347:107,2,55,0|2|0,0:0|0:0|0:0,0:0:0:0:
348,189,151046,1,0,0:0:0:0:
278,145,151346,6,0,P|265:120|264:93,1,55,2|0,0:0|0:0,0:0:0:0:
360,56,151946,2,0,P|358:83|346:107,1,55
278,145,152546,1,0,0:0:0:0:
278,145,153146,1,2,0:0:0:0:
216,31,153446,1,0,0:0:0:0:
216,31,153746,6,0,L|80:43,1,131.99999597168,2|8,3:0|3:2,0:0:0:0:
153,171,154946,2,0,L|17:160,1,131.99999597168,2|8,3:0|3:2,0:0:0:0:
243,118,156146,5,2,3:0:0:0:
374,106,156746,1,8,3:2:0:0:
315,234,157346,1,2,3:0:0:0:
446,245,157946,1,8,3:2:0:0:
365,372,158546,6,0,L|371:302,1,65.9999979858399,2|0,3:0|3:0,0:0:0:0:
315,234,159146,2,0,L|250:239,1,65.9999979858399,8|0,3:2|3:0,0:0:0:0:
184,375,159746,2,0,L|189:309,1,65.9999979858399,2|0,3:0|3:0,0:0:0:0:
134,237,160346,2,0,L|69:242,1,65.9999979858399,8|0,3:2|3:0,0:0:0:0:
10,179,160946,6,0,L|14:128,2,41.2500015735627,8|0|0,3:1|3:0|3:0,0:0:0:0:
93,98,161396,1,8,3:1:0:0:
93,98,161546,2,0,L|89:48,1,41.2500015735627,8|0,3:2|3:0,0:0:0:0:
186,30,161846,1,8,3:1:0:0:
186,30,161996,1,0,3:0:0:0:
186,30,162146,2,0,L|236:34,2,27.5000010490418,8|8|8,3:1|0:1|0:1,0:0:0:0:
258,38,162446,2,0,L|308:42,1,41.2500015735627,0|0,3:0|0:0,0:0:0:0:
330,46,162746,2,0,L|453:60,1,110,4|2,0:3|0:0,0:0:0:0:
235,148,163346,6,0,B|267:129|267:129|343:136,1,71.4999967269899,2|0,0:0|0:0,0:0:0:0:
356,231,163646,2,0,B|324:212|324:212|248:219,1,71.4999967269899,2|0,0:0|0:0,0:0:0:0:
300,299,163946,1,8,0:2:0:0:
135,225,164246,6,0,B|103:206|103:206|27:213,1,71.4999967269899,2|0,0:0|0:0,0:0:0:0:
14,308,164546,2,0,B|46:289|46:289|122:296,1,71.4999967269899,2|0,0:0|0:0,0:0:0:0:
67,375,164846,1,8,3:0:0:0:
110,373,164996,1,2,3:0:0:0:
154,370,165146,1,8,3:1:0:0:
197,367,165296,1,2,3:3:0:0:
240,365,165446,1,2,3:0:0:0:
387,309,165746,6,0,B|419:328|419:328|495:321,1,71.4999967269899,4|0,3:2|0:0,0:0:0:0:
478,242,166046,2,0,B|446:223|446:223|370:230,1,71.4999967269899,0|0,0:0|3:0,0:0:0:0:
327,246,166346,2,0,L|318:150,1,71.4999967269899,8|0,0:0|0:0,0:0:0:0:
242,211,166646,6,0,B|210:230|210:230|134:223,1,71.4999967269899,2|0,3:0|0:0,0:0:0:0:
151,144,166946,2,0,B|183:125|183:125|259:132,1,71.4999967269899,0|0,0:0|0:0,0:0:0:0:
302,148,167246,2,0,L|311:52,1,71.4999967269899,8|0,3:0|3:0,0:0:0:0:
359,7,167546,2,0,P|364:97|440:63,1,142.99999345398,10|2,0:2|0:0,0:0:0:0:
506,272,168146,6,0,B|474:253|474:253|398:260,1,71.4999967269899,2|0,3:0|0:0,0:0:0:0:
359,285,168446,2,0,B|393:288|393:288|425:269,1,71.4999967269899,0|0,0:0|3:0,0:0:0:0:
373,200,168746,1,8,0:0:0:0:
373,200,168896,1,0,0:0:0:0:
293,232,169046,6,0,B|261:251|261:251|185:244,1,71.4999967269899,2|0,3:0|0:0,0:0:0:0:
146,219,169346,2,0,B|180:215|180:215|212:234,1,71.4999967269899,0|0,0:0|0:0,0:0:0:0:
160,304,169646,1,8,3:0:0:0:
160,304,169796,1,0,3:0:0:0:
91,356,169946,2,0,L|-5:347,1,71.4999967269899,10|0,0:0|0:0,0:0:0:0:
10,263,170246,2,0,L|3:191,1,71.4999967269899,2|0,0:0|0:0,0:0:0:0:
54,122,170546,6,0,B|88:118|88:118|120:137,1,71.4999967269899,2|0,3:0|0:0,0:0:0:0:
144,51,170846,2,0,B|109:54|109:54|77:35,1,71.4999967269899,0|0,0:0|3:0,0:0:0:0:
204,113,171146,2,0,L|281:106,1,71.4999967269899,8|0,0:0|0:0,0:0:0:0:
343,177,171446,6,0,B|377:173|377:173|409:192,1,71.4999967269899,2|0,3:0|0:0,0:0:0:0:
433,106,171746,2,0,B|398:109|398:109|366:90,1,71.4999967269899,2|0,0:0|0:0,0:0:0:0:
284,115,172046,2,0,L|206:121,1,71.4999967269899,8|4,3:0|3:0,0:0:0:0:
182,201,172346,1,8,0:0:0:0:
182,201,172496,1,2,0:0:0:0:
221,277,172646,2,0,L|298:283,1,71.4999967269899,2|0,0:0|0:0,0:0:0:0:
348,348,172946,6,0,P|367:323|380:277,1,71.4999967269899,6|0,3:2|3:0,0:0:0:0:
466,293,173246,2,0,P|474:345|500:380,1,71.4999967269899,0|0,3:0|0:0,0:0:0:0:
432,217,173546,1,8,3:2:0:0:
432,217,173696,1,0,0:0:0:0:
369,157,173846,6,0,P|388:132|401:86,1,71.4999967269899,6|0,3:2|0:0,0:0:0:0:
487,102,174146,2,0,P|495:154|521:189,1,71.4999967269899,2|0,0:0|0:0,0:0:0:0:
453,26,174446,1,8,3:0:0:0:
453,26,174596,1,0,3:0:0:0:
368,13,174746,2,0,L|274:23,1,71.4999967269899,10|0,0:1|0:0,0:0:0:0:
249,93,175046,2,0,L|177:84,1,71.4999967269899,2|0,0:0|0:0,0:0:0:0:
89,67,175346,6,0,P|88:102|98:137,1,71.4999967269899,2|0,3:0|0:0,0:0:0:0:
28,0,175646,2,0,P|9:30|0:64,1,71.4999967269899,2|2,0:0|3:0,0:0:0:0:
11,150,175946,1,8,0:0:0:0:
11,150,176096,1,0,0:0:0:0:
59,220,176246,6,0,P|69:258|67:291,1,71.4999967269899,2|2,3:0|0:0,0:0:0:0:
156,292,176546,2,0,P|147:326|129:357,2,71.4999967269899,2|0|8,0:0|0:0|3:0,0:0:0:0:
212,226,176996,1,0,3:0:0:0:
216,235,177146,1,8,0:2:0:0:
269,241,177296,1,0,0:0:0:0:
323,246,177446,2,0,L|394:254,1,71.4999967269899,2|2,0:0|0:0,0:0:0:0:
512,105,177746,6,0,P|478:94|442:95,1,71.4999967269899,2|0,3:2|0:0,0:0:0:0:
503,189,178046,2,0,P|467:190|433:179,1,71.4999967269899,2|0,0:0|3:0,0:0:0:0:
363,131,178346,1,10,0:0:0:0:
363,131,178496,1,0,0:0:0:0:
288,84,178646,6,0,P|254:94|218:93,1,71.4999967269899,2|0,3:2|0:0,0:0:0:0:
279,0,178946,2,0,P|243:-1|209:9,1,71.4999967269899,2|0,0:0|0:0,0:0:0:0:
140,65,179246,1,8,3:0:0:0:
136,109,179396,1,4,3:0:0:0:
109,144,179546,1,8,0:0:0:0:
67,158,179696,1,2,0:0:0:0:
25,146,179846,1,2,0:0:0:0:
0,330,180146,6,0,P|33:319|69:320,1,71.4999967269899,2|0,3:2|0:0,0:0:0:0:
149,351,180446,2,0,P|113:352|79:341,1,71.4999967269899,2|0,0:0|3:0,0:0:0:0:
127,268,180746,1,8,0:0:0:0:
127,268,180896,1,0,0:0:0:0:
210,288,181046,6,0,P|243:298|279:297,1,71.4999967269899,2|0,3:2|0:0,0:0:0:0:
359,267,181346,2,0,P|323:265|289:276,2,71.4999967269899,2|0|8,0:0|0:0|3:0,0:0:0:0:
430,314,181796,1,0,3:0:0:0:
439,310,181946,1,8,3:2:0:0:
445,257,182096,1,2,3:2:0:0:
451,203,182246,2,0,L|459:131,1,71.4999967269899,2|0,0:0|0:0,0:0:0:0:
379,102,182546,6,0,P|344:112|309:110,1,71.4999967269899,4|0,3:2|0:0,0:0:0:0:
350,3,182846,2,0,P|315:11|285:30,1,71.4999967269899,4|0,3:0|3:0,0:0:0:0:
229,95,183146,1,8,0:1:0:0:
229,95,183296,1,0,0:0:0:0:
175,161,183446,6,0,P|140:171|105:169,1,71.4999967269899,2|0,3:2|0:0,0:0:0:0:
146,63,183746,2,0,P|111:71|81:90,1,71.4999967269899,2|0,0:0|0:0,0:0:0:0:
25,154,184046,1,8,3:0:0:0:
25,154,184196,1,4,3:0:0:0:
1,236,184346,2,0,L|8:307,1,71.4999967269899,10|0,0:0|0:0,0:0:0:0:
113,384,184646,2,0,L|122:312,1,71.4999967269899,2|0,0:0|0:0,0:0:0:0:
164,238,184946,6,0,P|198:228|233:229,1,71.4999967269899,2|0,3:2|0:0,0:0:0:0:
297,287,185246,2,0,P|272:260|242:243,1,71.4999967269899,2|2,0:0|3:2,0:0:0:0:
305,185,185546,1,10,0:0:0:0:
305,185,185696,1,0,0:0:0:0:
371,238,185846,6,0,P|395:211|426:194,1,71.4999967269899,2|2,3:2|0:0,0:0:0:0:
504,189,186146,2,0,P|469:179|434:180,2,71.4999967269899,2|0|8,0:0|0:0|3:0,0:0:0:0:
467,90,186596,1,0,3:0:0:0:
462,97,186746,1,8,0:0:0:0:
409,94,186896,1,0,0:0:0:0:
355,90,187046,2,0,L|283:85,1,71.4999967269899,2|2,3:2|0:0,0:0:0:0:
202,56,187346,6,0,P|166:55|132:66,1,71.4999967269899,2|0,3:0|0:0,0:0:0:0:
146,150,187646,2,0,P|182:151|216:140,1,71.4999967269899,2|0,0:0|3:0,0:0:0:0:
69,123,187946,1,8,0:0:0:0:
69,123,188096,1,0,0:0:0:0:
13,193,188246,6,0,P|48:192|82:203,1,71.4999967269899,2|0,3:2|0:0,0:0:0:0:
69,287,188546,2,0,P|33:288|-1:277,1,71.4999967269899,2|0,0:0|0:0,0:0:0:0:
149,258,188846,1,8,3:0:0:0:
191,246,188996,1,0,3:0:0:0:
233,260,189146,1,10,0:0:0:0:
260,295,189296,1,2,0:0:0:0:
264,339,189446,1,2,0:0:0:0:
468,240,189746,6,0,P|430:234|351:318,1,142.99999345398,2|2,3:2|0:0,0:0:0:0:
438,321,190196,1,2,3:2:0:0:
438,321,190346,1,10,0:0:0:0:
325,191,190646,6,0,P|323:155|333:121,1,71.4999967269899,2|2,3:0|0:0,0:0:0:0:
395,3,190946,2,0,P|406:37|404:73,1,71.4999967269899,6|0,0:0|0:0,0:0:0:0:
267,74,191246,1,8,3:0:0:0:
222,71,191396,1,2,3:0:0:0:
177,69,191546,1,8,3:1:0:0:
133,66,191696,1,2,3:2:0:0:
88,64,191846,1,2,0:0:0:0:
9,216,192146,6,0,B|41:197|41:197|117:204,1,71.4999967269899,4|0,3:2|3:0,0:0:0:0:
161,193,192446,2,0,B|129:212|129:212|53:205,1,71.4999967269899,4|0,3:0|0:0,0:0:0:0:
59,287,192746,1,8,3:1:0:0:
203,268,193046,6,0,B|235:287|235:287|269:283,1,71.4999967269899,2|0,3:2|0:0,0:0:0:0:
355,291,193346,2,0,B|323:272|323:272|288:275,1,71.4999967269899,2|0,0:0|0:0,0:0:0:0:
305,362,193646,1,8,3:0:0:0:
348,360,193796,1,2,3:0:0:0:
392,357,193946,1,10,0:0:0:0:
435,354,194096,1,0,0:0:0:0:
478,352,194246,1,2,0:0:0:0:
512,202,194546,6,0,B|468:209|429:183,1,71.4999967269899,4|0,3:2|0:0,0:0:0:0:
358,176,194846,2,0,B|401:183|440:157,1,71.4999967269899,0|0,0:0|3:0,0:0:0:0:
478,95,195146,2,0,L|484:23,1,71.4999967269899,8|0,0:2|0:0,0:0:0:0:
377,91,195446,6,0,B|333:83|294:109,1,71.4999967269899,2|0,3:0|0:0,0:0:0:0:
223,117,195746,2,0,B|266:109|305:135,1,71.4999967269899,0|0,0:0|0:0,0:0:0:0:
343,198,196046,2,0,L|349:269,1,71.4999967269899,8|0,3:0|3:0,0:0:0:0:
356,354,196346,1,10,0:2:0:0:
303,351,196496,1,2,0:0:0:0:
249,347,196646,2,0,L|177:342,1,71.4999967269899,2|0,0:0|0:0,0:0:0:0:
110,287,196946,6,0,B|113:253|113:253|94:221,1,71.4999967269899,2|0,3:0|0:0,0:0:0:0:
26,309,197246,2,0,B|7:277|7:277|10:243,1,71.4999967269899,0|0,0:0|3:0,0:0:0:0:
33,159,197546,1,8,0:0:0:0:
33,159,197696,1,0,0:0:0:0:
117,142,197846,6,0,B|114:108|114:108|133:76,1,71.4999967269899,2|0,3:0|0:0,0:0:0:0:
201,164,198146,2,0,B|220:132|220:132|217:98,1,71.4999967269899,0|0,0:0|0:0,0:0:0:0:
194,14,198446,1,8,3:0:0:0:
194,14,198596,1,0,3:0:0:0:
276,37,198746,2,0,L|372:46,1,71.4999967269899,10|0,0:0|0:0,0:0:0:0:
417,92,199046,2,0,L|424:164,1,71.4999967269899,2|0,0:0|0:0,0:0:0:0:
496,208,199346,6,0,P|471:236|437:247,1,71.4999967269899,2|0,3:0|0:0,0:0:0:0:
356,224,199646,2,0,P|389:236|412:263,1,71.4999967269899,0|0,0:0|3:0,0:0:0:0:
414,349,199946,2,0,L|342:342,1,71.4999967269899,8|0,0:0|0:0,0:0:0:0:
265,378,200246,6,0,P|240:350|206:338,1,71.4999967269899,0|0,3:0|0:0,0:0:0:0:
125,362,200546,2,0,B|158:350|158:350|181:322,1,71.4999967269899,2|0,0:0|0:0,0:0:0:0:
183,237,200846,2,0,L|111:244,1,71.4999967269899,8|0,3:0|3:0,0:0:0:0:
34,280,201146,1,10,0:0:0:0:
34,280,201296,1,0,0:0:0:0:
41,194,201446,2,0,L|46:122,1,71.4999967269899,2|0,0:0|0:0,0:0:0:0:
55,37,201746,6,0,B|88:42|88:42|114:69,1,71.4999967269899,4|0,3:2|0:0,0:0:0:0:
198,86,202046,2,0,B|165:97|165:97|130:87,1,71.4999967269899,0|0,0:0|3:0,0:0:0:0:
250,16,202346,1,8,0:0:0:0:
257,187,202646,6,0,B|290:181|290:181|316:154,1,71.4999967269899,2|0,3:0|0:0,0:0:0:0:
400,138,202946,2,0,B|367:126|367:126|332:136,1,71.4999967269899,0|0,0:0|0:0,0:0:0:0:
461,200,203246,1,8,3:0:0:0:
463,243,203396,1,4,3:0:0:0:
466,287,203546,1,10,0:0:0:0:
469,330,203696,1,0,0:0:0:0:
471,371,203846,1,2,0:0:0:0:
307,271,204146,6,0,P|358:277|388:275,1,71.4999967269899,2|0,3:0|0:0,0:0:0:0:
369,367,204446,2,0,P|333:360|298:360,1,71.4999967269899,0|0,0:0|3:0,0:0:0:0:
226,311,204746,2,0,L|234:224,1,71.4999967269899,8|0,0:0|0:0,0:0:0:0:
135,188,205046,6,0,P|83:194|53:192,1,71.4999967269899,2|0,3:0|0:0,0:0:0:0:
73,284,205346,2,0,B|108:272|108:272|143:277,1,71.4999967269899,0|0,0:0|0:0,0:0:0:0:
216,228,205646,2,0,L|208:141,1,71.4999967269899,8|0,3:0|3:0,0:0:0:0:
261,79,205946,1,8,0:0:0:0:
314,82,206096,1,0,0:0:0:0:
368,86,206246,2,0,L|439:90,1,71.4999967269899,2|0,0:0|0:0,0:0:0:0:
488,161,206546,6,0,B|468:188|468:188|468:226,1,71.4999967269899,2|0,3:0|0:0,0:0:0:0:
507,316,206846,2,0,B|507:278|507:278|487:250,1,71.4999967269899,0|0,0:0|3:0,0:0:0:0:
421,305,207146,1,8,0:0:0:0:
421,305,207296,1,0,0:0:0:0:
347,348,207446,6,0,B|327:320|327:320|327:282,1,71.4999967269899,2|0,3:0|0:0,0:0:0:0:
366,193,207746,2,0,B|366:230|366:230|346:258,1,71.4999967269899,0|0,0:0|0:0,0:0:0:0:
280,204,208046,1,8,3:0:0:0:
280,204,208196,1,0,3:0:0:0:
210,153,208346,2,0,L|114:162,1,71.4999967269899,10|0,0:0|0:0,0:0:0:0:
134,17,208646,2,0,L|206:24,1,71.4999967269899,2|0,0:0|0:0,0:0:0:0:
288,1,208946,6,0,P|318:38|360:61,1,71.4999967269899,2|0,3:0|0:0,0:0:0:0:
421,30,209246,2,0,P|373:37|333:62,1,71.4999967269899,2|0,0:0|3:0,0:0:0:0:
335,134,209546,2,0,L|350:41,1,71.4999967269899,8|0,0:0|0:0,0:0:0:0:
406,181,209846,6,0,P|376:218|334:241,1,71.4999967269899,2|0,3:0|0:0,0:0:0:0:
273,210,210146,2,0,P|320:217|360:242,1,71.4999967269899,0|0,0:0|0:0,0:0:0:0:
359,314,210446,2,0,L|343:221,1,71.4999967269899,8|2,3:0|3:0,0:0:0:0:
292,373,210746,1,8,0:1:0:0:
292,373,210896,1,2,3:0:0:0:
229,314,211046,6,0,P|146:294|116:307,1,110,0|4,3:0|0:3,0:0:0:0:
