osu file format v14

[General]
AudioFilename: audio.mp3
AudioLeadIn: 0
PreviewTime: -1
Countdown: 0
SampleSet: Normal
StackLeniency: 0.7
Mode: 0
LetterboxInBreaks: 0
WidescreenStoryboard: 1

[Editor]
Bookmarks: 9581,28781,47981,67181,68756,69656,71456,72056,73556,74456,76256,86381
DistanceSpacing: 0.8
BeatDivisor: 8
GridSize: 8
TimelineZoom: 1.5

[Metadata]
Title:Mirror
TitleUnicode:Mirror
Artist:HoneyComeBear
ArtistUnicode:HoneyComeBear
Creator:Dudamesh
Version:Connected
Source:
Tags:
BeatmapID:2168950
BeatmapSetID:1037447

[Difficulty]
HPDrainRate:5.5
CircleSize:3.5
OverallDifficulty:8
ApproachRate:9
SliderMultiplier:1.5
SliderTickRate:1

[Events]
//Background and Video events
0,0,"67933356_p0.png",0,0
//Break Periods
//Storyboard Layer 0 (Background)
//Storyboard Layer 1 (Fail)
//Storyboard Layer 2 (Pass)
//Storyboard Layer 3 (Foreground)
//Storyboard Layer 4 (Overlay)
//Storyboard Sound Samples

[TimingPoints]
56,600,4,1,1,40,1,0
9656,-200,4,1,1,40,0,0
10256,-66.6666666666667,4,1,1,40,0,0
48056,-50,4,1,1,40,0,0
67256,-66.6666666666667,4,1,1,40,0,0
84056,-50,4,1,1,40,0,0
86456,-33.3333333333333,4,1,1,40,0,1
95756,-50,4,1,1,40,0,1
96056,-33.3333333333333,4,1,1,40,0,1
105356,-50,4,1,1,40,0,1
105656,-33.3333333333333,4,1,1,40,0,1
124856,-66.6666666666667,4,1,1,40,0,0

[Colours]
Combo1 : 255,102,102
Combo2 : 255,128,64
Combo3 : 255,255,106
Combo4 : 128,128,255

[HitObjects]
64,264,56,6,0,P|101:255|138:263,1,75
240,352,506,2,0,L|248:272,1,75
368,288,956,2,0,L|360:208,1,75
408,120,1406,1,0,0:0:0:0:
320,64,1556,6,0,P|291:60|258:71,1,56.25,0|0,0:0|2:0,0:0:0:0:
137,102,1856,2,0,P|164:97|191:104,1,56.25,0|0,0:0|2:0,0:0:0:0:
319,149,2156,2,0,P|291:144|264:151,1,56.25,0|0,0:0|2:0,0:0:0:0:
192,272,2456,6,0,L|185:198,1,75
82,192,2906,2,0,P|50:175|29:139,1,75
24,272,3356,2,0,L|31:346,1,75
118,286,3806,1,0,0:0:0:0:
208,329,3956,6,0,P|237:333|270:322,1,56.25,0|0,0:0|2:0,0:0:0:0:
391,291,4256,2,0,P|364:296|337:289,1,56.25,0|0,0:0|2:0,0:0:0:0:
209,244,4556,2,0,P|237:249|264:242,1,56.25,0|0,0:0|2:0,0:0:0:0:
338,123,4856,6,0,L|345:197,1,75
448,232,5306,2,0,L|440:157,1,75
411,61,5756,2,0,P|372:35|333:32,1,75
254,63,6206,1,0,0:0:0:0:
147,69,6356,6,0,P|174:92|180:120,1,56.25,0|0,0:0|2:0,0:0:0:0:
250,150,6656,2,0,P|216:161|189:153,1,56.25,0|0,0:0|2:0,0:0:0:0:
130,200,6956,2,0,P|136:165|157:145,1,56.25,0|0,0:0|2:0,0:0:0:0:
216,318,7256,6,0,L|208:243,1,75
125,297,7706,2,0,L|132:371,1,75
216,318,8156,2,0,L|290:310,1,75
371,357,8606,1,0,0:0:0:0:
368,265,8756,6,0,P|395:242|401:214,1,56.25,0|0,0:0|2:0,0:0:0:0:
471,184,9056,2,0,P|437:172|410:180,1,56.25,0|0,0:0|2:0,0:0:0:0:
351,134,9356,2,0,P|357:168|378:188,1,56.25,0|0,0:0|2:0,0:0:0:0:
438,54,9656,6,0,L|382:48,1,56.25
218,37,10256,2,0,B|262:28|290:50|290:50|272:89,2,112.500004291535
35,154,11156,1,0,0:0:0:0:
35,154,11307,2,0,P|114:175|185:134,1,168.750006437302
27,256,12056,6,0,L|162:270,2,112.500004291535
219,222,12956,1,0,0:0:0:0:
297,327,13256,2,0,B|312:209|312:209|287:157,2,168.750006437302
403,175,14456,6,0,L|388:294,2,112.500004291535
395,50,15356,1,0,0:0:0:0:
296,91,15656,1,0,0:0:0:0:
202,37,15956,2,0,L|190:148,1,112.500004291535
97,178,16556,1,0,0:0:0:0:
37,309,16856,6,0,L|148:320,2,112.500004291535
223,269,17756,2,0,L|217:213,2,56.2500021457673
320,271,18356,1,0,0:0:0:0:
427,266,18506,2,0,P|372:254|320:271,2,112.500004291535
498,206,19256,6,0,L|510:86,2,112.500004291535
420,52,20156,2,0,P|367:32|300:39,1,112.500004291535
251,253,20756,1,0,0:0:0:0:
179,103,21056,1,0,0:0:0:0:
354,114,21356,1,0,0:0:0:0:
405,324,21656,6,0,L|293:335,1,112.500004291535
333,222,22106,2,0,L|444:233,1,112.500004291535
512,126,22556,2,0,L|400:137,1,112.500004291535
297,116,23156,2,0,L|308:4,2,112.500004291535
124,45,24056,6,0,P|171:83|181:135,1,112.500004291535
96,180,24506,2,0,L|84:291,1,112.500004291535
179,356,25106,2,0,B|191:232|191:232|247:211,1,168.750006437302
282,298,25706,5,0,0:0:0:0:
282,298,25856,2,0,L|403:311,1,112.500004291535
473,218,26456,2,0,L|361:205,1,112.500004291535
282,158,26906,6,0,P|320:121|382:112,1,112.500004291535
496,43,27506,2,0,L|360:28,1,112.500004291535
267,20,28106,1,0,0:0:0:0:
180,147,28406,2,0,P|168:89|71:86,1,168.750006437302
45,294,29456,6,0,L|172:307,1,112.500004291535
141,212,30056,2,0,L|252:200,1,112.500004291535
314,155,30506,2,0,P|293:207|302:266,1,112.500004291535
253,335,30956,1,0,0:0:0:0:
394,328,31256,6,0,L|407:200,2,112.500004291535
485,163,32156,1,0,0:0:0:0:
363,138,32456,2,0,L|243:125,1,112.500004291535
191,174,32906,2,0,P|211:122|204:67,1,112.500004291535
267,19,33356,2,0,P|211:25|160:5,1,112.500004291535
94,141,33956,6,0,P|98:246|203:278,1,225.000008583069
190,161,34856,1,0,0:0:0:0:
343,285,35156,1,0,0:0:0:0:
282,81,35456,1,0,0:0:0:0:
257,239,35756,1,0,0:0:0:0:
462,150,36056,6,0,L|449:270,1,112.500004291535
371,188,36506,2,0,L|384:68,1,112.500004291535
293,20,36956,2,0,L|181:32,1,112.500004291535
55,153,37556,5,0,0:0:0:0:
50,167,37706,2,0,L|161:179,2,112.500004291535
78,258,38456,2,0,P|139:328|226:323,1,168.750006437302
309,356,39056,2,0,L|296:244,2,112.500004291535
411,349,39956,5,0,0:0:0:0:
493,273,40256,1,0,0:0:0:0:
379,229,40556,1,0,0:0:0:0:
479,84,40856,2,0,L|367:96,1,112.500004291535
314,160,41306,2,0,P|322:87|299:46,2,112.500004291535
224,123,42056,2,0,P|167:137|111:118,1,112.500004291535
24,73,42656,1,0,0:0:0:0:
31,213,42956,1,0,0:0:0:0:
31,213,43256,6,0,P|88:199|144:218,1,112.500004291535
223,226,43706,2,0,L|207:347,1,112.500004291535
316,199,44306,2,0,L|338:16,1,168.750006437302
423,67,44906,1,0,0:0:0:0:
423,67,45056,2,0,P|463:132|447:189,1,112.500004291535
462,293,45656,6,0,L|334:279,1,112.500004291535
271,337,46106,2,0,L|143:323,1,112.500004291535
92,238,46706,1,0,0:0:0:0:
144,126,47006,2,0,L|88:120,2,56.2500021457673
182,88,47456,2,0,P|239:104|304:78,1,112.500004291535
370,43,48056,6,0,B|469:53|469:53|464:112,1,150
385,142,48506,2,0,B|384:191|384:191|491:199,1,150
446,285,48956,2,0,L|437:364,1,75
326,292,49256,2,0,L|334:371,1,75
214,346,49556,6,0,B|140:337|140:337|147:253,2,150
230,242,50306,1,0,0:0:0:0:
164,171,50456,2,0,B|108:171|108:171|70:207|70:207|25:207,2,150
234,105,51206,1,0,0:0:0:0:
327,58,51356,6,0,L|414:67,1,75
512,138,51656,2,0,L|437:145,1,75
351,202,51956,1,0,0:0:0:0:
440,240,52106,2,0,B|449:311|449:311|360:304,1,150
274,274,52556,2,0,L|264:361,1,75
184,304,52856,6,0,B|125:314|125:314|100:288|100:288|78:338,2,150
203,213,53606,1,0,0:0:0:0:
143,146,53756,2,0,L|63:137,1,75
225,89,54056,2,0,L|153:53,1,75
334,74,54356,2,0,L|278:16,1,75
421,35,54656,6,0,L|453:108,1,75
395,176,54956,2,0,L|400:255,1,75
441,337,55256,2,0,B|358:339|358:339|332:310|332:310|285:312,2,150
400,250,56006,1,0,0:0:0:0:
306,213,56156,2,0,L|218:203,1,75
179,279,56456,6,0,P|112:313|33:266,1,150
147,192,56906,2,0,P|113:124|160:46,1,150
298,131,57356,2,0,L|218:122,1,75
346,48,57656,2,0,B|407:55|407:55|425:81|425:81|482:88,2,150
298,131,58406,1,0,0:0:0:0:
372,231,58556,2,0,L|379:156,1,75
465,272,58856,6,0,P|407:325|339:323,1,150
285,245,59306,2,0,P|211:245|159:296,1,150
86,353,59756,1,0,0:0:0:0:
60,261,59906,1,0,0:0:0:0:
133,190,60056,6,0,B|93:153|52:158|52:158|58:86,2,150
230,144,60806,1,0,0:0:0:0:
338,188,60956,2,0,L|346:108,1,75
402,31,61256,6,0,P|445:84|435:170,1,150
418,257,61706,2,0,L|426:336,1,75
326,373,62006,2,0,L|317:293,1,75
243,236,62306,1,0,0:0:0:0:
185,317,62456,2,0,B|128:326|128:326|98:304|98:304|39:312,2,150
148,224,63206,1,0,0:0:0:0:
70,152,63356,6,0,L|61:72,1,75
163,101,63656,2,0,L|182:23,1,75
268,87,63956,2,0,L|312:20,1,75
385,90,64256,2,0,P|451:129|454:201,1,150
377,245,64706,1,0,0:0:0:0:
320,332,64856,6,0,B|269:336|269:336|226:321|226:321|173:324,2,150
283,235,65606,1,0,0:0:0:0:
190,199,65756,1,0,0:0:0:0:
101,240,65906,2,0,L|97:271,4,18.75
108,140,66206,1,0,0:0:0:0:
197,105,66356,2,0,B|254:106|254:106|277:83,1,75
415,25,66656,2,0,B|358:24|358:24|335:47,1,75
349,130,66956,2,0,B|348:187|348:187|371:210,1,75
438,229,67256,6,0,L|425:348,1,112.500004291535
327,294,67856,1,0,0:0:0:0:
235,337,68156,1,0,0:0:0:0:
159,271,68456,2,0,L|47:282,1,112.500004291535
54,190,69056,1,0,0:0:0:0:
127,118,69356,1,0,0:0:0:0:
206,28,69656,6,0,P|243:80|216:184,1,168.750006437302
176,239,70256,2,0,P|228:202|332:229,1,168.750006437302
381,270,70856,2,0,P|344:218|371:114,1,168.750006437302
438,51,71456,1,0,0:0:0:0:
472,198,71756,6,0,L|465:262,2,56.2500021457673
389,335,72356,1,0,0:0:0:0:
340,244,72656,1,0,0:0:0:0:
291,331,72956,1,0,0:0:0:0:
246,245,73256,2,0,P|180:219|142:228,2,112.500004291535
310,178,74156,6,0,L|316:113,2,56.2500021457673
224,117,74756,1,0,0:0:0:0:
292,56,75056,1,0,0:0:0:0:
204,28,75356,1,0,0:0:0:0:
136,88,75656,2,0,P|81:98|43:142,2,112.500004291535
134,184,76556,5,0,0:0:0:0:
76,311,76856,1,0,0:0:0:0:
189,271,77456,1,0,0:0:0:0:
280,346,78056,1,0,0:0:0:0:
381,289,78656,1,0,0:0:0:0:
489,365,79256,5,0,0:0:0:0:
464,197,79856,1,0,0:0:0:0:
293,215,80456,1,0,0:0:0:0:
265,47,81056,1,0,0:0:0:0:
380,95,81656,5,0,0:0:0:0:
224,128,81956,1,0,0:0:0:0:
382,109,82256,1,0,0:0:0:0:
226,111,82556,1,0,0:0:0:0:
377,125,82856,1,0,0:0:0:0:
238,94,83156,1,0,0:0:0:0:
361,136,83456,1,0,0:0:0:0:
253,79,83756,1,0,0:0:0:0:
273,187,84056,6,0,L|264:268,1,75
124,382,84356,2,0,L|133:301,1,75
73,159,84656,2,0,L|154:168,1,75
339,269,84956,2,0,L|258:260,1,75
435,150,85256,2,0,L|477:157,2,37.5
255,59,85556,2,0,P|221:75|201:106,1,75
339,269,85856,2,0,L|358:185,1,75
132,181,86156,2,0,L|116:254,1,75
310,345,86456,6,0,B|245:330|199:298|199:298|171:349|103:345,2,225.000008583069
203,26,87356,2,0,B|268:41|314:73|314:73|342:22|410:26,2,225.000008583069
402,124,88106,1,0,0:0:0:0:
470,182,88256,2,0,P|478:236|450:292,1,112.500004291535
358,333,88556,2,0,P|350:279|377:222,1,112.500004291535
302,267,88856,6,0,L|190:255,1,112.500004291535
104,200,89156,1,0,0:0:0:0:
117,97,89306,1,0,0:0:0:0:
331,90,89456,2,0,P|277:98|220:70,1,112.500004291535
422,34,89756,6,0,L|434:153,1,112.500004291535
358,333,90056,2,0,L|345:213,1,112.500004291535
225,74,90356,2,0,P|168:41|49:125,1,225.000008583069
62,294,90806,1,0,0:0:0:0:
146,147,90956,2,0,P|202:178|260:175,1,112.500004291535
434,120,91256,6,0,P|378:89|320:92,1,112.500004291535
323,300,91556,2,0,P|354:243|351:186,1,112.500004291535
120,222,91856,2,0,P|176:253|234:250,1,112.500004291535
220,80,92156,2,0,P|163:49|106:51,1,112.500004291535
89,325,92456,2,0,P|120:268|117:211,1,112.500004291535
139,131,92756,1,0,0:0:0:0:
330,89,92906,1,0,0:0:0:0:
385,190,93056,6,0,L|273:178,1,112.500004291535
89,325,93356,2,0,L|200:336,1,112.500004291535
455,265,93656,2,0,P|486:208|483:151,1,112.500004291535
207,109,93956,2,0,P|176:165|178:223,1,112.500004291535
316,286,94256,6,0,B|246:284|161:333|161:333|103:284,1,225.000008583069
78,195,94706,1,0,0:0:0:0:
254,138,94856,2,0,P|224:185|175:211,1,112.500004291535,0|0,0:0|0:0,2:0:0:0:
190,49,95156,2,0,B|243:60|291:35|291:35|328:50|358:94|347:145,1,225.000008583069
308,222,95606,1,0,0:0:0:0:
491,334,95756,2,0,B|465:309|465:309|454:262|454:262|427:240,1,112.5,0|0,0:0|2:0,2:0:0:0:
378,308,96056,6,0,P|319:326|264:321,1,112.500004291535
208,234,96356,1,0,0:0:0:0:
102,253,96506,1,0,0:0:0:0:
62,66,96656,2,0,P|109:96|135:145,1,112.500004291535,0|0,0:0|0:0,2:0:0:0:
217,253,96956,6,0,L|230:125,1,112.500004291535
319,14,97256,2,0,L|332:141,1,112.500004291535
409,209,97556,2,0,P|458:262|363:353,1,225.000008583069
316,266,98006,1,0,0:0:0:0:
251,346,98156,2,0,L|123:332,1,112.500004291535
76,244,98456,6,0,P|63:189|80:136,1,112.500004291535,0|0,0:0|0:0,2:0:0:0:
266,45,98756,2,0,P|278:99|261:152,1,112.500004291535,0|0,0:0|0:0,2:0:0:0:
181,311,99056,2,0,P|168:256|185:203,1,112.500004291535,0|0,0:0|0:0,2:0:0:0:
310,89,99356,2,0,P|365:96|409:129,1,112.500004291535,0|0,0:0|0:0,2:0:0:0:
429,300,99656,2,0,P|403:349|356:379,1,112.500004291535,0|0,0:0|0:0,2:0:0:0:
327,269,99956,5,0,0:0:0:0:
254,189,100106,1,0,0:0:0:0:
310,89,100256,2,0,L|190:101,1,112.500004291535
44,211,100556,2,0,L|163:198,1,112.500004291535
363,182,100856,6,0,P|410:134|419:85,1,112.500004291535
184,19,101156,2,0,P|142:56|127:109,1,112.500004291535
154,293,101456,2,0,P|234:251|213:126,1,225.000008583069
155,198,101906,1,0,0:0:0:0:
255,280,102056,6,0,L|374:292,1,112.500004291535
455,70,102356,2,0,P|365:82|342:206,1,225.000008583069
429,222,102806,1,0,0:0:0:0:
457,306,102956,2,0,P|429:370|392:385,1,112.500004291535
255,280,103256,6,0,L|374:292,1,112.500004291535
209,362,103556,2,0,L|97:373,1,112.500004291535
26,270,103856,2,0,B|75:237|139:242|139:242|125:177|73:166,1,225.000008583069
60,64,104306,1,0,0:0:0:0:
149,176,104456,2,0,P|203:168|245:131,1,112.500004291535
315,55,104756,6,0,L|436:67,2,112.500004291535
218,33,105206,1,0,0:0:0:0:
248,227,105356,2,0,B|297:221|325:180|325:180|367:183,1,112.5
