osu file format v14

[General]
AudioFilename: audio.mp3
AudioLeadIn: 0
PreviewTime: 61011
Countdown: 0
SampleSet: Soft
StackLeniency: 0.7
Mode: 3
LetterboxInBreaks: 0
SpecialStyle: 0
WidescreenStoryboard: 0

[Editor]
DistanceSpacing: 1.2
BeatDivisor: 4
GridSize: 16
TimelineZoom: 1.8

[Metadata]
Title:Dai Dai Dai Dai Daisuki na Kimi e <3 (TV Size)
TitleUnicode:大大大大大好きな君へ♡ (TV Size)
Artist:Hondo Kaede, Tomita Miyu, Naganawa Maria, Seto Asami, Asai Ayaka
ArtistUnicode:本渡 楓、富田美憂、長縄まりあ、瀬戸麻沙美、朝井彩加
Creator:Sillot
Version:Ryu's Insane
Source:君のことが大大大大大好きな100人の彼女
Tags:my angel nilou chrisse -ryu- lumpita Japanese Jpop J-pop Pop Anime アニメ Female Vocals Op Opening Hyakkano kimi no koto ga daidaidaidaidaisuki na 100-nin no Kanojo The 100 Girlfriends Who Really Love You Hanazono Hakari 花園羽香里 Karane Inda 院田唐音 Shizuka Yoshimoto 好本 静 Nano Eiai 栄逢凪乃 Kusuri Yakuzen 薬膳楠莉 Ando Sasa 安藤 紗々 Tabuchi Tomoya 田淵智也 Shuhei Mutsuki 睦月周平 Shunsuke Takizawa 滝澤俊輔 TRYTONELABO Eba Lantis cv: LACM-24439
BeatmapID:4366396
BeatmapSetID:2084559

[Difficulty]
HPDrainRate:8
CircleSize:4
OverallDifficulty:8
ApproachRate:5
SliderMultiplier:1.4
SliderTickRate:1

[Events]
//Background and Video events
0,0,"BG.jpg",0,0
Video,450,"video.mp4"
//Break Periods
//Storyboard Layer 0 (Background)
//Storyboard Layer 1 (Fail)
//Storyboard Layer 2 (Pass)
//Storyboard Layer 3 (Foreground)
//Storyboard Layer 4 (Overlay)
//Storyboard Sound Samples
Sample,12110,0,"B6.wav",50
Sample,12422,0,"F#6.wav",50
Sample,12735,0,"F#6.wav",50
Sample,13047,0,"F#6.wav",50
Sample,13360,0,"B6.wav",50
Sample,13672,0,"B6.wav",50
Sample,13985,0,"A#6.wav",50
Sample,14141,0,"G#6.wav",50
Sample,17266,0,"A#6.wav",50
Sample,17891,0,"C6.wav",50
Sample,18516,0,"G#6.wav",50
Sample,58042,0,"G#6.wav",50
Sample,58667,0,"E6.wav",50
Sample,60230,0,"E6.wav",50
Sample,61324,0,"F#6.wav",50
Sample,62261,0,"A#6.wav",50
Sample,62574,0,"A#6.wav",50
Sample,62886,0,"F#6.wav",50
Sample,63511,0,"A#6.wav",50
Sample,63824,0,"A#6.wav",50
Sample,64136,0,"F#6.wav",50
Sample,64761,0,"A#6.wav",50
Sample,65074,0,"A#6.wav",50
Sample,65386,0,"F#6.wav",50
Sample,66011,0,"G#6.wav",50
Sample,67417,0,"B6.wav",50
Sample,67886,0,"B6.wav",50
Sample,69136,0,"F6.wav",50
Sample,69761,0,"F#6.wav",50
Sample,70386,0,"G#6.wav",50
Sample,71480,0,"B6.wav",50
Sample,71792,0,"G#6.wav",50
Sample,75074,0,"A#6.wav",50
Sample,75230,0,"G#6.wav",50

[TimingPoints]
704,312.5,4,2,1,50,1,0
20079,222.222222222222,4,2,1,50,1,0
20079,-140.845070422535,4,2,1,50,0,0
20301,218.181818181818,4,2,1,50,1,0
20301,-142.857142857143,4,2,1,50,0,0
20519,210.526315789474,4,2,1,50,1,0
20519,-149.253731343284,4,2,1,50,0,0
20729,203.389830508475,4,2,1,50,1,0
20729,-153.846153846154,4,2,1,50,0,0
21949,312.5,4,2,1,50,1,0
61949,-100,4,2,1,50,0,1
71167,-100,4,2,1,50,0,0
71949,-100,4,2,1,50,0,1
76949,-100,4,2,1,50,0,0

[HitObjects]
64,192,1016,128,0,1329:0:0:0:50:C#6.wav
192,192,1329,128,0,1641:0:0:0:50:F#6.wav
320,192,1641,128,0,1954:0:0:0:50:G#6.wav
64,192,1875,1,0,0:0:0:50:C#6.wav
192,192,1914,1,0,0:0:0:50:F#6.wav
448,192,1954,128,0,2266:0:0:0:50:A#6.wav
192,192,2266,128,0,2422:0:0:0:50:A#6.wav
320,192,2422,128,0,2579:0:0:0:50:A#6.wav
64,192,2579,128,0,2735:0:0:0:50:A#6.wav
192,192,2735,128,0,2891:0:0:0:50:G#6.wav
320,192,2891,128,0,3047:0:0:0:50:F#6.wav
448,192,3047,128,0,3516:0:0:0:50:A#6.wav
64,192,3360,1,0,0:0:0:0:
192,192,3516,128,0,3672:0:0:0:50:A#6.wav
320,192,3672,128,0,3829:0:0:0:50:A#6.wav
64,192,3829,128,0,3985:0:0:0:50:A#6.wav
192,192,3985,128,0,4141:0:0:0:50:G#6.wav
320,192,4141,128,0,4297:0:0:0:50:F#6.wav
448,192,4297,128,0,4766:0:0:0:50:A#6.wav
64,192,4610,1,0,0:0:0:0:
192,192,4766,128,0,4922:0:0:0:50:A#6.wav
320,192,4922,128,0,5079:0:0:0:50:A#6.wav
448,192,5079,128,0,5235:0:0:0:50:A#6.wav
64,192,5235,128,0,5391:0:0:0:50:G#6.wav
320,192,5391,128,0,5547:0:0:0:50:F#6.wav
192,192,5547,128,0,5860:0:0:0:50:B6.wav
64,192,5860,128,0,6016:0:0:0:50:A#6.wav
320,192,6016,128,0,6172:0:0:0:50:G#6.wav
448,192,6172,128,0,6329:0:0:0:50:A#6.wav
192,192,6485,128,0,6641:0:0:0:50:C#7.wav
448,192,6641,1,0,0:0:0:0:
320,192,6797,128,0,7110:0:0:0:50:C#7.wav
192,192,7110,128,0,7266:0:0:0:50:B6.wav
64,192,7266,128,0,7422:0:0:0:50:A#6.wav
320,192,7422,128,0,7579:0:0:0:50:B6.wav
448,192,7579,1,0,0:0:0:50:D#6.wav
64,192,7735,1,0,0:0:0:0:
192,192,7891,128,0,8047:0:0:0:50:B6.wav
320,192,8047,128,0,8360:0:0:0:50:B6.wav
448,192,8360,128,0,8516:0:0:0:50:A#6.wav
192,192,8516,128,0,8672:0:0:0:50:G#6.wav
64,192,8672,128,0,8829:0:0:0:50:F#6.wav
320,192,8985,128,0,9141:0:0:0:50:D#6.wav
192,192,9141,128,0,9297:0:0:0:50:F6.wav
448,192,9297,128,0,9454:0:0:0:50:F#6.wav
192,192,9610,128,0,9766:0:0:0:50:F6.wav
64,192,9766,128,0,9922:0:0:0:50:F#6.wav
448,192,9922,128,0,10079:0:0:0:50:G#6.wav
64,192,10079,1,0,0:0:0:0:
192,192,10235,128,0,10391:0:0:0:50:F#6.wav
320,192,10391,128,0,10547:0:0:0:50:G#6.wav
64,192,10547,128,0,10704:0:0:0:50:A#6.wav
320,192,10704,128,0,10860:0:0:0:50:B6.wav
448,192,10860,128,0,11016:0:0:0:50:A#6.wav
192,192,11016,128,0,11172:0:0:0:50:F#6.wav
320,192,11172,128,0,11329:0:0:0:50:C#7.wav
64,192,11329,1,0,0:0:0:0:
192,192,11485,128,0,11641:0:0:0:50:B6.wav
64,192,11797,1,2,0:0:0:50:
192,192,11797,1,4,0:0:0:50:
448,192,11797,128,0,12110:0:0:0:50:A#6.wav
64,192,12110,128,8,12266:0:0:0:50:
320,192,12266,1,2,0:0:0:50:
448,192,12266,128,0,12422:0:0:0:50:A#6.wav
192,192,12422,128,8,12579:0:0:0:50:
320,192,12500,1,8,0:0:0:50:
64,192,12579,1,0,0:0:0:0:
448,192,12579,1,0,0:0:0:0:
320,192,12735,128,8,12891:0:0:0:50:
192,192,12813,1,8,0:0:0:50:
64,192,12891,128,2,13047:0:0:0:50:
448,192,12891,1,0,0:0:0:50:G#6.wav
448,192,13047,128,8,13204:0:0:0:50:
320,192,13125,1,8,0:0:0:50:
64,192,13204,1,2,0:0:0:50:
192,192,13204,1,0,0:0:0:0:
320,192,13360,128,8,13672:0:0:0:50:
192,192,13438,1,8,0:0:0:50:
64,192,13516,1,2,0:0:0:50:
448,192,13516,1,0,0:0:0:0:
192,192,13672,128,8,13829:0:0:0:50:
448,192,13750,1,8,0:0:0:50:
64,192,13829,128,2,13985:0:0:0:50:
320,192,13829,1,0,0:0:0:50:B6.wav
448,192,13907,1,0,0:0:0:0:
320,192,13985,128,8,14141:0:0:0:50:
64,192,14063,1,0,0:0:0:0:
192,192,14141,128,8,14297:0:0:0:50:
64,192,14297,1,2,0:0:0:50:
448,192,14297,128,0,14454:0:0:0:50:A#6.wav
64,192,14610,1,0,0:0:0:50:Tom1.wav
448,192,14610,1,0,0:0:0:0:
64,192,14766,128,2,15000:0:0:0:50:
192,192,14766,1,0,0:0:0:0:
320,192,14844,1,0,0:0:0:50:Tom1.wav
448,192,14922,1,0,0:0:0:50:Tom2.wav
192,192,15000,1,0,0:0:0:50:Tom3.wav
320,192,15079,128,6,15313:0:0:0:50:
448,192,15079,128,0,15313:0:0:0:50:G#6.wav
64,192,15313,128,2,15547:0:0:0:50:
192,192,15313,128,0,15547:0:0:0:50:G#6.wav
320,192,15547,128,2,15704:0:0:0:50:
448,192,15547,128,0,15704:0:0:0:50:G#6.wav
64,192,15704,128,6,15938:0:0:0:50:
192,192,15704,1,0,0:0:0:50:F#6.wav
192,192,15860,1,2,0:0:0:50:
448,192,15860,1,0,0:0:0:0:
320,192,15938,1,2,0:0:0:50:
64,192,16016,1,8,0:0:0:50:
192,192,16016,1,0,0:0:0:0:
448,192,16016,128,0,16172:0:0:0:0:
64,192,16329,1,2,0:0:0:50:
448,192,16329,1,0,0:0:0:0:
320,192,16407,1,0,0:0:0:0:
64,192,16485,1,8,0:0:0:50:
192,192,16485,1,0,0:0:0:0:
320,192,16563,1,8,0:0:0:50:
448,192,16563,1,0,0:0:0:0:
64,192,16641,1,2,0:0:0:50:
192,192,16719,1,8,0:0:0:50:Tom1.wav
320,192,16797,1,0,0:0:0:50:Tom2.wav
448,192,16797,1,0,0:0:0:0:
64,192,16875,1,0,0:0:0:50:Tom3.wav
192,192,16875,1,0,0:0:0:0:
320,192,16954,1,6,0:0:0:50:
448,192,16954,1,0,0:0:0:50:A#6.wav
64,192,17110,1,8,0:0:0:50:
192,192,17110,1,0,0:0:0:0:
448,192,17110,1,0,0:0:0:0:
192,192,17266,128,2,17422:0:0:0:50:
64,192,17422,1,8,0:0:0:50:
320,192,17422,1,0,0:0:0:50:G#6.wav
448,192,17422,128,0,17579:0:0:0:0:
64,192,17579,1,2,0:0:0:50:
192,192,17735,128,8,17891:0:0:0:50:
320,192,17735,1,0,0:0:0:50:E6.wav
448,192,17735,1,0,0:0:0:0:
320,192,17891,128,2,18047:0:0:0:50:
64,192,18047,128,8,18204:0:0:0:50:
192,192,18047,1,0,0:0:0:50:C#6.wav
448,192,18047,1,0,0:0:0:0:
448,192,18204,1,2,0:0:0:50:
64,192,18360,1,8,0:0:0:50:
192,192,18360,128,0,18516:0:0:0:50:E6.wav
320,192,18360,1,0,0:0:0:0:
320,192,18516,128,2,18672:0:0:0:50:
64,192,18672,1,8,0:0:0:50:
192,192,18672,1,0,0:0:0:50:F#6.wav
448,192,18672,128,0,18829:0:0:0:0:
64,192,18829,1,2,0:0:0:50:
192,192,18985,1,8,0:0:0:50:
320,192,18985,1,0,0:0:0:0:
448,192,19063,1,0,0:0:0:0:
64,192,19141,1,2,0:0:0:50:
192,192,19141,1,0,0:0:0:0:
320,192,19219,1,0,0:0:0:0:
448,192,19297,1,8,0:0:0:50:
64,192,19375,1,0,0:0:0:0:
192,192,19454,1,2,0:0:0:50:
320,192,19454,128,0,19610:0:0:0:0:
64,192,19766,1,0,0:0:0:50:A#6.wav
192,192,19844,1,0,0:0:0:50:F#6.wav
448,192,19922,1,0,0:0:0:50:D#6.wav
320,192,20000,1,0,0:0:0:50:B5.wav
64,192,20079,128,2,20301:0:0:0:50:
192,192,20079,1,8,0:0:0:50:
320,192,20301,1,2,0:0:0:50:
448,192,20301,128,0,20519:0:0:0:0:
64,192,20519,1,2,0:0:0:50:
192,192,20519,128,0,20729:0:0:0:0:
320,192,20729,128,2,20932:0:0:0:50:
448,192,20729,1,0,0:0:0:0:
64,192,20932,128,2,21135:0:0:0:50:
448,192,20932,1,0,0:0:0:0:
192,192,21135,1,2,0:0:0:50:
448,192,21135,128,0,21339:0:0:0:0:
64,192,21339,1,2,0:0:0:50:
192,192,21339,128,0,21542:0:0:0:0:
64,192,21542,1,2,0:0:0:50:
320,192,21542,128,0,21745:0:0:0:0:
64,192,21745,1,2,0:0:0:50:
448,192,21745,128,0,21847:0:0:0:0:
192,192,21949,1,8,0:0:0:50:
320,192,21949,1,0,0:0:0:0:
448,192,21949,1,0,0:0:0:0:
64,192,22261,128,2,22417:0:0:0:50:
192,192,22261,1,0,0:0:0:50:D#7.wav
64,192,22574,1,6,0:0:0:50:
448,192,22574,128,0,23199:0:0:0:50:G#6.wav
64,192,22886,1,2,0:0:0:50:
320,192,22886,1,0,0:0:0:0:
64,192,23199,1,8,0:0:0:50:
192,192,23199,1,0,0:0:0:50:G#5.wav
320,192,23199,1,0,0:0:0:0:
448,192,23511,128,0,23667:0:0:0:50:A#5.wav
192,192,23667,128,0,23824:0:0:0:50:G#5.wav
320,192,23824,128,0,23980:0:0:0:50:G5.wav
64,192,23980,128,0,24136:0:0:0:50:D#5.wav
192,192,24032,1,0,0:0:0:0:
320,192,24084,1,0,0:0:0:0:
448,192,24136,128,0,24449:0:0:0:50:G5.wav
64,192,24449,1,2,0:0:0:50:
192,192,24449,1,4,0:0:0:50:
320,192,24527,1,8,0:0:0:30:
448,192,24605,1,8,0:0:0:30:
192,192,24683,1,8,0:0:0:30:
64,192,24761,1,8,0:0:0:30:
448,192,24839,1,8,0:0:0:30:
192,192,24917,1,8,0:0:0:30:
320,192,24917,1,0,0:0:0:0:
64,192,24995,1,8,0:0:0:30:
320,192,25074,1,8,0:0:0:30:
448,192,25152,1,8,0:0:0:30:
64,192,25230,1,8,0:0:0:30:
192,192,25308,1,8,0:0:0:30:
320,192,25386,1,8,0:0:0:50:
448,192,25386,1,2,0:0:0:50:
64,192,25464,1,8,0:0:0:50:
192,192,25542,1,8,0:0:0:50:
448,192,25620,1,8,0:0:0:50:
64,192,25699,1,0,0:0:0:50:Tom2.wav
320,192,25699,1,0,0:0:0:0:
64,192,25855,1,0,0:0:0:50:Tom1.wav
192,192,25855,1,0,0:0:0:0:
320,192,26011,1,0,0:0:0:50:Tom2.wav
448,192,26011,1,0,0:0:0:0:
64,192,26167,1,2,0:0:0:50:
192,192,26167,1,0,0:0:0:0:
448,192,26167,1,0,0:0:0:0:
320,192,26324,1,0,0:0:0:0:
64,192,26480,128,2,26636:0:0:0:50:
192,192,26480,1,4,0:0:0:50:
448,192,26480,1,0,0:0:0:0:
320,192,26636,128,0,26792:0:0:0:0:
192,192,26792,128,2,26949:0:0:0:50:
448,192,26792,1,0,0:0:0:0:
64,192,26949,128,2,27261:0:0:0:50:
448,192,26949,1,4,0:0:0:50:
320,192,27261,128,0,27574:0:0:0:0:
192,192,27574,128,0,27730:0:0:0:0:
448,192,27730,128,0,27886:0:0:0:0:
64,192,27886,128,0,28042:0:0:0:0:
192,192,28042,1,4,0:0:0:50:
320,192,28042,128,2,28355:0:0:0:50:
192,192,28511,128,0,28824:0:0:0:0:
448,192,28667,1,0,0:0:0:50:Tom2.wav
64,192,28824,128,0,29136:0:0:0:0:
320,192,28980,1,0,0:0:0:50:Tom1.wav
448,192,29136,128,0,29449:0:0:0:50:Tom2.wav
192,192,29292,1,0,0:0:0:50:Tom3.wav
64,192,29449,128,2,29761:0:0:0:50:
320,192,29449,1,4,0:0:0:50:
320,192,29761,128,0,30074:0:0:0:0:
64,192,30074,1,0,0:0:0:50:Tom2.wav
192,192,30074,128,0,30386:0:0:0:0:
320,192,30386,1,0,0:0:0:50:Tom2.wav
448,192,30386,128,0,31011:0:0:0:0:
64,192,30699,1,2,0:0:0:50:
192,192,30699,1,4,0:0:0:50:
64,192,31011,1,2,0:0:0:50:
320,192,31011,1,0,0:0:0:0:
192,192,31167,1,2,0:0:0:50:
320,192,31167,1,0,0:0:0:0:
64,192,31324,128,8,31480:0:0:0:50:
192,192,31324,1,0,0:0:0:0:
448,192,31324,1,0,0:0:0:0:
320,192,31480,128,0,31636:0:0:0:0:
448,192,31636,128,0,31792:0:0:0:50:Tom2.wav
64,192,31792,128,2,32105:0:0:0:50:
192,192,31792,1,4,0:0:0:50:
320,192,32105,1,8,0:0:0:50:
448,192,32261,128,0,32574:0:0:0:0:
64,192,32417,1,2,0:0:0:50:
192,192,32417,1,0,0:0:0:0:
64,192,32574,128,8,32730:0:0:0:50:
192,192,32574,1,0,0:0:0:0:
320,192,32574,1,0,0:0:0:0:
320,192,32730,128,0,32886:0:0:0:0:
448,192,32886,128,0,33042:0:0:0:0:
64,192,33042,1,2,0:0:0:50:
192,192,33042,128,0,33199:0:0:0:0:
320,192,33199,1,0,0:0:0:0:
64,192,33355,1,8,0:0:0:50:
192,192,33355,1,0,0:0:0:0:
448,192,33355,1,0,0:0:0:0:
192,192,33511,1,2,0:0:0:50:
320,192,33511,128,0,33667:0:0:0:0:
64,192,33667,1,2,0:0:0:50:
448,192,33667,1,0,0:0:0:0:
64,192,33824,1,8,0:0:0:50:
192,192,33824,1,0,0:0:0:0:
448,192,33824,128,0,33980:0:0:0:0:
320,192,33980,128,0,34136:0:0:0:0:
64,192,34136,128,0,34292:0:0:0:50:Tom2.wav
320,192,34449,1,2,0:0:0:50:
448,192,34449,128,4,34605:0:0:0:50:
64,192,34605,128,0,34761:0:0:0:0:
192,192,34761,1,8,0:0:0:50:
320,192,34761,1,0,0:0:0:0:
448,192,34761,128,0,34917:0:0:0:0:
64,192,34917,128,2,35230:0:0:0:50:
192,192,34917,1,0,0:0:0:0:
320,192,35230,1,2,0:0:0:50:
448,192,35230,128,0,35542:0:0:0:0:
64,192,35386,1,8,0:0:0:50:
192,192,35386,1,0,0:0:0:0:
64,192,35542,128,2,35699:0:0:0:50:
320,192,35542,1,4,0:0:0:50:
192,192,35855,1,2,0:0:0:50:
320,192,35855,128,0,36011:0:0:0:50:Tom3.wav
64,192,36011,128,2,36167:0:0:0:50:
448,192,36011,1,0,0:0:0:50:Tom3.wav
192,192,36167,128,2,36480:0:0:0:50:
320,192,36167,1,4,0:0:0:50:
320,192,36480,1,2,0:0:0:50:
448,192,36480,1,0,0:0:0:0:
64,192,36558,1,0,0:0:0:0:
192,192,36636,1,8,0:0:0:50:
320,192,36636,1,0,0:0:0:0:
448,192,36714,1,0,0:0:0:0:
64,192,36792,1,2,0:0:0:50:
320,192,36792,1,0,0:0:0:0:
192,192,36870,1,0,0:0:0:0:
64,192,36949,1,4,0:0:0:50:
320,192,36949,1,8,0:0:0:50:
448,192,36949,1,0,0:0:0:0:
448,192,37105,1,2,0:0:0:50:
64,192,37261,1,2,0:0:0:50:
192,192,37261,1,0,0:0:0:0:
64,192,37417,1,8,0:0:0:50:
320,192,37417,1,4,0:0:0:50:
448,192,37417,1,0,0:0:0:0:
320,192,37574,1,2,0:0:0:50:
192,192,37730,1,2,0:0:0:50:
448,192,37730,1,0,0:0:0:0:
64,192,37886,1,8,0:0:0:50:
320,192,37886,1,4,0:0:0:50:
448,192,37886,1,0,0:0:0:0:
64,192,38042,1,2,0:0:0:50:
320,192,38199,1,2,0:0:0:50:
448,192,38199,1,0,0:0:0:0:
64,192,38355,1,8,0:0:0:50:
192,192,38355,1,4,0:0:0:50:
448,192,38355,1,0,0:0:0:0:
192,192,38511,1,2,0:0:0:50:
64,192,38667,1,2,0:0:0:50:
448,192,38667,1,0,0:0:0:0:
192,192,38824,1,8,0:0:0:50:
320,192,38824,1,4,0:0:0:50:
448,192,38824,1,0,0:0:0:0:
64,192,38980,1,2,0:0:0:50:
320,192,38980,1,0,0:0:0:0:
192,192,39136,1,8,0:0:0:50:
448,192,39136,1,0,0:0:0:0:
320,192,39214,1,0,0:0:0:0:
64,192,39292,1,2,0:0:0:50:
192,192,39370,1,0,0:0:0:0:
64,192,39449,1,8,0:0:0:50:
320,192,39449,1,4,0:0:0:50:
448,192,39449,1,0,0:0:0:0:
320,192,39605,1,2,0:0:0:50:
64,192,39761,1,2,0:0:0:50:
192,192,39761,1,0,0:0:0:0:
64,192,39917,1,8,0:0:0:50:
320,192,39917,1,4,0:0:0:50:
448,192,39917,1,0,0:0:0:0:
320,192,40074,1,2,0:0:0:50:
64,192,40230,1,2,0:0:0:50:
192,192,40230,1,0,0:0:0:0:
64,192,40386,1,8,0:0:0:50:
320,192,40386,1,4,0:0:0:50:
448,192,40386,1,0,0:0:0:0:
320,192,40542,1,2,0:0:0:50:
192,192,40699,1,2,0:0:0:50:
448,192,40699,1,0,0:0:0:0:
64,192,40855,1,8,0:0:0:50:
192,192,40855,1,4,0:0:0:50:
320,192,40855,1,0,0:0:0:0:
64,192,41011,1,2,0:0:0:50:
192,192,41167,1,2,0:0:0:50:
320,192,41167,1,0,0:0:0:0:
320,192,41324,1,0,0:0:0:50:Tom3.wav
448,192,41324,1,0,0:0:0:0:
64,192,41402,1,0,0:0:0:50:Tom3.wav
192,192,41480,1,2,0:0:0:50:
320,192,41558,1,2,0:0:0:50:
64,192,41636,1,8,0:0:0:50:
192,192,41636,1,4,0:0:0:50:
448,192,41636,1,0,0:0:0:0:
320,192,41792,1,2,0:0:0:50:
64,192,41870,1,2,0:0:0:50:
192,192,41949,1,4,0:0:0:50:
320,192,41949,1,8,0:0:0:50:
448,192,41949,1,0,0:0:0:0:
192,192,42105,1,0,0:0:0:0:
320,192,42183,1,0,0:0:0:0:
64,192,42261,1,2,0:0:0:50:
448,192,42339,1,2,0:0:0:50:
64,192,42417,1,8,0:0:0:50:
192,192,42417,1,4,0:0:0:50:
320,192,42417,1,0,0:0:0:0:
448,192,42574,1,0,0:0:0:0:
320,192,42652,1,0,0:0:0:0:
64,192,42730,1,2,0:0:0:50:
192,192,42808,1,2,0:0:0:50:
64,192,42886,1,4,0:0:0:50:
320,192,42886,1,8,0:0:0:50:
448,192,42886,1,0,0:0:0:0:
192,192,43042,1,0,0:0:0:0:
64,192,43120,1,0,0:0:0:0:
320,192,43199,1,2,0:0:0:50:
448,192,43277,1,2,0:0:0:50:
64,192,43355,1,8,0:0:0:50:
192,192,43355,1,4,0:0:0:50:
320,192,43355,1,0,0:0:0:0:
192,192,43511,1,0,0:0:0:0:
448,192,43589,1,0,0:0:0:0:
320,192,43667,1,2,0:0:0:50:
64,192,43745,1,2,0:0:0:50:
192,192,43824,1,4,0:0:0:50:
320,192,43824,1,8,0:0:0:50:
448,192,43824,1,0,0:0:0:0:
192,192,43980,1,2,0:0:0:50:
448,192,44058,1,2,0:0:0:50:
64,192,44136,128,8,44292:0:0:0:50:
320,192,44136,1,0,0:0:0:0:
320,192,44449,1,4,0:0:0:50:
448,192,44449,128,2,44605:0:0:0:50:
192,192,44605,128,0,44761:0:0:0:0:
64,192,44761,128,8,44917:0:0:0:50:
320,192,44761,1,0,0:0:0:0:
448,192,44761,1,0,0:0:0:0:
192,192,44917,1,2,0:0:0:50:
448,192,44917,1,0,0:0:0:0:
320,192,45074,128,0,45230:0:0:0:50:C#7.wav
64,192,45230,1,2,0:0:0:50:
192,192,45230,1,0,0:0:0:0:
64,192,45386,128,8,45542:0:0:0:50:
320,192,45386,1,0,0:0:0:0:
448,192,45386,1,0,0:0:0:0:
192,192,45542,1,0,0:0:0:0:
64,192,45699,1,2,0:0:0:50:
448,192,45699,128,0,46167:0:0:0:0:
192,192,45855,1,2,0:0:0:50:
320,192,45855,1,0,0:0:0:0:
64,192,46011,1,8,0:0:0:50:
192,192,46011,1,0,0:0:0:0:
320,192,46011,1,0,0:0:0:0:
64,192,46167,128,0,46324:0:0:0:0:
192,192,46324,128,8,46636:0:0:0:50:
320,192,46324,1,0,0:0:0:50:B6.wav
448,192,46324,1,0,0:0:0:0:
448,192,46636,1,0,0:0:0:50:Tom2.wav
320,192,46792,1,0,0:0:0:0:
64,192,46949,1,2,0:0:0:50:
192,192,46949,128,4,47261:0:0:0:50:
448,192,47261,1,0,0:0:0:0:
64,192,47417,128,2,47574:0:0:0:50:
192,192,47417,1,0,0:0:0:0:
320,192,47574,128,2,47730:0:0:0:50:
448,192,47574,1,0,0:0:0:50:E7.wav
192,192,47730,1,0,0:0:0:0:
64,192,47886,1,0,0:0:0:0:
320,192,48042,1,2,0:0:0:50:
448,192,48042,1,0,0:0:0:0:
64,192,48199,1,2,0:0:0:50:
192,192,48199,128,0,48511:0:0:0:0:
448,192,48355,1,0,0:0:0:0:
320,192,48511,1,0,0:0:0:0:
64,192,48667,128,2,48824:0:0:0:50:
192,192,48667,1,0,0:0:0:0:
320,192,48824,128,2,48980:0:0:0:50:
448,192,48824,1,0,0:0:0:50:E7.wav
192,192,48980,1,0,0:0:0:0:
64,192,49136,1,0,0:0:0:0:
320,192,49292,1,2,0:0:0:50:
448,192,49292,1,0,0:0:0:0:
64,192,49449,128,2,49761:0:0:0:50:
192,192,49449,1,0,0:0:0:0:
448,192,49761,1,0,0:0:0:0:
192,192,49917,1,2,0:0:0:50:
320,192,49917,128,0,50074:0:0:0:0:
64,192,50074,128,2,50230:0:0:0:50:
448,192,50074,1,0,0:0:0:50:E7.wav
192,192,50230,1,0,0:0:0:0:
320,192,50386,1,0,0:0:0:0:
64,192,50542,1,2,0:0:0:50:
448,192,50542,1,0,0:0:0:0:
192,192,50620,1,0,0:0:0:0:
320,192,50699,128,2,50855:0:0:0:50:
448,192,50699,1,0,0:0:0:0:
64,192,50855,128,0,51011:0:0:0:0:
192,192,51011,128,0,51167:0:0:0:0:
64,192,51167,1,2,0:0:0:50:
448,192,51167,128,0,51324:0:0:0:0:
192,192,51324,1,2,0:0:0:50:
320,192,51324,128,0,51480:0:0:0:50:E7.wav
64,192,51480,128,0,51636:0:0:0:0:
192,192,51636,128,0,51949:0:0:0:0:
448,192,51636,1,0,0:0:0:0:
320,192,51792,1,2,0:0:0:50:
64,192,51949,1,2,0:0:0:50:
448,192,51949,128,0,52261:0:0:0:0:
64,192,52261,1,0,0:0:0:0:
192,192,52417,1,2,0:0:0:50:
320,192,52417,128,0,52574:0:0:0:0:
64,192,52574,128,2,52730:0:0:0:50:
448,192,52574,1,0,0:0:0:50:E7.wav
192,192,52730,1,0,0:0:0:0:
448,192,52886,1,0,0:0:0:0:
64,192,53042,1,2,0:0:0:50:
192,192,53042,1,0,0:0:0:0:
320,192,53199,1,2,0:0:0:50:
448,192,53199,128,0,53511:0:0:0:0:
64,192,53511,1,2,0:0:0:50:
192,192,53511,1,0,0:0:0:0:
320,192,53667,128,0,53824:0:0:0:0:
192,192,53824,1,2,0:0:0:50:
448,192,53824,128,0,53980:0:0:0:50:E7.wav
64,192,53980,1,0,0:0:0:0:
192,192,54058,1,2,0:0:0:50:
64,192,54136,1,8,0:0:0:50:
320,192,54136,1,4,0:0:0:50:
448,192,54136,1,0,0:0:0:0:
64,192,54449,1,2,0:0:0:50:
192,192,54449,1,4,0:0:0:50:
320,192,54449,1,0,0:0:0:0:
64,192,54761,1,8,0:0:0:50:
320,192,54761,128,0,54917:0:0:0:0:
448,192,54761,1,0,0:0:0:0:
192,192,54917,1,0,0:0:0:0:
320,192,55074,1,2,0:0:0:50:
448,192,55074,128,0,55230:0:0:0:0:
64,192,55230,1,2,0:0:0:50:
192,192,55230,1,0,0:0:0:0:
64,192,55386,128,8,55542:0:0:0:50:
320,192,55386,1,0,0:0:0:0:
448,192,55386,1,0,0:0:0:0:
192,192,55542,1,2,0:0:0:50:
320,192,55542,128,4,55855:0:0:0:50:
64,192,55855,1,2,0:0:0:50:
448,192,55855,128,0,56011:0:0:0:0:
64,192,56011,128,8,56167:0:0:0:50:
192,192,56011,1,0,0:0:0:0:
320,192,56011,1,0,0:0:0:0:
320,192,56167,128,0,56324:0:0:0:0:
64,192,56324,1,2,0:0:0:50:
448,192,56324,128,0,56636:0:0:0:0:
192,192,56480,1,2,0:0:0:50:
320,192,56480,1,0,0:0:0:0:
64,192,56636,1,8,0:0:0:50:
192,192,56636,128,0,56949:0:0:0:0:
320,192,56792,1,2,0:0:0:50:
64,192,56949,1,2,0:0:0:50:
320,192,56949,1,4,0:0:0:50:
448,192,56949,1,0,0:0:0:0:
64,192,57261,1,8,0:0:0:50:
320,192,57261,1,0,0:0:0:50:E6.wav
448,192,57261,1,0,0:0:0:0:
320,192,57417,1,0,0:0:0:0:
64,192,57574,1,8,0:0:0:50:
192,192,57574,1,0,0:0:0:50:E6.wav
448,192,57574,1,0,0:0:0:0:
192,192,57730,1,2,0:0:0:50:
64,192,57886,1,8,0:0:0:50:
320,192,57886,1,0,0:0:0:50:C#6.wav
448,192,57886,1,0,0:0:0:0:
64,192,58042,1,2,0:0:0:50:
192,192,58199,1,8,0:0:0:50:
320,192,58199,1,0,0:0:0:0:
448,192,58199,1,0,0:0:0:0:
320,192,58355,1,0,0:0:0:50:G#6.wav
64,192,58511,1,8,0:0:0:50:
192,192,58511,1,0,0:0:0:50:F#6.wav
448,192,58511,1,0,0:0:0:0:
192,192,58667,1,2,0:0:0:50:
64,192,58824,1,8,0:0:0:50:
320,192,58824,1,0,0:0:0:50:F#6.wav
448,192,58824,1,0,0:0:0:0:
448,192,58980,1,2,0:0:0:50:
64,192,59136,1,8,0:0:0:50:
192,192,59136,1,0,0:0:0:50:E6.wav
320,192,59136,1,0,0:0:0:0:
320,192,59292,1,2,0:0:0:50:
64,192,59449,1,10,0:0:0:50:
192,192,59449,1,0,0:0:0:50:B6.wav
448,192,59527,1,8,0:0:0:50:
320,192,59605,1,8,0:0:0:50:
64,192,59683,1,8,0:0:0:50:
192,192,59761,1,2,0:0:0:50:
320,192,59761,1,8,0:0:0:50:
448,192,59839,1,8,0:0:0:50:
192,192,59917,1,8,0:0:0:50:
64,192,59995,1,8,0:0:0:50:
320,192,60074,1,10,0:0:0:50:
448,192,60074,1,0,0:0:0:50:B5.wav
64,192,60152,1,8,0:0:0:50:
192,192,60230,1,8,0:0:0:50:
448,192,60308,1,8,0:0:0:50:
192,192,60386,1,10,0:0:0:50:
320,192,60386,1,0,0:0:0:50:B6.wav
64,192,60464,1,8,0:0:0:50:
448,192,60542,1,8,0:0:0:50:
320,192,60620,1,8,0:0:0:50:
64,192,60699,1,2,0:0:0:50:
192,192,60699,1,8,0:0:0:50:
448,192,60699,1,0,0:0:0:50:C#7.wav
64,192,61011,128,0,61324:0:0:0:50:C#6.wav
448,192,61324,1,0,0:0:0:50:Tom2.wav
320,192,61402,1,0,0:0:0:50:Tom2.wav
64,192,61480,1,2,0:0:0:50:
192,192,61558,1,2,0:0:0:50:
64,192,61636,1,8,0:0:0:50:
320,192,61636,1,4,0:0:0:50:
448,192,61636,128,0,61949:0:0:0:50:G#6.wav
64,192,61949,128,6,62105:0:0:0:50:
192,192,61949,1,0,0:0:0:50:A#6.wav
192,192,62105,1,8,0:0:0:50:
320,192,62105,1,0,0:0:0:0:
448,192,62105,1,0,0:0:0:0:
320,192,62261,1,2,0:0:0:50:
64,192,62417,1,8,0:0:0:50:
192,192,62417,1,0,0:0:0:50:A#6.wav
448,192,62417,1,0,0:0:0:0:
192,192,62574,1,2,0:0:0:50:
64,192,62730,1,8,0:0:0:50:
320,192,62730,1,0,0:0:0:50:G#6.wav
448,192,62730,1,0,0:0:0:0:
320,192,62886,1,2,0:0:0:50:
64,192,63042,1,8,0:0:0:50:
192,192,63042,1,0,0:0:0:50:A#6.wav
448,192,63042,128,0,63199:0:0:0:0:
64,192,63199,1,2,0:0:0:50:
192,192,63355,1,8,0:0:0:50:
320,192,63355,1,0,0:0:0:0:
448,192,63355,1,0,0:0:0:0:
448,192,63511,1,2,0:0:0:50:
64,192,63667,1,8,0:0:0:50:
192,192,63667,1,0,0:0:0:50:A#6.wav
320,192,63667,1,0,0:0:0:0:
64,192,63824,1,2,0:0:0:50:
192,192,63980,1,8,0:0:0:50:
320,192,63980,1,0,0:0:0:50:G#6.wav
448,192,63980,1,0,0:0:0:0:
320,192,64136,1,2,0:0:0:50:
64,192,64292,1,8,0:0:0:50:
192,192,64292,1,0,0:0:0:50:A#6.wav
448,192,64292,128,0,64449:0:0:0:0:
192,192,64449,1,2,0:0:0:50:
64,192,64605,1,8,0:0:0:50:
320,192,64605,1,0,0:0:0:0:
448,192,64605,1,0,0:0:0:0:
64,192,64761,1,2,0:0:0:50:
192,192,64917,1,8,0:0:0:50:
320,192,64917,1,0,0:0:0:50:A#6.wav
448,192,64917,1,0,0:0:0:0:
320,192,65074,1,2,0:0:0:50:
64,192,65230,1,8,0:0:0:50:
192,192,65230,1,0,0:0:0:50:G#6.wav
448,192,65230,1,0,0:0:0:0:
448,192,65386,1,2,0:0:0:50:
64,192,65542,128,8,65699:0:0:0:50:
192,192,65542,1,0,0:0:0:50:B6.wav
320,192,65542,1,0,0:0:0:0:
320,192,65699,1,2,0:0:0:50:
64,192,65855,1,8,0:0:0:50:
192,192,65855,128,0,66011:0:0:0:50:A#6.wav
448,192,65855,1,0,0:0:0:0:
320,192,66011,128,2,66167:0:0:0:50:
64,192,66167,1,8,0:0:0:50:
192,192,66167,1,0,0:0:0:50:A#6.wav
448,192,66167,128,0,66324:0:0:0:0:
192,192,66324,1,2,0:0:0:50:
64,192,66480,1,8,0:0:0:50:
320,192,66480,1,0,0:0:0:50:C#7.wav
448,192,66480,128,0,66636:0:0:0:0:
192,192,66636,1,2,0:0:0:50:
64,192,66792,128,2,67105:0:0:0:50:
320,192,66792,1,4,0:0:0:50:
448,192,66792,1,0,0:0:0:50:C#7.wav
192,192,67105,1,8,0:0:0:50:
320,192,67105,1,0,0:0:0:50:B6.wav
448,192,67105,128,0,67261:0:0:0:0:
64,192,67261,1,2,0:0:0:50:
192,192,67261,128,0,67417:0:0:0:50:A#6.wav
320,192,67339,1,2,0:0:0:50:
448,192,67417,128,8,67574:0:0:0:50:
64,192,67574,1,2,0:0:0:50:
192,192,67574,1,0,0:0:0:0:
64,192,67730,1,8,0:0:0:50:
320,192,67730,1,0,0:0:0:0:
448,192,67730,1,0,0:0:0:0:
320,192,67886,128,2,68042:0:0:0:50:
64,192,68042,128,8,68199:0:0:0:50:
448,192,68042,1,0,0:0:0:50:B6.wav
192,192,68199,1,2,0:0:0:50:
320,192,68199,1,0,0:0:0:0:
448,192,68277,1,2,0:0:0:50:
64,192,68355,1,8,0:0:0:50:
192,192,68355,128,0,68511:0:0:0:50:A#6.wav
320,192,68511,1,2,0:0:0:50:
448,192,68511,1,0,0:0:0:50:G#6.wav
64,192,68667,1,8,0:0:0:50:
192,192,68667,1,0,0:0:0:50:F#6.wav
448,192,68667,1,0,0:0:0:0:
192,192,68824,1,2,0:0:0:50:
64,192,68980,1,8,0:0:0:50:
320,192,68980,1,0,0:0:0:50:D#6.wav
448,192,68980,128,0,69136:0:0:0:0:
192,192,69136,128,2,69292:0:0:0:50:
64,192,69292,128,8,69449:0:0:0:50:
320,192,69292,1,0,0:0:0:50:F#6.wav
448,192,69292,1,0,0:0:0:0:
320,192,69449,1,2,0:0:0:50:
64,192,69605,128,8,69761:0:0:0:50:
192,192,69605,1,0,0:0:0:50:F6.wav
448,192,69605,1,0,0:0:0:0:
320,192,69761,128,2,69917:0:0:0:50:
64,192,69917,1,8,0:0:0:50:
192,192,69917,1,0,0:0:0:50:G#6.wav
448,192,69917,128,0,70074:0:0:0:0:
192,192,70074,1,2,0:0:0:50:
64,192,70230,128,8,70386:0:0:0:50:
320,192,70230,1,0,0:0:0:50:F#6.wav
448,192,70230,1,0,0:0:0:0:
192,192,70386,128,2,70542:0:0:0:50:
64,192,70542,1,8,0:0:0:50:
320,192,70542,1,0,0:0:0:50:D#7.wav
448,192,70542,128,0,70699:0:0:0:0:
64,192,70699,1,2,0:0:0:50:
192,192,70855,1,8,0:0:0:50:
320,192,70855,1,0,0:0:0:50:C#7.wav
448,192,70855,1,0,0:0:0:0:
64,192,71011,1,2,0:0:0:50:
192,192,71011,1,0,0:0:0:50:A#6.wav
64,192,71167,1,8,0:0:0:50:
320,192,71167,1,0,0:0:0:50:C#7.wav
448,192,71167,1,0,0:0:0:0:
192,192,71324,1,2,0:0:0:50:
320,192,71324,1,0,0:0:0:0:
448,192,71480,1,8,0:0:0:50:
320,192,71558,1,8,0:0:0:50:
64,192,71636,1,10,0:0:0:50:
192,192,71636,1,0,0:0:0:50:A#6.wav
448,192,71714,1,8,0:0:0:50:
192,192,71792,1,8,0:0:0:50:
320,192,71870,1,8,0:0:0:50:
64,192,71949,128,6,72105:0:0:0:50:
192,192,71949,1,0,0:0:0:50:A#6.wav
320,192,72105,1,0,0:0:0:0:
448,192,72105,1,0,0:0:0:0:
64,192,72261,1,8,0:0:0:50:
192,192,72261,1,0,0:0:0:50:A#6.wav
448,192,72261,1,0,0:0:0:0:
192,192,72417,1,0,0:0:0:50:A#6.wav
64,192,72574,1,2,0:0:0:50:
320,192,72574,1,0,0:0:0:50:A#6.wav
320,192,72730,1,0,0:0:0:50:G#6.wav
64,192,72886,1,2,0:0:0:50:
192,192,72886,1,0,0:0:0:50:F#6.wav
448,192,72886,1,0,0:0:0:0:
448,192,73042,128,0,73199:0:0:0:50:A#6.wav
64,192,73199,1,2,0:0:0:50:
320,192,73199,1,0,0:0:0:0:
320,192,73355,1,0,0:0:0:0:
64,192,73511,1,2,0:0:0:50:
192,192,73511,1,0,0:0:0:50:A#6.wav
448,192,73511,1,0,0:0:0:0:
192,192,73667,1,0,0:0:0:50:A#6.wav
64,192,73824,1,2,0:0:0:50:
320,192,73824,1,0,0:0:0:50:A#6.wav
320,192,73980,1,0,0:0:0:50:G#6.wav
64,192,74136,1,8,0:0:0:50:
192,192,74136,1,0,0:0:0:50:F#6.wav
448,192,74136,1,0,0:0:0:0:
448,192,74292,128,0,74449:0:0:0:50:A#6.wav
64,192,74449,1,2,0:0:0:50:
320,192,74449,1,0,0:0:0:0:
448,192,74605,1,2,0:0:0:50:
320,192,74683,1,2,0:0:0:50:
64,192,74761,1,8,0:0:0:50:
192,192,74761,1,0,0:0:0:50:A#6.wav
448,192,74761,1,0,0:0:0:0:
64,192,74917,1,2,0:0:0:50:
192,192,74917,1,0,0:0:0:50:A#6.wav
448,192,74995,1,2,0:0:0:50:
320,192,75074,1,0,0:0:0:50:Tom3.wav
64,192,75152,1,0,0:0:0:50:Tom3.wav
192,192,75230,1,2,0:0:0:50:
448,192,75308,1,2,0:0:0:50:
64,192,75386,1,8,0:0:0:50:
192,192,75386,1,0,0:0:0:50:F#6.wav
320,192,75386,1,0,0:0:0:0:
64,192,75542,1,6,0:0:0:50:
320,192,75542,128,0,75699:0:0:0:50:A#6.wav
320,192,75855,1,2,0:0:0:50:
192,192,75933,1,2,0:0:0:50:
64,192,76011,128,8,76167:0:0:0:50:
320,192,76011,1,0,0:0:0:50:C#7.wav
448,192,76011,1,0,0:0:0:0:
192,192,76167,1,2,0:0:0:50:
64,192,76324,1,8,0:0:0:50:
320,192,76324,1,0,0:0:0:50:B6.wav
448,192,76324,1,0,0:0:0:0:
64,192,76480,1,8,0:0:0:50:
192,192,76480,1,0,0:0:0:0:
320,192,76480,1,0,0:0:0:0:
192,192,76636,128,12,76792:0:0:0:50:
448,192,76636,1,0,0:0:0:50:A#6.wav
320,192,76792,128,0,76949:0:0:0:50:F#6.wav
64,192,76949,1,2,0:0:0:50:
448,192,76949,128,0,77105:0:0:0:50:F#6.wav
64,192,77105,1,2,0:0:0:50:
192,192,77105,1,0,0:0:0:0:
192,192,77261,1,4,0:0:0:50:
320,192,77261,1,8,0:0:0:50:
448,192,77261,1,0,0:0:0:0:
448,192,77417,1,0,0:0:0:0:
320,192,77495,1,0,0:0:0:0:
64,192,77574,128,2,77886:0:0:0:50:
192,192,77574,1,0,0:0:0:0:
320,192,77730,1,2,0:0:0:50:
448,192,77730,1,0,0:0:0:0:
192,192,77886,1,8,0:0:0:50:
320,192,77886,1,4,0:0:0:50:
448,192,77886,1,0,0:0:0:0:
192,192,78042,128,0,78199:0:0:0:0:
64,192,78199,128,2,78355:0:0:0:50:
448,192,78199,1,0,0:0:0:0:
320,192,78355,128,2,78511:0:0:0:50:
64,192,78511,1,8,0:0:0:50:
192,192,78511,1,0,0:0:0:0:
448,192,78511,128,0,78824:0:0:0:0:
320,192,78667,1,2,0:0:0:50:
192,192,78824,1,0,0:0:0:50:Tom3.wav
64,192,78902,1,0,0:0:0:50:Tom3.wav
320,192,78980,1,2,0:0:0:50:
448,192,79058,1,2,0:0:0:50:
64,192,79136,128,8,79292:0:0:0:50:
192,192,79136,1,4,0:0:0:50:
320,192,79136,1,0,0:0:0:0:
64,192,79449,1,2,0:0:0:50:
320,192,79449,1,4,0:0:0:50:
448,192,79449,128,0,79605:0:0:0:0:
192,192,79605,128,0,79761:0:0:0:0:
64,192,79761,128,8,79917:0:0:0:50:
320,192,79761,1,0,0:0:0:0:
448,192,79761,1,0,0:0:0:0:
192,192,79917,1,2,0:0:0:50:
448,192,79917,128,0,80230:0:0:0:0:
64,192,80230,1,2,0:0:0:50:
192,192,80230,1,0,0:0:0:0:
64,192,80386,1,8,0:0:0:50:
320,192,80386,1,0,0:0:0:0:
448,192,80386,1,0,0:0:0:0:
192,192,80542,128,2,80855:0:0:0:50:
320,192,80542,1,4,0:0:0:50:
448,192,80855,1,2,0:0:0:50:
320,192,80933,1,2,0:0:0:50:
64,192,81011,1,8,0:0:0:50:
192,192,81011,1,0,0:0:0:0:
448,192,81011,1,0,0:0:0:0:
320,192,81167,1,2,0:0:0:50:
64,192,81245,1,2,0:0:0:50:
192,192,81324,1,0,0:0:0:50:Tom2.wav
320,192,81324,1,0,0:0:0:0:
64,192,81402,1,0,0:0:0:50:Tom3.wav
448,192,81480,1,2,0:0:0:50:
320,192,81558,1,2,0:0:0:50:
64,192,81636,128,8,81792:0:0:0:50:
192,192,81636,1,4,0:0:0:50:
448,192,81636,1,0,0:0:0:0:
320,192,81792,128,0,81949:0:0:0:0:
64,192,81949,1,2,0:0:0:50:
192,192,81949,128,0,82105:0:0:0:0:
64,192,82105,128,2,82261:0:0:0:50:
448,192,82105,1,0,0:0:0:0:
192,192,82261,1,8,0:0:0:50:
320,192,82261,1,0,0:0:0:0:
448,192,82261,128,0,82417:0:0:0:0:
64,192,82417,128,2,82730:0:0:0:50:
192,192,82417,1,0,0:0:0:0:
320,192,82730,1,2,0:0:0:50:
448,192,82730,1,0,0:0:0:0:
64,192,82886,1,8,0:0:0:50:
192,192,82886,1,0,0:0:0:0:
448,192,82886,1,0,0:0:0:0:
192,192,83042,128,2,83355:0:0:0:50:
320,192,83042,1,0,0:0:0:0:
64,192,83355,1,2,0:0:0:50:
448,192,83355,128,0,83511:0:0:0:0:
320,192,83433,1,2,0:0:0:50:
64,192,83511,128,8,83667:0:0:0:50:
192,192,83511,1,0,0:0:0:0:
320,192,83667,128,2,83824:0:0:0:50:
192,192,83745,1,2,0:0:0:50:
64,192,83824,1,8,0:0:0:50:
448,192,83824,1,0,0:0:0:0:
192,192,83980,128,2,84136:0:0:0:50:
320,192,84058,1,2,0:0:0:50:
64,192,84136,1,8,0:0:0:50:
448,192,84136,128,0,84292:0:0:0:0:
320,192,84292,128,2,84449:0:0:0:50:
192,192,84370,1,2,0:0:0:50:
64,192,84449,1,8,0:0:0:50:
448,192,84449,1,0,0:0:0:0:
192,192,84605,128,2,84761:0:0:0:50:
320,192,84683,1,2,0:0:0:50:
64,192,84761,128,8,84917:0:0:0:50:
448,192,84761,1,0,0:0:0:0:
448,192,84917,128,2,85074:0:0:0:50:
192,192,84995,1,2,0:0:0:50:
64,192,85074,128,8,85230:0:0:0:50:
320,192,85074,1,0,0:0:0:0:
320,192,85230,128,2,85386:0:0:0:50:
192,192,85308,1,2,0:0:0:50:
64,192,85386,1,8,0:0:0:50:
448,192,85386,128,0,85542:0:0:0:0:
64,192,85542,128,2,85699:0:0:0:50:
192,192,85542,1,0,0:0:0:0:
320,192,85855,1,0,0:0:0:0:
192,192,86011,128,0,86167:0:0:0:0:
320,192,86324,128,2,86558:0:0:0:50:
448,192,86324,128,0,86558:0:0:0:0:
64,192,86558,128,2,86792:0:0:0:50:
192,192,86558,128,0,86792:0:0:0:0:
320,192,86792,128,2,86949:0:0:0:50:
448,192,86792,128,0,86949:0:0:0:0:
64,192,86949,128,2,87105:0:0:0:50:
192,192,86949,1,4,0:0:0:50:
320,192,87105,1,2,0:0:0:50:
448,192,87105,1,0,0:0:0:0:
192,192,87183,1,2,0:0:0:50:
64,192,87261,1,8,0:0:0:50:
320,192,87261,1,0,0:0:0:0:
448,192,87261,128,0,87417:0:0:0:0:
192,192,87417,1,2,0:0:0:50:
320,192,87495,1,2,0:0:0:50:
64,192,87574,1,8,0:0:0:50:
192,192,87574,1,0,0:0:0:0:
448,192,87574,1,0,0:0:0:0:
320,192,87730,1,2,0:0:0:50:
192,192,87808,1,2,0:0:0:50:
64,192,87886,1,8,0:0:0:50:
320,192,87886,1,0,0:0:0:0:
448,192,87886,1,0,0:0:0:0:
192,192,88042,1,2,0:0:0:50:
320,192,88120,1,2,0:0:0:50:
64,192,88199,1,8,0:0:0:50:
448,192,88199,1,0,0:0:0:0:
192,192,88277,1,8,0:0:0:50:
320,192,88355,1,2,0:0:0:50:
192,192,88433,1,2,0:0:0:50:
64,192,88511,1,8,0:0:0:50:
320,192,88511,1,0,0:0:0:0:
448,192,88511,1,0,0:0:0:0:
192,192,88667,1,2,0:0:0:50:
320,192,88745,1,2,0:0:0:50:
64,192,88824,1,8,0:0:0:50:
192,192,88824,1,0,0:0:0:0:
448,192,88902,1,8,0:0:0:50:
64,192,88980,1,2,0:0:0:50:
192,192,89058,1,2,0:0:0:50:
320,192,89136,1,8,0:0:0:50:
448,192,89136,1,0,0:0:0:0:
192,192,89214,1,8,0:0:0:50:
64,192,89292,128,2,89761:0:0:0:50:
320,192,89292,1,4,0:0:0:50:
448,192,89292,1,0,0:0:0:0:
