osu file format v14

[General]
AudioFilename: audio.mp3
AudioLeadIn: 0
PreviewTime: 60945
Countdown: 0
SampleSet: Soft
StackLeniency: 0.7
Mode: 0
LetterboxInBreaks: 0
WidescreenStoryboard: 1

[Editor]
Bookmarks: 16961,26961,36961,46961,54461,71961,87273
DistanceSpacing: 1
BeatDivisor: 2
GridSize: 16
TimelineZoom: 2.1

[Metadata]
Title:Dai Dai Dai Dai Daisuki na Kimi e <3 (TV Size)
TitleUnicode:大大大大大好きな君へ♡ (TV Size)
Artist:Hondo Kaede, Tomita Miyu, Naganawa Maria, Seto Asami, Asai Ayaka
ArtistUnicode:本渡 楓、富田美憂、長縄まりあ、瀬戸麻沙美、朝井彩加
Creator:Gabizon04
Version:Normal
Source:君のことが大大大大大好きな100人の彼女
Tags:the 100 girlfriends who really love you japanese j-pop jpop pop female vocals anime op opening 君のことが大大大大大好きな100人の彼女 kimi no koto ga daidaidaidaidaisuki na 100-nin no kanojo 花園羽香里 Hanazono Hakari 本渡 楓 Kaede Hondo 院田唐音 Inda Karane 富田美憂 Miyu Tomita 好本 静 Yoshimoto Shizuka 長縄まりあ Naganawa Maria 栄逢凪乃 Eiai Nano 瀬戸麻沙美 Setou Masami 薬膳楠莉 Yakuzen Kusuri 朝井彩加 Asai Ayaka cv cv: アニメ Hyakkano 100カノ Ando Sasa 安藤 紗々 Tabuchi Tomoya 田淵智也 Shuhei Mutsuki 睦月周平 Shunsuke Takizawa 滝澤俊輔 TRYTONELABO Eba Lantis LACM-24439
BeatmapID:4354798
BeatmapSetID:2076659

[Difficulty]
HPDrainRate:3
CircleSize:2.8
OverallDifficulty:5
ApproachRate:5.5
SliderMultiplier:1
SliderTickRate:1

[Events]
//Background and Video events
Video,592,"video.mp4"
0,0,"bg.png",0,0
//Break Periods
//Storyboard Layer 0 (Background)
//Storyboard Layer 1 (Fail)
//Storyboard Layer 2 (Pass)
//Storyboard Layer 3 (Foreground)
//Storyboard Layer 4 (Overlay)
//Storyboard Sound Samples

[TimingPoints]
711,312.5,4,2,1,50,1,0
1961,-125,4,2,1,50,0,0
11804,-100,4,2,1,70,0,0
16961,-90.9090909090909,4,2,1,75,0,0
25711,-100,4,2,1,75,0,0
26961,-111.111111111111,4,2,1,60,0,0
29461,-111.111111111111,4,2,1,60,0,0
30711,-111.111111111111,4,2,1,60,0,0
34461,-100,4,2,1,75,0,0
36961,-90.9090909090909,4,2,1,75,0,0
46961,-117.647058823529,4,2,1,60,0,0
54148,-125,4,2,1,80,0,0
54461,-100,4,2,1,80,0,0
61336,-100,4,2,1,80,0,0
61961,-90.9090909090909,4,2,1,80,0,1
76961,-90.9090909090909,4,2,1,80,0,0
86961,-90.9090909090909,4,2,1,80,0,1
87273,315.789473684211,4,2,1,80,1,1
87273,-90.9090909090909,4,2,1,80,0,1
89325,-90.9090909090909,4,2,1,80,0,0

[Colours]
Combo1 : 194,186,169
Combo2 : 242,196,145
Combo3 : 181,134,91

[HitObjects]
20,94,11804,6,0,P|39:138|54:195,1,100,6|2,3:2|0:0,0:0:0:0:
57,242,12273,1,2,3:2:0:0:
57,242,12429,1,2,3:2:0:0:
137,301,12742,2,0,L|122:359,2,50,2|2|2,3:2|3:2|3:2,0:0:0:0:
221,247,13367,2,0,P|266:241|317:297,1,100,2|2,3:2|3:2,0:0:0:0:
337,312,13836,2,0,P|384:298|445:281,1,100,2|10,3:2|3:2,0:0:0:0:
481,273,14304,1,6,3:2:0:0:
455,181,14617,1,10,0:0:0:0:
455,181,14773,1,10,0:0:0:0:
433,83,15086,6,0,L|465:4,2,75,6|2|2,3:2|3:2|3:2,0:0:0:0:
382,85,15711,2,0,P|336:66|286:46,1,100,6|10,3:2|3:2,0:0:0:0:
195,82,16336,2,0,L|229:187,1,100,10|2,3:2|3:2,0:0:0:0:
301,257,16961,5,6,3:2:0:0:
220,331,17273,1,2,3:2:0:0:
220,331,17429,2,0,P|170:317|107:304,1,110.000003356934,10|10,0:0|0:0,0:0:0:0:
27,236,18054,2,0,P|10:190|58:131,1,110.000003356934,10|10,0:0|0:0,0:0:0:0:
130,80,18679,2,0,P|174:98|240:122,1,110.000003356934,10|10,0:0|0:0,0:0:0:0:
284,139,19148,1,2,3:2:0:0:
366,65,19461,1,2,3:2:0:0:
496,242,20086,6,0,L|518:147,2,73.3333355712891,6|2|2,3:2|3:2|3:2,0:0:0:0:
442,292,20711,2,0,L|425:363,2,73.3333355712891,2|2|2,3:2|3:2|3:2,0:0:0:0:
390,239,21336,2,0,L|406:167,2,73.3333355712891,2|2|2,3:2|3:2|3:2,0:0:0:0:
330,282,21961,1,10,0:0:0:0:
248,208,22273,6,0,P|209:173|134:173,1,110.000003356934,6|2,3:2|3:2,0:0:0:0:
65,232,22898,1,0,3:0:0:0:
121,326,23211,1,8,0:0:0:0:
273,143,24461,6,0,P|312:157|366:173,2,82.5000025177003,6|2|10,3:2|0:0|0:0,0:0:0:0:
228,109,25086,2,0,P|177:129|133:144,2,82.5000025177003,2|2|2,0:0|3:2|3:2,0:0:0:0:
261,70,25711,1,2,3:2:0:0:
383,155,26179,2,0,P|368:209|352:266,1,100,2|2,3:2|3:2,0:0:0:0:
286,367,26961,6,0,P|201:334|192:247,1,179.999994506836,6|2,3:2|0:0,0:0:0:0:
291,165,28054,1,6,3:2:0:0:
406,94,28523,2,0,P|394:42|381:-9,2,89.9999972534181,2|2|2,0:0|0:0|3:2,0:0:0:0:
465,161,29461,2,0,P|448:215|437:258,1,89.9999972534181,6|2,3:2|0:0,0:0:0:0:
441,337,30086,1,2,3:2:0:0:
359,373,30398,1,2,3:2:0:0:
285,322,30711,6,0,P|241:342|199:361,1,89.9999972534181,6|0,3:2|3:0,0:0:0:0:
122,333,31336,1,10,0:0:0:0:
122,333,31492,1,2,0:0:0:0:
177,262,31804,2,0,P|188:229|174:175,1,89.9999972534181,6|8,3:2|0:0,0:0:0:0:
135,154,32273,1,2,0:0:0:0:
59,199,32586,1,10,0:0:0:0:
59,199,32742,1,2,0:0:0:0:
6,125,33054,6,0,P|16:85|33:24,1,89.9999972534181,2|8,3:2|0:0,0:0:0:0:
54,0,33523,1,2,3:2:0:0:
135,37,33836,2,0,P|179:54|233:73,1,89.9999972534181,10|2,0:0|3:2,0:0:0:0:
279,155,34461,5,6,3:2:0:0:
279,155,34617,2,0,L|337:128,1,50,10|10,0:0|0:0,0:0:0:0:
367,108,34929,1,2,3:2:0:0:
453,58,35242,1,2,3:2:0:0:
510,139,35554,2,0,L|488:249,1,99.9999999999999,6|2,3:2|3:2,0:0:0:0:
487,291,36023,1,10,0:0:0:0:
487,291,36179,2,0,P|434:299|408:348,1,100,6|0,3:2|3:0,0:0:0:0:
397,383,36648,1,8,0:0:0:0:
300,329,36961,6,0,P|284:289|275:265,2,55.0000016784668,14|2|2,3:2|3:2|3:2,0:0:0:0:
258,364,37429,2,0,P|234:377|158:352,1,110.000003356934,10|2,0:0|3:2,0:0:0:0:
127,310,37898,1,14,3:2:0:0:
81,215,38211,1,2,3:2:0:0:
81,215,38367,2,0,L|16:235,2,55.0000016784668,10|2|2,0:0|3:2|3:2,0:0:0:0:
111,169,38836,2,0,L|219:210,1,110.000003356934,10|10,0:0|0:0,0:0:0:0:
323,195,39461,6,0,L|309:136,2,55.0000016784668,14|2|2,3:2|3:2|3:2,0:0:0:0:
343,246,39929,2,0,P|403:257|445:217,1,110.000003356934,10|2,0:0|3:2,0:0:0:0:
473,185,40398,1,14,3:2:0:0:
429,90,40711,1,2,3:2:0:0:
429,90,40867,2,0,P|434:62|444:22,2,55.0000016784668,10|2|2,0:0|3:2|3:2,0:0:0:0:
376,105,41336,2,0,L|268:65,1,110.000003356934,2|10,3:2|0:0,0:0:0:0:
163,77,41961,6,0,P|154:53|144:22,2,55.0000016784668,14|2|2,3:2|3:2|3:2,0:0:0:0:
176,130,42429,2,0,P|186:191|131:233,1,110.000003356934,10|2,0:0|3:2,0:0:0:0:
109,252,42898,1,14,0:0:0:0:
147,361,43211,1,2,3:2:0:0:
147,361,43367,2,0,L|91:377,2,55.0000016784668,10|2|2,0:0|3:2|3:2,0:0:0:0:
187,323,43836,2,0,P|241:345|289:368,1,110.000003356934,10|10,0:0|0:0,0:0:0:0:
376,301,44461,6,0,P|390:251|410:193,1,110.000003356934,6|10,3:2|0:0,0:0:0:0:
398,86,45086,1,2,0:0:0:0:
294,123,45398,1,10,0:0:0:0:
238,28,45711,2,0,P|186:4|129:22,1,110.000003356934,2|8,3:2|0:0,0:0:0:0:
29,43,46336,2,0,P|42:104|53:155,1,110.000003356934,10|0,0:0|3:0,0:0:0:0:
142,212,46961,6,0,B|219:231|197:258|271:273,1,127.50000243187,6|2,3:2|3:2,0:0:0:0:
296,259,47586,1,2,3:2:0:0:
424,147,48211,2,0,P|441:92|403:35,1,127.50000243187,2|2,3:2|3:2,0:0:0:0:
365,22,48836,1,2,3:2:0:0:
333,189,49461,6,0,P|323:245|303:334,1,127.50000243187,2|2,3:2|3:2,0:0:0:0:
304,356,50086,1,2,3:2:0:0:
135,372,50711,2,0,P|73:350|51:340,1,85.0000016212464,2|2,3:2|0:0,0:0:0:0:
15,269,51336,1,2,3:2:0:0:
78,212,51648,1,2,0:0:0:0:
30,141,51961,6,0,P|104:114|162:91,1,127.50000243187,2|2,3:2|3:2,0:0:0:0:
191,87,52586,1,2,3:2:0:0:
358,113,53211,2,0,P|377:163|406:243,1,127.50000243187,2|2,3:2|0:0,0:0:0:0:
437,256,53836,2,0,P|416:307|401:345,1,85.0000016212464,2|8,3:2|0:0,0:0:0:0:
314,380,54461,5,6,3:2:0:0:
234,318,54773,1,10,0:0:0:0:
289,234,55086,2,0,P|298:190|315:132,1,100,2|10,3:2|0:0,0:0:0:0:
318,87,55554,1,6,3:2:0:0:
232,45,55867,1,2,3:2:0:0:
232,45,56023,2,0,L|168:64,1,50,10|2,0:0|0:0,0:0:0:0:
134,68,56336,1,2,3:2:0:0:
71,146,56648,1,10,0:0:0:0:
142,216,56961,6,0,P|130:255|115:328,1,100,6|10,3:2|0:0,0:0:0:0:
192,378,57586,1,10,0:0:0:0:
290,349,57898,1,10,0:0:0:0:
290,349,58054,2,0,P|316:304|274:226,1,100,2|2,3:2|0:0,0:0:0:0:
291,211,58523,2,0,L|225:191,2,50,10|2|10,0:0|3:2|0:0,0:0:0:0:
377,160,59148,1,10,0:0:0:0:
336,68,59461,6,0,P|307:60|277:51,1,50,10|8,3:2|0:0,0:0:0:0:
261,12,59773,2,0,P|232:20|202:29,1,50,8|8,3:2|0:0,0:0:0:0:
181,64,60086,2,0,P|152:56|122:47,1,50,8|8,3:2|0:0,0:0:0:0:
87,28,60398,1,8,3:2:0:0:
14,97,60711,1,2,3:2:0:0:
197,177,61336,2,0,L|292:138,1,100,2|14,3:2|0:0,0:0:0:0:
399,132,61961,5,2,3:2:0:0:
444,231,62273,2,0,P|453:266|442:298,1,55.0000016784668,2|10,3:2|0:0,0:0:0:0:
433,336,62586,2,0,P|409:357|372:357,1,55.0000016784668,2|10,3:2|0:0,0:0:0:0:
336,364,62898,1,2,3:2:0:0:
336,364,63054,1,10,0:0:0:0:
253,301,63367,5,8,0:0:0:0:
253,301,63523,2,0,L|199:315,1,55.0000016784668,2|10,3:2|0:0,0:0:0:0:
152,343,63836,2,0,L|86:323,1,55.0000016784668,2|10,3:2|0:0,0:0:0:0:
53,308,64148,1,2,3:2:0:0:
53,308,64304,1,10,0:0:0:0:
82,204,64617,5,8,0:0:0:0:
82,204,64773,2,0,L|101:140,1,55.0000016784668,2|10,3:2|0:0,0:0:0:0:
150,135,65086,2,0,L|136:49,1,55.0000016784668,2|10,3:2|0:0,0:0:0:0:
154,30,65398,1,2,3:2:0:0:
154,30,65554,2,0,P|195:44|269:66,1,110.000003356934,10|10,0:0|0:0,0:0:0:0:
318,71,66023,1,2,3:2:0:0:
318,71,66179,1,10,0:0:0:0:
426,52,66492,1,10,0:0:0:0:
460,156,66804,6,0,P|466:208|432:255,1,110.000003356934,6|10,3:2|0:0,0:0:0:0:
402,299,67273,1,2,3:2:0:0:
402,299,67429,2,0,P|355:310|286:327,1,110.000003356934,10|10,0:0|0:0,0:0:0:0:
246,344,67898,1,2,3:2:0:0:
246,344,68054,1,10,0:0:0:0:
145,299,68367,2,0,L|166:244,2,55.0000016784668,10|2|10,0:0|3:2|0:0,0:0:0:0:
49,353,68992,6,0,P|41:322|28:273,1,55.0000016784668,10|2,0:0|3:2,0:0:0:0:
10,250,69304,1,10,0:0:0:0:
87,171,69617,2,0,P|95:140|108:91,1,55.0000016784668,10|2,0:0|3:2,0:0:0:0:
127,70,69929,1,10,0:0:0:0:
230,32,70242,2,0,P|265:36|291:61,1,55.0000016784668,10|2,0:0|3:2,0:0:0:0:
310,93,70554,6,0,P|294:167|284:218,1,110.000003356934,10|10,0:0|0:0,0:0:0:0:
274,257,71023,1,2,3:2:0:0:
274,257,71179,1,10,0:0:0:0:
177,219,71492,1,10,0:0:0:0:
177,219,71648,2,0,L|122:205,1,55.0000016784668,10|10,0:0|0:0,0:0:0:0:
68,201,71961,6,0,P|62:263|92:303,1,110.000003356934,6|10,3:2|0:0,0:0:0:0:
170,372,72586,2,0,P|192:364|226:351,1,55.0000016784668,2|2,3:2|0:0,0:0:0:0:
272,327,72898,1,10,0:0:0:0:
272,327,73054,2,0,B|339:341|312:370|387:377,1,110.000003356934,2|2,0:0|0:0,0:0:0:0:
422,361,73523,1,10,0:0:0:0:
485,271,73836,2,0,L|470:206,1,55.0000016784668,2|2,3:2|0:0,0:0:0:0:
434,187,74148,1,10,0:0:0:0:
434,187,74304,6,0,L|455:78,1,110.000003356934,2|2,0:0|0:0,0:0:0:0:
463,24,74773,1,10,0:0:0:0:
358,47,75086,1,2,3:2:0:0:
358,47,75242,2,0,L|301:25,1,55.0000016784668,2|10,3:2|0:0,0:0:0:0:
255,7,75554,2,0,P|221:62|238:100,1,110.000003356934,6|0,3:2|3:0,0:0:0:0:
278,135,76023,1,10,0:0:0:0:
205,217,76336,1,10,0:0:0:0:
295,279,76648,2,0,L|274:340,1,55.0000016784668,10|2,0:0|0:0,0:0:0:0:
248,377,76961,6,0,P|199:379|149:327,1,110.000003356934,2|10,3:2|0:0,0:0:0:0:
122,299,77429,1,2,0:0:0:0:
122,299,77586,2,0,P|112:246|99:189,1,110.000003356934,2|10,3:2|0:0,0:0:0:0:
19,115,78211,1,2,3:2:0:0:
94,35,78523,2,0,P|148:58|207:87,1,110.000003356934,10|2,0:0|3:2,0:0:0:0:
241,109,78992,1,2,3:2:0:0:
241,109,79148,1,14,0:0:0:0:
315,28,79461,6,0,L|375:53,1,55.0000016784668,2|2,3:2|0:0,0:0:0:0:
406,94,79773,1,10,0:0:0:0:
406,94,79929,2,0,L|527:60,2,110.000003356934,2|2|2,3:2|3:2|3:2,0:0:0:0:
353,192,80867,1,0,3:0:0:0:
353,192,81023,1,8,0:0:0:0:
434,266,81336,2,0,L|490:284,2,55.0000016784668,8|2|10,0:0|3:2|0:0,0:0:0:0:
341,325,81961,6,0,P|304:310|238:288,1,110.000003356934,2|10,3:2|0:0,0:0:0:0:
186,267,82429,2,0,P|177:216|228:156,1,110.000003356934,2|2,3:2|3:2,0:0:0:0:
284,91,83054,1,6,3:2:0:0:
203,15,83367,2,0,L|145:38,1,55.0000016784668,2|10,0:0|0:0,0:0:0:0:
97,26,83679,2,0,P|86:86|73:139,1,110.000003356934,2|2,3:2|3:2,0:0:0:0:
61,190,84148,1,8,0:0:0:0:
61,190,84304,1,2,3:2:0:0:
65,300,84617,6,0,P|37:313|13:328,2,55.0000016784668,2|8|2,3:2|0:0|3:2,0:0:0:0:
120,304,85086,2,0,P|145:312|179:323,1,55.0000016784668,10|2,0:0|3:2,0:0:0:0:
229,340,85398,1,10,0:0:0:0:
229,340,85554,1,2,3:2:0:0:
331,300,85867,2,0,L|346:238,1,55.0000016784668,2|2,0:0|0:0,0:0:0:0:
276,158,86336,6,0,L|179:203,2,82.5000025177003,2|2|2,3:2|3:2|3:2,0:0:0:0:
324,132,86961,1,6,3:2:0:0:
427,168,87273,2,0,P|452:120|434:70,1,110.000003356934,10|10,0:0|0:0,0:0:0:0:
343,8,87904,1,10,0:0:0:0:
251,69,88220,2,0,L|194:48,1,55.0000016784668,10|2,0:0|3:2,0:0:0:0:
159,11,88536,6,0,L|107:35,1,55.0000016784668,10|2,0:0|3:2,0:0:0:0:
68,71,88851,2,0,L|-1:54,2,55.0000016784668,10|2|10,0:0|3:2|0:0,0:0:0:0:
93,119,89325,1,2,3:2:0:0:
