osu file format v14

[General]
AudioFilename: audio.mp3
AudioLeadIn: 0
PreviewTime: 60945
Countdown: 0
SampleSet: Soft
StackLeniency: 0.7
Mode: 0
LetterboxInBreaks: 0
WidescreenStoryboard: 1

[Editor]
Bookmarks: 16961,26961,36961,46961,54461,71961,87273
DistanceSpacing: 0.5
BeatDivisor: 8
GridSize: 16
TimelineZoom: 2.1

[Metadata]
Title:Dai Dai Dai Dai Daisuki na Kimi e <3 (TV Size)
TitleUnicode:大大大大大好きな君へ♡ (TV Size)
Artist:Hondo Kaede, Tomita Miyu, Naganawa Maria, Seto Asami, Asai Ayaka
ArtistUnicode:本渡 楓、富田美憂、長縄まりあ、瀬戸麻沙美、朝井彩加
Creator:Gabizon04
Version:Insane
Source:君のことが大大大大大好きな100人の彼女
Tags:the 100 girlfriends who really love you japanese j-pop jpop pop female vocals anime op opening 君のことが大大大大大好きな100人の彼女 kimi no koto ga daidaidaidaidaisuki na 100-nin no kanojo 花園羽香里 Hanazono Hakari 本渡 楓 Kaede Hondo 院田唐音 Inda Karane 富田美憂 Miyu Tomita 好本 静 Yoshimoto Shizuka 長縄まりあ Naganawa Maria 栄逢凪乃 Eiai Nano 瀬戸麻沙美 Setou Masami 薬膳楠莉 Yakuzen Kusuri 朝井彩加 Asai Ayaka cv cv: アニメ Hyakkano 100カノ Ando Sasa 安藤 紗々 Tabuchi Tomoya 田淵智也 Shuhei Mutsuki 睦月周平 Shunsuke Takizawa 滝澤俊輔 TRYTONELABO Eba Lantis LACM-24439
BeatmapID:4364911
BeatmapSetID:2076659

[Difficulty]
HPDrainRate:4.5
CircleSize:3.6
OverallDifficulty:7.5
ApproachRate:8.7
SliderMultiplier:1.55
SliderTickRate:1

[Events]
//Background and Video events
Video,592,"video.mp4"
0,0,"bg.png",0,0
//Break Periods
//Storyboard Layer 0 (Background)
//Storyboard Layer 1 (Fail)
//Storyboard Layer 2 (Pass)
//Storyboard Layer 3 (Foreground)
//Storyboard Layer 4 (Overlay)
//Storyboard Sound Samples

[TimingPoints]
711,312.5,4,2,1,50,1,0
1961,-142.857142857143,4,2,1,50,0,0
11804,-100,4,2,1,70,0,0
16961,-90.9090909090909,4,2,1,75,0,0
25711,-111.111111111111,4,2,1,75,0,0
26961,-250,4,2,1,60,0,0
28836,-153.846153846154,4,2,1,60,0,0
29461,-133.333333333333,4,2,1,60,0,0
30711,-111.111111111111,4,2,1,60,0,0
34461,-100,4,2,1,75,0,0
36961,-90.9090909090909,4,2,1,75,0,0
46961,-166.666666666667,4,2,1,60,0,0
51961,-125,4,2,1,60,0,0
54148,-125,4,2,1,80,0,0
54461,-90.9090909090909,4,2,1,80,0,0
61336,-90.9090909090909,4,2,1,80,0,0
61961,-90.9090909090909,4,2,1,80,0,1
76961,-90.9090909090909,4,2,1,80,0,0
86961,-90.9090909090909,4,2,1,80,0,1
87273,315.789473684211,4,2,1,80,1,1
87273,-90.9090909090909,4,2,1,80,0,1
89325,-90.9090909090909,4,2,1,80,0,0

[Colours]
Combo1 : 194,186,169
Combo2 : 242,196,145
Combo3 : 181,134,91

[HitObjects]
26,287,1961,6,0,P|73:268|144:237,1,108.499996688843,2|2,0:0|0:0,0:0:0:0:
169,164,2429,1,2,0:0:0:0:
169,164,2586,2,0,P|158:124|148:102,2,54.2499983444214,2|2|2,0:0|0:0|0:0,0:0:0:0:
288,247,3054,6,0,P|360:247|397:170,1,162.749995033264,2|2,0:0|0:0,0:0:0:0:
452,87,3679,1,2,0:0:0:0:
452,87,3836,2,0,P|483:98|523:111,2,54.2499983444214,2|2|2,0:0|0:0|0:0,0:0:0:0:
318,19,4304,6,0,B|234:21|270:78|173:89,1,162.749995033264,2|2,0:0|0:0,0:0:0:0:
80,66,4929,1,2,0:0:0:0:
80,66,5086,2,0,P|76:46|69:13,2,54.2499983444214,2|2|2,0:0|0:0|0:0,0:0:0:0:
165,179,5554,6,0,P|149:230|133:282,1,108.499996688843,2|2,0:0|0:0,0:0:0:0:
199,383,6023,1,2,0:0:0:0:
199,383,6179,2,0,P|151:362|95:396,1,108.499996688843,2|2,0:0|0:0,0:0:0:0:
301,312,6804,6,0,P|309:254|265:209,1,108.499996688843,2|2,0:0|0:0,0:0:0:0:
175,201,7273,1,2,0:0:0:0:
175,201,7429,2,0,P|189:137|217:26,1,162.749995033264,2|2,0:0|0:0,0:0:0:0:
288,0,8054,6,0,B|341:18|317:42|387:58,1,108.499996688843,2|2,0:0|0:0,0:0:0:0:
462,7,8523,1,2,0:0:0:0:
462,7,8679,2,0,P|482:50|451:109,1,108.499996688843,2|2,0:0|0:0,0:0:0:0:
386,160,9148,1,2,0:0:0:0:
485,242,9304,6,0,P|464:292|450:344,1,108.499996688843,6|2,0:0|0:0,0:0:0:0:
360,258,9773,1,2,0:0:0:0:
360,258,9929,2,0,P|319:224|267:236,1,108.499996688843,2|2,0:0|0:0,0:0:0:0:
177,313,10398,1,2,0:0:0:0:
177,313,10554,1,2,0:0:0:0:
105,216,10711,6,0,P|114:190|124:155,2,54.2499983444214,2|2|2,0:0|0:0|0:0,0:0:0:0:
31,112,11179,1,2,0:0:0:0:
178,8,11492,1,2,0:0:0:0:
272,242,11804,6,0,P|364:211|429:191,1,155,6|2,3:2|0:0,0:0:0:0:
512,147,12273,1,2,3:2:0:0:
512,147,12351,1,0,3:0:0:0:
512,147,12429,2,0,P|522:105|497:63,1,77.5,2|0,3:2|3:0,0:0:0:0:
406,4,12742,2,0,L|358:26,2,38.75,2|0|2,3:2|3:0|3:2,0:0:0:0:
304,107,13054,2,0,L|259:86,2,38.75,2|0|0,3:2|3:0|3:0,0:0:0:0:
207,20,13367,6,0,P|171:31|56:78,1,155,2|2,3:2|3:2,0:0:0:0:
24,169,13836,1,2,3:2:0:0:
24,169,13914,1,0,3:0:0:0:
24,169,13992,1,2,3:2:0:0:
157,257,14148,5,10,3:2:0:0:
64,377,14304,2,0,P|8:328|28:239,1,155,6|10,3:2|0:0,0:0:0:0:
111,178,14773,1,10,0:0:0:0:
258,350,15086,6,0,P|301:334|382:303,2,116.25,6|2|2,3:2|3:2|3:2,0:0:0:0:
362,216,15711,2,0,P|405:232|458:253,1,77.5,6|0,3:2|3:0,0:0:0:0:
467,259,15945,1,0,3:0:0:0:
467,259,16023,1,10,3:2:0:0:
436,128,16336,2,0,L|454:87,3,38.75,10|10|10|10,3:2|0:0|0:0|0:0,0:0:0:0:
460,75,16648,1,2,3:2:0:0:
454,56,16726,1,2,3:2:0:0:
441,41,16804,1,2,3:2:0:0:
422,35,16882,1,2,3:2:0:0:
401,40,16961,6,0,B|308:47|353:107|244:111,1,170.500005203247,6|2,3:2|3:2,0:0:0:0:
128,5,17429,2,0,P|137:49|148:100,1,85.2500026016236,10|0,0:0|3:0,0:0:0:0:
175,199,17742,1,10,0:0:0:0:
153,110,17898,1,2,3:2:0:0:
284,217,18054,6,0,P|348:239|462:282,1,170.500005203247,10|10,0:0|0:0,0:0:0:0:
422,176,18523,1,2,3:2:0:0:
295,324,18679,2,0,P|212:301|182:225,1,170.500005203247,10|10,0:0|0:0,0:0:0:0:
230,123,19148,5,2,3:2:0:0:
230,123,19304,1,10,0:0:0:0:
83,234,19461,2,0,P|67:182|16:42,1,170.500005203247,2|2,3:2|0:0,0:0:0:0:
20,48,19851,1,2,0:0:0:0:
20,48,19929,1,2,0:0:0:0:
230,123,20086,6,0,P|274:107|354:78,2,113.666670135498,6|2|2,3:2|3:2|3:2,0:0:0:0:
290,318,20711,6,0,P|246:281|202:244,2,113.666670135498,2|2|2,3:2|3:2|3:2,0:0:0:0:
425,164,21336,6,0,P|415:219|405:275,2,113.666670135498,2|2|2,3:2|3:2|3:2,0:0:0:0:
452,39,21961,1,10,0:0:0:0:
452,39,22273,6,0,P|427:69|366:68,1,85.2500026016236,6|0,3:2|0:0,0:0:0:0:
281,181,22586,2,0,P|248:115|132:106,2,170.500005203247,2|0|8,3:2|3:0|0:0,0:0:0:0:
129,384,24461,6,0,P|111:324|78:216,1,170.500005203247,6|8,3:2|0:0,0:0:0:0:
238,197,24929,2,0,P|217:234|200:273,1,85.2500026016236,10|2,0:0|0:0,0:0:0:0:
131,148,25242,1,0,3:0:0:0:
131,148,25320,1,2,3:2:0:0:
131,148,25398,2,0,P|108:89|98:61,1,85.2500026016236,8|2,0:0|3:2,0:0:0:0:
292,56,25711,2,0,P|279:86|236:110,2,69.749997871399,2|0|0,3:2|3:0|3:0,0:0:0:0:
192,8,26179,1,2,3:2:0:0:
380,151,26492,2,0,P|431:166|458:177,2,69.749997871399,2|2|2,3:2|0:0|3:2,0:0:0:0:
270,192,26961,6,0,P|325:242|318:319,1,155,6|2,3:2|0:0,0:0:0:0:
52,297,28054,2,0,P|94:254|154:262,1,124,6|8,3:2|0:0,0:0:0:0:
244,364,28836,2,0,L|266:308,1,50.3749976940156,2|10,0:0|0:0,0:0:0:0:
375,264,29148,2,0,L|393:210,1,50.3749976940156,2|0,3:2|3:0,0:0:0:0:
498,61,29461,6,0,B|378:62|428:154|287:149,1,232.500008869171,6|2,3:2|3:2,0:0:0:0:
170,28,30398,1,2,3:2:0:0:
56,193,30711,2,0,P|112:197|165:127,1,139.499995742798,6|0,3:2|3:0,0:0:0:0:
70,99,31179,1,0,3:0:0:0:
70,99,31336,2,0,P|60:53|52:28,2,69.749997871399,10|2|2,0:0|0:0|3:2,0:0:0:0:
194,177,31804,6,0,P|255:155|330:132,1,139.499995742798,6|8,3:2|0:0,0:0:0:0:
439,179,32273,2,0,P|448:147|461:108,1,69.749997871399,2|0,0:0|3:0,0:0:0:0:
352,210,32586,2,0,P|365:242|376:275,2,69.749997871399,10|2|2,0:0|0:0|0:0,0:0:0:0:
254,316,33054,2,0,P|187:315|145:260,1,139.499995742798,2|8,3:2|0:0,0:0:0:0:
60,189,33523,2,0,P|83:164|124:157,1,69.749997871399,2|0,3:2|3:0,0:0:0:0:
225,179,33836,1,10,0:0:0:0:
225,179,33992,1,2,3:2:0:0:
184,73,34148,1,2,3:2:0:0:
53,271,34461,5,6,3:2:0:0:
53,271,34617,1,10,0:0:0:0:
0,191,34773,1,10,0:0:0:0:
135,302,34929,2,0,P|169:289|208:277,1,77.5,2|0,3:2|0:0,0:0:0:0:
351,243,35242,2,0,P|315:233|275:217,1,77.5,2|8,3:2|0:0,0:0:0:0:
396,359,35554,6,0,P|415:304|452:213,1,155,6|2,3:2|3:2,0:0:0:0:
426,112,36023,1,10,0:0:0:0:
277,218,36179,2,0,P|214:213|165:137,1,155,6|0,3:2|3:0,0:0:0:0:
220,40,36648,1,8,0:0:0:0:
82,123,36804,5,2,3:2:0:0:
82,123,36882,1,2,3:2:0:0:
82,123,36961,2,0,P|46:110|-3:92,2,85.2500026016236,14|2|2,3:2|3:2|3:2,0:0:0:0:
157,201,37429,1,10,0:0:0:0:
157,201,37586,1,2,3:2:0:0:
79,265,37742,1,2,3:2:0:0:
235,135,37898,6,0,B|339:157|287:205|402:223,1,170.500005203247,14|2,3:2|3:2,0:0:0:0:
488,190,38367,1,10,0:0:0:0:
488,190,38523,1,2,3:2:0:0:
407,115,38679,1,2,3:2:0:0:
269,263,38836,6,0,P|278:298|293:345,1,85.2500026016236,10|0,0:0|3:0,0:0:0:0:
112,247,39148,2,0,P|100:211|83:160,1,85.2500026016236,10|0,0:0|3:0,0:0:0:0:
141,69,39461,5,14,3:2:0:0:
141,69,39617,1,2,3:2:0:0:
216,146,39773,1,2,3:2:0:0:
321,41,39929,6,0,P|362:41|401:68,2,85.2500026016236,10|2|2,0:0|3:2|3:2,0:0:0:0:
400,168,40398,2,0,P|441:168|480:140,2,85.2500026016236,14|2|2,3:2|3:2|3:2,0:0:0:0:
265,132,40867,5,10,0:0:0:0:
265,132,41023,1,2,3:2:0:0:
388,181,41179,1,2,3:2:0:0:
297,268,41336,2,0,L|283:224,3,42.6250013008118,2|0|0|0,3:2|3:0|3:0|3:0,0:0:0:0:
333,291,41648,2,0,P|327:319|316:374,1,85.2500026016236,10|2,0:0|3:2,0:0:0:0:
198,261,41961,6,0,P|169:255|122:283,1,85.2500026016236,14|2,3:2|3:2,0:0:0:0:
17,377,42273,2,0,L|6:335,2,42.6250013008118,2|0|10,3:2|3:0|0:0,0:0:0:0:
117,298,42586,1,2,3:2:0:0:
14,195,42742,1,2,3:2:0:0:
14,195,42820,1,0,3:0:0:0:
14,195,42898,2,0,P|7:157|41:110,1,85.2500026016236,14|2,0:0|3:2,0:0:0:0:
155,30,43211,2,0,L|198:9,2,42.6250013008118,2|0|10,3:2|3:0|0:0,0:0:0:0:
43,1,43523,1,2,3:2:0:0:
225,109,43679,5,2,3:2:0:0:
225,109,43757,1,0,3:0:0:0:
225,109,43836,2,0,P|271:120|316:138,1,85.2500026016236,10|0,0:0|3:0,0:0:0:0:
421,212,44148,1,10,0:0:0:0:
421,212,44461,6,0,P|415:145|496:85,2,170.500005203247,6|10|2,3:2|0:0|0:0,0:0:0:0:
512,277,45242,1,0,3:0:0:0:
423,374,45398,2,0,P|412:334|397:292,1,85.2500026016236,10|0,0:0|0:0,0:0:0:0:
264,196,45711,6,0,B|182:212|211:270|120:281,1,170.500005203247,2|8,3:2|0:0,0:0:0:0:
0,63,46336,2,0,P|81:60|128:126,1,170.500005203247,10|0,0:0|3:0,0:0:0:0:
51,194,46804,1,0,3:0:0:0:
56,209,46961,6,0,P|65:242|81:311,1,92.9999971618653,6|0,3:2|0:0,0:0:0:0:
140,371,47429,1,2,3:2:0:0:
140,371,47586,2,0,P|180:362|193:351,1,46.4999985809327,2|0,3:2|0:0,0:0:0:0:
242,289,47898,2,0,P|280:288|300:302,1,46.4999985809327,0|0,0:0|3:0,0:0:0:0:
372,364,48211,6,0,P|420:339|432:297,1,92.9999971618653,2|0,3:2|0:0,0:0:0:0:
402,224,48679,1,2,3:2:0:0:
402,224,48836,2,0,P|364:243|341:255,1,46.4999985809327,2|0,3:2|0:0,0:0:0:0:
272,193,49148,2,0,P|264:163|257:142,1,46.4999985809327,0|0,0:0|3:0,0:0:0:0:
237,43,49461,6,0,B|298:51|278:68|332:74,1,92.9999971618653,2|0,3:2|0:0,0:0:0:0:
413,50,49929,1,2,3:2:0:0:
413,50,50086,2,0,P|417:90|403:108,1,46.4999985809327,2|0,3:2|0:0,0:0:0:0:
360,167,50398,2,0,P|351:194|359:220,1,46.4999985809327,0|0,0:0|3:0,0:0:0:0:
454,298,50711,6,0,L|474:256,1,46.4999985809327,2|2,3:2|0:0,0:0:0:0:
376,343,51023,2,0,L|356:302,1,46.4999985809327,2|2,0:0|3:2,0:0:0:0:
271,236,51336,1,2,3:2:0:0:
271,236,51492,1,2,0:0:0:0:
192,307,51648,2,0,L|162:294,3,23.2499992904663,2|2|2|2,0:0|0:0|0:0|0:0,0:0:0:0:
148,271,51961,6,0,P|160:227|190:129,1,124,2|0,3:2|0:0,0:0:0:0:
230,14,52429,1,2,3:2:0:0:
230,14,52586,2,0,P|190:34|175:64,1,62,2|0,3:2|0:0,0:0:0:0:
41,33,52898,2,0,P|54:65|65:96,1,62,0|0,0:0|3:0,0:0:0:0:
207,174,53211,6,0,P|270:147|349:122,1,124,2|2,3:2|3:2,0:0:0:0:
400,66,53679,1,2,0:0:0:0:
456,172,53836,5,2,3:2:0:0:
456,172,53914,1,0,3:0:0:0:
456,172,53992,1,0,3:0:0:0:
456,172,54070,1,0,3:0:0:0:
456,172,54148,1,8,0:0:0:0:
301,272,54461,6,0,P|373:261|446:331,2,170.500005203247,6|10|2,3:2|0:0|3:2,0:0:0:0:
210,301,55242,1,0,3:0:0:0:
210,301,55398,1,10,0:0:0:0:
314,185,55554,6,0,P|323:146|361:20,1,170.500005203247,6|2,3:2|3:2,0:0:0:0:
429,111,56023,1,10,0:0:0:0:
429,111,56179,1,2,0:0:0:0:
294,70,56336,2,0,P|239:86|205:94,1,85.2500026016236,2|0,3:2|3:0,0:0:0:0:
101,208,56648,2,0,P|142:197|183:185,1,85.2500026016236,10|0,0:0|3:0,0:0:0:0:
335,292,56961,6,0,P|339:212|268:161,2,170.500005203247,6|10|10,3:2|0:0|0:0,0:0:0:0:
296,378,57742,1,0,3:0:0:0:
296,378,57898,1,10,0:0:0:0:
173,232,58054,2,0,P|94:262|10:298,1,170.500005203247,2|2,3:2|0:0,0:0:0:0:
128,360,58523,1,10,0:0:0:0:
128,360,58679,1,2,3:2:0:0:
269,218,58836,2,0,P|279:183|246:134,1,85.2500026016236,10|0,0:0|3:0,0:0:0:0:
68,43,59148,2,0,P|60:88|91:125,1,85.2500026016236,10|0,0:0|3:0,0:0:0:0:
191,294,59461,6,0,L|179:251,3,42.6250013008118,10|8|8|8,3:2|0:0|0:0|0:0,0:0:0:0:
269,218,59773,2,0,L|281:175,3,42.6250013008118,8|8|8|8,3:2|0:0|0:0|0:0,0:0:0:0:
230,93,60086,2,0,L|218:50,3,42.6250013008118,8|8|8|8,3:2|0:0|0:0|0:0,0:0:0:0:
306,8,60398,1,8,3:2:0:0:
326,16,60476,1,8,0:0:0:0:
346,24,60554,1,8,0:0:0:0:
366,32,60632,1,8,0:0:0:0:
386,41,60711,1,2,3:2:0:0:
506,153,61336,5,2,3:2:0:0:
506,153,61414,1,0,3:0:0:0:
506,153,61492,1,0,3:0:0:0:
506,153,61570,1,0,3:0:0:0:
506,153,61648,2,0,P|467:180|424:174,1,85.2500026016236,14|2,0:0|0:0,0:0:0:0:
283,22,61961,6,0,P|298:72|312:119,1,85.2500026016236,2|10,3:2|0:0,0:0:0:0:
343,242,62273,1,2,3:2:0:0:
343,242,62351,1,0,3:0:0:0:
343,242,62429,1,10,0:0:0:0:
161,204,62586,2,0,P|200:189|250:174,1,85.2500026016236,2|10,3:2|0:0,0:0:0:0:
144,94,62898,1,2,3:2:0:0:
69,290,63054,6,0,P|46:207|18:127,1,170.500005203247,10|8,0:0|0:0,0:0:0:0:
85,19,63523,1,2,3:2:0:0:
85,19,63601,1,0,3:0:0:0:
85,19,63679,1,10,0:0:0:0:
223,145,63836,2,0,P|238:109|265:58,1,85.2500026016236,2|10,3:2|0:0,0:0:0:0:
166,0,64148,1,2,3:2:0:0:
331,115,64304,6,0,B|432:124|384:188|484:186,1,170.500005203247,10|8,0:0|0:0,0:0:0:0:
339,297,64773,2,0,P|317:275|321:217,1,85.2500026016236,2|10,3:2|0:0,0:0:0:0:
455,318,65086,1,2,3:2:0:0:
455,318,65242,1,10,0:0:0:0:
309,384,65398,1,2,3:2:0:0:
472,291,65554,6,0,P|483:251|498:204,1,85.2500026016236,10|0,0:0|3:0,0:0:0:0:
385,95,65867,1,10,0:0:0:0:
494,187,66023,1,2,3:2:0:0:
363,81,66179,2,0,P|360:37|386:5,1,85.2500026016236,10|0,0:0|3:0,0:0:0:0:
395,190,66492,1,10,0:0:0:0:
395,190,66804,6,0,P|349:136|254:152,1,170.500005203247,6|10,3:2|0:0,0:0:0:0:
149,219,67273,1,2,3:2:0:0:
149,219,67351,1,0,3:0:0:0:
149,219,67429,2,0,P|96:198|63:182,1,85.2500026016236,10|2,0:0|3:2,0:0:0:0:
0,267,67742,1,10,0:0:0:0:
0,267,67898,1,2,3:2:0:0:
182,384,68054,6,0,P|200:323|235:219,1,170.500005203247,10|10,0:0|0:0,0:0:0:0:
340,221,68523,1,2,3:2:0:0:
185,128,68679,2,0,P|152:108|149:45,1,85.2500026016236,10|0,0:0|3:0,0:0:0:0:
228,0,68992,5,10,0:0:0:0:
228,0,69148,1,2,3:2:0:0:
369,95,69304,2,0,P|413:79|455:65,1,85.2500026016236,10|0,0:0|3:0,0:0:0:0:
270,86,69617,5,10,0:0:0:0:
270,86,69773,1,2,3:2:0:0:
427,222,69929,2,0,P|468:209|512:195,1,85.2500026016236,10|0,0:0|3:0,0:0:0:0:
305,191,70242,5,10,0:0:0:0:
305,191,70398,1,2,3:2:0:0:
431,384,70554,2,0,P|479:368|524:358,1,85.2500026016236,10|0,0:0|3:0,0:0:0:0:
308,290,70867,1,10,0:0:0:0:
308,290,71023,1,2,3:2:0:0:
150,384,71179,2,0,P|119:356|127:296,1,85.2500026016236,10|0,0:0|3:0,0:0:0:0:
79,148,71492,5,10,0:0:0:0:
79,148,71570,1,8,0:0:0:0:
79,148,71648,2,0,L|65:104,3,42.6250013008118,10|8|10|8,0:0|0:0|0:0|0:0,0:0:0:0:
105,8,71961,6,0,B|199:12|161:67|264:73,1,170.500005203247,6|10,3:2|0:0,0:0:0:0:
408,15,72429,1,2,0:0:0:0:
408,15,72586,1,2,3:2:0:0:
295,90,72742,1,2,0:0:0:0:
295,90,72898,1,10,0:0:0:0:
449,208,73054,6,0,P|468:146|506:39,1,170.500005203247,2|2,0:0|0:0,0:0:0:0:
336,80,73523,2,0,P|350:120|365:169,1,85.2500026016236,10|2,0:0|0:0,0:0:0:0:
306,260,73836,1,2,3:2:0:0:
395,331,73992,1,2,0:0:0:0:
300,384,74148,1,10,0:0:0:0:
475,254,74304,6,0,P|486:213|404:128,1,170.500005203247,2|2,0:0|0:0,0:0:0:0:
377,129,74695,1,0,3:0:0:0:
377,129,74773,1,10,0:0:0:0:
486,40,74929,2,0,L|500:-4,2,42.6250013008118,2|0|2,3:2|3:0|3:2,0:0:0:0:
507,172,75242,1,2,3:2:0:0:
507,172,75320,1,0,3:0:0:0:
507,172,75398,1,10,0:0:0:0:
343,32,75554,6,0,P|267:63|178:100,1,170.500005203247,6|0,3:2|3:0,0:0:0:0:
44,36,76023,2,0,P|61:88|74:132,1,85.2500026016236,10|0,0:0|3:0,0:0:0:0:
128,265,76336,2,0,P|145:213|161:169,1,85.2500026016236,10|0,0:0|3:0,0:0:0:0:
39,256,76648,1,10,0:0:0:0:
39,256,76804,1,2,0:0:0:0:
176,375,76961,6,0,P|210:358|266:340,1,85.2500026016236,2|0,3:2|3:0,0:0:0:0:
431,379,77273,2,0,P|405:289|401:273,1,85.2500026016236,10|2,0:0|0:0,0:0:0:0:
381,277,77507,1,2,0:0:0:0:
381,277,77586,2,0,P|396:227|412:180,1,85.2500026016236,2|0,3:2|3:0,0:0:0:0:
479,32,77898,2,0,P|465:76|492:119,1,85.2500026016236,10|2,0:0|0:0,0:0:0:0:
313,135,78211,6,0,P|273:119|233:103,1,85.2500026016236,2|0,3:2|3:0,0:0:0:0:
56,76,78523,2,0,P|138:69|182:0,1,170.500005203247,10|2,0:0|3:2,0:0:0:0:
233,103,78992,1,2,3:2:0:0:
233,103,79070,1,0,3:0:0:0:
233,103,79148,2,0,P|220:154|208:192,1,85.2500026016236,14|0,0:0|0:0,0:0:0:0:
99,265,79461,5,2,3:2:0:0:
99,265,79617,1,2,0:0:0:0:
200,204,79773,1,10,0:0:0:0:
250,323,79929,2,0,L|236:365,2,42.6250013008118,2|8|0,3:2|0:0|3:0,0:0:0:0:
363,238,80242,2,0,P|352:198|336:142,1,85.2500026016236,2|10,3:2|0:0,0:0:0:0:
512,295,80554,6,0,B|423:303|456:361|350:367,1,170.500005203247,2|0,3:2|3:0,0:0:0:0:
242,303,81023,1,8,0:0:0:0:
363,238,81179,2,0,L|405:255,2,42.6250013008118,0|0|8,3:0|3:0|0:0,0:0:0:0:
245,167,81492,1,2,3:2:0:0:
245,167,81570,1,0,3:0:0:0:
245,167,81648,2,0,P|238:136|218:80,1,85.2500026016236,10|2,0:0|0:0,0:0:0:0:
342,6,81961,5,2,3:2:0:0:
342,6,82117,1,2,3:2:0:0:
229,75,82273,1,10,0:0:0:0:
419,181,82429,6,0,P|447:147|443:98,1,85.2500026016236,2|0,3:2|0:0,0:0:0:0:
300,225,82742,2,0,P|272:259|276:308,1,85.2500026016236,2|8,3:2|0:0,0:0:0:0:
512,355,83054,6,0,P|465:332|337:281,1,170.500005203247,6|2,3:2|0:0,0:0:0:0:
246,384,83523,1,10,0:0:0:0:
166,273,83679,2,0,P|152:235|136:193,1,85.2500026016236,2|8,3:2|0:0,0:0:0:0:
208,60,83992,1,2,3:2:0:0:
208,60,84070,1,0,3:0:0:0:
208,60,84148,1,8,0:0:0:0:
63,117,84304,2,0,P|27:95|25:43,1,85.2500026016236,2|8,3:2|0:0,0:0:0:0:
167,159,84617,6,0,L|222:139,2,42.6250013008118,2|0|8,3:2|3:0|0:0,0:0:0:0:
43,241,84929,2,0,L|-12:221,2,42.6250013008118,2|0|10,3:2|3:0|0:0,0:0:0:0:
147,344,85242,1,2,3:2:0:0:
147,344,85320,1,0,3:0:0:0:
147,344,85399,1,10,0:0:0:0:
287,221,85554,6,0,B|381:229|341:293|445:300,1,170.500005203247,2|2,3:2|0:0,0:0:0:0:
508,248,86023,1,2,0:0:0:0:
314,384,86336,6,0,P|301:328|278:258,2,127.875003902435,2|2|2,3:2|3:2|3:2,0:0:0:0:
421,215,86961,6,0,P|434:179|456:131,1,85.2500026016236,6|0,3:2|3:0,0:0:0:0:
474,114,87195,1,0,3:0:0:0:
474,114,87273,1,10,0:0:0:0:
332,40,87430,2,0,L|316:-7,2,42.6250013008118,2|0|10,3:2|3:0|0:0,0:0:0:0:
329,181,87746,2,0,L|315:221,2,42.6250013008118,2|0|10,3:2|3:0|0:0,0:0:0:0:
190,109,88062,5,2,3:2:0:0:
190,109,88141,1,0,3:0:0:0:
190,109,88220,2,0,L|135:89,3,42.6250013008118,10|8|2|0,0:0|0:0|3:2|3:0,0:0:0:0:
117,74,88536,2,0,L|62:94,3,42.6250013008118,10|8|2|0,0:0|0:0|3:2|3:0,0:0:0:0:
53,98,88851,5,10,0:0:0:0:
34,116,88930,1,10,0:0:0:0:
23,139,89009,1,2,3:2:0:0:
21,165,89088,1,2,3:2:0:0:
29,190,89167,1,10,0:0:0:0:
45,210,89246,1,10,0:0:0:0:
67,223,89325,1,2,3:2:0:0:
