osu file format v14

[General]
AudioFilename: audio.mp3
AudioLeadIn: 0
PreviewTime: 60945
Countdown: 0
SampleSet: Soft
StackLeniency: 0.7
Mode: 0
LetterboxInBreaks: 0
WidescreenStoryboard: 1

[Editor]
Bookmarks: 16961,26961,36961,46961,54461,71961,87273
DistanceSpacing: 1.4
BeatDivisor: 4
GridSize: 16
TimelineZoom: 2.1

[Metadata]
Title:Dai Dai Dai Dai Daisuki na Kimi e <3 (TV Size)
TitleUnicode:大大大大大好きな君へ♡ (TV Size)
Artist:Hondo Kaede, Tomita Miyu, Naganawa Maria, Seto Asami, Asai Ayaka
ArtistUnicode:本渡 楓、富田美憂、長縄まりあ、瀬戸麻沙美、朝井彩加
Creator:Gabizon04
Version:Hard
Source:君のことが大大大大大好きな100人の彼女
Tags:the 100 girlfriends who really love you japanese j-pop jpop pop female vocals anime op opening 君のことが大大大大大好きな100人の彼女 kimi no koto ga daidaidaidaidaisuki na 100-nin no kanojo 花園羽香里 Hanazono Hakari 本渡 楓 Kaede Hondo 院田唐音 Inda Karane 富田美憂 Miyu Tomita 好本 静 Yoshimoto Shizuka 長縄まりあ Naganawa Maria 栄逢凪乃 Eiai Nano 瀬戸麻沙美 Setou Masami 薬膳楠莉 Yakuzen Kusuri 朝井彩加 Asai Ayaka cv cv: アニメ Hyakkano 100カノ Ando Sasa 安藤 紗々 Tabuchi Tomoya 田淵智也 Shuhei Mutsuki 睦月周平 Shunsuke Takizawa 滝澤俊輔 TRYTONELABO Eba Lantis LACM-24439
BeatmapID:4354797
BeatmapSetID:2076659

[Difficulty]
HPDrainRate:4
CircleSize:3.2
OverallDifficulty:7
ApproachRate:7.8
SliderMultiplier:1.4
SliderTickRate:1

[Events]
//Background and Video events
Video,592,"video.mp4"
0,0,"bg.png",0,0
//Break Periods
//Storyboard Layer 0 (Background)
//Storyboard Layer 1 (Fail)
//Storyboard Layer 2 (Pass)
//Storyboard Layer 3 (Foreground)
//Storyboard Layer 4 (Overlay)
//Storyboard Sound Samples

[TimingPoints]
711,312.5,4,2,1,50,1,0
1961,-142.857142857143,4,2,1,50,0,0
11804,-100,4,2,1,70,0,0
16961,-90.9090909090909,4,2,1,75,0,0
25711,-111.111111111111,4,2,1,75,0,0
26961,-166.666666666667,4,2,1,60,0,0
29461,-166.666666666667,4,2,1,60,0,0
30711,-111.111111111111,4,2,1,60,0,0
34461,-100,4,2,1,75,0,0
36961,-90.9090909090909,4,2,1,75,0,0
46961,-142.857142857143,4,2,1,60,0,0
53836,-125,4,2,1,60,0,0
54148,-125,4,2,1,80,0,0
54461,-90.9090909090909,4,2,1,80,0,0
61336,-90.9090909090909,4,2,1,80,0,0
61961,-90.9090909090909,4,2,1,80,0,1
76961,-90.9090909090909,4,2,1,80,0,0
86961,-90.9090909090909,4,2,1,80,0,1
87273,315.789473684211,4,2,1,80,1,1
87273,-90.9090909090909,4,2,1,80,0,1
89325,-90.9090909090909,4,2,1,80,0,0

[Colours]
Combo1 : 194,186,169
Combo2 : 242,196,145
Combo3 : 181,134,91

[HitObjects]
454,312,1961,6,0,P|411:305|380:260,1,97.9999970092774,2|2,0:0|0:0,0:0:0:0:
414,194,2429,1,2,0:0:0:0:
414,194,2586,2,0,P|425:154|435:132,2,48.9999985046387,2|2|2,0:0|0:0|0:0,0:0:0:0:
322,160,3054,6,0,B|245:168|279:223|185:229,1,146.999995513916,2|2,0:0|0:0,0:0:0:0:
123,216,3679,1,2,0:0:0:0:
123,216,3836,2,0,P|92:227|52:240,2,48.9999985046387,2|2|2,0:0|0:0|0:0,0:0:0:0:
181,137,4304,6,0,P|191:95|124:20,1,146.999995513916,2|2,0:0|0:0,0:0:0:0:
57,47,4929,1,2,0:0:0:0:
57,47,5086,2,0,P|53:27|46:-6,2,48.9999985046387,2|2|2,0:0|0:0|0:0,0:0:0:0:
15,136,5554,6,0,P|32:192|47:242,1,97.9999970092774,2|2,0:0|0:0,0:0:0:0:
28,310,6023,1,2,0:0:0:0:
28,310,6179,2,0,P|76:331|132:297,1,97.9999970092774,2|2,0:0|0:0,0:0:0:0:
211,190,6804,6,0,B|269:204|239:230|304:240,1,97.9999970092774,2|2,0:0|0:0,0:0:0:0:
355,188,7273,1,2,0:0:0:0:
355,188,7429,2,0,P|341:252|320:345,1,146.999995513916,2|2,0:0|0:0,0:0:0:0:
256,372,8054,6,0,P|230:343|173:339,1,97.9999970092774,2|2,0:0|0:0,0:0:0:0:
109,383,8523,1,2,0:0:0:0:
109,383,8679,1,2,0:0:0:0:
6,263,8992,2,0,P|8:232|32:203,1,48.9999985046387,2|2,0:0|0:0,0:0:0:0:
89,189,9304,6,0,P|115:140|98:91,1,97.9999970092774,6|2,0:0|0:0,0:0:0:0:
79,32,9773,1,2,0:0:0:0:
79,31,9929,2,0,P|129:20|176:12,1,97.9999970092774,2|2,0:0|0:0,0:0:0:0:
253,5,10398,2,0,L|261:55,1,48.9999985046387,2|2,0:0|0:0,0:0:0:0:
323,101,10711,6,0,P|314:127|304:162,2,48.9999985046387,2|2|2,0:0|0:0|0:0,0:0:0:0:
387,56,11179,1,2,0:0:0:0:
464,192,11492,1,2,0:0:0:0:
241,210,11804,6,0,P|154:232|95:245,1,140,6|2,3:2|0:0,0:0:0:0:
22,212,12273,1,2,3:2:0:0:
22,212,12429,2,0,P|12:254|37:296,1,70,2|0,3:2|3:0,0:0:0:0:
89,348,12742,2,0,L|80:385,2,35,2|0|2,3:2|3:0|3:2,0:0:0:0:
173,298,13054,2,0,L|164:263,2,35,2|0|0,3:2|3:0|3:0,0:0:0:0:
241,369,13367,6,0,P|277:358|385:324,1,140,2|2,3:2|3:2,0:0:0:0:
451,266,13836,2,0,L|499:275,2,35,2|0|2,3:2|3:0|3:2,0:0:0:0:
364,220,14148,5,10,3:2:0:0:
438,156,14304,2,0,P|454:93|407:33,1,140,6|10,3:2|0:0,0:0:0:0:
318,7,14773,2,0,P|285:17|247:34,1,70,10|0,0:0|3:0,0:0:0:0:
160,66,15086,6,0,P|169:112|183:188,2,105,6|2|2,3:2|3:2|3:2,0:0:0:0:
83,3,15711,2,0,P|57:36|65:88,1,70,6|0,3:2|3:0,0:0:0:0:
77,111,15945,1,0,3:0:0:0:
77,111,16023,1,10,3:2:0:0:
23,299,16336,2,0,L|70:286,3,35,10|10|10|10,3:2|0:0|0:0|0:0,0:0:0:0:
91,255,16648,2,0,L|138:268,3,35,2|2|2|2,3:2|3:2|3:2|3:2,0:0:0:0:
170,294,16961,6,0,B|263:301|218:361|315:365,1,154.000004699707,6|2,3:2|3:2,0:0:0:0:
404,336,17429,2,0,P|412:297|426:246,1,77.0000023498536,10|0,0:0|3:0,0:0:0:0:
450,159,17742,1,10,0:0:0:0:
450,159,17898,1,2,3:2:0:0:
368,89,18054,6,0,P|310:70|212:33,1,154.000004699707,10|10,0:0|0:0,0:0:0:0:
115,47,18523,1,2,3:2:0:0:
171,130,18679,2,0,P|177:182|89:255,1,154.000004699707,10|10,0:0|0:0,0:0:0:0:
13,220,19148,5,2,3:2:0:0:
13,220,19304,1,10,0:0:0:0:
108,270,19461,2,0,P|167:289|262:322,1,154.000004699707,2|2,3:2|0:0,0:0:0:0:
400,160,20086,6,0,P|452:180|466:242,2,102.666669799805,6|2|2,3:2|3:2|3:2,0:0:0:0:
273,90,20711,6,0,P|264:34|311:-8,2,102.666669799805,2|2|2,3:2|3:2|3:2,0:0:0:0:
280,233,21336,6,0,P|236:268|175:249,2,102.666669799805,2|2|2,3:2|3:2|3:2,0:0:0:0:
383,133,21961,1,10,0:0:0:0:
383,133,22273,6,0,P|372:98|356:52,1,77.0000023498536,6|0,3:2|0:0,0:0:0:0:
263,11,22586,2,0,P|222:57|132:48,2,154.000004699707,2|0|8,3:2|3:0|0:0,0:0:0:0:
38,218,24461,6,0,P|119:248|195:283,1,154.000004699707,6|8,3:2|0:0,0:0:0:0:
287,291,24929,2,0,P|292:255|266:221,1,77.0000023498536,10|2,0:0|0:0,0:0:0:0:
193,172,25242,1,0,3:0:0:0:
193,172,25320,1,2,3:2:0:0:
193,172,25398,2,0,P|216:113|226:85,1,77.0000023498536,8|2,0:0|3:2,0:0:0:0:
272,28,25711,6,0,P|310:29|339:62,2,62.9999980773926,2|0|0,3:2|3:0|3:0,0:0:0:0:
185,13,26179,1,2,3:2:0:0:
41,116,26492,2,0,P|36:91|23:52,2,62.9999980773926,2|2|2,3:2|0:0|3:2,0:0:0:0:
121,139,26961,6,0,B|247:149|189:217|306:232,1,209.999993591309,6|2,3:2|0:0,0:0:0:0:
439,137,28054,2,0,P|456:189|419:255,1,125.999996154785,6|2,3:2|0:0,0:0:0:0:
315,378,28836,2,0,L|277:362,1,41.9999987182618,2|10,0:0|0:0,0:0:0:0:
200,325,29148,2,0,L|155:338,1,41.9999987182618,2|0,3:2|3:0,0:0:0:0:
82,371,29461,6,0,P|72:327|28:197,1,167.999994873047,6|2,3:2|3:2,0:0:0:0:
4,45,30398,1,2,3:2:0:0:
122,201,30711,2,0,P|178:205|221:145,1,125.999996154785,6|0,3:2|3:0,0:0:0:0:
254,76,31179,1,0,3:0:0:0:
254,76,31336,2,0,L|275:13,2,62.9999980773926,10|2|2,0:0|0:0|3:2,0:0:0:0:
320,134,31804,6,0,B|394:153|370:180|454:198,1,125.999996154785,6|8,3:2|0:0,0:0:0:0:
499,247,32273,1,2,0:0:0:0:
334,313,32586,2,0,P|306:329|273:349,2,62.9999980773926,10|2|2,0:0|0:0|0:0,0:0:0:0:
307,229,33054,2,0,P|288:150|273:81,1,125.999996154785,2|8,3:2|0:0,0:0:0:0:
230,31,33523,2,0,P|207:56|166:63,1,62.9999980773926,2|0,3:2|3:0,0:0:0:0:
103,19,33836,2,0,P|59:26|35:52,1,62.9999980773926,10|2,0:0|3:2,0:0:0:0:
1,113,34148,1,2,3:2:0:0:
162,234,34461,5,6,3:2:0:0:
162,234,34617,1,10,0:0:0:0:
90,300,34773,1,10,0:0:0:0:
166,360,34929,2,0,P|205:346|247:334,1,70,2|0,3:2|0:0,0:0:0:0:
290,258,35242,2,0,P|326:268|357:281,1,70,2|8,3:2|0:0,0:0:0:0:
434,338,35554,6,0,P|419:276|395:190,1,140,6|2,3:2|3:2,0:0:0:0:
383,105,36023,1,10,0:0:0:0:
297,153,36179,2,0,P|254:157|193:75,1,140,6|0,3:2|3:0,0:0:0:0:
249,9,36648,1,8,0:0:0:0:
340,67,36804,5,2,3:2:0:0:
340,67,36882,1,2,3:2:0:0:
340,67,36961,2,0,P|358:31|379:-6,2,77.0000023498536,14|2|2,3:2|3:2|3:2,0:0:0:0:
238,102,37429,2,0,P|236:155|270:191,1,77.0000023498536,10|2,0:0|3:2,0:0:0:0:
354,192,37742,1,2,3:2:0:0:
371,298,37898,6,0,P|296:319|223:341,1,154.000004699707,14|2,3:2|3:2,0:0:0:0:
152,267,38367,1,10,0:0:0:0:
152,267,38523,1,2,3:2:0:0:
98,360,38679,1,2,3:2:0:0:
21,283,38836,6,0,P|12:248|-3:201,1,77.0000023498536,10|0,0:0|3:0,0:0:0:0:
26,104,39148,1,10,0:0:0:0:
232,34,39461,6,0,P|275:28|312:53,2,77.0000023498536,14|2|2,3:2|3:2|3:2,0:0:0:0:
170,123,39929,1,10,0:0:0:0:
170,123,40086,2,0,P|182:158|197:199,1,77.0000023498536,2|2,3:2|3:2,0:0:0:0:
306,212,40398,1,14,3:2:0:0:
306,212,40554,2,0,P|332:183|335:146,1,77.0000023498536,2|2,3:2|3:2,0:0:0:0:
326,42,40867,5,10,0:0:0:0:
326,42,41023,2,0,P|279:54|241:68,1,77.0000023498536,2|2,3:2|3:2,0:0:0:0:
146,38,41336,2,0,L|131:-6,2,38.5000011749268,2|0|0,3:2|3:0|3:0,0:0:0:0:
58,100,41648,1,10,0:0:0:0:
236,220,41961,6,0,P|240:266|208:303,1,77.0000023498536,14|2,3:2|3:2,0:0:0:0:
129,330,42273,1,2,3:2:0:0:
129,330,42351,1,0,3:0:0:0:
129,330,42429,2,0,P|84:313|43:301,2,77.0000023498536,10|2|2,0:0|3:2|3:2,0:0:0:0:
225,380,42898,2,0,P|278:352|309:337,1,77.0000023498536,14|2,0:0|3:2,0:0:0:0:
355,255,43211,2,0,P|351:236|346:217,2,38.5000011749268,2|0|10,3:2|3:0|0:0,0:0:0:0:
450,307,43523,1,2,3:2:0:0:
480,206,43679,5,2,3:2:0:0:
480,206,43757,1,0,3:0:0:0:
480,206,43836,2,0,P|488:167|457:122,1,77.0000023498536,10|0,0:0|3:0,0:0:0:0:
432,34,44148,1,10,0:0:0:0:
248,146,44461,6,0,P|190:122|87:86,2,154.000004699707,6|10|2,3:2|0:0|0:0,0:0:0:0:
288,244,45242,1,0,3:0:0:0:
205,313,45398,2,0,P|182:289|186:237,1,77.0000023498536,10|0,0:0|0:0,0:0:0:0:
238,155,45711,6,0,P|230:117|201:-15,1,154.000004699707,2|8,3:2|0:0,0:0:0:0:
349,165,46336,2,0,P|416:209|484:189,1,154.000004699707,10|0,0:0|3:0,0:0:0:0:
470,87,46804,5,0,3:0:0:0:
470,87,46961,2,0,P|412:67|370:91,1,97.9999970092774,6|0,3:2|0:0,0:0:0:0:
301,89,47429,1,2,3:2:0:0:
301,89,47586,2,0,P|248:90|212:53,1,97.9999970092774,2|0,3:2|0:0,0:0:0:0:
54,21,48211,6,0,P|68:80|82:133,1,97.9999970092774,2|0,3:2|0:0,0:0:0:0:
149,167,48679,1,2,3:2:0:0:
149,167,48836,2,0,P|139:213|123:273,1,97.9999970092774,2|0,3:2|0:0,0:0:0:0:
280,326,49461,6,0,B|341:334|321:351|377:358,1,97.9999970092774,2|0,3:2|0:0,0:0:0:0:
445,316,49929,1,2,3:2:0:0:
445,316,50086,2,0,P|452:274|412:222,1,97.9999970092774,2|0,3:2|0:0,0:0:0:0:
267,171,50711,6,0,P|243:180|216:195,1,48.9999985046387,2|2,3:2|0:0,0:0:0:0:
168,253,51023,2,0,P|149:265|118:280,1,48.9999985046387,2|2,0:0|3:2,0:0:0:0:
45,274,51336,1,2,3:2:0:0:
45,274,51492,1,2,0:0:0:0:
87,202,51648,2,0,P|91:174|76:138,1,48.9999985046387,2|2,0:0|0:0,0:0:0:0:
43,82,51961,6,0,P|91:71|152:49,1,97.9999970092774,2|0,3:2|0:0,0:0:0:0:
212,16,52429,1,2,3:2:0:0:
212,16,52586,2,0,B|263:29|239:49|308:62,1,97.9999970092774,2|0,3:2|0:0,0:0:0:0:
443,140,53211,6,0,P|377:134|354:101,1,97.9999970092774,2|2,3:2|3:2,0:0:0:0:
425,62,53679,1,2,0:0:0:0:
425,62,53836,2,0,L|444:14,4,28,2|0|0|0|8,3:2|3:0|3:0|3:0|0:0,0:0:0:0:
215,114,54461,6,0,P|240:179|266:269,2,154.000004699707,6|10|2,3:2|0:0|3:2,0:0:0:0:
139,46,55242,1,0,3:0:0:0:
139,46,55398,1,10,0:0:0:0:
53,111,55554,6,0,P|13:165|45:243,1,154.000004699707,6|2,3:2|3:2,0:0:0:0:
117,324,56023,1,10,0:0:0:0:
117,324,56179,1,2,0:0:0:0:
169,229,56336,2,0,P|224:213|258:205,1,77.0000023498536,2|0,3:2|3:0,0:0:0:0:
326,277,56648,2,0,P|381:261|415:253,1,77.0000023498536,10|0,0:0|3:0,0:0:0:0:
448,159,56961,6,0,P|444:239|491:290,1,154.000004699707,6|10,3:2|0:0,0:0:0:0:
285,384,57586,2,0,P|257:371|206:349,1,77.0000023498536,10|0,0:0|3:0,0:0:0:0:
108,338,57898,1,10,0:0:0:0:
177,255,58054,2,0,P|189:197|211:95,1,154.000004699707,2|2,3:2|0:0,0:0:0:0:
144,17,58523,1,10,0:0:0:0:
144,17,58679,1,2,3:2:0:0:
228,84,58836,6,0,P|274:85|306:50,1,77.0000023498536,10|0,0:0|3:0,0:0:0:0:
392,17,59148,2,0,P|423:-3|461:0,1,77.0000023498536,10|0,0:0|3:0,0:0:0:0:
510,96,59461,6,0,L|498:139,3,38.5000011749268,10|8|8|8,3:2|0:0|0:0|0:0,0:0:0:0:
450,153,59773,2,0,L|462:196,3,38.5000011749268,8|8|8|8,3:2|0:0|0:0|0:0,0:0:0:0:
499,227,60086,2,0,L|487:270,3,38.5000011749268,8|8|8|8,3:2|0:0|0:0|0:0,0:0:0:0:
443,292,60398,2,0,L|455:335,3,38.5000011749268,8|8|8|8,3:2|0:0|0:0|0:0,0:0:0:0:
464,382,60711,1,2,3:2:0:0:
76,362,61336,5,2,3:2:0:0:
76,362,61414,1,0,3:0:0:0:
76,362,61492,1,0,3:0:0:0:
76,362,61570,1,0,3:0:0:0:
76,362,61648,1,14,0:0:0:0:
150,232,61961,6,0,P|166:191|184:153,1,77.0000023498536,2|10,3:2|0:0,0:0:0:0:
138,72,62273,1,2,3:2:0:0:
138,72,62429,1,10,0:0:0:0:
240,37,62586,2,0,P|283:48|329:67,1,77.0000023498536,2|10,3:2|0:0,0:0:0:0:
419,39,62898,1,2,3:2:0:0:
474,131,63054,6,0,B|387:137|423:195|335:198,1,154.000004699707,10|8,0:0|0:0,0:0:0:0:
261,141,63523,1,2,3:2:0:0:
261,141,63679,1,10,0:0:0:0:
191,223,63836,2,0,P|205:266|215:306,1,77.0000023498536,2|10,3:2|0:0,0:0:0:0:
280,380,64148,1,2,3:2:0:0:
344,294,64304,6,0,P|394:277|477:333,1,154.000004699707,10|8,0:0|0:0,0:0:0:0:
510,225,64773,2,0,P|495:182|484:148,1,77.0000023498536,2|10,3:2|0:0,0:0:0:0:
480,47,65086,1,2,3:2:0:0:
480,47,65242,1,10,0:0:0:0:
395,113,65398,1,2,3:2:0:0:
315,40,65554,6,0,P|277:39|244:71,1,77.0000023498536,10|0,0:0|3:0,0:0:0:0:
194,157,65867,1,10,0:0:0:0:
275,226,66023,1,2,3:2:0:0:
197,300,66179,2,0,P|194:344|220:376,1,77.0000023498536,10|0,0:0|3:0,0:0:0:0:
305,315,66492,1,10,0:0:0:0:
96,259,66804,6,0,P|68:166|46:98,1,154.000004699707,6|10,3:2|0:0,0:0:0:0:
115,27,67273,1,2,3:2:0:0:
115,27,67351,1,0,3:0:0:0:
115,27,67429,2,0,P|168:48|201:64,1,77.0000023498536,10|2,0:0|3:2,0:0:0:0:
270,132,67742,1,10,0:0:0:0:
270,132,67898,1,2,3:2:0:0:
345,55,68054,6,0,P|392:46|464:119,1,154.000004699707,10|10,0:0|0:0,0:0:0:0:
390,194,68523,1,2,3:2:0:0:
478,260,68679,2,0,P|468:303|461:344,1,77.0000023498536,10|0,0:0|3:0,0:0:0:0:
367,384,68992,5,10,0:0:0:0:
367,384,69148,1,2,3:2:0:0:
279,321,69304,2,0,P|278:285|305:253,1,77.0000023498536,10|0,0:0|3:0,0:0:0:0:
390,194,69617,5,10,0:0:0:0:
390,194,69773,1,2,3:2:0:0:
481,137,69929,2,0,P|489:104|470:66,1,77.0000023498536,10|0,0:0|3:0,0:0:0:0:
380,7,70242,5,10,0:0:0:0:
313,92,70398,1,2,3:2:0:0:
313,92,70476,1,0,3:0:0:0:
313,92,70554,2,0,P|273:75|153:33,1,154.000004699707,10|10,0:0|0:0,0:0:0:0:
62,57,71023,1,2,3:2:0:0:
138,132,71179,2,0,P|148:171|168:235,1,77.0000023498536,10|0,0:0|3:0,0:0:0:0:
272,237,71492,5,10,0:0:0:0:
272,237,71570,1,8,0:0:0:0:
272,237,71648,2,0,L|258:281,3,38.5000011749268,10|8|10|8,0:0|0:0|0:0|0:0,0:0:0:0:
286,321,71961,6,0,B|196:322|240:378|136:386,1,154.000004699707,6|10,3:2|0:0,0:0:0:0:
71,320,72429,1,2,0:0:0:0:
71,320,72586,2,0,P|21:338|5:372,2,77.0000023498536,2|2|10,3:2|0:0|0:0,0:0:0:0:
72,212,73054,6,0,P|36:122|6:56,1,154.000004699707,2|2,0:0|0:0,0:0:0:0:
100,6,73523,2,0,P|136:19|172:33,1,77.0000023498536,10|2,0:0|0:0,0:0:0:0:
255,112,73836,1,2,3:2:0:0:
255,112,73992,1,2,0:0:0:0:
334,39,74148,1,10,0:0:0:0:
414,110,74304,6,0,P|399:175|394:207,1,77.0000023498536,2|0,0:0|3:0,0:0:0:0:
309,248,74617,2,0,L|299:210,2,38.5000011749268,2|0|10,0:0|3:0|0:0,0:0:0:0:
400,304,74929,2,0,L|410:266,2,38.5000011749268,2|0|2,3:2|3:0|3:2,0:0:0:0:
327,384,75242,1,2,3:2:0:0:
327,384,75320,1,0,3:0:0:0:
327,384,75398,1,10,0:0:0:0:
231,333,75554,6,0,P|195:284|101:288,1,154.000004699707,6|0,3:2|3:0,0:0:0:0:
29,357,76023,1,10,0:0:0:0:
149,177,76336,2,0,P|160:129|175:80,1,77.0000023498536,10|0,0:0|3:0,0:0:0:0:
136,4,76648,1,10,0:0:0:0:
136,4,76804,1,2,0:0:0:0:
234,49,76961,6,0,P|271:50|313:22,1,77.0000023498536,2|0,3:2|3:0,0:0:0:0:
412,31,77273,2,0,P|386:121|367:185,1,154.000004699707,10|2,0:0|3:2,0:0:0:0:
269,221,77742,1,0,3:0:0:0:
330,309,77898,2,0,P|344:353|317:396,1,77.0000023498536,10|2,0:0|0:0,0:0:0:0:
225,378,78211,6,0,P|170:357|120:336,1,77.0000023498536,2|0,3:2|3:0,0:0:0:0:
64,289,78523,2,0,P|117:215|195:215,1,154.000004699707,10|2,0:0|3:2,0:0:0:0:
289,230,78992,1,2,3:2:0:0:
289,230,79148,2,0,P|302:179|314:141,1,77.0000023498536,14|0,0:0|0:0,0:0:0:0:
337,54,79461,5,2,3:2:0:0:
337,54,79617,1,2,0:0:0:0:
406,136,79773,1,10,0:0:0:0:
479,59,79929,2,0,L|493:17,2,38.5000011749268,2|8|0,3:2|0:0|3:0,0:0:0:0:
430,155,80242,2,0,P|441:195|457:251,1,77.0000023498536,2|10,3:2|0:0,0:0:0:0:
510,318,80554,6,0,B|421:326|454:384|361:385,1,154.000004699707,2|0,3:2|3:0,0:0:0:0:
275,343,81023,1,8,0:0:0:0:
347,263,81179,2,0,L|384:277,2,38.5000011749268,0|0|8,3:0|3:0|0:0,0:0:0:0:
259,219,81492,1,2,3:2:0:0:
259,219,81570,1,0,3:0:0:0:
259,219,81648,2,0,P|252:188|239:144,1,77.0000023498536,10|2,0:0|0:0,0:0:0:0:
185,56,81961,5,2,3:2:0:0:
185,56,82117,1,2,3:2:0:0:
117,139,82273,1,10,0:0:0:0:
13,110,82429,6,0,P|31:155|42:194,1,77.0000023498536,2|0,3:2|0:0,0:0:0:0:
132,237,82742,2,0,P|117:273|103:308,1,77.0000023498536,2|8,3:2|0:0,0:0:0:0:
23,380,83054,6,0,P|76:369|184:348,1,154.000004699707,6|2,3:2|0:0,0:0:0:0:
268,297,83523,1,10,0:0:0:0:
209,206,83679,2,0,P|196:163|185:132,1,77.0000023498536,2|8,3:2|0:0,0:0:0:0:
259,54,83992,2,0,L|282:7,2,38.5000011749268,2|0|8,3:2|3:0|0:0,0:0:0:0:
333,132,84304,2,0,P|370:157|412:152,1,77.0000023498536,2|8,3:2|0:0,0:0:0:0:
499,110,84617,6,0,L|481:40,2,38.5000011749268,2|0|8,3:2|3:0|0:0,0:0:0:0:
473,214,84929,2,0,L|463:251,2,38.5000011749268,2|0|10,3:2|3:0|0:0,0:0:0:0:
410,138,85242,1,2,3:2:0:0:
410,138,85320,1,0,3:0:0:0:
410,138,85399,1,10,0:0:0:0:
334,214,85554,6,0,P|266:224|196:154,1,154.000004699707,2|2,3:2|0:0,0:0:0:0:
175,68,86023,1,2,0:0:0:0:
3,199,86336,6,0,P|16:255|28:311,2,115.50000352478,2|2|2,3:2|3:2|3:2,0:0:0:0:
53,103,86961,1,6,3:2:0:0:
152,167,87117,5,0,3:0:0:0:
152,167,87195,1,0,3:0:0:0:
152,167,87273,2,0,P|189:153|226:142,1,77.0000023498536,10|2,0:0|3:2,0:0:0:0:
320,192,87588,2,0,P|321:229|301:262,1,77.0000023498536,10|2,0:0|3:2,0:0:0:0:
229,344,87904,1,10,0:0:0:0:
144,296,88062,1,2,3:2:0:0:
48,345,88220,2,0,L|33:302,3,38.5000011749268,10|8|2|0,0:0|0:0|3:2|3:0,0:0:0:0:
58,258,88536,2,0,P|67:233|77:211,3,38.5000011749268,10|8|2|0,0:0|0:0|3:2|3:0,0:0:0:0:
53,171,88851,6,0,L|38:128,3,38.5000011749268,10|10|2|2,0:0|0:0|3:2|3:2,0:0:0:0:
30,91,89167,1,10,0:0:0:0:
30,91,89246,1,10,0:0:0:0:
30,91,89325,1,2,3:2:0:0:
