osu file format v14

[General]
AudioFilename: audio.mp3
AudioLeadIn: 0
PreviewTime: 60945
Countdown: 0
SampleSet: Soft
StackLeniency: 0.7
Mode: 0
LetterboxInBreaks: 0
WidescreenStoryboard: 0

[Editor]
Bookmarks: 16961,26961,36961,46961,54461,71961,87273
DistanceSpacing: 0.3
BeatDivisor: 4
GridSize: 16
TimelineZoom: 2.1

[Metadata]
Title:Dai Dai Dai Dai Daisuki na Kimi e <3 (TV Size)
TitleUnicode:大大大大大好きな君へ♡ (TV Size)
Artist:Hondo Kaede, Tomita Miyu, Naganawa Maria, Seto Asami, Asai Ayaka
ArtistUnicode:本渡 楓、富田美憂、長縄まりあ、瀬戸麻沙美、朝井彩加
Creator:Gabizon04
Version:Extra
Source:君のことが大大大大大好きな100人の彼女
Tags:the 100 girlfriends who really love you japanese j-pop jpop pop female vocals anime op opening 君のことが大大大大大好きな100人の彼女 kimi no koto ga daidaidaidaidaisuki na 100-nin no kanojo 花園羽香里 Hanazono Hakari 本渡 楓 Kaede Hondo 院田唐音 Inda Karane 富田美憂 Miyu Tomita 好本 静 Yoshimoto Shizuka 長縄まりあ Naganawa Maria 栄逢凪乃 Eiai Nano 瀬戸麻沙美 Setou Masami 薬膳楠莉 Yakuzen Kusuri 朝井彩加 Asai Ayaka cv cv: アニメ Hyakkano 100カノ Ando Sasa 安藤 紗々 Tabuchi Tomoya 田淵智也 Shuhei Mutsuki 睦月周平 Shunsuke Takizawa 滝澤俊輔 TRYTONELABO Eba Lantis LACM-24439
BeatmapID:4359355
BeatmapSetID:2076659

[Difficulty]
HPDrainRate:5.5
CircleSize:4
OverallDifficulty:9
ApproachRate:9.4
SliderMultiplier:1.9
SliderTickRate:1

[Events]
//Background and Video events
Video,592,"video.mp4"
0,0,"bg.png",0,0
//Break Periods
//Storyboard Layer 0 (Background)
//Storyboard Layer 1 (Fail)
//Storyboard Layer 2 (Pass)
//Storyboard Layer 3 (Foreground)
//Storyboard Layer 4 (Overlay)
//Storyboard Sound Samples

[TimingPoints]
711,312.5,4,2,1,50,1,0
1961,-142.857142857143,4,2,1,50,0,0
11804,-100,4,2,1,70,0,0
16961,-90.9090909090909,4,2,1,75,0,0
19461,-111.111111111111,4,2,1,75,0,0
20086,-90.9090909090909,4,2,1,75,0,0
25711,-111.111111111111,4,2,1,70,0,0
26961,-333.333333333333,4,2,1,60,0,0
29461,-200,4,2,1,60,0,0
30711,-125,4,2,1,60,0,0
34461,-90.9090909090909,4,2,1,75,0,0
46961,-166.666666666667,4,2,1,60,0,0
51961,-125,4,2,1,60,0,0
54148,-125,4,2,1,80,0,0
54461,-90.9090909090909,4,2,1,80,0,0
61336,-90.9090909090909,4,2,1,80,0,0
61961,-90.9090909090909,4,2,1,80,0,1
76961,-90.9090909090909,4,2,1,80,0,0
86961,-90.9090909090909,4,2,1,80,0,1
87273,315.789473684211,4,2,1,80,1,1
87273,-90.9090909090909,4,2,1,80,0,1
89325,-90.9090909090909,4,2,1,80,0,0

[Colours]
Combo1 : 194,186,169
Combo2 : 242,196,145
Combo3 : 181,134,91

[HitObjects]
8,27,1961,6,0,B|90:32|54:78|126:78,1,132.999995941162,2|2,0:0|0:0,0:0:0:0:
198,26,2429,1,2,0:0:0:0:
274,81,2586,2,0,P|285:41|299:6,2,66.4999979705811,2|2|2,0:0|0:0|0:0,0:0:0:0:
169,163,3054,6,0,P|201:243|218:286,1,132.999995941162,2|0,0:0|0:0,0:0:0:0:
170,381,3523,1,2,0:0:0:0:
223,304,3679,1,2,0:0:0:0:
305,362,3836,2,0,P|339:374|384:391,2,66.4999979705811,2|2|2,0:0|0:0|0:0,0:0:0:0:
410,270,4304,6,0,P|450:209|408:139,1,132.999995941162,2|0,0:0|0:0,0:0:0:0:
341,99,4773,1,2,0:0:0:0:
425,42,4929,1,2,0:0:0:0:
316,86,5086,2,0,P|283:74|239:60,2,66.4999979705811,2|2|2,0:0|0:0|0:0,0:0:0:0:
199,213,5554,6,0,P|140:211|102:151,1,132.999995941162,2|2,0:0|0:0,0:0:0:0:
157,72,6023,1,2,0:0:0:0:
75,23,6179,2,0,P|48:35|8:51,1,66.4999979705811,2|0,0:0|0:0,0:0:0:0:
226,126,6492,2,0,P|253:114|293:98,1,66.4999979705811,2|0,0:0|0:0,0:0:0:0:
512,0,6804,6,0,B|440:8|468:64|387:62,1,132.999995941162,2|2,0:0|0:0,0:0:0:0:
304,16,7273,1,2,0:0:0:0:
384,137,7429,2,0,P|376:171|357:278,1,132.999995941162,2|0,0:0|0:0,0:0:0:0:
419,343,7898,1,2,0:0:0:0:
257,238,8054,6,0,P|203:257|120:290,1,132.999995941162,2|2,0:0|0:0,0:0:0:0:
42,242,8523,1,2,0:0:0:0:
187,152,8679,2,0,P|205:82|156:30,1,132.999995941162,2|2,0:0|0:0,0:0:0:0:
102,108,9148,1,2,0:0:0:0:
270,27,9304,6,0,B|342:37|319:73|397:86,1,132.999995941162,6|2,0:0|0:0,0:0:0:0:
482,53,9773,1,2,0:0:0:0:
344,161,9929,2,0,P|338:229|390:274,1,132.999995941162,2|2,0:0|0:0,0:0:0:0:
512,340,10398,1,2,0:0:0:0:
407,384,10554,1,2,0:0:0:0:
469,227,10711,6,0,P|478:201|490:161,2,66.4999979705811,2|2|2,0:0|0:0|0:0,0:0:0:0:
335,110,11179,2,0,P|340:83|379:56,1,66.4999979705811,2|0,0:0|0:0,0:0:0:0:
244,221,11492,2,0,P|237:245|198:274,1,66.4999979705811,2|0,0:0|0:0,0:0:0:0:
1,114,11804,6,0,B|113:109|54:196|172:193,1,190,6|2,3:2|0:0,0:0:0:0:
370,59,12273,1,2,3:2:0:0:
370,59,12351,1,0,3:0:0:0:
370,59,12429,2,0,P|379:102|353:150,1,95,2|0,3:2|3:0,0:0:0:0:
204,124,12742,1,2,3:2:0:0:
204,124,12820,1,0,3:0:0:0:
204,124,12898,1,2,3:2:0:0:
378,241,13054,2,0,P|402:232|433:222,2,47.5,2|0|0,3:2|3:0|3:0,0:0:0:0:
269,368,13367,6,0,P|233:337|242:272,1,95,2|2,3:2|3:2,0:0:0:0:
357,146,13679,1,2,3:2:0:0:
344,130,13757,1,0,3:0:0:0:
326,122,13836,1,2,3:2:0:0:
307,122,13914,1,0,3:0:0:0:
290,131,13992,1,2,3:2:0:0:
137,268,14148,1,10,3:2:0:0:
5,44,14304,6,0,P|75:120|154:107,1,190,6|10,3:2|0:0,0:0:0:0:
321,227,14773,2,0,P|318:273|283:302,1,95,10|0,0:0|3:0,0:0:0:0:
277,336,15007,5,0,3:0:0:0:
277,336,15086,2,0,P|232:321|181:303,1,95,6|0,3:2|0:0,0:0:0:0:
163,227,15320,6,0,P|118:243|73:258,1,95,2|0,3:2|0:0,0:0:0:0:
0,217,15554,5,2,3:2:0:0:
204,132,15711,6,0,P|234:94|225:38,1,95,6|0,3:2|3:0,0:0:0:0:
217,28,15945,1,0,3:0:0:0:
217,28,16023,1,10,3:2:0:0:
110,231,16336,5,10,3:2:0:0:
136,210,16414,1,10,0:0:0:0:
169,212,16492,1,10,0:0:0:0:
198,226,16570,1,10,0:0:0:0:
217,252,16648,1,2,3:2:0:0:
230,282,16726,1,2,3:2:0:0:
257,300,16804,1,2,3:2:0:0:
289,303,16882,1,2,3:2:0:0:
322,287,16961,6,0,P|313:239|296:178,1,104.500003189087,6|8,3:2|0:0,0:0:0:0:
277,383,17273,1,2,3:2:0:0:
471,242,17429,2,0,P|511:202|504:139,1,104.500003189087,10|0,0:0|3:0,0:0:0:0:
390,252,17742,1,10,0:0:0:0:
512,374,17898,1,2,3:2:0:0:
298,185,18054,6,0,P|240:204|194:223,1,104.500003189087,10|0,0:0|3:0,0:0:0:0:
54,170,18367,1,10,0:0:0:0:
208,306,18523,1,2,3:2:0:0:
0,384,18679,2,0,P|-6:332|38:291,1,104.500003189087,10|0,0:0|3:0,0:0:0:0:
237,384,18992,1,10,0:0:0:0:
161,155,19148,5,2,3:2:0:0:
88,364,19304,1,10,0:0:0:0:
295,235,19461,2,0,P|318:177|361:66,1,170.999994781494,2|2,3:2|0:0,0:0:0:0:
375,48,19851,1,2,0:0:0:0:
375,48,19929,1,2,0:0:0:0:
161,155,20086,6,0,P|109:141|86:50,2,139.333337585449,6|2|2,3:2|3:2|3:2,0:0:0:0:
385,126,20711,5,2,3:2:0:0:
237,198,20919,5,2,3:2:0:0:
431,206,21127,5,2,3:2:0:0:
240,90,21336,5,2,3:2:0:0:
315,349,21544,5,2,3:2:0:0:
493,32,21752,5,2,3:2:0:0:
143,266,21961,5,10,0:0:0:0:
393,384,22273,6,0,P|409:334|429:286,1,104.500003189087,6|0,3:2|0:0,0:0:0:0:
173,131,22586,2,0,P|192:179|244:335,2,209.000006378174,2|0|8,3:2|3:0|0:0,0:0:0:0:
484,96,24461,6,0,P|443:187|327:170,1,209.000006378174,6|8,3:2|0:0,0:0:0:0:
172,43,24929,2,0,P|215:87|208:150,1,104.500003189087,10|2,0:0|0:0,0:0:0:0:
138,247,25242,1,0,3:0:0:0:
138,247,25320,1,2,3:2:0:0:
138,247,25398,1,8,0:0:0:0:
320,82,25554,1,2,3:2:0:0:
320,82,25632,1,0,3:0:0:0:
320,82,25711,2,0,P|330:41|346:-1,2,85.4999973907472,2|0|0,3:2|3:0|3:0,0:0:0:0:
481,224,26179,6,0,P|423:246|375:263,1,85.4999973907472,2|0,3:2|0:0,0:0:0:0:
320,82,26492,1,2,3:2:0:0:
402,68,26648,1,2,0:0:0:0:
446,141,26804,1,2,3:2:0:0:
232,212,26961,6,0,P|169:191|65:158,1,170.999994781494,6|0,3:2|0:0,0:0:0:0:
70,258,28054,6,0,P|105:268|184:297,1,113.999996520996,6|8,3:2|0:0,0:0:0:0:
267,255,28836,1,2,0:0:0:0:
159,141,28992,1,10,0:0:0:0:
231,89,29148,1,2,3:2:0:0:
184,8,29304,1,0,3:0:0:0:
332,179,29461,6,0,B|447:182|394:249|501:248,1,190,6|2,3:2|3:2,0:0:0:0:
215,291,30398,2,0,P|175:306|137:327,1,71.25,2|0,3:2|0:0,0:0:0:0:
115,332,30711,2,0,P|68:290|95:208,1,152,6|0,3:2|3:0,0:0:0:0:
164,146,31179,1,0,3:0:0:0:
289,259,31336,1,10,0:0:0:0:
343,187,31492,1,2,0:0:0:0:
388,114,31648,1,2,3:2:0:0:
164,146,31804,6,0,P|100:116|25:86,1,152,6|8,3:2|0:0,0:0:0:0:
128,246,32273,2,0,P|158:233|206:216,1,76,2|0,0:0|3:0,0:0:0:0:
294,126,32586,1,10,0:0:0:0:
229,62,32742,1,2,0:0:0:0:
292,0,32898,1,2,0:0:0:0:
363,196,33054,6,0,P|344:275|329:344,1,152,2|8,3:2|0:0,0:0:0:0:
190,338,33523,2,0,P|217:305|259:297,1,76,2|0,3:2|3:0,0:0:0:0:
447,371,33836,1,10,0:0:0:0:
327,281,33992,1,2,3:2:0:0:
439,200,34148,2,0,P|477:213|533:232,1,76,2|0,3:2|0:0,0:0:0:0:
361,26,34461,5,6,3:2:0:0:
361,26,34617,1,10,0:0:0:0:
237,192,34773,1,10,0:0:0:0:
456,95,34929,2,0,P|470:61|508:-14,1,104.500003189087,2|0,3:2|0:0,0:0:0:0:
318,214,35242,2,0,P|294:260|274:308,1,104.500003189087,2|8,3:2|0:0,0:0:0:0:
38,125,35554,6,0,P|157:94|171:2,1,209.000006378174,6|2,3:2|3:2,0:0:0:0:
51,0,36023,1,10,0:0:0:0:
197,182,36179,2,0,P|166:281|140:383,1,209.000006378174,6|0,3:2|3:0,0:0:0:0:
102,224,36648,1,8,0:0:0:0:
244,336,36804,1,2,3:2:0:0:
259,339,36882,1,2,3:2:0:0:
273,333,36961,5,14,3:2:0:0:
197,182,37117,1,2,3:2:0:0:
64,293,37273,1,2,3:2:0:0:
284,215,37429,5,10,0:0:0:0:
171,96,37586,1,2,3:2:0:0:
318,19,37742,1,2,3:2:0:0:
104,166,37898,6,0,P|94:127|74:55,1,104.500003189087,14|0,3:2|3:0,0:0:0:0:
265,124,38211,1,2,3:2:0:0:
129,331,38367,5,10,0:0:0:0:
197,182,38523,1,2,3:2:0:0:
320,296,38679,1,2,3:2:0:0:
171,96,38836,5,10,0:0:0:0:
220,271,38992,1,0,3:0:0:0:
387,98,39148,6,0,P|402:50|423:-5,1,104.500003189087,10|0,0:0|3:0,0:0:0:0:
292,163,39461,5,14,3:2:0:0:
435,253,39617,1,2,3:2:0:0:
501,95,39773,1,2,3:2:0:0:
320,296,39929,5,10,0:0:0:0:
437,170,40086,1,2,3:2:0:0:
288,80,40242,1,2,3:2:0:0:
435,253,40398,5,14,3:2:0:0:
292,163,40554,1,2,3:2:0:0:
204,308,40711,1,2,3:2:0:0:
437,170,40867,5,10,0:0:0:0:
320,296,41023,1,2,3:2:0:0:
194,184,41179,1,2,3:2:0:0:
402,295,41336,5,2,3:2:0:0:
421,288,41414,1,0,3:0:0:0:
440,281,41492,1,0,3:0:0:0:
459,274,41570,1,0,3:0:0:0:
477,266,41648,2,0,P|486:218|449:165,1,104.500003189087,10|2,0:0|3:2,0:0:0:0:
371,126,41882,5,2,3:2:0:0:
371,126,41961,1,14,3:2:0:0:
479,32,42117,1,2,3:2:0:0:
282,152,42273,5,2,3:2:0:0:
282,152,42351,1,0,3:0:0:0:
282,152,42429,1,10,0:0:0:0:
164,62,42586,1,2,3:2:0:0:
352,211,42742,5,2,3:2:0:0:
352,211,42820,1,0,3:0:0:0:
352,211,42898,1,14,0:0:0:0:
196,294,43054,1,2,3:2:0:0:
363,128,43211,5,2,3:2:0:0:
363,128,43289,1,0,3:0:0:0:
363,128,43367,1,10,0:0:0:0:
452,267,43523,1,2,3:2:0:0:
224,181,43679,1,2,3:2:0:0:
224,181,43757,1,0,3:0:0:0:
224,181,43836,2,0,P|196:145|210:80,1,104.500003189087,10|0,0:0|3:0,0:0:0:0:
239,12,44070,5,0,3:0:0:0:
239,12,44148,2,0,P|291:28|343:42,1,104.500003189087,10|0,0:0|0:0,0:0:0:0:
512,194,44461,6,0,P|412:193|361:279,1,209.000006378174,6|10,3:2|0:0,0:0:0:0:
366,384,44929,1,0,3:0:0:0:
194,304,45086,2,0,P|225:264|276:261,1,104.500003189087,2|0,0:0|3:0,0:0:0:0:
89,373,45398,2,0,P|76:322|61:266,1,104.500003189087,10|0,0:0|0:0,0:0:0:0:
187,107,45711,5,2,3:2:0:0:
67,248,45867,1,0,3:0:0:0:
0,96,46023,2,0,P|50:113|99:130,1,104.500003189087,8|2,0:0|0:0,0:0:0:0:
250,40,46336,2,0,P|299:22|349:9,1,104.500003189087,10|0,0:0|0:0,0:0:0:0:
277,121,46648,1,0,3:0:0:0:
141,18,46804,1,0,3:0:0:0:
187,107,46961,6,0,P|198:150|215:228,1,113.999996520996,6|0,3:2|0:0,0:0:0:0:
316,243,47429,1,2,3:2:0:0:
316,243,47586,2,0,P|298:289|287:320,1,56.9999982604981,2|0,3:2|0:0,0:0:0:0:
183,319,47898,2,0,P|198:357|205:391,1,56.9999982604981,0|0,0:0|3:0,0:0:0:0:
364,354,48211,6,0,P|426:340|469:379,1,113.999996520996,2|0,3:2|0:0,0:0:0:0:
438,262,48679,1,2,3:2:0:0:
438,262,48836,2,0,P|452:209|462:188,1,56.9999982604981,2|0,3:2|0:0,0:0:0:0:
317,122,49148,2,0,P|326:148|331:176,1,56.9999982604981,0|0,0:0|3:0,0:0:0:0:
512,77,49461,6,0,B|445:86|466:110|391:125,1,113.999996520996,2|0,3:2|0:0,0:0:0:0:
303,25,49929,1,2,3:2:0:0:
303,25,50086,2,0,P|345:21|367:40,1,56.9999982604981,2|0,3:2|0:0,0:0:0:0:
228,92,50398,2,0,P|201:101|174:94,1,56.9999982604981,0|0,0:0|3:0,0:0:0:0:
27,18,50711,5,2,3:2:0:0:
27,18,50867,1,2,0:0:0:0:
95,93,51023,1,2,0:0:0:0:
7,141,51179,1,2,3:2:0:0:
91,206,51336,1,2,3:2:0:0:
4,264,51492,1,2,0:0:0:0:
104,326,51648,2,0,L|121:366,3,28.4999991302491,2|2|2|2,0:0|0:0|0:0|0:0,0:0:0:0:
144,379,51961,6,0,B|230:378|196:333|292:327,1,152,2|0,3:2|0:0,0:0:0:0:
379,336,52429,1,2,3:2:0:0:
288,175,52586,2,0,P|268:217|290:261,1,76,2|0,3:2|0:0,0:0:0:0:
458,259,52898,2,0,P|419:243|371:227,1,76,0|0,0:0|3:0,0:0:0:0:
201,124,53211,6,0,P|261:61|329:75,1,152,2|2,3:2|3:2,0:0:0:0:
379,141,53679,1,2,0:0:0:0:
502,30,53836,5,2,3:2:0:0:
497,44,53914,1,0,3:0:0:0:
491,58,53992,1,0,3:0:0:0:
486,72,54070,1,0,3:0:0:0:
476,92,54148,2,0,P|491:132|516:215,1,114,8|0,0:0|0:0,0:0:0:0:
444,264,54461,6,0,P|401:246|325:223,1,104.500003189087,6|0,3:2|0:0,0:0:0:0:
108,143,54773,2,0,P|103:201|136:235,1,104.500003189087,10|0,0:0|0:0,0:0:0:0:
272,78,55086,1,2,3:2:0:0:
59,0,55242,1,0,3:0:0:0:
213,162,55398,1,10,0:0:0:0:
32,318,55554,6,0,P|13:261|-5:204,1,104.500003189087,6|0,3:2|0:0,0:0:0:0:
122,64,55867,1,2,3:2:0:0:
256,254,56023,1,10,0:0:0:0:
137,80,56179,1,2,0:0:0:0:
347,232,56336,6,0,P|396:214|470:194,1,104.500003189087,2|0,3:2|3:0,0:0:0:0:
183,161,56648,2,0,P|134:179|60:199,1,104.500003189087,10|0,0:0|3:0,0:0:0:0:
328,5,56961,6,0,P|363:78|318:145,1,156.750004783631,6|0,3:2|0:0,0:0:0:0:
261,204,57273,2,0,P|257:262|296:303,1,104.500003189087,10|0,0:0|0:0,0:0:0:0:
502,136,57586,5,10,0:0:0:0:
347,232,57742,1,0,3:0:0:0:
512,365,57898,1,10,0:0:0:0:
261,204,58054,6,0,B|136:215|196:294|68:293,1,209.000006378174,2|2,3:2|0:0,0:0:0:0:
188,133,58523,1,10,0:0:0:0:
277,318,58679,1,2,3:2:0:0:
40,168,58836,6,0,P|29:124|7:55,1,104.500003189087,10|0,0:0|3:0,0:0:0:0:
187,270,59148,2,0,P|172:319|159:370,1,104.500003189087,10|0,0:0|3:0,0:0:0:0:
395,202,59461,5,10,3:2:0:0:
395,202,59539,1,8,0:0:0:0:
395,202,59617,1,8,0:0:0:0:
395,202,59695,1,8,0:0:0:0:
400,187,59773,5,8,3:2:0:0:
405,174,59851,1,8,0:0:0:0:
412,160,59929,1,8,0:0:0:0:
417,148,60007,1,8,0:0:0:0:
425,131,60086,5,8,3:2:0:0:
434,112,60164,1,8,0:0:0:0:
448,72,60242,1,8,0:0:0:0:
422,32,60320,1,8,0:0:0:0:
369,28,60398,5,8,3:2:0:0:
330,69,60476,1,8,0:0:0:0:
319,135,60554,1,8,0:0:0:0:
261,186,60632,1,8,0:0:0:0:
178,173,60711,5,2,3:2:0:0:
21,271,61336,5,2,3:2:0:0:
9,263,61414,1,0,3:0:0:0:
0,241,61492,1,0,3:0:0:0:
11,209,61570,1,0,3:0:0:0:
52,197,61648,6,0,B|145:206|106:248|195:261,1,156.750004783631,14|0,0:0|0:0,0:0:0:0:
252,204,61961,1,2,3:2:0:0:
87,330,62117,1,10,0:0:0:0:
237,121,62273,1,2,3:2:0:0:
252,117,62351,1,0,3:0:0:0:
266,123,62429,1,10,0:0:0:0:
365,318,62586,5,2,3:2:0:0:
171,181,62742,1,10,0:0:0:0:
372,38,62898,1,2,3:2:0:0:
512,302,63054,6,0,P|437:264|297:207,1,209.000006378174,10|8,0:0|0:0,0:0:0:0:
87,330,63523,1,2,3:2:0:0:
78,317,63601,1,0,3:0:0:0:
82,302,63679,1,10,0:0:0:0:
250,148,63836,5,2,3:2:0:0:
48,60,63992,1,10,0:0:0:0:
234,248,64148,1,2,3:2:0:0:
343,6,64304,5,10,0:0:0:0:
121,155,64461,1,0,3:0:0:0:
124,170,64539,1,0,3:0:0:0:
127,185,64617,1,8,0:0:0:0:
196,36,64773,5,2,3:2:0:0:
32,238,64929,1,10,0:0:0:0:
250,148,65086,1,2,3:2:0:0:
48,24,65242,1,10,0:0:0:0:
181,243,65398,1,2,3:2:0:0:
438,47,65554,6,0,P|390:26|342:5,1,104.500003189087,10|0,0:0|3:0,0:0:0:0:
127,185,65867,1,10,0:0:0:0:
319,26,66023,1,2,3:2:0:0:
105,205,66179,2,0,P|64:172|89:103,1,104.500003189087,10|0,0:0|3:0,0:0:0:0:
289,252,66492,2,0,B|382:257|351:312|436:312,1,156.750004783631,10|0,0:0|0:0,0:0:0:0:
497,357,66804,6,0,P|482:303|436:146,1,209.000006378174,6|10,3:2|0:0,0:0:0:0:
321,327,67273,1,2,3:2:0:0:
335,321,67351,1,0,3:0:0:0:
349,315,67429,1,10,0:0:0:0:
512,252,67586,5,2,3:2:0:0:
318,178,67742,1,10,0:0:0:0:
484,49,67898,1,2,3:2:0:0:
257,245,68054,6,0,P|222:206|231:147,1,104.500003189087,10|0,0:0|3:0,0:0:0:0:
235,144,68289,1,0,3:0:0:0:
247,134,68367,1,10,0:0:0:0:
345,268,68523,1,2,3:2:0:0:
132,380,68679,2,0,P|144:339|165:275,1,104.500003189087,10|0,0:0|3:0,0:0:0:0:
398,383,68992,5,10,0:0:0:0:
265,287,69148,1,2,3:2:0:0:
472,132,69304,2,0,P|498:94|485:35,1,104.500003189087,10|0,0:0|3:0,0:0:0:0:
288,161,69617,5,10,0:0:0:0:
465,282,69773,1,2,3:2:0:0:
199,105,69929,2,0,P|179:57|203:11,1,104.500003189087,10|0,0:0|3:0,0:0:0:0:
385,149,70242,5,10,0:0:0:0:
127,274,70398,1,2,3:2:0:0:
113,281,70476,1,0,3:0:0:0:
98,287,70554,2,0,P|58:273|-5:251,1,104.500003189087,10|0,0:0|3:0,0:0:0:0:
199,105,70867,5,10,0:0:0:0:
266,296,71023,1,2,3:2:0:0:
477,100,71179,2,0,P|487:61|507:-3,1,104.500003189087,10|0,0:0|3:0,0:0:0:0:
357,220,71492,5,10,0:0:0:0:
346,251,71570,1,8,0:0:0:0:
357,282,71648,1,10,0:0:0:0:
379,308,71726,1,8,0:0:0:0:
411,319,71804,1,10,0:0:0:0:
443,310,71882,1,8,0:0:0:0:
470,292,71961,6,0,B|356:295|411:373|277:379,1,209.000006378174,6|10,3:2|0:0,0:0:0:0:
56,199,72429,1,2,0:0:0:0:
261,288,72586,1,2,3:2:0:0:
33,371,72742,1,2,0:0:0:0:
135,148,72898,1,10,0:0:0:0:
320,384,73054,6,0,P|336:335|394:184,1,209.000006378174,2|2,0:0|0:0,0:0:0:0:
219,76,73523,2,0,P|239:135|251:178,1,104.500003189087,10|2,0:0|0:0,0:0:0:0:
444,292,73836,1,2,3:2:0:0:
332,78,73992,1,2,0:0:0:0:
191,262,74148,1,10,0:0:0:0:
424,103,74304,6,0,P|479:109|510:148,1,104.500003189087,2|0,0:0|3:0,0:0:0:0:
325,264,74617,1,2,0:0:0:0:
310,256,74695,1,0,3:0:0:0:
295,248,74773,1,10,0:0:0:0:
462,351,74929,1,2,3:2:0:0:
462,367,75007,1,0,3:0:0:0:
463,384,75085,1,2,3:2:0:0:
480,162,75242,1,2,3:2:0:0:
494,153,75320,1,0,3:0:0:0:
508,144,75398,1,10,0:0:0:0:
284,329,75554,6,0,P|184:290|75:253,1,209.000006378174,6|0,3:2|3:0,0:0:0:0:
73,251,75945,1,0,3:0:0:0:
58,244,76023,2,0,P|73:302|86:359,1,104.500003189087,10|0,0:0|3:0,0:0:0:0:
185,130,76336,2,0,P|174:84|156:18,1,104.500003189087,10|0,0:0|3:0,0:0:0:0:
58,244,76648,1,10,0:0:0:0:
257,162,76804,1,2,0:0:0:0:
68,31,76961,5,2,3:2:0:0:
68,31,77117,1,0,3:0:0:0:
271,246,77273,2,0,P|336:224|390:208,1,104.500003189087,10|2,0:0|0:0,0:0:0:0:
385,208,77507,1,2,0:0:0:0:
400,203,77586,1,2,3:2:0:0:
291,79,77742,1,0,3:0:0:0:
456,284,77898,2,0,P|489:251|484:178,1,104.500003189087,10|2,0:0|0:0,0:0:0:0:
357,12,78211,6,0,P|412:33|462:54,1,104.500003189087,2|0,3:2|3:0,0:0:0:0:
240,196,78523,2,0,B|125:203|180:276|50:284,1,209.000006378174,10|2,0:0|3:2,0:0:0:0:
81,81,78992,1,2,3:2:0:0:
96,80,79070,1,0,3:0:0:0:
107,90,79148,2,0,P|87:148|74:196,1,104.500003189087,14|0,0:0|0:0,0:0:0:0:
174,352,79461,5,2,3:2:0:0:
0,231,79617,1,2,0:0:0:0:
208,147,79773,1,10,0:0:0:0:
84,324,79929,1,2,3:2:0:0:
77,309,80007,1,8,0:0:0:0:
71,295,80086,1,0,3:0:0:0:
284,384,80242,2,0,P|293:346|314:274,1,104.500003189087,2|10,3:2|0:0,0:0:0:0:
512,31,80554,6,0,P|418:80|426:181,1,209.000006378174,2|0,3:2|3:0,0:0:0:0:
433,181,80945,1,0,3:0:0:0:
446,189,81023,2,0,P|461:241|431:287,1,104.500003189087,8|0,0:0|3:0,0:0:0:0:
427,294,81257,1,0,3:0:0:0:
414,303,81336,1,8,0:0:0:0:
288,166,81492,1,2,3:2:0:0:
284,150,81570,1,0,3:0:0:0:
280,134,81648,1,10,0:0:0:0:
414,303,81804,1,2,0:0:0:0:
214,228,81961,5,2,3:2:0:0:
403,117,82117,1,2,3:2:0:0:
213,26,82273,1,10,0:0:0:0:
329,300,82429,6,0,P|349:238|366:200,1,104.500003189087,2|0,3:2|0:0,0:0:0:0:
111,38,82742,2,0,P|131:85|146:135,1,104.500003189087,2|8,3:2|0:0,0:0:0:0:
9,354,83054,6,0,P|66:278|189:312,1,209.000006378174,6|2,3:2|0:0,0:0:0:0:
180,303,83445,1,0,3:0:0:0:
190,314,83523,1,10,0:0:0:0:
43,197,83679,2,0,L|17:135,2,52.2500015945435,2|0|8,3:2|3:0|0:0,0:0:0:0:
146,23,83992,5,2,3:2:0:0:
130,29,84070,1,0,3:0:0:0:
115,35,84149,1,8,0:0:0:0:
241,146,84304,2,0,L|259:76,2,52.2500015945435,2|0|8,3:2|3:0|0:0,0:0:0:0:
21,23,84617,5,2,3:2:0:0:
26,38,84695,1,0,3:0:0:0:
31,53,84774,1,8,0:0:0:0:
181,219,84929,1,2,3:2:0:0:
176,234,85007,1,0,3:0:0:0:
171,249,85086,1,10,0:0:0:0:
2,133,85242,1,2,3:2:0:0:
7,148,85320,1,0,3:0:0:0:
12,163,85399,1,10,0:0:0:0:
161,27,85554,6,0,B|281:24|223:109|348:101,1,209.000006378174,2|2,3:2|0:0,0:0:0:0:
459,14,86023,1,2,0:0:0:0:
459,14,86336,6,0,P|445:80|433:130,1,104.500003189087,2|0,3:2|0:0,0:0:0:0:
372,184,86570,6,0,P|388:248|398:300,1,104.500003189087,2|0,3:2|0:0,0:0:0:0:
462,346,86804,5,2,3:2:0:0:
294,228,86961,6,0,P|245:224|202:268,1,104.500003189087,6|0,3:2|3:0,0:0:0:0:
200,273,87195,1,0,3:0:0:0:
198,288,87273,1,10,0:0:0:0:
285,117,87430,5,2,3:2:0:0:
282,101,87509,1,0,3:0:0:0:
270,91,87588,1,10,0:0:0:0:
94,217,87746,5,2,3:2:0:0:
109,223,87825,1,0,3:0:0:0:
126,216,87904,1,10,0:0:0:0:
97,26,88062,5,2,3:2:0:0:
81,36,88141,1,0,3:0:0:0:
80,54,88220,5,10,0:0:0:0:
90,66,88299,1,8,0:0:0:0:
106,73,88378,1,2,3:2:0:0:
123,71,88457,1,0,3:0:0:0:
146,60,88536,5,10,0:0:0:0:
165,50,88615,1,8,0:0:0:0:
185,44,88694,1,2,3:2:0:0:
204,36,88773,1,0,3:0:0:0:
240,23,88851,5,10,0:0:0:0:
276,45,88930,5,10,0:0:0:0:
282,97,89009,5,2,3:2:0:0:
232,129,89088,5,2,3:2:0:0:
190,178,89167,5,10,0:0:0:0:
196,248,89246,5,10,0:0:0:0:
257,294,89325,5,2,3:2:0:0:
