osu file format v14

[General]
AudioFilename: audio.mp3
AudioLeadIn: 0
PreviewTime: 60945
Countdown: 0
SampleSet: Soft
StackLeniency: 0.7
Mode: 0
LetterboxInBreaks: 0
WidescreenStoryboard: 1

[Editor]
DistanceSpacing: 1
BeatDivisor: 2
GridSize: 32
TimelineZoom: 1.5

[Metadata]
Title:Dai Dai Dai Dai Daisuki na Kimi e <3 (TV Size)
TitleUnicode:大大大大大好きな君へ♡ (TV Size)
Artist:Hondo Kaede, Tomita Miyu, Naganawa Maria, Seto Asami, Asai Ayaka
ArtistUnicode:本渡 楓、富田美憂、長縄まりあ、瀬戸麻沙美、朝井彩加
Creator:Gabizon04
Version:Easy
Source:君のことが大大大大大好きな100人の彼女
Tags:the 100 girlfriends who really love you japanese j-pop jpop pop female vocals anime op opening 君のことが大大大大大好きな100人の彼女 kimi no koto ga daidaidaidaidaisuki na 100-nin no kanojo 花園羽香里 Hanazono Hakari 本渡 楓 Kaede Hondo 院田唐音 Inda Karane 富田美憂 Miyu Tomita 好本 静 Yoshimoto Shizuka 長縄まりあ Naganawa Maria 栄逢凪乃 Eiai Nano 瀬戸麻沙美 Setou Masami 薬膳楠莉 Yakuzen Kusuri 朝井彩加 Asai Ayaka cv cv: アニメ Hyakkano 100カノ Ando Sasa 安藤 紗々 Tabuchi Tomoya 田淵智也 Shuhei Mutsuki 睦月周平 Shunsuke Takizawa 滝澤俊輔 TRYTONELABO Eba Lantis LACM-24439
BeatmapID:4367234
BeatmapSetID:2076659

[Difficulty]
HPDrainRate:2
CircleSize:2
OverallDifficulty:2
ApproachRate:4
SliderMultiplier:0.9
SliderTickRate:1

[Events]
//Background and Video events
Video,592,"video.mp4"
0,0,"bg.png",0,0
//Break Periods
2,47161,53141
//Storyboard Layer 0 (Background)
//Storyboard Layer 1 (Fail)
//Storyboard Layer 2 (Pass)
//Storyboard Layer 3 (Foreground)
//Storyboard Layer 4 (Overlay)
//Storyboard Sound Samples

[TimingPoints]
711,312.5,4,2,0,50,1,0
1961,-100,4,2,1,50,0,0
11804,-100,4,2,1,70,0,0
16961,-100,4,2,1,75,0,0
25711,-100,4,2,1,75,0,0
26961,-100,4,2,1,60,0,0
34461,-100,4,2,1,75,0,0
46961,-100,4,2,1,60,0,0
54148,-100,4,2,1,80,0,0
61961,-100,4,2,1,80,0,1
76961,-100,4,2,1,80,0,0
86961,-100,4,2,1,80,0,1
87273,315.789473684211,4,2,1,80,1,1
89325,-100,4,2,1,80,0,0

[Colours]
Combo1 : 194,186,169
Combo2 : 242,196,145
Combo3 : 181,134,91

[HitObjects]
0,83,11804,6,0,B|119:86|63:160|179:159,1,180,6|2,3:2|3:2,0:0:0:0:
246,160,12742,2,0,P|230:210|215:257,1,90,2|2,3:2|3:2,0:0:0:0:
251,329,13367,2,0,P|316:347|385:300,1,135,2|2,3:2|3:2,0:0:0:0:
467,220,14304,1,6,3:2:0:0:
439,134,14617,2,0,L|393:116,1,45,10|10,0:0|0:0,0:0:0:0:
363,34,15086,6,0,P|273:64|168:93,1,180,6|6,3:2|3:2,0:0:0:0:
103,67,16023,1,10,3:2:0:0:
31,121,16336,2,0,P|32:182|57:207,1,90,10|2,3:2|3:2,0:0:0:0:
133,234,16961,6,0,P|177:220|291:189,1,135,6|10,3:2|0:0,0:0:0:0:
335,143,17742,1,10,0:0:0:0:
410,191,18054,2,0,P|393:246|382:288,1,90,10|10,0:0|0:0,0:0:0:0:
305,320,18679,2,0,B|226:326|260:356|150:357,1,135,10|2,0:0|3:2,0:0:0:0:
104,302,19461,1,2,3:2:0:0:
213,159,20086,6,0,L|409:95,2,180,6|2|2,3:2|3:2|3:2,0:0:0:0:
64,57,21961,1,10,0:0:0:0:
4,124,22273,1,6,3:2:0:0:
50,201,22586,2,0,B|165:214|112:263|234:279,1,180,2|8,3:2|0:0,0:0:0:0:
507,72,24461,6,0,P|430:130|438:212,2,180,6|2|2,3:2|0:0|3:2,0:0:0:0:
387,9,26179,2,0,P|346:24|286:45,1,90,2|2,3:2|3:2,0:0:0:0:
169,14,26961,6,0,P|212:166|228:237,1,225,6|2,3:2|0:0,0:0:0:0:
209,319,28054,2,0,P|299:251|421:292,1,225,6|2,3:2|0:0,0:0:0:0:
460,103,29461,6,0,P|471:61|489:8,2,90,6|2|2,3:2|0:0|3:2,0:0:0:0:
377,137,30398,1,2,3:2:0:0:
311,74,30711,2,0,B|198:87|257:135|129:158,1,180,6|10,3:2|0:0,0:0:0:0:
37,221,31804,6,0,P|111:255|128:313,1,135,6|2,3:2|0:0,0:0:0:0:
183,372,32586,1,10,0:0:0:0:
304,313,33054,2,0,P|319:251|343:169,1,135,2|2,3:2|3:2,0:0:0:0:
399,115,33836,2,0,P|385:66|369:9,1,90,10|2,0:0|3:2,0:0:0:0:
288,1,34461,6,0,P|243:48|147:33,1,135,6|2,3:2|3:2,0:0:0:0:
92,17,35242,1,2,3:2:0:0:
21,72,35554,2,0,P|34:129|42:177,1,90,6|2,3:2|3:2,0:0:0:0:
6,243,36179,2,0,B|89:249|60:287|141:300,1,135,6|8,3:2|0:0,0:0:0:0:
196,239,36961,6,0,B|232:91,2,135,14|10|14,3:2|0:0|3:2,0:0:0:0:
107,340,38367,1,10,0:0:0:0:
239,368,38836,2,0,P|292:346|348:326,1,90,10|10,0:0|0:0,0:0:0:0:
400,289,39461,6,0,P|452:360|515:362,2,135,14|10|14,3:2|0:0|3:2,0:0:0:0:
482,181,40867,1,10,0:0:0:0:
404,70,41336,2,0,P|364:88|308:112,1,90,2|10,3:2|0:0,0:0:0:0:
234,130,41961,6,0,P|221:72|190:-34,2,135,14|10|14,3:2|0:0|0:0,0:0:0:0:
301,247,43367,1,10,0:0:0:0:
213,349,43836,2,0,P|168:351|114:309,1,90,10|10,0:0|0:0,0:0:0:0:
61,270,44461,6,0,P|75:219|92:156,1,90,6|10,3:2|0:0,0:0:0:0:
145,116,45086,1,2,0:0:0:0:
83,50,45398,1,10,0:0:0:0:
160,4,45711,2,0,B|271:30|234:64|336:86,1,180,2|10,3:2|0:0,0:0:0:0:
490,23,46961,1,6,3:2:0:0:
78,61,54461,5,6,3:2:0:0:
35,140,54773,2,0,P|52:184|68:234,1,90,10|2,0:0|3:2,0:0:0:0:
174,304,55554,2,0,P|226:285|328:261,1,135,6|10,3:2|0:0,0:0:0:0:
392,254,56336,1,2,3:2:0:0:
460,195,56648,1,10,0:0:0:0:
440,106,56961,6,0,P|336:76|258:126,1,180,6|10,3:2|0:0,0:0:0:0:
159,174,58054,2,0,P|171:228|196:328,1,135,2|10,3:2|0:0,0:0:0:0:
132,374,58836,1,10,0:0:0:0:
45,351,59148,1,10,0:0:0:0:
256,192,59461,12,2,60711,3:2:0:0:
508,118,61961,6,0,P|458:94|369:47,1,135,2|10,3:2|0:0,0:0:0:0:
306,16,62742,1,10,0:0:0:0:
232,67,63054,2,0,P|246:120|273:226,1,135,10|2,0:0|3:2,0:0:0:0:
221,276,63836,1,2,3:2:0:0:
87,254,64304,6,0,P|41:331|73:403,2,135,10|2|10,0:0|3:2|0:0,0:0:0:0:
44,174,65554,1,10,0:0:0:0:
109,111,65867,2,0,L|211:74,1,90,10|10,0:0|0:0,0:0:0:0:
275,43,66492,1,10,0:0:0:0:
350,91,66804,6,0,L|373:207,1,90,6|10,3:2|0:0,0:0:0:0:
404,261,67429,2,0,P|369:297|307:291,1,90,10|10,0:0|0:0,0:0:0:0:
245,329,68054,2,0,P|224:256|210:210,1,90,10|10,0:0|0:0,0:0:0:0:
158,176,68679,1,10,0:0:0:0:
84,228,68992,1,10,0:0:0:0:
15,170,69304,6,0,P|7:132|37:80,1,90,10|10,0:0|0:0,0:0:0:0:
95,27,69929,2,0,L|220:68,1,90,10|10,0:0|0:0,0:0:0:0:
230,129,70554,2,0,L|186:240,1,90,10|10,0:0|0:0,0:0:0:0:
134,277,71179,1,10,0:0:0:0:
180,353,71492,1,10,0:0:0:0:
314,344,71961,6,0,P|365:359|424:375,1,90,6|10,3:2|0:0,0:0:0:0:
486,340,72586,1,2,3:2:0:0:
415,225,73054,2,0,P|409:186|385:61,1,135,2|10,0:0|0:0,0:0:0:0:
326,29,73836,1,2,3:2:0:0:
258,145,74304,6,0,B|175:160|210:197|122:214,1,135,2|10,0:0|0:0,0:0:0:0:
51,205,75086,1,2,3:2:0:0:
66,338,75554,1,6,3:2:0:0:
198,310,76023,2,0,P|227:273|222:211,1,90,10|10,0:0|0:0,0:0:0:0:
154,181,76648,1,10,0:0:0:0:
89,117,76961,6,0,P|80:78|113:19,1,90,2|10,3:2|0:0,0:0:0:0:
185,11,77586,2,0,P|231:28|278:46,1,90,2|10,3:2|0:0,0:0:0:0:
346,89,78210,1,2,3:2:0:0:
436,84,78523,2,0,P|450:34|469:-11,2,90,10|2|14,0:0|3:2|0:0,0:0:0:0:
485,159,79461,5,2,3:2:0:0:
390,254,79929,2,0,L|288:218,1,90,2|2,3:2|3:2,0:0:0:0:
216,242,80554,2,0,P|221:320|185:359,1,135,2|8,3:2|0:0,0:0:0:0:
94,362,81336,1,8,0:0:0:0:
25,303,81648,1,10,0:0:0:0:
55,218,81961,6,0,L|34:152,1,45,2|2,3:2|3:2,0:0:0:0:
85,96,82429,2,0,P|133:113|190:138,1,90,2|2,3:2|3:2,0:0:0:0:
257,146,83054,1,6,3:2:0:0:
332,96,83367,2,0,P|377:92|435:128,1,90,2|2,0:0|3:2,0:0:0:0:
492,159,83992,2,0,L|468:267,1,90,2|2,3:2|3:2,0:0:0:0:
446,333,84617,6,0,B|364:333|389:369|297:371,1,135,2|10,3:2|0:0,0:0:0:0:
186,339,85554,1,2,3:2:0:0:
374,215,86336,2,0,P|392:165|322:65,1,180,2|6,3:2|3:2,0:0:0:0:
250,22,87273,6,0,L|166:59,1,90,10|10,0:0|0:0,0:0:0:0:
82,28,87904,1,10,0:0:0:0:
15,89,88220,2,0,L|32:187,1,90,10|10,0:0|0:0,0:0:0:0:
100,234,88851,1,10,0:0:0:0:
222,176,89325,1,2,3:2:0:0:
