osu file format v14

[General]
AudioFilename: step.mp3
AudioLeadIn: 0
PreviewTime: 41929
Countdown: 0
SampleSet: Soft
StackLeniency: 0.7
Mode: 0
LetterboxInBreaks: 0
WidescreenStoryboard: 0

[Editor]
DistanceSpacing: 0.5
BeatDivisor: 12
GridSize: 16
TimelineZoom: 2.1

[Metadata]
Title:Step!
TitleUnicode:ステップ!
Artist:Honda Mio (CV: Hara Sayuri)
ArtistUnicode:本田未央 (CV: 原紗友里)
Creator:Sylvarus
Version:Need Tomboy
Source:アイドルマスター シンデレラガールズ スターライトステージ
Tags:idolm@ster idolmaster cinderella girls starlight stage idol imas deresute Ducky- -Eresh Elayue japanese video game pop jpop im@s j-pop デレステ master 02 COCC-17142 tulip
BeatmapID:2336659
BeatmapSetID:1118717

[Difficulty]
HPDrainRate:6
CircleSize:4.4
OverallDifficulty:8
ApproachRate:9
SliderMultiplier:1.4
SliderTickRate:1

[Events]
//Background and Video events
0,0,"300077SSR-Honda-Mio-Stage-of-Magic.jpg",0,0
//Break Periods
//Storyboard Layer 0 (Background)
//Storyboard Layer 1 (Fail)
//Storyboard Layer 2 (Pass)
//Storyboard Layer 3 (Foreground)
//Storyboard Layer 4 (Overlay)
//Storyboard Sound Samples

[TimingPoints]
2307,283.018867924528,4,2,1,50,1,0
3439,-100,4,2,1,70,0,0
12495,-125,4,2,1,50,0,0
37401,-100,4,2,1,60,0,0
37825,-86.9565217391304,4,2,1,60,0,0
38250,-76.9230769230769,4,2,1,60,0,0
38698,-68.9655172413793,4,2,1,60,0,0
39099,-66.6666666666667,4,2,1,60,0,0
39665,-100,4,2,1,60,0,0
40703,-100,4,2,1,70,0,0
41929,-100,4,2,1,80,0,0
42212,-58.8235294117647,4,2,1,80,0,0
42495,-83.3333333333333,4,2,1,80,0,0
43344,-71.4285714285714,4,2,1,80,0,0
43627,-83.3333333333333,4,2,1,80,0,0
45891,-133.333333333333,4,2,1,80,0,0
46174,-71.4285714285714,4,2,1,80,0,0
46457,-100,4,2,1,80,0,0
46740,-58.8235294117647,4,2,1,80,0,0
47023,-83.3333333333333,4,2,1,80,0,0
47873,-71.4285714285714,4,2,1,80,0,0
48156,-83.3333333333333,4,2,1,80,0,0
50986,-83.3333333333333,4,2,1,70,0,0
57778,-71.4285714285714,4,2,1,70,0,0
58344,-83.3333333333333,4,2,1,70,0,0
60042,-100,4,2,1,80,0,0
60325,-58.8235294117647,4,2,1,80,0,0
60608,-83.3333333333333,4,2,1,80,0,0
61457,-71.4285714285714,4,2,1,80,0,0
61740,-83.3333333333333,4,2,1,80,0,0
64288,-71.4285714285714,4,2,1,80,0,0
64571,-100,4,2,1,80,0,0
64854,-58.8235294117647,4,2,1,80,0,0
65137,-83.3333333333333,4,2,1,80,0,0
65986,-71.4285714285714,4,2,1,80,0,0
66269,-83.3333333333333,4,2,1,80,0,0
69099,-83.3333333333333,4,2,1,70,0,0
75608,-111.111111111111,4,2,1,70,0,0
75891,-83.3333333333333,4,2,1,70,0,0
78156,-83.3333333333333,4,2,1,60,0,0
78627,-100,4,2,1,60,0,0
88627,-142.857142857143,4,2,1,60,0,0
94005,-142.857142857143,4,2,1,40,0,0
95420,-111.111111111111,4,2,1,40,0,0
104193,-111.111111111111,4,2,1,70,0,0
105325,-111.111111111111,4,2,1,80,0,0
105608,-52.6315789473684,4,2,1,80,0,0
105891,-83.3333333333333,4,2,1,80,0,0
106740,-66.6666666666667,4,2,1,80,0,0
107023,-83.3333333333333,4,2,1,80,0,0
109571,-66.6666666666667,4,2,1,80,0,0
109854,-100,4,2,1,80,0,0
110137,-52.6315789473684,4,2,1,80,0,0
110420,-83.3333333333333,4,2,1,80,0,0
111269,-66.6666666666667,4,2,1,80,0,0
111552,-83.3333333333333,4,2,1,80,0,0
114382,-83.3333333333333,4,2,1,70,0,0
120608,-71.4285714285714,4,2,1,70,0,0
121174,-71.4285714285714,4,2,1,40,0,0
121740,-71.4285714285714,4,2,1,50,0,0
122306,-71.4285714285714,4,2,1,60,0,0
122873,-71.4285714285714,4,2,1,70,0,0
123439,-71.4285714285714,4,2,1,60,0,0
124854,-133.333333333333,4,2,1,60,0,0

[Colours]
Combo1 : 254,248,129
Combo2 : 255,155,121
Combo3 : 255,167,79

[HitObjects]
179,138,2307,5,8,2:0:0:0:
206,277,2495,1,8,2:0:0:0:
321,120,2778,1,8,2:0:0:0:
310,108,2873,2,0,L|263:103,2,46.6666666666667,8|8|4,2:0|2:3|2:3,2:0:0:0:
367,51,3156,1,0,3:2:0:0:
325,225,3439,6,0,P|314:277|340:324,1,93.3333333333333,6|0,3:2|2:0,2:0:0:0:
390,364,3722,1,10,2:0:0:0:
256,376,3910,1,2,0:0:0:0:
248,362,4005,2,0,L|141:349,1,93.3333333333333,0|2,3:2|2:2,2:0:0:0:
86,313,4288,1,8,0:2:0:0:
219,247,4476,6,0,P|231:180|187:128,1,140,2|0,3:2|3:2,2:0:0:0:
75,10,4854,2,0,P|101:38|108:94,1,93.3333333333333,10|0,2:0|2:0,2:0:0:0:
43,151,5137,2,0,P|54:113|99:79,1,93.3333333333333,2|0,3:2|2:0,2:0:0:0:
184,109,5420,2,0,P|146:118|94:96,1,93.3333333333333,10|0,2:0|2:0,2:0:0:0:
7,33,5703,6,0,L|-9:194,1,140,2|8,3:2|2:0,2:0:0:0:
167,207,6174,2,0,L|205:199,1,23.3333333333333,2|0,0:0|0:0,0:0:0:0:
156,200,6269,2,0,P|90:182|40:227,1,140,2|8,3:2|2:0,2:0:0:0:
387,324,6835,2,0,P|321:341|271:296,1,140,2|8,3:2|2:0,2:0:0:0:
501,199,7306,1,0,3:2:0:0:
505,216,7401,6,0,L|401:204,1,93.3333333333333,2|0,3:2|3:2,2:0:0:0:
383,131,7684,2,0,L|279:143,1,93.3333333333333,8|0,2:0|3:2,2:0:0:0:
249,198,7967,5,0,3:2:0:0:
208,25,8250,1,10,2:0:0:0:
286,108,8439,1,2,0:0:0:0:
268,98,8533,2,0,P|221:101|168:152,1,93.3333333333333,0|2,3:2|2:2,2:0:0:0:
142,182,8816,1,8,0:2:0:0:
128,383,9005,6,0,L|108:235,1,140,2|0,3:2|3:2,2:0:0:0:
176,205,9382,2,0,P|211:221|240:279,1,93.3333333333333,10|0,2:0|2:0,2:0:0:0:
249,337,9665,2,0,P|245:298|281:244,1,93.3333333333333,2|0,3:2|2:0,2:0:0:0:
321,188,9948,2,0,P|289:210|224:206,1,93.3333333333333,10|0,2:0|2:0,2:0:0:0:
284,108,10231,6,0,P|338:99|394:243,1,233.333333333333,2|2,3:2|2:0,2:0:0:0:
467,275,10797,2,0,P|453:305|464:369,1,93.3333333333333,0|0,3:2|2:0,2:0:0:0:
378,323,11080,2,0,L|270:332,1,93.3333333333333,10|0,2:0|3:2,2:0:0:0:
181,373,11363,5,2,3:2:0:0:
191,367,11457,2,0,P|197:339|193:313,1,46.6666666666667,2|10,2:0|2:0,2:0:0:0:
134,272,11646,1,8,0:3:0:0:
124,278,11740,2,0,P|118:311|122:332,1,46.6666666666667,2|10,2:0|2:0,2:0:0:0:
197,233,11929,5,10,2:0:0:0:
209,211,12023,1,2,2:0:0:0:
208,182,12118,1,10,2:0:0:0:
190,159,12212,1,10,2:0:0:0:
172,130,12306,1,2,2:0:0:0:
137,141,12401,1,10,2:0:0:0:
112,119,12495,6,0,L|-2:131,1,112,6|0,3:2|2:0,2:0:0:0:
493,22,13533,1,0,2:0:0:0:
476,35,13627,6,0,L|469:160,1,112,6|8,3:2|2:0,2:0:0:0:
489,300,14099,2,0,P|452:273|374:276,1,112,2|0,3:2|3:2,2:0:0:0:
489,300,14476,1,10,2:0:0:0:
252,360,14759,5,0,3:2:0:0:
150,124,15042,2,0,L|134:223,1,74.6666666666667,10|0,2:0|3:0,2:0:0:0:
152,219,15325,1,2,0:0:0:0:
25,338,15514,1,2,3:2:0:0:
31,320,15608,2,0,P|73:305|124:332,1,74.6666666666667,8|0,0:2|2:0,2:0:0:0:
165,369,15891,6,0,L|291:356,1,112,2|8,3:2|2:0,2:0:0:0:
341,174,16363,2,0,P|321:209|322:279,1,112,2|0,3:2|3:2,2:0:0:0:
341,174,16740,1,10,2:0:0:0:
184,7,17023,5,0,3:2:0:0:
460,104,17306,2,0,L|361:88,1,74.6666666666667,10|0,2:0|0:0,2:0:0:0:
378,67,17589,1,2,0:0:0:0:
233,82,17778,1,2,3:2:0:0:
251,88,17872,2,0,P|266:130|239:181,1,74.6666666666667,8|0,0:2|2:0,2:0:0:0:
168,235,18156,6,0,L|88:221,1,74.6666666666667,2|0,3:2|2:0,2:0:0:0:
120,144,18439,2,0,L|37:152,1,74.6666666666667,10|0,2:0|3:2,2:0:0:0:
0,212,18722,1,2,2:0:0:0:
38,64,18910,1,0,3:2:0:0:
54,75,19005,2,0,P|91:75|130:43,1,74.6666666666667,10|0,2:0|2:0,2:0:0:0:
206,28,19288,6,0,L|292:39,1,74.6666666666667,6|0,3:2|2:0,2:0:0:0:
329,102,19571,2,0,L|243:113,1,74.6666666666667,10|0,2:0|3:2,2:0:0:0:
202,174,19854,2,0,L|288:185,1,74.6666666666667,2|0,2:0|3:2,2:0:0:0:
334,245,20137,2,0,L|248:256,1,74.6666666666667,10|0,2:0|2:0,2:0:0:0:
207,313,20420,5,2,3:2:0:0:
298,368,20608,1,0,3:2:0:0:
289,351,20703,1,8,2:0:0:0:
396,297,20891,1,2,3:2:0:0:
377,345,20986,1,8,2:0:0:0:
499,380,21174,1,8,2:0:0:0:
473,330,21269,1,8,2:0:0:0:
512,195,21457,1,8,2:0:0:0:
477,252,21552,6,0,L|349:238,1,112,4|10,3:2|2:0,2:0:0:0:
335,76,22118,1,2,2:0:0:0:
452,162,22306,1,2,0:0:0:0:
435,144,22401,2,0,P|430:106|460:65,1,74.6666666666667,8|0,0:2|2:0,2:0:0:0:
512,43,22684,6,0,L|392:35,1,112,2|8,3:2|2:0,2:0:0:0:
285,20,23156,2,0,P|250:54|247:119,1,112,2|0,3:2|2:0,2:0:0:0:
285,20,23533,1,10,2:0:0:0:
192,203,23816,5,0,3:2:0:0:
98,377,24099,2,0,L|197:361,1,74.6666666666667,10|0,2:0|0:0,2:0:0:0:
180,340,24382,1,2,0:2:0:0:
46,239,24571,1,2,0:2:0:0:
64,245,24665,2,0,P|79:287|52:338,1,74.6666666666667,8|0,0:2|2:0,2:0:0:0:
2,289,24948,6,0,L|18:167,1,112,2|8,3:2|2:0,2:0:0:0:
189,127,25420,2,0,P|139:156|81:149,1,112,2|0,3:2|2:0,2:0:0:0:
189,127,25797,1,10,2:0:0:0:
0,58,26080,5,0,3:2:0:0:
116,0,26363,2,0,L|123:80,1,74.6666666666667,10|0,2:0|2:0,2:0:0:0:
102,148,26646,1,2,2:0:0:0:
135,268,26835,1,2,3:2:0:0:
141,250,26929,2,0,P|183:235|234:262,1,74.6666666666667,8|0,0:2|2:0,2:0:0:0:
255,183,27212,6,0,L|266:103,1,74.6666666666667,2|0,3:2|2:0,2:0:0:0:
333,58,27495,2,0,L|344:138,1,74.6666666666667,10|0,2:0|3:2,2:0:0:0:
419,166,27778,2,0,L|430:86,1,74.6666666666667,2|0,0:2|2:0,2:0:0:0:
497,41,28061,2,0,L|508:121,1,74.6666666666667,10|0,2:0|2:0,2:0:0:0:
498,211,28344,6,0,P|472:240|474:320,1,112,6|8,3:2|2:0,2:0:0:0:
343,207,28816,2,0,P|369:236|367:316,1,112,2|0,3:2|3:2,2:0:0:0:
324,367,29193,1,10,2:0:0:0:
227,250,29476,5,2,3:2:0:0:
144,317,29665,1,0,3:2:0:0:
139,302,29759,1,8,2:3:0:0:
26,229,29948,1,0,2:0:0:0:
49,277,30042,1,8,2:0:0:0:
0,381,30231,1,8,2:0:0:0:
64,356,30325,1,4,2:3:0:0:
226,367,30608,5,6,3:2:0:0:
336,354,30891,1,2,3:2:0:0:
454,338,31174,1,2,3:2:0:0:
249,190,31457,1,8,2:0:0:0:
384,81,31646,6,0,P|352:110|278:114,1,112,2|0,3:2|3:2,2:0:0:0:
250,50,32023,2,0,L|175:38,1,74.6666666666667,10|0,2:0|2:0,2:0:0:0:
109,128,32306,2,0,L|182:116,1,74.6666666666667,2|0,3:2|2:0,2:0:0:0:
269,129,32590,1,8,2:0:0:0:
512,4,32873,5,6,3:2:0:0:
499,114,33156,1,2,3:2:0:0:
483,232,33439,1,2,3:2:0:0:
269,129,33722,1,8,2:0:0:0:
261,265,33910,6,0,P|245:231|176:212,1,112,2|0,3:2|3:2,2:0:0:0:
113,268,34288,2,0,L|100:193,1,74.6666666666667,10|0,2:0|2:0,2:0:0:0:
86,124,34571,1,2,3:2:0:0:
2,55,34759,1,8,2:0:0:0:
25,66,34854,1,8,2:0:0:0:
97,0,35042,1,8,2:0:0:0:
152,45,35137,6,0,P|199:54|220:72,1,74.6666666666667,6|0,3:2|2:0,2:0:0:0:
283,155,35420,1,8,2:0:0:0:
158,64,35608,6,0,L|306:48,1,149.333333333333,2|10,3:2|2:0,2:0:0:0:
414,140,36269,6,0,P|367:149|346:167,1,74.6666666666667,6|0,3:2|2:0,2:0:0:0:
283,250,36552,1,8,2:0:0:0:
408,159,36740,6,0,L|260:143,1,149.333333333333,2|10,3:2|2:0,2:0:0:0:
86,27,37401,6,0,P|80:85|128:154,1,140,6|8,3:2|2:0,2:0:0:0:
37,240,37825,2,0,P|76:268|192:243,1,161.000003070831,0|0,3:2|2:0,2:0:0:0:
219,384,38250,2,0,P|263:363|299:227,1,181.999991668702,0|0,3:2|2:0,2:0:0:0:
445,295,38698,2,0,P|450:226|384:128,1,186.083339012146,0|0,3:2|2:0,2:0:0:0:
122,151,39099,6,0,P|163:161|227:131,1,105.000004005432,0|0,3:2|2:0,2:0:0:0:
328,41,39382,2,0,P|369:31|441:57,1,105.000004005432,8|0,2:0|2:0,2:0:0:0:
512,183,39665,5,14,2:0:0:0:
416,55,40137,1,2,0:2:0:0:
413,73,40231,1,2,0:2:0:0:
198,97,40703,1,10,2:0:0:0:
187,81,40797,2,0,P|209:34|250:29,1,93.3333333333333,10|8,3:2|2:0,2:0:0:0:
59,243,41269,1,10,2:0:0:0:
74,253,41363,1,2,3:2:0:0:
156,160,41552,1,8,2:0:0:0:
114,170,41646,1,8,2:0:0:0:
33,54,41835,1,8,2:0:0:0:
100,97,41929,6,0,P|103:129|66:185,1,93.3333333333333,6|0,3:2|2:0,2:0:0:0:
74,181,42212,6,0,B|159:182|133:241|227:242,1,158.666669692993,10|0,2:0|2:0,2:0:0:0:
298,293,42495,2,0,P|266:323|189:332,1,111.999996582031,2|0,3:2|2:0,2:0:0:0:
132,305,42778,1,10,2:0:0:0:
7,354,42967,2,0,L|18:230,1,111.999996582031,2|0,3:2|2:0,2:0:0:0:
62,172,43250,1,0,3:2:0:0:
127,223,43344,2,0,B|183:228|183:228|184:223|184:223|183:228|183:228|260:235,1,130.666662679037,8|0,2:0|2:0,2:0:0:0:
350,234,43627,6,0,P|326:182|262:147,1,111.999996582031,2|2,3:2|2:0,2:0:0:0:
350,234,43910,1,10,2:0:0:0:
453,66,44193,6,0,L|328:59,1,111.999996582031,2|0,3:2|2:0,2:0:0:0:
228,50,44476,1,10,2:0:0:0:
487,43,44759,6,0,L|362:50,1,111.999996582031,2|0,3:2|2:0,2:0:0:0:
194,56,45042,1,10,2:0:0:0:
510,26,45325,6,0,P|494:63|516:138,1,111.999996582031,2|0,3:2|3:2,2:0:0:0:
500,229,45608,2,0,P|475:196|400:178,1,111.999996582031,8|2,2:0|2:0,2:0:0:0:
357,261,45891,6,0,L|439:252,1,70.0000026702882,0|0,3:2|2:0,2:0:0:0:
307,320,46174,6,0,B|251:315|251:315|250:320|250:320|251:315|251:315|174:308,1,130.666662679037,8|0,2:0|2:0,2:0:0:0:
32,204,46457,6,0,P|81:217|111:255,1,93.3333333333333,6|0,3:2|2:0,2:0:0:0:
108,248,46740,6,0,B|193:247|167:188|261:187,1,158.666669692993,10|0,2:0|2:0,2:0:0:0:
346,193,47023,2,0,P|320:151|323:89,1,111.999996582031,2|0,3:2|2:0,2:0:0:0:
370,32,47306,1,10,2:0:0:0:
249,57,47495,2,0,P|176:46|134:16,1,111.999996582031,2|0,3:2|2:0,2:0:0:0:
0,108,47778,1,0,3:2:0:0:
13,99,47873,2,0,B|69:103|69:103|69:108|69:108|69:103|69:103|146:110,1,130.666662679037,8|0,2:0|2:0,2:0:0:0:
266,238,48156,6,0,P|243:159|179:133,1,111.999996582031,2|2,3:2|2:0,2:0:0:0:
266,238,48439,1,10,2:0:0:0:
119,307,48627,1,8,2:0:0:0:
103,322,48722,6,0,L|228:329,1,111.999996582031,2|0,3:2|2:0,2:0:0:0:
328,338,49005,1,10,2:0:0:0:
69,345,49288,6,0,L|194:338,1,111.999996582031,2|0,3:2|2:0,2:0:0:0:
362,332,49571,1,10,2:0:0:0:
46,362,49854,6,0,P|62:325|40:250,1,111.999996582031,10|0,2:0|3:2,2:0:0:0:
101,182,50137,2,0,L|223:191,1,111.999996582031,8|2,2:0|2:0,2:0:0:0:
285,227,50420,5,8,2:0:0:0:
408,124,50608,1,8,2:0:0:0:
390,166,50703,1,8,2:0:0:0:
503,0,50891,1,8,2:0:0:0:
442,39,50986,6,0,P|407:49|321:26,1,111.999996582031,6|0,3:2|2:0,2:0:0:0:
267,0,51269,1,10,2:0:0:0:
175,60,51457,1,2,3:2:0:0:
162,48,51552,1,0,3:2:0:0:
207,156,51740,1,2,3:2:0:0:
223,146,51835,1,8,2:0:0:0:
142,266,52023,6,0,P|98:231|82:178,1,111.999996582031,2|0,3:2|2:0,2:0:0:0:
104,103,52306,1,2,3:2:0:0:
13,142,52401,2,0,L|5:31,1,111.999996582031,10|0,2:0|2:0,2:0:0:0:
131,0,52684,2,0,L|122:111,1,111.999996582031,2|0,3:2|2:0,2:0:0:0:
158,188,52967,6,0,P|105:220|38:205,1,111.999996582031,10|0,2:0|2:0,2:0:0:0:
2,283,53250,1,2,3:2:0:0:
245,384,53533,1,10,2:0:0:0:
186,278,53722,2,0,P|241:258|338:318,1,167.999994873047,2|2,2:0|2:0,2:0:0:0:
359,374,54099,1,8,0:0:0:0:
500,191,54288,6,0,L|316:209,1,167.999994873047,2|2,3:2|3:2,2:0:0:0:
268,170,54665,1,8,2:0:0:0:
364,69,54854,1,2,2:0:0:0:
349,86,54948,2,0,P|293:97|241:67,1,111.999996582031,2|0,3:2|3:2,2:0:0:0:
187,16,55231,2,0,P|137:-8|84:2,1,111.999996582031,8|0,2:0|2:0,2:0:0:0:
6,152,55514,6,0,L|196:134,1,167.999994873047,6|8,3:2|2:0,2:0:0:0:
223,289,55986,1,2,2:0:0:0:
208,276,56080,2,0,P|145:279|174:380,1,167.999994873047,0|10,3:2|2:0,2:0:0:0:
350,303,56552,1,0,3:2:0:0:
342,317,56646,6,0,B|399:296|400:336|455:311,1,111.999996582031,2|0,2:0|3:2,2:0:0:0:
507,258,56929,1,8,2:0:0:0:
382,216,57118,2,0,L|373:395,1,167.999994873047,2|0,2:0|2:0,2:0:0:0:
248,320,57495,2,0,P|258:274|323:231,1,111.999996582031,10|0,2:0|2:0,2:0:0:0:
307,234,57778,6,0,B|411:240|380:151|493:163,1,195.999994018555,6|8,3:2|2:0,2:0:0:0:
291,104,58250,1,2,2:0:0:0:
284,125,58344,2,0,P|246:156|123:133,1,167.999994873047,6|8,3:2|2:0,2:0:0:0:
328,0,58816,1,2,2:0:0:0:
364,71,58910,6,0,P|427:82|490:54,1,111.999996582031,6|0,3:2|2:0,2:0:0:0:
502,5,59193,1,8,2:0:0:0:
447,161,59382,1,2,2:0:0:0:
432,157,59476,1,10,2:0:0:0:
344,227,59665,1,8,2:0:0:0:
380,203,59759,1,8,2:0:0:0:
510,328,59948,1,8,2:0:0:0:
446,289,60042,6,0,P|405:283|354:309,1,93.3333333333333,6|0,3:2|2:0,2:0:0:0:
358,304,60325,6,0,B|273:303|299:244|205:243,1,158.666669692993,10|0,2:0|2:0,2:0:0:0:
82,184,60608,2,0,P|114:199|135:269,1,111.999996582031,2|0,3:2|2:0,2:0:0:0:
80,331,60891,1,10,2:0:0:0:
208,355,61080,2,0,L|218:219,1,111.999996582031,2|0,3:2|2:0,2:0:0:0:
263,185,61363,1,0,3:2:0:0:
169,164,61457,2,0,B|105:158|105:158|106:153|106:153|105:158|105:158|49:153,1,130.666662679037,8|0,2:0|2:0,2:0:0:0:
10,0,61740,6,0,P|65:29|87:88,1,111.999996582031,2|2,3:2|2:0,2:0:0:0:
10,0,62023,1,10,2:0:0:0:
237,111,62306,6,0,L|361:125,1,111.999996582031,2|0,3:2|2:0,2:0:0:0:
461,134,62589,1,10,2:0:0:0:
207,82,62872,6,0,L|328:110,1,111.999996582031,2|0,3:2|2:0,2:0:0:0:
493,146,63155,1,10,2:0:0:0:
187,61,63438,6,0,P|196:100|161:170,1,111.999996582031,2|0,3:2|3:2,2:0:0:0:
101,204,63722,1,8,2:0:0:0:
210,248,63910,1,2,3:2:0:0:
204,238,64005,1,0,3:2:0:0:
285,178,64193,1,0,3:2:0:0:
291,187,64288,2,0,B|354:192|354:192|353:197|353:197|354:192|354:192|410:197,1,130.666662679037,8|0,2:0|2:0,2:0:0:0:
506,63,64571,6,0,P|494:98|513:151,1,93.3333333333333,6|0,3:2|2:0,2:0:0:0:
512,151,64854,6,0,B|424:149|455:85|354:85,1,158.666669692993,10|0,2:0|2:0,2:0:0:0:
369,1,65137,2,0,P|317:17|292:66,1,111.999996582031,2|0,3:2|2:0,2:0:0:0:
311,153,65420,1,10,2:0:0:0:
220,85,65608,2,0,P|166:73|95:105,1,111.999996582031,2|0,3:2|2:0,2:0:0:0:
13,28,65891,1,0,3:2:0:0:
28,25,65986,2,0,B|22:88|22:88|17:87|17:87|22:88|22:88|17:144,1,130.666662679037,8|0,2:0|2:0,2:0:0:0:
116,277,66269,6,0,P|125:231|179:179,1,111.999996582031,2|2,3:2|2:0,2:0:0:0:
116,277,66552,1,10,2:0:0:0:
460,301,66835,6,0,L|335:286,1,111.999996582031,2|0,3:2|2:0,2:0:0:0:
236,278,67118,1,10,2:0:0:0:
490,330,67401,6,0,L|368:301,1,111.999996582031,2|0,3:2|2:0,2:0:0:0:
204,266,67684,1,10,2:0:0:0:
512,348,67967,6,0,P|521:308|486:238,1,111.999996582031,2|0,3:2|2:0,2:0:0:0:
464,172,68250,2,0,L|352:179,1,111.999996582031,8|2,2:0|3:2,2:0:0:0:
285,149,68533,1,8,2:0:0:0:
363,70,68722,1,0,3:2:0:0:
371,86,68816,1,8,2:3:0:0:
512,2,69005,1,8,2:0:0:0:
483,66,69099,6,0,P|456:23|394:-1,1,111.999996582031,6|0,3:2|2:0,2:0:0:0:
331,0,69382,1,10,2:0:0:0:
210,76,69571,2,0,L|82:65,1,111.999996582031,2|0,3:2|2:0,2:0:0:0:
17,18,69854,1,2,3:2:0:0:
33,7,69948,1,8,2:0:0:0:
89,245,70137,6,0,P|82:167|2:109,1,167.999994873047,2|0,3:2|3:2,2:0:0:0:
176,160,70514,2,0,L|299:150,1,111.999996582031,10|0,2:0|2:0,2:0:0:0:
359,238,70797,2,0,L|235:228,1,111.999996582031,2|0,3:2|2:0,2:0:0:0:
185,260,71080,2,0,P|168:316|206:362,1,111.999996582031,10|0,2:0|2:0,2:0:0:0:
325,379,71363,5,2,3:2:0:0:
6,211,71646,1,10,2:0:0:0:
112,186,71835,2,0,P|36:217|14:295,1,167.999994873047,2|2,3:2|3:2,2:0:0:0:
25,369,72212,1,8,2:0:0:0:
185,260,72401,6,0,B|281:228|275:288|356:251,1,167.999994873047,6|0,3:2|3:2,2:0:0:0:
307,184,72778,2,0,L|317:303,1,111.999996582031,10|0,2:0|2:0,2:0:0:0:
463,362,73061,2,0,P|426:307|447:251,1,111.999996582031,2|0,3:2|3:2,2:0:0:0:
485,209,73344,2,0,P|506:146|471:97,1,111.999996582031,10|0,2:0|2:0,2:0:0:0:
497,14,73627,6,0,L|329:29,1,167.999994873047,6|8,3:2|2:0,2:0:0:0:
264,217,74099,1,2,3:2:0:0:
278,201,74193,2,0,P|280:164|174:168,1,167.999994873047,2|8,3:2|2:0,2:0:0:0:
109,281,74665,1,0,3:2:0:0:
119,270,74759,1,0,2:0:0:0:
218,339,74948,1,0,3:2:0:0:
207,322,75042,2,0,L|330:311,1,111.999996582031,8|0,2:0|2:0,2:0:0:0:
55,360,75325,6,0,P|19:311|26:242,1,111.999996582031,2|0,3:2|2:0,2:0:0:0:
79,202,75608,2,0,L|68:105,1,83.9999974365235,10|0,2:0|2:0,2:0:0:0:
0,34,75891,6,0,B|86:63|82:-3|178:23,1,167.999994873047,6|8,3:2|2:0,2:0:0:0:
377,0,76363,1,0,2:0:0:0:
315,39,76457,2,0,P|296:87|342:199,1,167.999994873047,6|8,3:2|2:0,2:0:0:0:
438,357,76929,1,0,2:0:0:0:
399,299,77023,6,0,P|349:286|309:328,1,111.999996582031,2|0,3:2|2:0,2:0:0:0:
229,322,77306,2,0,P|281:309|297:258,1,111.999996582031,8|0,2:0|2:0,2:0:0:0:
177,136,77590,5,10,2:0:0:0:
166,166,77684,1,8,2:0:0:0:
182,198,77778,1,8,2:0:0:0:
172,234,77873,1,8,2:0:0:0:
207,193,77967,1,8,2:0:0:0:
270,183,78061,1,8,2:0:0:0:
332,214,78156,6,0,B|414:177|421:230|496:186,1,167.999994873047,6|10,3:2|2:0,2:0:0:0:
386,57,78627,1,2,0:0:0:0:
379,75,78722,2,0,P|419:124|462:125,1,93.3333333333333,0|2,3:0|2:0,2:0:0:0:
512,115,79005,1,8,2:0:0:0:
512,0,79193,6,0,L|360:13,1,140,2|0,3:2|3:2,2:0:0:0:
312,63,79571,2,0,P|260:44|208:59,1,93.3333333333333,10|0,2:0|2:0,2:0:0:0:
205,197,79854,2,0,P|247:161|260:108,1,93.3333333333333,2|0,3:2|2:0,2:0:0:0:
142,45,80137,2,0,P|151:99|190:137,1,93.3333333333333,10|0,2:0|2:0,2:0:0:0:
321,212,80420,6,0,P|288:247|289:339,1,140,2|8,3:2|2:0,2:0:0:0:
32,144,80891,2,0,L|38:108,1,23.3333333333333,2|0,2:0|2:0,2:0:0:0:
39,153,80986,2,0,B|71:173|68:213|68:213|93:183|143:190,1,140,2|8,3:2|0:2,2:0:0:0:
220,354,81457,1,0,0:0:0:0:
224,341,81552,2,0,P|190:284|94:282,1,140,2|8,3:2|0:2,2:0:0:0:
6,217,82023,1,0,3:2:0:0:
12,231,82118,1,2,0:2:0:0:
179,183,82306,1,0,3:2:0:0:
167,207,82401,1,8,2:0:0:0:
0,128,82590,1,0,2:0:0:0:
10,143,82684,5,0,3:2:0:0:
294,78,82967,1,10,2:0:0:0:
89,73,83156,1,2,0:0:0:0:
107,87,83250,2,0,P|159:79|198:50,1,93.3333333333333,0|2,3:2|0:0,0:0:0:0:
256,0,83533,1,8,2:0:0:0:
463,27,83722,6,0,P|396:52|375:125,1,140,2|0,3:2|3:2,2:0:0:0:
286,172,84099,2,0,P|308:211|304:273,1,93.3333333333333,10|0,2:0|2:0,2:0:0:0:
404,236,84382,2,0,P|382:275|386:337,1,93.3333333333333,2|0,3:2|2:0,2:0:0:0:
510,366,84665,2,0,P|497:329|447:298,1,93.3333333333333,10|0,2:0|2:0,2:0:0:0:
329,376,84948,6,0,L|189:354,1,140,2|8,3:2|2:0,2:0:0:0:
46,259,85420,1,2,2:0:0:0:
62,271,85514,2,0,L|125:261,1,46.6666666666667,0|0,3:2|0:2,2:0:0:0:
213,181,85703,1,8,2:0:0:0:
202,195,85797,1,10,2:0:0:0:
320,296,85986,1,0,3:2:0:0:
336,283,86080,6,0,L|397:275,2,46.6666666666667,2|2|2,3:2|2:2|3:2,2:0:0:0:
256,219,86363,2,0,L|195:211,2,46.6666666666667,8|2|2,2:3|2:2|2:2,2:0:0:0:
350,170,86646,5,6,2:3:0:0:
362,153,86740,1,2,2:0:0:0:
363,127,86835,1,2,2:0:0:0:
339,102,86929,1,6,2:3:0:0:
316,71,87023,1,2,2:0:0:0:
325,20,87118,1,2,2:0:0:0:
389,2,87212,6,0,L|495:14,1,93.3333333333333,8|8,2:3|2:3,2:0:0:0:
510,106,87495,5,4,2:3:0:0:
497,97,87590,1,4,2:3:0:0:
481,87,87684,1,4,2:3:0:0:
431,79,87778,5,8,2:0:0:0:
454,117,87873,1,8,2:0:0:0:
448,169,87967,1,8,2:0:0:0:
424,218,88061,1,8,2:0:0:0:
438,268,88156,1,8,2:0:0:0:
449,331,88250,1,4,3:2:0:0:
504,227,88627,6,0,P|431:236|356:339,1,195.999994018555,4|8,3:2|2:0,2:0:0:0:
192,221,89382,1,8,2:0:0:0:
224,284,89476,1,4,3:2:0:0:
190,374,90042,5,4,2:3:0:0:
242,277,90231,1,4,2:3:0:0:
175,148,90420,1,4,2:3:0:0:
347,24,90608,5,4,3:2:0:0:
410,67,91080,6,0,P|369:68|329:106,1,97.9999970092775,4|8,3:2|2:0,2:0:0:0:
251,99,91457,2,0,L|262:169,1,65.3333313395183,4|0,2:3|2:0,2:0:0:0:
281,307,91740,5,4,3:2:0:0:
13,293,92778,5,4,3:2:0:0:
3,374,93156,6,0,P|17:344|168:310,1,195.999994018555,4|0,3:2|2:0,2:0:0:0:
512,384,94005,5,4,3:2:0:0:
500,119,95137,6,0,P|482:109|463:107,2,32.6666656697591,2|0|0,2:0|2:0|2:0,2:0:0:0:
458,187,95420,2,0,P|436:198|413:201,2,41.9999987182618,0|0|0,2:0|2:0|2:0,2:0:0:0:
387,121,95703,5,8,2:0:0:0:
337,111,95797,1,8,2:3:0:0:
304,136,95891,1,8,2:3:0:0:
283,169,95986,1,4,2:3:0:0:
256,182,96080,1,4,2:3:0:0:
229,176,96174,1,4,2:3:0:0:
192,112,96269,6,0,L|176:201,1,83.9999974365235,0|0,3:2|2:0,2:0:0:0:
173,212,96552,1,0,3:2:0:0:
96,184,97118,1,0,3:2:0:0:
30,235,97684,1,0,3:2:0:0:
66,311,98250,1,0,3:2:0:0:
22,146,98533,5,4,3:2:0:0:
162,57,98816,1,0,3:2:0:0:
69,22,99382,1,0,3:2:0:0:
90,118,99948,1,0,3:2:0:0:
169,89,100231,5,0,3:2:0:0:
272,119,100514,1,0,3:2:0:0:
389,36,100703,1,8,2:0:0:0:
372,55,100797,6,0,P|365:95|402:178,1,125.999996154785,2|8,3:2|2:0,2:0:0:0:
483,298,101269,2,0,P|449:284|359:319,1,125.999996154785,2|0,2:0|2:0,2:0:0:0:
321,358,101646,2,0,L|331:268,1,83.9999974365235,10|0,2:0|3:2,2:0:0:0:
290,180,101929,6,0,P|234:171|168:208,1,125.999996154785,2|8,2:0|2:0,2:0:0:0:
232,366,102401,2,0,P|174:341|113:352,1,125.999996154785,2|0,2:0|2:0,2:0:0:0:
35,384,102778,2,0,L|43:298,1,83.9999974365235,10|0,2:0|2:0,2:0:0:0:
51,181,103061,5,6,3:2:0:0:
169,63,103533,1,2,2:0:0:0:
176,78,103627,1,2,2:0:0:0:
335,138,104099,1,2,2:0:0:0:
327,156,104193,6,0,L|230:170,1,83.9999974365235,2|8,3:2|2:0,2:0:0:0:
158,185,104476,1,0,3:2:0:0:
270,263,104665,1,10,2:0:0:0:
275,282,104759,1,2,3:2:0:0:
471,160,104948,1,8,2:0:0:0:
431,218,105042,1,8,2:0:0:0:
512,10,105231,1,8,2:0:0:0:
430,48,105325,6,0,P|383:49|343:18,1,83.9999974365235,6|0,3:2|2:0,2:0:0:0:
352,30,105608,6,0,B|261:31|289:93|189:94,1,177.333328598023,10|0,2:0|2:0,2:0:0:0:
102,21,105891,2,0,P|155:-1|217:21,1,111.999996582031,2|0,3:2|2:0,2:0:0:0:
311,133,106174,1,10,2:0:0:0:
33,154,106363,2,0,L|145:168,1,111.999996582031,2|0,3:2|2:0,2:0:0:0:
192,228,106646,1,0,3:2:0:0:
246,179,106740,2,0,B|242:242|242:242|247:242|247:242|243:319,1,140.000005340576,8|0,2:0|2:0,2:0:0:0:
154,366,107023,6,0,P|121:319|58:306,1,111.999996582031,2|2,3:2|2:0,2:0:0:0:
154,366,107306,1,10,2:0:0:0:
506,313,107590,6,0,L|389:295,1,111.999996582031,2|0,3:2|2:0,2:0:0:0:
227,273,107873,1,10,2:0:0:0:
326,371,108061,1,0,3:2:0:0:
313,350,108156,6,0,L|324:234,1,111.999996582031,2|0,3:2|2:0,2:0:0:0:
342,85,108439,1,10,2:0:0:0:
455,170,108627,1,0,3:2:0:0:
439,180,108722,6,0,L|311:165,1,111.999996582031,2|0,3:2|3:2,2:0:0:0:
191,151,109005,1,10,2:0:0:0:
104,41,109193,1,2,3:2:0:0:
117,56,109288,1,0,3:2:0:0:
27,190,109476,1,0,3:2:0:0:
8,179,109571,2,0,B|3:103|3:103|7:98|7:98|5:13,1,140.000005340576,8|0,2:0|2:0,2:0:0:0:
273,39,109854,6,0,P|243:64|180:72,1,93.3333333333333,6|0,3:2|2:0,2:0:0:0:
190,74,110137,6,0,B|280:75|252:137|352:138,1,177.333328598023,10|0,2:0|2:0,2:0:0:0:
470,147,110420,2,0,P|430:170|421:245,1,111.999996582031,2|0,3:2|2:0,2:0:0:0:
456,337,110703,1,10,2:0:0:0:
188,364,110891,2,0,P|242:345|317:363,1,111.999996582031,2|0,3:2|2:0,2:0:0:0:
358,384,111174,1,0,3:2:0:0:
333,279,111269,2,0,B|325:215|325:215|320:215|320:215|312:142,1,140.000005340576,8|0,2:0|2:0,2:0:0:0:
419,16,111552,6,0,P|386:60|388:126,1,111.999996582031,2|2,3:2|2:0,2:0:0:0:
419,16,111835,1,10,2:0:0:0:
512,166,112023,1,8,2:0:0:0:
503,151,112118,6,0,L|386:133,1,111.999996582031,2|0,3:2|2:0,2:0:0:0:
223,106,112401,2,0,L|333:123,1,111.999996582031,10|0,2:0|2:0,2:0:0:0:
227,7,112684,6,0,L|209:124,1,111.999996582031,2|0,3:2|2:0,2:0:0:0:
179,286,112967,2,0,L|196:175,1,111.999996582031,10|0,2:0|3:2,2:0:0:0:
224,351,113250,5,10,2:0:0:0:
83,244,113439,1,0,3:2:0:0:
142,200,113533,2,0,P|184:191|254:229,1,111.999996582031,8|2,2:0|2:0,2:0:0:0:
299,285,113816,1,8,2:0:0:0:
497,255,114005,1,8,2:0:0:0:
428,223,114099,1,8,2:0:0:0:
353,366,114288,1,8,2:0:0:0:
410,320,114382,6,0,L|420:194,1,111.999996582031,6|0,3:2|2:0,2:0:0:0:
378,142,114665,1,10,2:0:0:0:
231,48,114854,1,2,3:2:0:0:
216,62,114948,2,0,L|95:48,1,111.999996582031,0|2,3:2|3:2,2:0:0:0:
14,35,115231,1,8,2:0:0:0:
0,285,115420,6,0,P|59:253|163:276,1,167.999994873047,6|0,3:2|3:2,2:0:0:0:
233,365,115797,2,0,L|121:351,1,111.999996582031,10|0,2:0|2:0,2:0:0:0:
178,252,116080,1,2,3:2:0:0:
317,257,116269,1,8,0:2:0:0:
328,325,116363,1,10,2:0:0:0:
179,116,116552,1,10,2:0:0:0:
128,168,116646,6,0,P|71:174|17:140,1,111.999996582031,6|0,3:2|2:0,2:0:0:0:
0,78,116929,1,10,2:0:0:0:
36,235,117118,1,2,2:0:0:0:
49,207,117212,1,0,3:2:0:0:
224,245,117401,1,2,2:0:0:0:
205,190,117495,1,8,2:0:0:0:
3,360,117684,6,0,P|48:338|158:389,1,167.999994873047,6|0,3:2|3:2,2:0:0:0:
215,348,118061,2,0,P|261:379|316:376,1,111.999996582031,10|0,2:0|2:0,2:0:0:0:
365,318,118344,1,2,3:2:0:0:
512,327,118533,1,0,3:2:0:0:
467,384,118627,2,0,L|479:272,1,111.999996582031,10|0,2:0|2:0,2:0:0:0:
508,108,118910,6,0,B|449:86|451:124|380:103,1,111.999996582031,6|0,3:2|2:0,2:0:0:0:
349,49,119193,1,8,2:0:0:0:
192,121,119382,1,2,2:0:0:0:
211,109,119476,2,0,P|251:108|308:167,1,111.999996582031,2|0,3:2|2:0,2:0:0:0:
396,215,119759,2,0,P|356:214|299:273,1,111.999996582031,8|0,2:0|3:2,2:0:0:0:
297,334,120042,5,0,2:0:0:0:
207,204,120231,1,0,3:2:0:0:
214,215,120325,2,0,P|206:259|147:304,1,111.999996582031,8|0,2:0|2:0,2:0:0:0:
31,219,120608,6,0,P|56:159|109:122,1,130.666662679037,2|0,3:2|2:0,2:0:0:0:
82,22,120891,2,0,P|146:15|205:42,1,130.666662679037,10|0,2:0|2:0,2:0:0:0:
319,105,121174,5,14,0:0:0:0:
332,99,121269,2,0,L|393:121,1,65.3333313395183,8|8,2:0|2:0,2:0:0:0:
285,17,121457,1,8,0:0:0:0:
277,30,121552,2,0,L|215:52,1,65.3333313395183,8|8,2:0|2:0,2:0:0:0:
361,1,121740,5,10,2:0:0:0:
381,16,121835,1,8,2:0:0:0:
415,13,121929,1,8,2:0:0:0:
440,10,122023,1,8,2:0:0:0:
465,18,122118,1,8,2:0:0:0:
489,31,122212,1,8,2:0:0:0:
494,65,122306,5,10,2:0:0:0:
473,91,122401,1,8,2:0:0:0:
457,124,122495,1,8,2:0:0:0:
465,166,122590,1,8,2:0:0:0:
485,204,122684,1,8,2:0:0:0:
487,250,122778,1,8,2:0:0:0:
511,304,122873,5,10,2:0:0:0:
469,295,122967,1,8,2:0:0:0:
428,305,123061,1,8,2:0:0:0:
379,287,123156,1,8,2:0:0:0:
330,317,123250,1,8,2:0:0:0:
264,295,123344,1,8,2:0:0:0:
200,332,123439,5,6,3:2:0:0:
193,207,123627,5,2,2:0:0:0:
208,192,123722,1,0,3:2:0:0:
125,169,123910,1,2,2:0:0:0:
32,212,124193,1,2,2:0:0:0:
19,206,124288,1,0,3:2:0:0:
0,113,124476,1,2,2:0:0:0:
433,44,124854,6,0,L|424:156,1,105.000004005432,4|0,3:2|2:0,2:0:0:0:
258,153,125302,6,0,L|248:52,1,96.2500036716463,4|0,3:2|2:0,2:0:0:0:
5,26,125703,6,0,B|77:9|100:89|84:99|84:99|93:106|93:106|84:109|84:109|93:115|93:115|84:118|84:118|93:122|93:122|84:126|84:126|93:130|93:130|82:136,1,210.000008010865,4|0,3:2|2:0,2:0:0:0:
