osu file format v14

[General]
AudioFilename: step.mp3
AudioLeadIn: 0
PreviewTime: 41929
Countdown: 0
SampleSet: Soft
StackLeniency: 0.7
Mode: 0
LetterboxInBreaks: 0
WidescreenStoryboard: 0

[Editor]
Bookmarks: 78156
DistanceSpacing: 0.5
BeatDivisor: 6
GridSize: 16
TimelineZoom: 2.1

[Metadata]
Title:Step!
TitleUnicode:ステップ!
Artist:Honda Mio (CV: Hara Sayuri)
ArtistUnicode:本田未央 (CV: 原紗友里)
Creator:Sylvarus
Version:Ducky=Eresh Collab Insane
Source:アイドルマスター シンデレラガールズ スターライトステージ
Tags:idolm@ster idolmaster cinderella girls starlight stage idol imas deresute Ducky- -Eresh Elayue japanese video game pop jpop im@s j-pop デレステ master 02 COCC-17142 tulip
BeatmapID:2353374
BeatmapSetID:1118717

[Difficulty]
HPDrainRate:5
CircleSize:4
OverallDifficulty:7.5
ApproachRate:9
SliderMultiplier:1.4
SliderTickRate:1

[Events]
//Background and Video events
0,0,"300077SSR-Honda-Mio-Stage-of-Magic.jpg",0,0
//Break Periods
//Storyboard Layer 0 (Background)
//Storyboard Layer 1 (Fail)
//Storyboard Layer 2 (Pass)
//Storyboard Layer 3 (Foreground)
//Storyboard Layer 4 (Overlay)
//Storyboard Sound Samples

[TimingPoints]
2307,283.018867924528,4,2,1,50,1,0
12495,-125,4,2,1,50,0,0
37401,-125,4,2,1,60,0,0
39099,-100,4,2,1,60,0,0
40703,-100,4,2,1,70,0,0
41929,-76.9230769230769,4,2,1,80,0,0
42212,-58.8235294117647,4,2,1,80,0,0
42495,-83.3333333333333,4,2,1,80,0,0
43344,-71.4285714285714,4,2,1,80,0,0
45891,-133.333333333333,4,2,1,80,0,0
46174,-71.4285714285714,4,2,1,80,0,0
46457,-100,4,2,1,80,0,0
47023,-83.3333333333333,4,2,1,80,0,0
47873,-71.4285714285714,4,2,1,80,0,0
48156,-83.3333333333333,4,2,1,80,0,0
50986,-83.3333333333333,4,2,1,70,0,0
57778,-71.4285714285714,4,2,1,70,0,0
58344,-83.3333333333333,4,2,1,70,0,0
60042,-100,4,2,1,80,0,0
60325,-58.8235294117647,4,2,1,80,0,0
60608,-83.3333333333333,4,2,1,80,0,0
61457,-71.4285714285714,4,2,1,80,0,0
61740,-83.3333333333333,4,2,1,80,0,0
64288,-71.4285714285714,4,2,1,80,0,0
64571,-100,4,2,1,80,0,0
65137,-83.3333333333333,4,2,1,80,0,0
65986,-71.4285714285714,4,2,1,80,0,0
66269,-83.3333333333333,4,2,1,80,0,0
69099,-83.3333333333333,4,2,1,70,0,0
75608,-111.111111111111,4,2,1,70,0,0
75891,-83.3333333333333,4,2,1,70,0,0
78156,-83.3333333333333,4,2,1,60,0,0
78627,-100,4,2,1,60,0,0
87212,-100,4,2,1,60,0,0
88627,-142.857142857143,4,2,1,60,0,0
94005,-142.857142857143,4,2,1,40,0,0
95420,-111.111111111111,4,2,1,40,0,0
104193,-111.111111111111,4,2,1,70,0,0
105325,-111.111111111111,4,2,1,80,0,0
105608,-52.6315789473684,4,2,1,80,0,0
105891,-83.3333333333333,4,2,1,80,0,0
106740,-66.6666666666667,4,2,1,80,0,0
107023,-83.3333333333333,4,2,1,80,0,0
109571,-66.6666666666667,4,2,1,80,0,0
109854,-100,4,2,1,80,0,0
110420,-83.3333333333333,4,2,1,80,0,0
111269,-66.6666666666667,4,2,1,80,0,0
111552,-83.3333333333333,4,2,1,80,0,0
114382,-83.3333333333333,4,2,1,70,0,0
120608,-71.4285714285714,4,2,1,70,0,0
121174,-71.4285714285714,4,2,1,40,0,0
121740,-71.4285714285714,4,2,1,50,0,0
122306,-71.4285714285714,4,2,1,60,0,0
122873,-71.4285714285714,4,2,1,70,0,0
123439,-100,4,2,1,60,0,0

[Colours]
Combo1 : 254,248,129
Combo2 : 255,155,121
Combo3 : 255,167,79

[HitObjects]
62,253,2307,5,8,2:0:0:0:
62,253,2495,1,8,2:0:0:0:
187,110,2778,5,8,2:0:0:0:
191,116,2873,2,0,L|262:128,2,46.6666666666667,8|8|4,2:0|2:3|2:3,2:0:0:0:
139,48,3156,1,0,3:2:0:0:
270,322,3439,6,0,P|332:294|394:291,1,93.3333333333333,6|0,3:2|2:0,2:0:0:0:
442,318,3722,1,10,0:2:0:0:
489,202,3910,1,2,0:2:0:0:
489,202,4005,1,0,3:2:0:0:
387,130,4193,2,0,L|333:138,1,46.6666666666667,2|8,0:0|0:2,0:0:0:0:
187,115,4476,6,0,B|296:124|223:195|335:216,1,186.666666666667,2|10,3:2|2:0,2:0:0:0:
454,268,5137,6,0,L|436:390,1,93.3333333333333,2|0,3:2|2:0,2:0:0:0:
335,311,5420,2,0,L|321:218,1,93.3333333333333,10|0,2:0|2:0,2:0:0:0:
201,163,5703,6,0,P|119:146|38:134,1,140,2|8,3:2|2:0,2:0:0:0:
197,336,6174,1,2,0:0:0:0:
197,336,6269,2,0,P|279:319|360:307,1,140,2|8,3:2|2:0,2:0:0:0:
512,104,6835,6,0,P|429:130|424:207,1,140,2|8,3:2|2:0,2:0:0:0:
512,319,7401,2,0,P|473:257|396:280,1,140,2|8,3:2|2:0,2:0:0:0:
120,293,7967,5,0,3:2:0:0:
245,384,8250,2,0,P|255:308|274:262,1,93.3333333333333,10|2,2:0|0:0,0:0:0:0:
319,249,8533,1,0,3:2:0:0:
232,113,8722,1,2,0:0:0:0:
232,113,8816,1,8,2:2:0:0:
162,211,9005,5,2,3:2:0:0:
162,211,9099,2,0,P|213:204|263:196,1,93.3333333333333,0|0,0:0|3:2,0:0:0:0:
323,151,9382,2,0,B|314:64|384:111|362:5,2,140,10|2|10,2:0|3:2|2:0,2:0:0:0:
496,325,10231,6,0,P|497:267|412:261,1,140,2|8,3:2|0:0,2:0:0:0:
313,275,10703,1,2,2:0:0:0:
313,275,10797,2,0,B|369:279|338:318|391:323,1,93.3333333333333,0|0,3:2|2:0,2:0:0:0:
427,248,11080,2,0,P|414:193|412:142,1,93.3333333333333,10|0,2:0|3:2,2:0:0:0:
477,57,11363,5,2,3:2:0:0:
461,39,11457,2,0,L|383:53,1,46.6666666666667,2|10,2:0|2:0,2:0:0:0:
345,114,11646,5,8,0:3:0:0:
329,132,11740,2,0,L|251:118,1,46.6666666666667,2|10,2:0|2:0,2:0:0:0:
233,43,11929,5,10,2:0:0:0:
217,25,12023,2,0,L|139:39,1,46.6666666666667,2|10,2:0|2:0,0:0:0:0:
101,100,12212,5,10,2:0:0:0:
85,118,12306,2,0,L|7:104,1,46.6666666666667,2|10,2:0|2:0,0:0:0:0:
0,27,12495,5,6,3:2:0:0:
157,340,13627,6,0,L|144:222,1,112,6|8,3:2|2:0,2:0:0:0:
263,131,14099,1,2,3:2:0:0:
401,336,14476,6,0,P|348:322|310:316,1,74.6666666666667,10|0,2:0|0:0,0:0:0:0:
261,361,14759,1,0,3:2:0:0:
148,152,15042,5,10,2:0:0:0:
69,260,15231,1,0,3:0:0:0:
69,260,15325,2,0,P|82:304|91:339,1,74.6666666666667,2|2,0:0|3:2,0:0:0:0:
156,368,15608,1,8,0:2:0:0:
280,251,15797,5,2,2:0:0:0:
280,251,15891,2,0,L|161:232,1,112,2|8,3:2|2:0,2:0:0:0:
16,187,16363,1,2,3:2:0:0:
127,6,16646,1,0,3:2:0:0:
127,6,16740,2,0,P|122:69|98:102,1,74.6666666666667,10|0,2:0|0:0,0:0:0:0:
41,110,17023,5,0,3:2:0:0:
251,101,17306,1,10,2:0:0:0:
102,278,17590,6,0,P|115:221|131:188,1,74.6666666666667,2|2,0:0|3:2,0:0:0:0:
196,177,17873,1,8,0:2:0:0:
282,294,18061,1,2,2:0:0:0:
282,294,18156,6,0,P|341:287|423:268,2,112,2|10|2,3:2|2:0|2:0,2:0:0:0:
114,360,18910,1,0,3:2:0:0:
114,360,19005,2,0,P|130:316|106:279,1,74.6666666666667,10|0,2:0|2:0,2:0:0:0:
53,243,19288,6,0,L|42:159,1,74.6666666666667,6|0,3:2|2:0,2:0:0:0:
113,116,19571,2,0,L|124:32,1,74.6666666666667,10|0,2:0|3:2,2:0:0:0:
277,109,19854,6,0,L|288:193,1,74.6666666666667,2|0,2:0|3:2,2:0:0:0:
217,236,20137,2,0,L|206:320,1,74.6666666666667,10|0,2:0|2:0,2:0:0:0:
143,367,20420,5,2,3:2:0:0:
42,343,20608,1,0,3:2:0:0:
42,343,20702,1,8,2:0:0:0:
8,245,20891,1,2,3:2:0:0:
8,245,20986,1,8,2:0:0:0:
62,149,21174,1,8,2:0:0:0:
62,149,21269,1,8,2:0:0:0:
163,128,21457,5,8,2:0:0:0:
163,128,21552,2,0,L|247:119,1,74.6666666666667,4|0,3:2|0:0,2:0:0:0:
303,165,21835,1,10,2:0:0:0:
475,93,22118,1,2,2:0:0:0:
373,29,22306,1,2,0:0:0:0:
373,29,22401,2,0,P|379:72|400:132,1,74.6666666666667,8|0,0:2|2:0,2:0:0:0:
477,177,22684,6,0,P|415:188|422:252,1,112,2|8,3:2|2:0,2:0:0:0:
314,360,23156,2,0,P|269:337|202:327,1,112,2|0,3:2|2:0,2:0:0:0:
128,360,23533,1,10,2:0:0:0:
164,151,23816,5,0,3:2:0:0:
58,236,24099,2,0,P|108:222|142:221,1,74.6666666666667,10|0,2:0|0:0,2:0:0:0:
208,326,24382,2,0,P|194:289|202:243,1,74.6666666666667,2|2,0:2|0:2,0:0:0:0:
261,209,24665,1,8,0:2:0:0:
176,54,24854,5,2,2:2:0:0:
176,54,24948,2,0,P|119:65|44:78,1,112,2|8,3:2|2:0,2:0:0:0:
0,181,25420,2,0,B|41:191|41:191|57:213|57:213|117:227,1,112,2|0,3:2|2:0,2:0:0:0:
157,286,25797,2,0,P|181:257|220:254,1,74.6666666666667,10|0,2:0|0:0,0:0:0:0:
286,301,26080,5,0,3:2:0:0:
243,149,26363,2,0,P|254:109|274:63,1,74.6666666666667,10|0,2:0|2:0,2:0:0:0:
341,47,26646,1,2,2:0:0:0:
479,174,26835,1,2,3:2:0:0:
479,174,26929,2,0,P|439:196|386:210,1,74.6666666666667,8|0,0:2|2:0,2:0:0:0:
351,161,27212,5,2,3:2:0:0:
399,336,27495,1,10,2:0:0:0:
224,384,27778,1,2,0:2:0:0:
176,209,28061,1,10,2:0:0:0:
70,280,28344,6,0,P|124:290|180:299,1,112,6|8,3:2|2:0,2:0:0:0:
378,201,28816,2,0,P|363:154|308:183,1,112,2|0,3:2|3:2,2:0:0:0:
255,113,29193,2,0,P|260:53|267:23,1,74.6666666666667,10|0,2:0|0:0,0:0:0:0:
335,9,29476,5,2,3:2:0:0:
439,58,29665,1,0,3:2:0:0:
439,58,29759,2,0,P|433:89|430:147,1,74.6666666666667,8|0,2:3|2:0,0:0:0:0:
499,205,30042,2,0,P|469:215|417:241,1,74.6666666666667,8|8,2:0|2:0,0:0:0:0:
401,330,30325,2,0,P|377:309|328:277,1,74.6666666666667,4|0,2:3|0:0,0:0:0:0:
243,308,30608,5,6,3:2:0:0:
298,104,30891,1,2,3:2:0:0:
94,49,31174,1,2,3:2:0:0:
39,253,31457,1,8,2:0:0:0:
118,384,31646,6,0,P|110:328|131:259,1,112,2|0,3:2|3:2,2:0:0:0:
195,250,32023,1,10,2:0:0:0:
119,124,32306,2,0,P|82:129|46:139,1,74.6666666666667,2|0,3:2|2:0,2:0:0:0:
0,200,32590,1,8,2:0:0:0:
68,329,32873,5,6,3:2:0:0:
294,303,33156,1,2,3:2:0:0:
268,77,33439,1,2,3:2:0:0:
42,103,33722,1,8,2:0:0:0:
141,29,33910,6,0,P|128:73|125:162,1,112,2|0,3:2|3:2,2:0:0:0:
182,190,34288,1,10,2:0:0:0:
74,286,34571,2,0,P|126:295|149:338,1,74.6666666666667,2|8,3:2|2:0,0:0:0:0:
160,384,34854,1,8,2:0:0:0:
355,266,35137,6,0,P|368:196|399:146,1,112,6|8,3:2|2:0,2:0:0:0:
480,51,35608,2,0,P|446:88|378:74,1,112,2|0,3:2|0:0,2:0:0:0:
339,27,35986,1,10,2:0:0:0:
128,160,36269,6,0,P|190:170|238:233,1,112,6|8,3:2|2:0,2:0:0:0:
236,354,36740,2,0,P|242:291|293:261,1,112,2|0,3:2|0:0,2:0:0:0:
355,266,37118,1,10,2:0:0:0:
501,153,37401,6,0,P|477:77|469:33,1,112,6|8,3:2|2:0,2:0:0:0:
391,16,37825,2,0,P|344:25|276:39,1,112,0|0,3:2|2:0,2:0:0:0:
220,102,38250,2,0,P|244:178|252:222,1,112,0|0,3:2|2:0,2:0:0:0:
330,288,38698,2,0,P|370:280|432:262,1,102.666666666667,0|0,3:2|2:0,2:0:0:0:
511,294,39099,5,0,3:2:0:0:
325,169,39382,1,8,2:0:0:0:
127,384,39665,1,14,2:0:0:0:
127,384,40703,5,10,2:0:0:0:
127,384,40797,1,10,3:2:0:0:
97,185,40986,1,8,2:0:0:0:
275,251,41269,5,10,2:0:0:0:
275,251,41363,1,2,3:2:0:0:
354,110,41552,1,8,2:0:0:0:
354,110,41646,1,8,2:0:0:0:
257,1,41835,5,8,2:0:0:0:
257,1,41929,2,0,B|233:42|233:42|384:18,1,181.999991668702,6|10,3:2|2:0,2:0:0:0:
504,173,42401,1,2,2:0:0:0:
504,173,42495,2,0,P|434:142|464:90,1,111.999996582031,2|0,3:2|2:0,2:0:0:0:
477,53,42778,1,10,2:0:0:0:
297,111,42967,2,0,L|327:281,1,167.999994873047,2|0,3:2|3:2,2:0:0:0:
377,345,43344,2,0,P|322:312|254:332,1,130.666662679037,8|0,2:0|2:0,2:0:0:0:
172,381,43627,6,0,P|126:308|68:326,1,130.666662679037,2|2,3:2|2:0,2:0:0:0:
13,221,43910,2,0,P|116:207|196:176,1,130.666662679037,10|0,2:0|0:0,0:0:0:0:
207,126,44193,6,0,B|98:111|184:24|47:25,2,195.999994018555,2|10|2,3:2|2:0|3:2,2:0:0:0:
409,135,45042,2,0,P|329:154|328:218,1,130.666662679037,10|0,2:0|0:0,0:0:0:0:
248,314,45325,6,0,P|240:215|204:121,1,195.999994018555,2|8,3:2|2:0,2:0:0:0:
25,251,45797,1,2,2:0:0:0:
25,251,45891,2,0,P|89:262|111:284,1,70.0000026702882,0|0,3:2|2:0,2:0:0:0:
119,337,46174,2,0,L|277:308,1,130.666662679037,8|0,2:0|2:0,2:0:0:0:
359,217,46457,6,0,P|284:195|239:181,1,93.3333333333333,6|0,3:2|2:0,2:0:0:0:
206,125,46740,2,0,P|280:103|325:89,1,93.3333333333333,10|0,2:0|2:0,2:0:0:0:
336,32,47023,1,2,3:2:0:0:
499,122,47212,1,0,2:0:0:0:
499,122,47306,1,10,2:0:0:0:
469,3,47495,6,0,P|423:54|410:174,1,167.999994873047,2|0,3:2|3:2,2:0:0:0:
446,256,47873,2,0,P|384:220|312:214,1,130.666662679037,8|0,2:0|2:0,2:0:0:0:
272,267,48156,1,2,3:2:0:0:
123,169,48344,1,2,2:0:0:0:
123,169,48439,2,0,P|138:102|155:55,1,111.999996582031,10|8,2:0|2:0,0:0:0:0:
227,0,48722,6,0,B|201:18|187:36|187:36|39:6,2,167.999994873047,2|10|2,3:2|2:0|3:2,2:0:0:0:
413,102,49571,2,0,P|379:148|381:207,1,111.999996582031,10|0,2:0|3:0,0:0:0:0:
402,302,49854,6,0,P|326:262|233:262,1,167.999994873047,10|8,2:0|2:0,2:0:0:0:
110,189,50325,1,2,2:0:0:0:
110,189,50420,1,8,2:0:0:0:
131,377,50608,1,8,2:0:0:0:
131,377,50703,2,0,P|134:343|164:242,1,111.999996582031,8|8,2:0|2:0,0:0:0:0:
334,135,50986,6,0,P|255:161|200:90,1,167.999994873047,6|10,3:2|2:0,2:0:0:0:
58,0,51457,1,2,3:2:0:0:
58,0,51552,2,0,P|92:39|62:119,1,111.999996582031,0|2,3:2|3:2,0:0:0:0:
23,139,51835,1,8,2:0:0:0:
154,268,52023,5,2,3:2:0:0:
154,268,52118,2,0,P|180:167|212:84,2,167.999994873047,0|10|2,0:0|2:0|3:2,0:0:0:0:
230,365,52967,1,10,2:0:0:0:
45,331,53156,5,2,2:0:0:0:
45,331,53250,2,0,P|99:302|160:294,1,111.999996582031,2|0,3:2|0:0,0:0:0:0:
255,279,53533,2,0,P|214:233|229:177,1,111.999996582031,10|2,2:0|2:0,0:0:0:0:
289,142,53816,1,0,3:0:0:0:
140,24,54005,1,2,2:0:0:0:
140,24,54099,1,8,0:0:0:0:
88,144,54288,6,0,B|150:128|150:128|168:100|168:100|245:79,1,167.999994873047,2|2,3:2|3:2,2:0:0:0:
289,142,54665,1,8,2:0:0:0:
254,298,54854,1,2,2:0:0:0:
254,298,54948,2,0,P|223:226|190:209,1,111.999996582031,2|0,3:2|3:2,2:0:0:0:
127,249,55231,1,8,2:0:0:0:
5,383,55514,6,0,P|140:329|213:321,1,167.999994873047,6|8,3:2|2:0,2:0:0:0:
333,190,55986,1,2,2:0:0:0:
333,190,56080,2,0,P|268:174|240:131,1,111.999996582031,0|0,3:2|0:0,2:0:0:0:
202,30,56363,2,0,P|173:90|126:75,1,111.999996582031,10|0,2:0|3:2,0:0:0:0:
35,19,56646,6,0,P|63:103|83:208,2,167.999994873047,2|8|0,2:0|2:0|3:0,2:0:0:0:
175,276,57495,2,0,P|106:275|87:319,1,111.999996582031,10|0,2:0|2:0,2:0:0:0:
0,327,57778,6,0,P|73:339|215:380,1,195.999994018555,6|8,3:2|2:0,2:0:0:0:
277,243,58250,1,2,2:0:0:0:
277,243,58344,2,0,B|240:154|325:183|291:69,1,167.999994873047,6|8,3:2|2:0,2:0:0:0:
461,44,58816,5,2,2:0:0:0:
461,44,58910,2,0,P|388:32|279:0,1,167.999994873047,6|8,3:2|2:0,2:0:0:0:
184,128,59382,1,2,2:0:0:0:
184,128,59476,2,0,B|221:217|136:188|170:302,1,167.999994873047,10|8,2:0|2:0,0:0:0:0:
282,384,59948,5,8,2:0:0:0:
282,384,60042,2,0,P|313:352|364:346,1,93.3333333333333,6|0,3:2|2:0,2:0:0:0:
437,373,60325,1,10,2:0:0:0:
347,253,60514,1,2,2:0:0:0:
347,253,60608,2,0,P|242:229|205:224,1,111.999996582031,2|0,3:2|2:0,2:0:0:0:
170,262,60891,1,10,2:0:0:0:
60,204,61080,2,0,P|101:94|115:32,1,167.999994873047,2|0,3:2|3:2,2:0:0:0:
178,7,61457,2,0,P|229:29|203:98,1,130.666662679037,8|0,2:0|2:0,2:0:0:0:
167,173,61740,6,0,P|110:183|41:216,1,111.999996582031,2|2,3:2|2:0,2:0:0:0:
5,298,62023,2,0,P|73:329|78:378,1,111.999996582031,10|0,2:0|0:0,0:0:0:0:
172,328,62306,6,0,P|186:234|221:141,2,167.999994873047,2|10|2,3:2|2:0|3:2,2:0:0:0:
311,380,63156,2,0,P|308:329|246:328,1,111.999996582031,10|0,2:0|0:0,0:0:0:0:
172,328,63439,6,0,P|250:303|348:290,1,167.999994873047,2|8,3:2|2:0,2:0:0:0:
498,232,63910,1,2,3:2:0:0:
498,232,64005,2,0,P|423:202|392:135,1,111.999996582031,0|0,3:2|3:2,0:0:0:0:
326,153,64288,2,0,P|344:74|376:14,1,130.666662679037,8|0,2:0|2:0,2:0:0:0:
474,21,64571,6,0,P|492:63|446:102,1,93.3333333333333,6|0,3:2|2:0,2:0:0:0:
418,158,64854,2,0,P|345:150|287:164,1,93.3333333333333,10|0,2:0|2:0,2:0:0:0:
275,214,65137,1,2,3:2:0:0:
135,106,65325,1,0,2:0:0:0:
135,106,65420,1,10,2:0:0:0:
229,47,65608,6,0,P|207:157|198:231,1,167.999994873047,2|0,3:2|3:2,2:0:0:0:
114,261,65986,2,0,P|87:194|140:183,1,130.666662679037,8|0,2:0|2:0,2:0:0:0:
204,306,66269,1,2,3:2:0:0:
311,220,66457,1,2,2:0:0:0:
311,220,66552,2,0,P|211:213|169:209,1,111.999996582031,10|0,2:0|0:0,0:0:0:0:
114,261,66835,6,0,P|181:305|172:385,2,167.999994873047,2|10|2,3:2|2:0|3:2,2:0:0:0:
5,276,67684,2,0,P|37:216|37:150,1,111.999996582031,10|0,2:0|0:0,0:0:0:0:
0,81,67967,6,0,P|56:141|138:153,1,167.999994873047,2|8,3:2|2:0,2:0:0:0:
279,215,68439,1,2,3:2:0:0:
279,215,68533,2,0,P|228:183|228:115,1,111.999996582031,8|0,2:0|3:2,0:0:0:0:
155,72,68816,2,0,P|199:20|263:27,1,111.999996582031,8|8,2:3|2:0,0:0:0:0:
317,91,69099,6,0,P|422:78|526:70,1,167.999994873047,6|10,3:2|2:0,2:0:0:0:
476,251,69571,1,2,3:2:0:0:
476,251,69665,2,0,P|429:230|427:162,1,111.999996582031,0|2,0:0|3:2,0:0:0:0:
494,151,69948,1,8,2:0:0:0:
352,262,70137,5,2,3:2:0:0:
352,262,70231,2,0,B|249:277|324:355|206:360,2,167.999994873047,0|10|2,0:0|2:0|3:2,0:0:0:0:
286,172,70986,1,0,2:0:0:0:
286,172,71080,2,0,P|300:112|314:50,1,111.999996582031,10|0,2:0|2:0,2:0:0:0:
239,16,71363,6,0,B|191:30|191:30|179:53|179:53|129:74,1,111.999996582031,2|0,3:2|0:0,0:0:0:0:
69,43,71646,1,10,2:0:0:0:
1,161,71835,2,0,P|99:200|116:269,1,167.999994873047,2|2,3:2|3:2,2:0:0:0:
78,320,72212,1,8,2:0:0:0:
187,383,72401,6,0,P|192:328|212:196,1,167.999994873047,6|0,3:2|3:2,2:0:0:0:
278,184,72778,1,10,2:0:0:0:
205,123,72967,1,2,2:0:0:0:
205,123,73061,2,0,P|128:104|66:96,1,111.999996582031,2|0,3:2|3:2,2:0:0:0:
27,227,73344,2,0,P|82:217|136:203,1,111.999996582031,10|0,2:0|2:0,2:0:0:0:
199,272,73627,6,0,P|287:290|359:379,1,167.999994873047,6|8,3:2|2:0,2:0:0:0:
410,270,74099,1,2,3:2:0:0:
410,270,74193,2,0,L|395:95,1,167.999994873047,2|8,3:2|2:0,2:0:0:0:
323,24,74665,5,0,3:2:0:0:
323,24,74759,2,0,P|364:72|458:39,2,167.999994873047,0|8|2,2:0|2:0|3:2,0:0:0:0:
259,109,75608,2,0,P|203:122|154:152,1,83.9999974365235,10|0,2:0|2:0,2:0:0:0:
60,160,75891,6,0,P|123:185|148:284,1,167.999994873047,6|8,3:2|2:0,2:0:0:0:
423,269,76457,2,0,P|360:294|335:393,1,167.999994873047,6|8,3:2|2:0,2:0:0:0:
326,166,77023,6,0,L|303:-20,1,167.999994873047,2|8,3:2|2:0,2:0:0:0:
137,84,77590,2,0,L|57:65,2,55.9999982910157,10|8|8,2:0|2:0|2:0,0:0:0:0:
156,121,77873,2,0,P|260:106|272:104,1,111.999996582031,8|8,2:0|2:0,0:0:0:0:
326,166,78156,6,0,P|353:103|333:50,1,111.999996582031,6|0,3:2|0:0,2:0:0:0:
421,1,78439,2,0,P|443:50|452:133,1,111.999996582031,10|2,2:0|0:0,0:0:0:0:
496,186,78722,2,0,P|479:232|428:284,1,93.3333333333333,0|2,3:0|2:0,2:0:0:0:
399,330,79005,1,8,2:0:0:0:
238,366,79193,5,2,3:2:0:0:
249,377,79288,2,0,P|325:362|403:350,1,140,0|10,0:0|2:0,0:0:0:0:
146,213,79854,2,0,P|58:249|53:273,1,93.3333333333333,2|0,3:2|2:0,2:0:0:0:
138,380,80137,2,0,P|129:314|124:275,1,93.3333333333333,10|0,2:0|2:0,2:0:0:0:
0,227,80420,6,0,P|82:269|166:302,1,140,2|8,3:2|2:0,2:0:0:0:
395,144,80891,1,2,2:0:0:0:
406,150,80986,2,0,P|470:122|517:93,1,93.3333333333333,2|0,3:2|0:0,2:0:0:0:
499,31,81269,1,8,0:2:0:0:
274,0,81552,6,0,P|226:61|242:119,1,140,2|8,3:2|0:2,2:0:0:0:
352,231,82023,1,0,3:2:0:0:
361,256,82118,2,0,P|303:262|260:267,1,93.3333333333333,2|0,0:2|3:2,0:0:0:0:
224,331,82401,2,0,P|189:302|193:241,1,93.3333333333333,8|0,2:0|2:0,0:0:0:0:
236,192,82684,1,0,3:2:0:0:
56,141,82967,6,0,P|135:122|181:112,1,93.3333333333333,10|2,2:0|0:0,0:0:0:0:
251,22,83250,2,0,P|172:41|126:51,1,93.3333333333333,0|2,3:2|0:0,0:0:0:0:
74,10,83533,1,8,2:0:0:0:
224,148,83722,1,2,3:2:0:0:
240,116,83816,2,0,P|319:97|365:87,1,93.3333333333333,0|0,0:0|3:2,0:0:0:0:
450,13,84099,6,0,P|410:43|413:98,1,93.3333333333333,10|0,2:0|2:0,2:0:0:0:
469,123,84382,2,0,P|506:97|512:52,1,93.3333333333333,2|0,3:2|2:0,2:0:0:0:
400,158,84665,2,0,L|416:261,1,93.3333333333333,10|0,2:0|2:0,2:0:0:0:
492,363,84948,6,0,P|398:333|327:310,1,140,2|8,3:2|2:0,2:0:0:0:
58,321,85420,1,2,2:0:0:0:
65,327,85514,2,0,L|127:312,1,46.6666666666667,0|0,3:2|0:2,2:0:0:0:
175,242,85703,1,8,2:0:0:0:
187,252,85797,2,0,L|302:225,1,93.3333333333333,10|0,2:0|3:2,0:0:0:0:
341,169,86080,6,0,L|386:158,2,46.6666666666667,2|2|2,3:2|2:0|3:2,0:0:0:0:
389,30,86363,2,0,P|372:59|368:97,2,46.6666666666667,8|2|2,2:3|2:2|2:2,2:0:0:0:
457,214,86646,2,0,P|469:194|477:172,2,46.6666666666667,6|2|2,2:3|2:0|2:0,0:0:0:0:
497,77,86929,2,0,L|452:88,2,46.6666666666667,6|2|2,2:3|2:0|2:0,0:0:0:0:
386,157,87212,5,8,2:3:0:0:
367,154,87306,1,8,0:3:0:0:
349,151,87400,1,8,2:3:0:0:
330,148,87495,1,4,2:3:0:0:
312,145,87589,1,4,2:3:0:0:
293,142,87683,1,4,2:3:0:0:
269,125,87778,6,0,P|260:72|255:41,2,46.6666666666667,8|8|8,2:0|2:0|2:0,0:0:0:0:
212,192,88061,2,0,P|221:245|226:276,1,46.6666666666667,8|8,2:0|2:0,0:0:0:0:
132,122,88250,2,0,P|123:69|118:38,1,46.6666666666667,4|0,3:2|0:0,0:0:0:0:
127,3,88627,6,0,L|140:100,1,97.9999970092775,4|0,3:2|0:0,2:0:0:0:
71,205,89099,1,0,0:0:0:0:
97,221,89193,2,0,L|110:298,1,65.3333313395183,8|8,2:0|2:0,0:0:0:0:
181,326,89476,1,4,3:2:0:0:
181,326,90042,6,0,L|263:310,2,65.3333313395183,4|4|4,2:3|2:3|2:3,0:0:0:0:
81,379,90608,2,0,P|94:332|107:284,1,97.9999970092775,4|0,3:2|0:0,0:0:0:0:
257,160,91080,2,0,P|298:188|297:231,1,65.3333313395183,4|0,3:2|0:0,2:0:0:0:
249,274,91363,1,8,2:0:0:0:
238,275,91457,2,0,P|197:247|198:204,1,65.3333313395183,4|0,2:3|2:0,2:0:0:0:
180,158,91740,6,0,P|189:105|198:44,1,97.9999970092775,4|0,3:2|0:0,0:0:0:0:
195,61,92306,1,0,0:0:0:0:
412,0,92590,1,0,0:0:0:0:
412,0,92778,6,0,B|365:17|366:53|366:53|380:68|385:88,1,97.9999970092775,4|0,3:2|0:0,0:0:0:0:
497,126,93156,2,0,P|425:141|373:153,1,97.9999970092775,4|0,3:2|0:0,2:0:0:0:
302,258,93627,1,0,0:0:0:0:
320,267,93722,2,0,L|411:249,1,65.3333313395183,0|0,2:0|0:0,0:0:0:0:
460,275,94005,5,4,3:2:0:0:
459,276,95137,1,2,2:0:0:0:
452,287,95231,1,0,2:0:0:0:
447,299,95325,1,0,2:0:0:0:
445,312,95420,1,0,2:0:0:0:
445,325,95514,1,0,2:0:0:0:
449,337,95608,1,0,2:0:0:0:
468,359,95703,6,0,L|531:346,2,41.9999987182618,8|8|8,2:0|2:3|2:3,0:0:0:0:
292,351,95986,2,0,L|334:343,2,41.9999987182618,4|4|4,2:3|2:3|2:3,0:0:0:0:
273,364,96269,6,0,P|213:339|206:265,1,125.999996154785,0|0,3:2|3:2,2:0:0:0:
279,226,96740,1,0,0:0:0:0:
111,187,97023,1,0,0:0:0:0:
111,187,97118,1,0,3:2:0:0:
170,80,97306,2,0,P|194:178|209:235,1,125.999996154785
299,206,97684,2,0,P|287:246|274:296,1,83.9999974365235,0|0,3:2|0:0,0:0:0:0:
378,272,97967,2,0,P|385:312|398:367,1,83.9999974365235
463,210,98250,2,0,P|418:185|374:205,1,83.9999974365235,0|0,3:2|0:0,0:0:0:0:
299,206,98533,6,0,P|314:157|343:75,1,125.999996154785,4|0,3:2|3:2,0:0:0:0:
313,13,99005,1,0,0:0:0:0:
205,43,99288,1,0,0:0:0:0:
205,43,99382,1,0,3:2:0:0:
220,146,99571,6,0,P|131:129|85:122,1,125.999996154785
121,0,99948,2,0,P|136:40|172:60,1,83.9999974365235,0|0,3:2|0:0,0:0:0:0:
145,183,100231,2,0,P|130:143|94:123,1,83.9999974365235,0|0,3:2|0:0,0:0:0:0:
16,150,100514,1,0,3:2:0:0:
89,279,100703,1,8,2:0:0:0:
105,294,100797,6,0,P|169:277|252:258,1,125.999996154785,2|8,3:2|2:0,2:0:0:0:
289,117,101269,2,0,B|280:142|269:165|269:165|292:200|312:246,1,125.999996154785,2|0,2:0|2:0,2:0:0:0:
395,237,101646,2,0,P|375:197|354:157,1,83.9999974365235,10|0,2:0|3:2,2:0:0:0:
383,19,101929,2,0,P|414:77|433:102,1,83.9999974365235,2|0,2:0|3:0,2:0:0:0:
501,131,102212,1,8,2:0:0:0:
498,242,102401,1,2,2:0:0:0:
477,253,102496,2,0,L|390:236,1,83.9999974365235,0|0,3:0|2:0,0:0:0:0:
295,309,102778,2,0,L|382:326,1,83.9999974365235,10|0,2:0|2:0,2:0:0:0:
471,379,103061,1,6,3:2:0:0:
471,379,104193,6,0,P|426:344|385:347,1,83.9999974365235,2|8,3:2|2:0,2:0:0:0:
335,277,104476,2,0,P|300:293|281:323,1,41.9999987182618,0|0,3:2|0:0,0:0:0:0:
171,350,104665,1,10,2:0:0:0:
183,369,104759,2,0,P|213:306|212:271,1,83.9999974365235,2|8,3:2|2:0,0:0:0:0:
151,227,105042,2,0,P|136:182|107:141,1,83.9999974365235,8|8,2:0|2:0,0:0:0:0:
98,51,105325,6,0,P|176:69|241:84,1,125.999996154785,6|10,3:2|2:0,2:0:0:0:
356,108,105797,1,2,2:0:0:0:
365,99,105891,2,0,P|349:42|288:25,1,111.999996582031,2|0,3:2|2:0,2:0:0:0:
244,73,106174,1,10,2:0:0:0:
261,197,106363,6,0,P|377:184|434:176,1,167.999994873047,2|0,3:2|3:2,2:0:0:0:
421,347,106740,2,0,B|399:308|435:264|435:264|487:255,1,140.000005340576,8|0,2:0|2:0,2:0:0:0:
511,241,107023,2,0,P|454:251|397:259,1,111.999996582031,2|2,3:2|2:0,2:0:0:0:
306,351,107306,2,0,P|271:287|221:282,1,111.999996582031,10|0,2:0|0:0,0:0:0:0:
69,384,107590,6,0,P|157:366|279:345,2,167.999994873047,2|10|2,3:2|2:0|3:2,2:0:0:0:
177,194,108345,1,0,2:0:0:0:
168,207,108439,2,0,P|203:271|253:276,1,111.999996582031,10|0,2:0|3:2,0:0:0:0:
276,184,108722,2,0,P|257:121|233:3,1,167.999994873047,2|10,3:2|2:0,2:0:0:0:
337,80,109193,1,2,3:2:0:0:
356,96,109288,2,0,P|375:159|395:217,1,111.999996582031,0|0,3:2|3:2,0:0:0:0:
503,360,109571,2,0,P|493:299|397:286,1,140.000005340576,8|0,2:0|2:0,2:0:0:0:
398,274,109854,6,0,P|381:220|367:171,1,93.3333333333333,6|0,3:2|2:0,2:0:0:0:
232,179,110137,2,0,P|294:146|306:105,1,93.3333333333333,10|0,2:0|2:0,2:0:0:0:
347,48,110420,1,2,3:2:0:0:
226,99,110608,1,0,2:0:0:0:
226,99,110702,1,10,2:0:0:0:
111,33,110891,6,0,L|295:-1,1,167.999994873047,2|0,3:2|3:2,2:0:0:0:
407,148,111269,2,0,P|336:160|301:107,1,140.000005340576,8|0,2:0|2:0,2:0:0:0:
347,48,111552,1,2,3:2:0:0:
238,150,111740,1,2,2:0:0:0:
238,150,111835,1,10,2:0:0:0:
306,318,112118,6,0,P|258:253|155:226,2,167.999994873047,2|10|2,3:2|2:0|3:2,2:0:0:0:
98,267,112873,1,0,2:0:0:0:
110,275,112967,2,0,P|138:188|130:145,1,111.999996582031,10|0,2:0|3:2,2:0:0:0:
125,67,113250,5,10,2:0:0:0:
243,125,113439,1,0,3:2:0:0:
260,132,113533,2,0,P|334:116|386:105,1,111.999996582031,8|2,2:0|2:0,2:0:0:0:
438,149,113816,1,8,2:0:0:0:
356,270,114005,1,8,2:0:0:0:
337,259,114099,1,8,2:0:0:0:
446,360,114288,1,8,2:0:0:0:
466,342,114382,6,0,P|454:282|455:197,1,111.999996582031,6|0,3:2|2:0,2:0:0:0:
489,167,114665,1,10,2:0:0:0:
463,18,114854,1,2,3:2:0:0:
478,0,114948,1,0,3:2:0:0:
346,23,115137,2,0,B|386:63|386:63|366:115,1,111.999996582031,2|0,3:2|0:0,0:0:0:0:
322,182,115420,6,0,P|259:125|199:68,1,167.999994873047,6|0,3:2|3:2,2:0:0:0:
367,115,115797,2,0,P|403:155|401:210,1,111.999996582031,10|0,2:0|2:0,2:0:0:0:
280,327,116080,2,0,P|244:287|246:232,1,111.999996582031,2|8,3:2|0:2,0:0:0:0:
353,278,116363,5,10,2:0:0:0:
217,223,116552,1,10,2:0:0:0:
203,238,116646,2,0,P|149:199|164:142,1,111.999996582031,6|0,3:2|2:0,2:0:0:0:
178,80,116929,1,10,2:0:0:0:
17,7,117118,1,2,2:0:0:0:
5,3,117212,1,2,3:2:0:0:
88,87,117401,2,2,P|72:147|62:195,1,111.999996582031,2|0,2:0|0:0,0:0:0:0:
58,277,117684,6,0,P|166:288|210:360,1,167.999994873047,6|0,3:2|3:2,2:0:0:0:
274,376,118061,2,0,P|358:371|381:326,1,111.999996582031,10|0,2:0|2:0,2:0:0:0:
337,196,118344,2,0,P|323:240|310:314,1,111.999996582031,2|0,3:2|3:2,0:0:0:0:
453,349,118627,2,0,P|467:305|480:231,1,111.999996582031,10|0,2:0|2:0,2:0:0:0:
411,140,118910,6,0,P|344:161|231:186,1,167.999994873047,6|8,3:2|2:0,2:0:0:0:
171,93,119382,1,2,2:0:0:0:
178,77,119476,2,0,P|245:56|358:31,1,167.999994873047,2|8,3:2|2:0,2:0:0:0:
491,110,119948,5,0,3:2:0:0:
503,124,120042,2,0,P|507:168|516:252,1,111.999996582031,0|0,2:0|3:2,0:0:0:0:
422,251,120325,2,0,P|418:207|409:123,1,111.999996582031,8|0,2:0|2:0,2:0:0:0:
259,68,120608,2,0,P|324:109|318:200,1,130.666662679037,2|0,3:2|2:0,2:0:0:0:
299,280,120891,2,0,P|285:356|195:385,1,130.666662679037,10|0,2:0|2:0,2:0:0:0:
136,373,121174,6,0,P|126:338|109:307,2,65.3333313395183,14|8|8,0:0|2:0|2:0,0:0:0:0:
212,289,121457,2,0,P|223:234|233:219,2,65.3333313395183,8|8|8,0:0|2:0|2:0,0:0:0:0:
131,230,121740,6,0,P|86:223|50:254,2,65.3333313395183,10|8|8,2:0|2:0|2:0,0:0:0:0:
182,153,122023,2,0,P|210:139|247:137,2,65.3333313395183,8|8|8,2:0|2:0|2:0,0:0:0:0:
49,149,122306,6,0,P|20:163|-4:196,2,65.3333313395183,10|8|8,2:0|2:0|2:0,0:0:0:0:
234,50,122590,2,0,P|288:66|313:90,2,65.3333313395183,8|8|8,2:0|2:0|2:0,0:0:0:0:
63,28,122873,6,0,P|23:16|-36:6,2,65.3333313395183,10|8|8,2:0|2:0|2:0,0:0:0:0:
182,153,123156,2,0,P|218:174|263:223,2,65.3333313395183,8|8|8,2:0|2:0|2:0,0:0:0:0:
115,93,123439,6,0,P|99:190|99:241,1,140,6|0,3:2|3:2,0:0:0:0:
103,250,124288,1,0,3:2:0:0:
111,257,124854,6,0,P|136:347|165:388,1,140.000005340576,4|0,3:2|0:0,2:0:0:0:
168,371,125302,6,0,P|130:308|123:248,1,128.333333333333,4|0,3:2|0:0,2:0:0:0:
186,169,125703,5,4,3:2:0:0:
