osu file format v14

[General]
AudioFilename: audio.mp3
AudioLeadIn: 2500
PreviewTime: 56272
Countdown: 0
SampleSet: None
StackLeniency: 0.7
Mode: 3
LetterboxInBreaks: 0
SpecialStyle: 0
WidescreenStoryboard: 1

[Editor]
DistanceSpacing: 0.8
BeatDivisor: 4
GridSize: 4
TimelineZoom: 2.4

[Metadata]
Title:Katayoku No Tori
TitleUnicode:片翼の鳥
Artist:Hommarju feat. mamiko
ArtistUnicode:Hommarju feat. mamiko
Creator:semyon422
Version:NM 7K 6th Twilight
Source:Exit Trance
Tags:Umineko No Naku Koro Ni Katayoku No Tori Gexigamma
BeatmapID:1738789
BeatmapSetID:829848

[Difficulty]
HPDrainRate:7
CircleSize:7
OverallDifficulty:7
ApproachRate:5
SliderMultiplier:1.4
SliderTickRate:1

[Events]
//Background and Video events
0,0,"background.jpg",0,0
//Break Periods
//Storyboard Layer 0 (Background)
//Storyboard Layer 1 (Fail)
//Storyboard Layer 2 (Pass)
//Storyboard Layer 3 (Foreground)
//Storyboard Sound Samples

[TimingPoints]
91,272.727272727273,3,2,0,20,1,0
57363,-100,3,2,0,20,0,1
88454,-100,3,2,0,20,0,0
221000,-100,3,2,0,20,0,1
266818,-100,3,2,0,20,0,0

[HitObjects]
329,192,91,5,0,0:0:0:0:
182,192,91,1,0,0:0:0:0:
475,192,91,1,0,0:0:0:0:
36,192,227,1,0,0:0:0:0:
402,192,363,1,0,0:0:0:0:
256,192,363,1,0,0:0:0:0:
109,192,500,1,0,0:0:0:0:
475,192,636,1,0,0:0:0:0:
182,192,636,1,0,0:0:0:0:
329,192,772,1,0,0:0:0:0:
402,192,909,1,0,0:0:0:0:
36,192,909,1,0,0:0:0:0:
256,192,1045,1,0,0:0:0:0:
109,192,1181,1,0,0:0:0:0:
182,192,1181,1,0,0:0:0:0:
329,192,1318,1,0,0:0:0:0:
402,192,1454,1,0,0:0:0:0:
475,192,1454,1,0,0:0:0:0:
36,192,1591,1,0,0:0:0:0:
109,192,1727,1,0,0:0:0:0:
256,192,1727,1,0,0:0:0:0:
182,192,1863,1,0,0:0:0:0:
329,192,2000,1,0,0:0:0:0:
475,192,2000,1,0,0:0:0:0:
402,192,2136,1,0,0:0:0:0:
36,192,2272,1,0,0:0:0:0:
109,192,2272,1,0,0:0:0:0:
256,192,2409,1,0,0:0:0:0:
329,192,2545,1,0,0:0:0:0:
182,192,2545,1,0,0:0:0:0:
475,192,2681,1,0,0:0:0:0:
402,192,2818,1,0,0:0:0:0:
36,192,2818,1,0,0:0:0:0:
256,192,2954,1,0,0:0:0:0:
329,192,3091,1,0,0:0:0:0:
109,192,3091,1,0,0:0:0:0:
182,192,3227,1,0,0:0:0:0:
402,192,3363,1,0,0:0:0:0:
475,192,3363,1,0,0:0:0:0:
36,192,3363,1,0,0:0:0:0:
256,192,3500,1,0,0:0:0:0:
329,192,3636,1,0,0:0:0:0:
109,192,3636,1,0,0:0:0:0:
182,192,3772,1,0,0:0:0:0:
402,192,3909,1,0,0:0:0:0:
36,192,3909,1,0,0:0:0:0:
475,192,4045,1,0,0:0:0:0:
329,192,4181,1,0,0:0:0:0:
109,192,4181,1,0,0:0:0:0:
256,192,4318,1,0,0:0:0:0:
36,192,4454,1,0,0:0:0:0:
182,192,4454,1,0,0:0:0:0:
402,192,4591,1,0,0:0:0:0:
256,192,4727,1,0,0:0:0:0:
475,192,4727,1,0,0:0:0:0:
329,192,4863,1,0,0:0:0:0:
182,192,5000,1,0,0:0:0:0:
109,192,5000,1,0,0:0:0:0:
36,192,5136,1,0,0:0:0:0:
402,192,5272,1,0,0:0:0:0:
475,192,5272,1,0,0:0:0:0:
329,192,5409,1,0,0:0:0:0:
256,192,5545,1,0,0:0:0:0:
182,192,5545,1,0,0:0:0:0:
109,192,5681,1,0,0:0:0:0:
402,192,5818,1,0,0:0:0:0:
36,192,5818,1,0,0:0:0:0:
475,192,5954,1,0,0:0:0:0:
182,192,6091,1,0,0:0:0:0:
329,192,6227,1,0,0:0:0:0:
109,192,6363,1,0,0:0:0:0:
402,192,6363,1,0,0:0:0:0:
109,192,6500,1,0,0:0:0:0:
256,192,6500,1,0,0:0:0:0:
475,192,6636,1,0,0:0:0:0:
36,192,6636,1,0,0:0:0:0:
256,192,6636,1,0,0:0:0:0:
329,192,6772,1,0,0:0:0:0:
182,192,6909,1,0,0:0:0:0:
402,192,6909,1,0,0:0:0:0:
36,192,7045,1,0,0:0:0:0:
475,192,7181,1,0,0:0:0:0:
329,192,7181,1,0,0:0:0:0:
402,192,7318,1,0,0:0:0:0:
36,192,7454,1,0,0:0:0:0:
182,192,7454,1,0,0:0:0:0:
109,192,7591,1,0,0:0:0:0:
475,192,7727,1,0,0:0:0:0:
256,192,7727,1,0,0:0:0:0:
182,192,7863,1,0,0:0:0:0:
329,192,8000,1,0,0:0:0:0:
109,192,8000,1,0,0:0:0:0:
402,192,8136,1,0,0:0:0:0:
36,192,8272,1,0,0:0:0:0:
475,192,8272,1,0,0:0:0:0:
256,192,8409,1,0,0:0:0:0:
329,192,8545,1,0,0:0:0:0:
182,192,8545,1,0,0:0:0:0:
109,192,8681,1,0,0:0:0:0:
475,192,8818,1,0,0:0:0:0:
402,192,8818,1,0,0:0:0:0:
36,192,8954,1,0,0:0:0:0:
329,192,9091,1,0,0:0:0:0:
256,192,9091,1,0,0:0:0:0:
182,192,9227,1,0,0:0:0:0:
475,192,9363,1,0,0:0:0:0:
109,192,9363,1,0,0:0:0:0:
402,192,9500,1,0,0:0:0:0:
329,192,9636,1,0,0:0:0:0:
256,192,9636,1,0,0:0:0:0:
36,192,9704,1,0,0:0:0:0:
475,192,9772,1,0,0:0:0:0:
182,192,9841,1,0,0:0:0:0:
402,192,9909,1,0,0:0:0:0:
329,192,9909,1,0,0:0:0:0:
109,192,9909,1,0,0:0:0:0:
36,192,10045,1,0,0:0:0:0:
475,192,10181,1,0,0:0:0:0:
256,192,10181,1,0,0:0:0:0:
182,192,10318,1,0,0:0:0:0:
109,192,10454,1,0,0:0:0:0:
402,192,10454,1,0,0:0:0:0:
256,192,10591,1,0,0:0:0:0:
182,192,10727,1,0,0:0:0:0:
475,192,10727,1,0,0:0:0:0:
36,192,10863,1,0,0:0:0:0:
329,192,11000,1,0,0:0:0:0:
402,192,11000,1,0,0:0:0:0:
256,192,11136,1,0,0:0:0:0:
475,192,11272,1,0,0:0:0:0:
109,192,11272,1,0,0:0:0:0:
182,192,11409,1,0,0:0:0:0:
36,192,11545,1,0,0:0:0:0:
402,192,11545,1,0,0:0:0:0:
329,192,11545,1,0,0:0:0:0:
109,192,11681,1,0,0:0:0:0:
256,192,11818,1,0,0:0:0:0:
182,192,11818,1,0,0:0:0:0:
36,192,11954,1,0,0:0:0:0:
329,192,12091,1,0,0:0:0:0:
475,192,12091,1,0,0:0:0:0:
402,192,12227,1,0,0:0:0:0:
36,192,12363,1,0,0:0:0:0:
109,192,12363,1,0,0:0:0:0:
256,192,12363,1,0,0:0:0:0:
182,192,12431,1,0,0:0:0:0:
329,192,12500,1,0,0:0:0:0:
475,192,12568,1,0,0:0:0:0:
402,192,12636,1,0,0:0:0:0:
256,192,12636,1,0,0:0:0:0:
109,192,12704,1,0,0:0:0:0:
36,192,12772,1,0,0:0:0:0:
182,192,12841,1,0,0:0:0:0:
329,192,12909,1,0,0:0:0:0:
475,192,12909,1,0,0:0:0:0:
402,192,12977,1,0,0:0:0:0:
256,192,13045,1,0,0:0:0:0:
109,192,13113,1,0,0:0:0:0:
36,192,13181,1,0,0:0:0:0:
182,192,13181,128,0,13727:0:0:0:0:
36,192,13727,128,0,14000:0:0:0:0:
329,192,14000,128,0,14272:0:0:0:0:
402,192,14272,128,0,14545:0:0:0:0:
475,192,14545,128,0,14818:0:0:0:0:
256,192,14818,128,0,15227:0:0:0:0:
109,192,15227,128,0,15363:0:0:0:0:
182,192,15363,128,0,15636:0:0:0:0:
475,192,15636,128,0,15909:0:0:0:0:
329,192,16181,128,0,16318:0:0:0:0:
36,192,16318,128,0,16454:0:0:0:0:
402,192,16454,128,0,16863:0:0:0:0:
256,192,16863,128,0,17000:0:0:0:0:
109,192,17000,128,0,17272:0:0:0:0:
329,192,17272,128,0,17545:0:0:0:0:
36,192,17545,128,0,17818:0:0:0:0:
182,192,17818,128,0,18091:0:0:0:0:
475,192,18091,128,0,18636:0:0:0:0:
109,192,18636,128,0,18909:0:0:0:0:
402,192,18909,128,0,19318:0:0:0:0:
36,192,19727,1,0,0:0:0:0:
256,192,19727,1,0,0:0:0:0:
402,192,19727,128,0,20136:0:0:0:0:
182,192,19863,1,0,0:0:0:0:
329,192,20000,1,0,0:0:0:0:
475,192,20136,128,0,20272:0:0:0:0:
109,192,20272,128,0,20545:0:0:0:0:
36,192,20409,1,0,0:0:0:0:
256,192,20545,128,0,21091:0:0:0:0:
182,192,20681,1,0,0:0:0:0:
329,192,20818,1,0,0:0:0:0:
475,192,20954,1,0,0:0:0:0:
36,192,21091,1,0,0:0:0:0:
109,192,21227,1,0,0:0:0:0:
182,192,21363,128,0,21772:0:0:0:0:
402,192,21500,1,0,0:0:0:0:
329,192,21636,1,0,0:0:0:0:
256,192,21772,128,0,21909:0:0:0:0:
475,192,21909,128,0,22181:0:0:0:0:
109,192,22045,1,0,0:0:0:0:
402,192,22181,128,0,22454:0:0:0:0:
329,192,22318,1,0,0:0:0:0:
36,192,22454,128,0,22727:0:0:0:0:
256,192,22591,1,0,0:0:0:0:
182,192,22727,128,0,23000:0:0:0:0:
475,192,22863,1,0,0:0:0:0:
329,192,23000,128,0,23545:0:0:0:0:
109,192,23000,1,0,0:0:0:0:
256,192,23136,1,0,0:0:0:0:
36,192,23272,1,0,0:0:0:0:
402,192,23409,1,0,0:0:0:0:
109,192,23545,128,0,23818:0:0:0:0:
182,192,23681,1,0,0:0:0:0:
475,192,23818,128,0,24091:0:0:0:0:
36,192,23954,1,0,0:0:0:0:
256,192,24091,128,0,25181:0:0:0:0:
329,192,24227,1,0,0:0:0:0:
182,192,24363,1,0,0:0:0:0:
402,192,24500,1,0,0:0:0:0:
109,192,24636,1,0,0:0:0:0:
36,192,24636,1,0,0:0:0:0:
475,192,24772,1,0,0:0:0:0:
182,192,24909,1,0,0:0:0:0:
402,192,25045,1,0,0:0:0:0:
329,192,25181,1,0,0:0:0:0:
475,192,25318,1,0,0:0:0:0:
109,192,25454,1,0,0:0:0:0:
36,192,25454,1,0,0:0:0:0:
182,192,25591,1,0,0:0:0:0:
402,192,25727,1,0,0:0:0:0:
329,192,25727,1,0,0:0:0:0:
256,192,25863,1,0,0:0:0:0:
36,192,26000,1,0,0:0:0:0:
109,192,26000,128,0,26204:0:0:0:0:
182,192,26136,1,0,0:0:0:0:
402,192,26272,128,0,26818:0:0:0:0:
475,192,26272,1,0,0:0:0:0:
329,192,26272,1,0,0:0:0:0:
256,192,26545,1,0,0:0:0:0:
475,192,26545,1,0,0:0:0:0:
36,192,26818,128,0,27091:0:0:0:0:
256,192,26818,1,0,0:0:0:0:
329,192,27091,1,0,0:0:0:0:
109,192,27091,128,0,27363:0:0:0:0:
182,192,27363,128,0,27636:0:0:0:0:
402,192,27363,1,0,0:0:0:0:
329,192,27636,128,0,27909:0:0:0:0:
475,192,27636,1,0,0:0:0:0:
109,192,27909,1,0,0:0:0:0:
475,192,27909,128,0,28318:0:0:0:0:
109,192,28181,1,0,0:0:0:0:
36,192,28181,1,0,0:0:0:0:
256,192,28318,128,0,28454:0:0:0:0:
402,192,28454,1,0,0:0:0:0:
182,192,28454,128,0,28727:0:0:0:0:
329,192,28727,1,0,0:0:0:0:
402,192,28727,128,0,29000:0:0:0:0:
256,192,29000,1,0,0:0:0:0:
36,192,29000,1,0,0:0:0:0:
36,192,29272,128,0,29409:0:0:0:0:
109,192,29272,1,0,0:0:0:0:
182,192,29409,128,0,29545:0:0:0:0:
475,192,29545,128,0,29954:0:0:0:0:
256,192,29545,1,0,0:0:0:0:
329,192,29818,1,0,0:0:0:0:
256,192,29818,1,0,0:0:0:0:
109,192,29954,128,0,30091:0:0:0:0:
402,192,30091,128,0,30363:0:0:0:0:
182,192,30091,1,0,0:0:0:0:
329,192,30363,1,0,0:0:0:0:
36,192,30363,128,0,30636:0:0:0:0:
475,192,30636,1,0,0:0:0:0:
109,192,30636,128,0,30909:0:0:0:0:
329,192,30909,128,0,31181:0:0:0:0:
182,192,30909,1,0,0:0:0:0:
256,192,31181,128,0,31727:0:0:0:0:
402,192,31181,1,0,0:0:0:0:
475,192,31454,1,0,0:0:0:0:
182,192,31454,1,0,0:0:0:0:
36,192,31727,1,0,0:0:0:0:
182,192,31727,128,0,32000:0:0:0:0:
402,192,32000,1,0,0:0:0:0:
109,192,32000,128,0,32409:0:0:0:0:
256,192,32272,1,0,0:0:0:0:
329,192,32272,1,0,0:0:0:0:
36,192,32409,1,0,0:0:0:0:
475,192,32545,1,0,0:0:0:0:
402,192,32545,1,0,0:0:0:0:
256,192,32681,1,0,0:0:0:0:
329,192,32750,1,0,0:0:0:0:
109,192,32818,128,0,33227:0:0:0:0:
182,192,32818,1,0,0:0:0:0:
36,192,32954,1,0,0:0:0:0:
402,192,33091,1,0,0:0:0:0:
475,192,33091,1,0,0:0:0:0:
475,192,33227,128,0,33363:0:0:0:0:
329,192,33363,128,0,33636:0:0:0:0:
182,192,33363,1,0,0:0:0:0:
36,192,33500,1,0,0:0:0:0:
256,192,33636,128,0,34181:0:0:0:0:
402,192,33636,1,0,0:0:0:0:
109,192,33772,1,0,0:0:0:0:
182,192,33909,1,0,0:0:0:0:
36,192,33909,1,0,0:0:0:0:
402,192,34045,1,0,0:0:0:0:
329,192,34181,1,0,0:0:0:0:
109,192,34181,1,0,0:0:0:0:
182,192,34318,1,0,0:0:0:0:
475,192,34454,128,0,34863:0:0:0:0:
402,192,34454,1,0,0:0:0:0:
36,192,34591,1,0,0:0:0:0:
256,192,34727,1,0,0:0:0:0:
329,192,34727,1,0,0:0:0:0:
109,192,34863,128,0,35000:0:0:0:0:
36,192,35000,128,0,35272:0:0:0:0:
182,192,35000,1,0,0:0:0:0:
329,192,35136,1,0,0:0:0:0:
256,192,35272,1,0,0:0:0:0:
475,192,35272,128,0,35545:0:0:0:0:
402,192,35409,1,0,0:0:0:0:
182,192,35545,128,0,35818:0:0:0:0:
329,192,35545,1,0,0:0:0:0:
256,192,35681,1,0,0:0:0:0:
109,192,35818,128,0,36091:0:0:0:0:
36,192,35818,1,0,0:0:0:0:
402,192,35954,1,0,0:0:0:0:
402,192,36091,1,0,0:0:0:0:
329,192,36091,1,0,0:0:0:0:
475,192,36091,128,0,36636:0:0:0:0:
182,192,36227,1,0,0:0:0:0:
256,192,36363,1,0,0:0:0:0:
36,192,36363,1,0,0:0:0:0:
109,192,36500,1,0,0:0:0:0:
182,192,36636,128,0,36909:0:0:0:0:
329,192,36636,1,0,0:0:0:0:
36,192,36772,1,0,0:0:0:0:
36,192,36909,1,0,0:0:0:0:
109,192,36909,1,0,0:0:0:0:
256,192,36909,128,0,37454:0:0:0:0:
475,192,37045,1,0,0:0:0:0:
329,192,37181,1,0,0:0:0:0:
402,192,37181,1,0,0:0:0:0:
182,192,37318,1,0,0:0:0:0:
475,192,37454,128,0,37659:0:0:0:0:
109,192,37454,1,0,0:0:0:0:
402,192,37591,1,0,0:0:0:0:
36,192,37727,1,0,0:0:0:0:
182,192,37727,1,0,0:0:0:0:
329,192,37727,128,0,38545:0:0:0:0:
256,192,37863,1,0,0:0:0:0:
402,192,37931,1,0,0:0:0:0:
475,192,38000,1,0,0:0:0:0:
109,192,38000,1,0,0:0:0:0:
182,192,38136,1,0,0:0:0:0:
36,192,38272,1,0,0:0:0:0:
256,192,38272,1,0,0:0:0:0:
402,192,38409,1,0,0:0:0:0:
109,192,38545,1,0,0:0:0:0:
182,192,38545,128,0,39363:0:0:0:0:
256,192,38681,1,0,0:0:0:0:
402,192,38818,1,0,0:0:0:0:
475,192,38818,1,0,0:0:0:0:
329,192,38954,1,0,0:0:0:0:
256,192,39091,1,0,0:0:0:0:
36,192,39091,1,0,0:0:0:0:
256,192,39363,1,0,0:0:0:0:
36,192,39363,1,0,0:0:0:0:
475,192,39363,1,0,0:0:0:0:
475,192,39772,1,0,0:0:0:0:
36,192,39772,1,0,0:0:0:0:
256,192,39772,1,0,0:0:0:0:
36,192,40181,1,0,0:0:0:0:
475,192,40181,1,0,0:0:0:0:
109,192,40181,1,0,0:0:0:0:
329,192,40454,1,0,0:0:0:0:
36,192,40454,1,0,0:0:0:0:
475,192,40454,1,0,0:0:0:0:
402,192,40727,128,0,41000:0:0:0:0:
182,192,41000,128,0,41272:0:0:0:0:
109,192,41000,1,0,0:0:0:0:
329,192,41272,128,0,41545:0:0:0:0:
256,192,41545,128,0,41818:0:0:0:0:
402,192,41818,128,0,42091:0:0:0:0:
109,192,41818,1,0,0:0:0:0:
36,192,42091,128,0,42363:0:0:0:0:
475,192,42363,128,0,42636:0:0:0:0:
329,192,42636,1,0,0:0:0:0:
182,192,42636,1,0,0:0:0:0:
256,192,42636,1,0,0:0:0:0:
256,192,43045,1,0,0:0:0:0:
329,192,43045,1,0,0:0:0:0:
182,192,43045,1,0,0:0:0:0:
256,192,43454,1,0,0:0:0:0:
182,192,43454,1,0,0:0:0:0:
109,192,43454,1,0,0:0:0:0:
182,192,43727,1,0,0:0:0:0:
402,192,43727,1,0,0:0:0:0:
256,192,43727,1,0,0:0:0:0:
182,192,44000,128,0,44204:0:0:0:0:
182,192,44272,128,0,44545:0:0:0:0:
475,192,44272,1,0,0:0:0:0:
475,192,44545,128,0,44818:0:0:0:0:
36,192,44818,128,0,45091:0:0:0:0:
109,192,45091,1,0,0:0:0:0:
402,192,45091,128,0,45363:0:0:0:0:
109,192,45363,128,0,45636:0:0:0:0:
329,192,45636,128,0,45909:0:0:0:0:
36,192,45909,1,0,0:0:0:0:
402,192,45909,128,0,46454:0:0:0:0:
256,192,45909,1,0,0:0:0:0:
36,192,46727,128,0,47000:0:0:0:0:
329,192,47000,128,0,47272:0:0:0:0:
475,192,47272,128,0,47545:0:0:0:0:
182,192,47545,128,0,47954:0:0:0:0:
256,192,48363,128,0,48636:0:0:0:0:
109,192,48636,128,0,48909:0:0:0:0:
475,192,48909,128,0,49181:0:0:0:0:
182,192,49181,128,0,49591:0:0:0:0:
329,192,49591,128,0,49727:0:0:0:0:
402,192,49727,128,0,50000:0:0:0:0:
36,192,50000,128,0,50409:0:0:0:0:
256,192,50409,128,0,50545:0:0:0:0:
109,192,50545,128,0,50818:0:0:0:0:
182,192,50818,128,0,51227:0:0:0:0:
182,192,51636,128,0,52181:0:0:0:0:
329,192,52181,128,0,52386:0:0:0:0:
329,192,52454,128,0,55727:0:0:0:0:
475,192,56272,128,0,56545:0:0:0:0:
402,192,56545,128,0,56818:0:0:0:0:
109,192,56818,128,0,57091:0:0:0:0:
256,192,57091,128,0,57363:0:0:0:0:
182,192,57363,1,0,0:0:0:0:
475,192,57363,1,0,0:0:0:0:
36,192,57363,1,0,0:0:0:0:
402,192,57500,1,0,0:0:0:0:
109,192,57636,1,0,0:0:0:0:
329,192,57636,1,0,0:0:0:0:
36,192,57772,1,0,0:0:0:0:
182,192,57772,1,0,0:0:0:0:
256,192,57909,1,0,0:0:0:0:
475,192,57909,1,0,0:0:0:0:
402,192,58045,1,0,0:0:0:0:
329,192,58181,1,0,0:0:0:0:
109,192,58181,1,0,0:0:0:0:
256,192,58318,1,0,0:0:0:0:
182,192,58454,1,0,0:0:0:0:
475,192,58454,1,0,0:0:0:0:
36,192,58591,1,0,0:0:0:0:
402,192,58591,1,0,0:0:0:0:
329,192,58727,1,0,0:0:0:0:
109,192,58727,1,0,0:0:0:0:
182,192,58863,1,0,0:0:0:0:
475,192,59000,1,0,0:0:0:0:
256,192,59000,1,0,0:0:0:0:
36,192,59136,1,0,0:0:0:0:
402,192,59136,1,0,0:0:0:0:
329,192,59272,1,0,0:0:0:0:
109,192,59272,1,0,0:0:0:0:
475,192,59409,1,0,0:0:0:0:
256,192,59409,1,0,0:0:0:0:
36,192,59545,1,0,0:0:0:0:
402,192,59545,1,0,0:0:0:0:
182,192,59681,1,0,0:0:0:0:
329,192,59818,1,0,0:0:0:0:
109,192,59818,1,0,0:0:0:0:
256,192,59954,1,0,0:0:0:0:
475,192,60091,1,0,0:0:0:0:
36,192,60091,1,0,0:0:0:0:
402,192,60227,1,0,0:0:0:0:
182,192,60227,1,0,0:0:0:0:
109,192,60363,1,0,0:0:0:0:
329,192,60363,1,0,0:0:0:0:
256,192,60500,1,0,0:0:0:0:
36,192,60500,1,0,0:0:0:0:
36,192,60636,1,0,0:0:0:0:
182,192,60636,1,0,0:0:0:0:
475,192,60636,1,0,0:0:0:0:
475,192,60772,1,0,0:0:0:0:
329,192,60772,1,0,0:0:0:0:
109,192,60909,1,0,0:0:0:0:
402,192,60909,1,0,0:0:0:0:
256,192,61045,1,0,0:0:0:0:
182,192,61045,1,0,0:0:0:0:
109,192,61181,1,0,0:0:0:0:
329,192,61181,1,0,0:0:0:0:
402,192,61318,1,0,0:0:0:0:
256,192,61454,1,0,0:0:0:0:
182,192,61454,1,0,0:0:0:0:
36,192,61591,1,0,0:0:0:0:
329,192,61727,1,0,0:0:0:0:
402,192,61727,1,0,0:0:0:0:
182,192,61863,1,0,0:0:0:0:
475,192,61863,1,0,0:0:0:0:
109,192,62000,1,0,0:0:0:0:
36,192,62000,1,0,0:0:0:0:
256,192,62136,1,0,0:0:0:0:
402,192,62272,1,0,0:0:0:0:
475,192,62272,1,0,0:0:0:0:
36,192,62409,1,0,0:0:0:0:
329,192,62409,1,0,0:0:0:0:
182,192,62545,1,0,0:0:0:0:
256,192,62545,1,0,0:0:0:0:
475,192,62681,1,0,0:0:0:0:
109,192,62681,1,0,0:0:0:0:
329,192,62818,1,0,0:0:0:0:
402,192,62818,1,0,0:0:0:0:
256,192,62954,1,0,0:0:0:0:
36,192,63091,1,0,0:0:0:0:
109,192,63091,1,0,0:0:0:0:
182,192,63227,1,0,0:0:0:0:
36,192,63227,1,0,0:0:0:0:
182,192,63363,1,0,0:0:0:0:
402,192,63363,1,0,0:0:0:0:
475,192,63500,1,0,0:0:0:0:
329,192,63500,1,0,0:0:0:0:
475,192,63636,1,0,0:0:0:0:
109,192,63636,1,0,0:0:0:0:
109,192,63772,1,0,0:0:0:0:
256,192,63772,1,0,0:0:0:0:
329,192,63909,1,0,0:0:0:0:
402,192,63909,1,0,0:0:0:0:
109,192,63909,1,0,0:0:0:0:
36,192,64045,1,0,0:0:0:0:
182,192,64181,1,0,0:0:0:0:
256,192,64181,1,0,0:0:0:0:
402,192,64318,1,0,0:0:0:0:
329,192,64318,1,0,0:0:0:0:
36,192,64454,1,0,0:0:0:0:
475,192,64454,1,0,0:0:0:0:
182,192,64591,1,0,0:0:0:0:
256,192,64727,1,0,0:0:0:0:
329,192,64727,1,0,0:0:0:0:
36,192,64863,1,0,0:0:0:0:
109,192,64863,1,0,0:0:0:0:
402,192,65000,1,0,0:0:0:0:
475,192,65000,1,0,0:0:0:0:
256,192,65136,1,0,0:0:0:0:
329,192,65136,1,0,0:0:0:0:
109,192,65272,1,0,0:0:0:0:
182,192,65272,1,0,0:0:0:0:
402,192,65409,1,0,0:0:0:0:
475,192,65545,1,0,0:0:0:0:
36,192,65545,1,0,0:0:0:0:
182,192,65681,1,0,0:0:0:0:
256,192,65818,1,0,0:0:0:0:
109,192,65818,1,0,0:0:0:0:
329,192,65954,1,0,0:0:0:0:
402,192,65954,1,0,0:0:0:0:
475,192,66091,1,0,0:0:0:0:
36,192,66091,1,0,0:0:0:0:
109,192,66227,1,0,0:0:0:0:
256,192,66363,1,0,0:0:0:0:
329,192,66363,1,0,0:0:0:0:
475,192,66500,1,0,0:0:0:0:
182,192,66500,1,0,0:0:0:0:
402,192,66636,1,0,0:0:0:0:
36,192,66636,1,0,0:0:0:0:
109,192,66772,1,0,0:0:0:0:
182,192,66909,1,0,0:0:0:0:
256,192,66909,1,0,0:0:0:0:
329,192,67045,1,0,0:0:0:0:
402,192,67045,1,0,0:0:0:0:
475,192,67181,1,0,0:0:0:0:
329,192,67181,1,0,0:0:0:0:
36,192,67181,1,0,0:0:0:0:
256,192,67318,1,0,0:0:0:0:
109,192,67454,1,0,0:0:0:0:
402,192,67454,1,0,0:0:0:0:
182,192,67591,1,0,0:0:0:0:
475,192,67591,1,0,0:0:0:0:
256,192,67727,1,0,0:0:0:0:
36,192,67727,1,0,0:0:0:0:
402,192,67863,1,0,0:0:0:0:
182,192,68000,1,0,0:0:0:0:
109,192,68000,1,0,0:0:0:0:
329,192,68000,1,0,0:0:0:0:
256,192,68136,1,0,0:0:0:0:
36,192,68272,1,0,0:0:0:0:
475,192,68272,1,0,0:0:0:0:
182,192,68409,1,0,0:0:0:0:
329,192,68409,1,0,0:0:0:0:
109,192,68545,1,0,0:0:0:0:
402,192,68545,1,0,0:0:0:0:
256,192,68681,1,0,0:0:0:0:
475,192,68681,1,0,0:0:0:0:
36,192,68818,1,0,0:0:0:0:
256,192,68818,1,0,0:0:0:0:
329,192,68818,1,0,0:0:0:0:
402,192,68954,1,0,0:0:0:0:
109,192,69091,1,0,0:0:0:0:
475,192,69091,1,0,0:0:0:0:
182,192,69227,1,0,0:0:0:0:
329,192,69227,1,0,0:0:0:0:
36,192,69363,1,0,0:0:0:0:
402,192,69363,1,0,0:0:0:0:
475,192,69500,1,0,0:0:0:0:
329,192,69636,1,0,0:0:0:0:
182,192,69636,1,0,0:0:0:0:
109,192,69636,1,0,0:0:0:0:
36,192,69772,1,0,0:0:0:0:
109,192,69772,1,0,0:0:0:0:
36,192,69909,1,0,0:0:0:0:
256,192,69909,1,0,0:0:0:0:
182,192,70045,1,0,0:0:0:0:
36,192,70045,1,0,0:0:0:0:
182,192,70181,1,0,0:0:0:0:
402,192,70181,1,0,0:0:0:0:
475,192,70318,1,0,0:0:0:0:
182,192,70318,1,0,0:0:0:0:
256,192,70454,1,0,0:0:0:0:
329,192,70454,1,0,0:0:0:0:
475,192,70454,1,0,0:0:0:0:
402,192,70591,1,0,0:0:0:0:
329,192,70727,1,0,0:0:0:0:
109,192,70727,1,0,0:0:0:0:
256,192,70795,1,0,0:0:0:0:
36,192,70863,1,0,0:0:0:0:
402,192,70931,1,0,0:0:0:0:
182,192,71000,1,0,0:0:0:0:
109,192,71000,1,0,0:0:0:0:
256,192,71136,1,0,0:0:0:0:
36,192,71272,1,0,0:0:0:0:
329,192,71272,1,0,0:0:0:0:
475,192,71409,1,0,0:0:0:0:
402,192,71409,1,0,0:0:0:0:
182,192,71545,1,0,0:0:0:0:
109,192,71545,1,0,0:0:0:0:
256,192,71681,1,0,0:0:0:0:
475,192,71818,1,0,0:0:0:0:
329,192,71818,1,0,0:0:0:0:
36,192,71954,1,0,0:0:0:0:
109,192,71954,1,0,0:0:0:0:
182,192,72091,1,0,0:0:0:0:
402,192,72091,1,0,0:0:0:0:
256,192,72227,1,0,0:0:0:0:
475,192,72363,1,0,0:0:0:0:
329,192,72363,1,0,0:0:0:0:
36,192,72500,1,0,0:0:0:0:
109,192,72500,1,0,0:0:0:0:
182,192,72636,1,0,0:0:0:0:
402,192,72636,1,0,0:0:0:0:
329,192,72772,1,0,0:0:0:0:
475,192,72909,1,0,0:0:0:0:
36,192,72909,1,0,0:0:0:0:
256,192,73045,1,0,0:0:0:0:
109,192,73045,1,0,0:0:0:0:
402,192,73181,1,0,0:0:0:0:
36,192,73318,1,0,0:0:0:0:
182,192,73318,1,0,0:0:0:0:
256,192,73454,1,0,0:0:0:0:
329,192,73454,1,0,0:0:0:0:
475,192,73591,1,0,0:0:0:0:
109,192,73727,1,0,0:0:0:0:
182,192,73727,1,0,0:0:0:0:
402,192,73727,1,0,0:0:0:0:
329,192,73863,1,0,0:0:0:0:
475,192,74000,1,0,0:0:0:0:
36,192,74000,1,0,0:0:0:0:
256,192,74136,1,0,0:0:0:0:
182,192,74136,1,0,0:0:0:0:
402,192,74272,1,0,0:0:0:0:
109,192,74272,1,0,0:0:0:0:
475,192,74409,1,0,0:0:0:0:
36,192,74409,1,0,0:0:0:0:
256,192,74545,1,0,0:0:0:0:
329,192,74545,1,0,0:0:0:0:
402,192,74681,1,0,0:0:0:0:
182,192,74818,1,0,0:0:0:0:
475,192,74818,1,0,0:0:0:0:
36,192,74954,1,0,0:0:0:0:
109,192,75091,1,0,0:0:0:0:
329,192,75091,1,0,0:0:0:0:
182,192,75227,1,0,0:0:0:0:
256,192,75227,1,0,0:0:0:0:
402,192,75363,1,0,0:0:0:0:
475,192,75363,1,0,0:0:0:0:
329,192,75500,1,0,0:0:0:0:
256,192,75636,1,0,0:0:0:0:
109,192,75636,1,0,0:0:0:0:
36,192,75772,1,0,0:0:0:0:
182,192,75772,1,0,0:0:0:0:
475,192,75909,1,0,0:0:0:0:
402,192,75909,1,0,0:0:0:0:
329,192,76045,1,0,0:0:0:0:
256,192,76181,1,0,0:0:0:0:
109,192,76181,1,0,0:0:0:0:
256,192,76318,1,0,0:0:0:0:
36,192,76318,1,0,0:0:0:0:
36,192,76454,1,0,0:0:0:0:
182,192,76454,1,0,0:0:0:0:
182,192,76591,1,0,0:0:0:0:
475,192,76591,1,0,0:0:0:0:
402,192,76727,1,0,0:0:0:0:
475,192,76727,1,0,0:0:0:0:
329,192,76795,1,0,0:0:0:0:
109,192,76863,1,0,0:0:0:0:
256,192,76931,1,0,0:0:0:0:
36,192,77000,1,0,0:0:0:0:
402,192,77000,1,0,0:0:0:0:
329,192,77000,1,0,0:0:0:0:
109,192,77136,1,0,0:0:0:0:
256,192,77272,1,0,0:0:0:0:
182,192,77272,1,0,0:0:0:0:
402,192,77409,1,0,0:0:0:0:
475,192,77409,1,0,0:0:0:0:
329,192,77545,1,0,0:0:0:0:
36,192,77545,1,0,0:0:0:0:
182,192,77681,1,0,0:0:0:0:
109,192,77818,1,0,0:0:0:0:
402,192,77818,1,0,0:0:0:0:
256,192,77818,1,0,0:0:0:0:
475,192,77954,1,0,0:0:0:0:
109,192,78091,1,0,0:0:0:0:
182,192,78091,1,0,0:0:0:0:
36,192,78227,1,0,0:0:0:0:
329,192,78227,1,0,0:0:0:0:
475,192,78363,1,0,0:0:0:0:
402,192,78363,1,0,0:0:0:0:
256,192,78500,1,0,0:0:0:0:
36,192,78500,1,0,0:0:0:0:
36,192,78636,1,0,0:0:0:0:
109,192,78636,1,0,0:0:0:0:
329,192,78636,1,0,0:0:0:0:
182,192,78772,1,0,0:0:0:0:
402,192,78909,1,0,0:0:0:0:
475,192,78909,1,0,0:0:0:0:
329,192,79045,1,0,0:0:0:0:
256,192,79045,1,0,0:0:0:0:
109,192,79181,1,0,0:0:0:0:
182,192,79181,1,0,0:0:0:0:
402,192,79318,1,0,0:0:0:0:
329,192,79454,1,0,0:0:0:0:
256,192,79454,1,0,0:0:0:0:
475,192,79454,1,0,0:0:0:0:
36,192,79591,1,0,0:0:0:0:
109,192,79727,1,0,0:0:0:0:
402,192,79727,1,0,0:0:0:0:
182,192,79863,1,0,0:0:0:0:
329,192,79863,1,0,0:0:0:0:
36,192,80000,1,0,0:0:0:0:
256,192,80000,1,0,0:0:0:0:
109,192,80136,1,0,0:0:0:0:
475,192,80136,1,0,0:0:0:0:
182,192,80272,1,0,0:0:0:0:
109,192,80272,1,0,0:0:0:0:
402,192,80272,1,0,0:0:0:0:
256,192,80409,1,0,0:0:0:0:
36,192,80545,1,0,0:0:0:0:
329,192,80545,1,0,0:0:0:0:
182,192,80681,1,0,0:0:0:0:
475,192,80681,1,0,0:0:0:0:
402,192,80818,1,0,0:0:0:0:
256,192,80954,1,0,0:0:0:0:
329,192,80954,1,0,0:0:0:0:
475,192,81091,1,0,0:0:0:0:
36,192,81091,1,0,0:0:0:0:
109,192,81227,1,0,0:0:0:0:
256,192,81363,1,0,0:0:0:0:
182,192,81363,1,0,0:0:0:0:
36,192,81500,1,0,0:0:0:0:
475,192,81500,1,0,0:0:0:0:
402,192,81636,1,0,0:0:0:0:
329,192,81772,1,0,0:0:0:0:
109,192,81772,1,0,0:0:0:0:
475,192,81909,1,0,0:0:0:0:
182,192,81909,1,0,0:0:0:0:
329,192,81909,1,0,0:0:0:0:
36,192,82045,1,0,0:0:0:0:
256,192,82181,1,0,0:0:0:0:
402,192,82181,1,0,0:0:0:0:
182,192,82318,1,0,0:0:0:0:
109,192,82318,1,0,0:0:0:0:
475,192,82454,1,0,0:0:0:0:
36,192,82454,1,0,0:0:0:0:
402,192,82591,1,0,0:0:0:0:
109,192,82727,1,0,0:0:0:0:
256,192,82727,1,0,0:0:0:0:
329,192,82727,1,0,0:0:0:0:
36,192,82863,1,0,0:0:0:0:
109,192,82863,1,0,0:0:0:0:
109,192,83000,1,0,0:0:0:0:
182,192,83000,1,0,0:0:0:0:
475,192,83136,1,0,0:0:0:0:
182,192,83136,1,0,0:0:0:0:
256,192,83272,1,0,0:0:0:0:
182,192,83272,1,0,0:0:0:0:
402,192,83409,1,0,0:0:0:0:
256,192,83409,1,0,0:0:0:0:
256,192,83545,1,0,0:0:0:0:
329,192,83545,1,0,0:0:0:0:
36,192,83681,1,0,0:0:0:0:
402,192,83818,1,0,0:0:0:0:
109,192,83818,1,0,0:0:0:0:
475,192,83818,1,0,0:0:0:0:
329,192,83954,1,0,0:0:0:0:
182,192,84091,1,0,0:0:0:0:
36,192,84091,1,0,0:0:0:0:
475,192,84227,1,0,0:0:0:0:
329,192,84363,1,0,0:0:0:0:
109,192,84363,1,0,0:0:0:0:
402,192,84363,1,0,0:0:0:0:
256,192,84500,1,0,0:0:0:0:
182,192,84636,1,0,0:0:0:0:
36,192,84636,1,0,0:0:0:0:
402,192,84772,1,0,0:0:0:0:
109,192,84909,1,0,0:0:0:0:
475,192,84909,1,0,0:0:0:0:
329,192,85045,1,0,0:0:0:0:
256,192,85181,1,0,0:0:0:0:
36,192,85181,1,0,0:0:0:0:
182,192,85181,1,0,0:0:0:0:
475,192,85318,1,0,0:0:0:0:
109,192,85454,1,0,0:0:0:0:
402,192,85454,1,0,0:0:0:0:
329,192,85591,1,0,0:0:0:0:
256,192,85727,1,0,0:0:0:0:
36,192,85727,1,0,0:0:0:0:
475,192,85863,1,0,0:0:0:0:
329,192,86000,1,0,0:0:0:0:
182,192,86000,1,0,0:0:0:0:
402,192,86000,1,0,0:0:0:0:
36,192,86136,1,0,0:0:0:0:
109,192,86272,1,0,0:0:0:0:
256,192,86272,1,0,0:0:0:0:
402,192,86409,1,0,0:0:0:0:
182,192,86545,1,0,0:0:0:0:
329,192,86545,1,0,0:0:0:0:
475,192,86681,1,0,0:0:0:0:
256,192,86818,1,0,0:0:0:0:
109,192,86818,1,0,0:0:0:0:
36,192,86818,1,0,0:0:0:0:
329,192,86954,1,0,0:0:0:0:
402,192,87091,1,0,0:0:0:0:
182,192,87091,1,0,0:0:0:0:
475,192,87227,1,0,0:0:0:0:
256,192,87363,1,0,0:0:0:0:
36,192,87363,1,0,0:0:0:0:
109,192,87500,1,0,0:0:0:0:
402,192,87636,1,0,0:0:0:0:
329,192,87636,1,0,0:0:0:0:
182,192,87636,1,0,0:0:0:0:
475,192,87772,1,0,0:0:0:0:
109,192,87909,1,0,0:0:0:0:
36,192,87909,1,0,0:0:0:0:
256,192,88045,1,0,0:0:0:0:
329,192,88181,1,0,0:0:0:0:
182,192,88181,1,0,0:0:0:0:
402,192,88318,1,0,0:0:0:0:
256,192,88454,1,0,0:0:0:0:
109,192,88454,1,0,0:0:0:0:
475,192,88454,1,0,0:0:0:0:
109,192,88727,128,0,89000:0:0:0:0:
36,192,89000,128,0,89272:0:0:0:0:
329,192,89272,128,0,89545:0:0:0:0:
182,192,89545,128,0,89818:0:0:0:0:
475,192,89818,128,0,90091:0:0:0:0:
402,192,90091,1,0,0:0:0:0:
256,192,90091,1,0,0:0:0:0:
36,192,90091,1,0,0:0:0:0:
329,192,90227,1,0,0:0:0:0:
182,192,90363,1,0,0:0:0:0:
109,192,90363,1,0,0:0:0:0:
402,192,90500,1,0,0:0:0:0:
36,192,90636,1,0,0:0:0:0:
256,192,90636,1,0,0:0:0:0:
475,192,90772,1,0,0:0:0:0:
109,192,90909,1,0,0:0:0:0:
182,192,90909,1,0,0:0:0:0:
329,192,91045,1,0,0:0:0:0:
256,192,91181,1,0,0:0:0:0:
36,192,91181,1,0,0:0:0:0:
475,192,91318,1,0,0:0:0:0:
402,192,91454,1,0,0:0:0:0:
109,192,91454,1,0,0:0:0:0:
329,192,91591,1,0,0:0:0:0:
256,192,91727,1,0,0:0:0:0:
182,192,91727,1,0,0:0:0:0:
36,192,91863,1,0,0:0:0:0:
475,192,92000,1,0,0:0:0:0:
402,192,92000,1,0,0:0:0:0:
109,192,92136,1,0,0:0:0:0:
182,192,92272,1,0,0:0:0:0:
256,192,92272,1,0,0:0:0:0:
329,192,92409,1,0,0:0:0:0:
475,192,92545,1,0,0:0:0:0:
36,192,92545,1,0,0:0:0:0:
109,192,92681,1,0,0:0:0:0:
182,192,92818,1,0,0:0:0:0:
402,192,92818,1,0,0:0:0:0:
329,192,92954,1,0,0:0:0:0:
256,192,93091,1,0,0:0:0:0:
36,192,93091,1,0,0:0:0:0:
475,192,93227,1,0,0:0:0:0:
402,192,93363,1,0,0:0:0:0:
109,192,93363,1,0,0:0:0:0:
182,192,93363,1,0,0:0:0:0:
329,192,93500,1,0,0:0:0:0:
256,192,93636,1,0,0:0:0:0:
36,192,93636,1,0,0:0:0:0:
475,192,93772,1,0,0:0:0:0:
109,192,93909,1,0,0:0:0:0:
402,192,93909,1,0,0:0:0:0:
329,192,94045,1,0,0:0:0:0:
36,192,94181,1,0,0:0:0:0:
182,192,94181,1,0,0:0:0:0:
475,192,94318,1,0,0:0:0:0:
256,192,94454,1,0,0:0:0:0:
402,192,94454,1,0,0:0:0:0:
329,192,94591,1,0,0:0:0:0:
36,192,94727,1,0,0:0:0:0:
109,192,94727,1,0,0:0:0:0:
182,192,94863,1,0,0:0:0:0:
256,192,95000,1,0,0:0:0:0:
475,192,95000,1,0,0:0:0:0:
402,192,95136,1,0,0:0:0:0:
109,192,95272,1,0,0:0:0:0:
36,192,95272,1,0,0:0:0:0:
182,192,95409,1,0,0:0:0:0:
329,192,95545,1,0,0:0:0:0:
256,192,95545,1,0,0:0:0:0:
475,192,95681,1,0,0:0:0:0:
109,192,95818,1,0,0:0:0:0:
402,192,95818,1,0,0:0:0:0:
182,192,95954,1,0,0:0:0:0:
256,192,96091,1,0,0:0:0:0:
36,192,96091,1,0,0:0:0:0:
329,192,96227,1,0,0:0:0:0:
109,192,96363,1,0,0:0:0:0:
475,192,96363,1,0,0:0:0:0:
182,192,96431,1,0,0:0:0:0:
402,192,96500,1,0,0:0:0:0:
36,192,96568,1,0,0:0:0:0:
475,192,96636,1,0,0:0:0:0:
256,192,96636,1,0,0:0:0:0:
329,192,96636,1,0,0:0:0:0:
109,192,96772,1,0,0:0:0:0:
182,192,96909,1,0,0:0:0:0:
402,192,96909,1,0,0:0:0:0:
256,192,97045,1,0,0:0:0:0:
329,192,97181,1,0,0:0:0:0:
36,192,97181,1,0,0:0:0:0:
475,192,97318,1,0,0:0:0:0:
402,192,97454,1,0,0:0:0:0:
182,192,97454,1,0,0:0:0:0:
109,192,97591,1,0,0:0:0:0:
256,192,97727,1,0,0:0:0:0:
329,192,97727,1,0,0:0:0:0:
36,192,97863,1,0,0:0:0:0:
402,192,98000,1,0,0:0:0:0:
109,192,98000,1,0,0:0:0:0:
182,192,98136,1,0,0:0:0:0:
475,192,98272,1,0,0:0:0:0:
329,192,98272,1,0,0:0:0:0:
256,192,98409,1,0,0:0:0:0:
402,192,98545,1,0,0:0:0:0:
36,192,98545,1,0,0:0:0:0:
109,192,98681,1,0,0:0:0:0:
329,192,98818,1,0,0:0:0:0:
182,192,98818,1,0,0:0:0:0:
475,192,98954,1,0,0:0:0:0:
256,192,99091,1,0,0:0:0:0:
36,192,99091,1,0,0:0:0:0:
182,192,99227,1,0,0:0:0:0:
329,192,99363,1,0,0:0:0:0:
109,192,99363,1,0,0:0:0:0:
475,192,99500,1,0,0:0:0:0:
402,192,99636,1,0,0:0:0:0:
36,192,99636,1,0,0:0:0:0:
402,192,99772,1,0,0:0:0:0:
256,192,99772,1,0,0:0:0:0:
182,192,99909,1,0,0:0:0:0:
256,192,99909,1,0,0:0:0:0:
109,192,99909,1,0,0:0:0:0:
475,192,100045,1,0,0:0:0:0:
36,192,100181,1,0,0:0:0:0:
329,192,100181,1,0,0:0:0:0:
109,192,100318,1,0,0:0:0:0:
475,192,100454,1,0,0:0:0:0:
182,192,100454,1,0,0:0:0:0:
329,192,100591,1,0,0:0:0:0:
36,192,100727,1,0,0:0:0:0:
402,192,100727,1,0,0:0:0:0:
475,192,100863,1,0,0:0:0:0:
109,192,101000,1,0,0:0:0:0:
182,192,101000,1,0,0:0:0:0:
256,192,101136,1,0,0:0:0:0:
36,192,101272,1,0,0:0:0:0:
402,192,101272,1,0,0:0:0:0:
329,192,101409,1,0,0:0:0:0:
475,192,101545,1,0,0:0:0:0:
182,192,101545,1,0,0:0:0:0:
256,192,101681,1,0,0:0:0:0:
109,192,101818,1,0,0:0:0:0:
36,192,101818,1,0,0:0:0:0:
329,192,101954,1,0,0:0:0:0:
256,192,102091,1,0,0:0:0:0:
182,192,102091,1,0,0:0:0:0:
402,192,102227,1,0,0:0:0:0:
475,192,102363,1,0,0:0:0:0:
109,192,102363,1,0,0:0:0:0:
36,192,102500,1,0,0:0:0:0:
182,192,102636,1,0,0:0:0:0:
402,192,102636,1,0,0:0:0:0:
329,192,102772,1,0,0:0:0:0:
256,192,102909,1,0,0:0:0:0:
475,192,102909,1,0,0:0:0:0:
109,192,102977,1,0,0:0:0:0:
36,192,103045,1,0,0:0:0:0:
329,192,103113,1,0,0:0:0:0:
182,192,103181,1,0,0:0:0:0:
402,192,103181,1,0,0:0:0:0:
256,192,103181,1,0,0:0:0:0:
475,192,103318,1,0,0:0:0:0:
36,192,103454,1,0,0:0:0:0:
109,192,103454,1,0,0:0:0:0:
182,192,103591,1,0,0:0:0:0:
402,192,103727,1,0,0:0:0:0:
329,192,103727,1,0,0:0:0:0:
109,192,103863,1,0,0:0:0:0:
36,192,104000,1,0,0:0:0:0:
256,192,104000,1,0,0:0:0:0:
475,192,104136,1,0,0:0:0:0:
329,192,104272,1,0,0:0:0:0:
182,192,104272,1,0,0:0:0:0:
402,192,104409,1,0,0:0:0:0:
475,192,104545,1,0,0:0:0:0:
36,192,104545,1,0,0:0:0:0:
109,192,104681,1,0,0:0:0:0:
256,192,104818,1,0,0:0:0:0:
182,192,104818,1,0,0:0:0:0:
402,192,104954,1,0,0:0:0:0:
109,192,105091,1,0,0:0:0:0:
329,192,105091,1,0,0:0:0:0:
475,192,105227,1,0,0:0:0:0:
36,192,105363,1,0,0:0:0:0:
256,192,105363,1,0,0:0:0:0:
182,192,105500,1,0,0:0:0:0:
109,192,105636,1,0,0:0:0:0:
329,192,105636,1,0,0:0:0:0:
402,192,105772,1,0,0:0:0:0:
36,192,105909,1,0,0:0:0:0:
256,192,105909,1,0,0:0:0:0:
182,192,106045,1,0,0:0:0:0:
475,192,106181,1,0,0:0:0:0:
109,192,106181,1,0,0:0:0:0:
402,192,106318,1,0,0:0:0:0:
256,192,106454,1,0,0:0:0:0:
36,192,106454,1,0,0:0:0:0:
329,192,106454,1,0,0:0:0:0:
182,192,106591,1,0,0:0:0:0:
402,192,106727,1,0,0:0:0:0:
475,192,106727,1,0,0:0:0:0:
36,192,106863,1,0,0:0:0:0:
109,192,107000,1,0,0:0:0:0:
329,192,107000,1,0,0:0:0:0:
475,192,107136,1,0,0:0:0:0:
402,192,107272,1,0,0:0:0:0:
256,192,107272,1,0,0:0:0:0:
182,192,107409,1,0,0:0:0:0:
109,192,107545,1,0,0:0:0:0:
36,192,107545,1,0,0:0:0:0:
329,192,107681,1,0,0:0:0:0:
256,192,107818,1,0,0:0:0:0:
475,192,107818,1,0,0:0:0:0:
402,192,107954,1,0,0:0:0:0:
182,192,108091,1,0,0:0:0:0:
109,192,108091,1,0,0:0:0:0:
329,192,108091,1,0,0:0:0:0:
36,192,108227,1,0,0:0:0:0:
256,192,108363,1,0,0:0:0:0:
475,192,108363,1,0,0:0:0:0:
402,192,108500,1,0,0:0:0:0:
109,192,108636,1,0,0:0:0:0:
182,192,108636,1,0,0:0:0:0:
36,192,108772,1,0,0:0:0:0:
475,192,108909,1,0,0:0:0:0:
256,192,108909,1,0,0:0:0:0:
329,192,108909,1,0,0:0:0:0:
109,192,109045,1,0,0:0:0:0:
182,192,109181,1,0,0:0:0:0:
402,192,109181,1,0,0:0:0:0:
329,192,109318,1,0,0:0:0:0:
475,192,109454,1,0,0:0:0:0:
256,192,109454,1,0,0:0:0:0:
36,192,109591,1,0,0:0:0:0:
182,192,109727,1,0,0:0:0:0:
402,192,109727,1,0,0:0:0:0:
109,192,109727,1,0,0:0:0:0:
256,192,109863,1,0,0:0:0:0:
329,192,110000,1,0,0:0:0:0:
36,192,110000,1,0,0:0:0:0:
475,192,110136,1,0,0:0:0:0:
402,192,110272,1,0,0:0:0:0:
109,192,110272,1,0,0:0:0:0:
182,192,110409,1,0,0:0:0:0:
475,192,110545,1,0,0:0:0:0:
329,192,110545,1,0,0:0:0:0:
36,192,110681,1,0,0:0:0:0:
402,192,110818,1,0,0:0:0:0:
256,192,110818,1,0,0:0:0:0:
182,192,110954,1,0,0:0:0:0:
329,192,111091,1,0,0:0:0:0:
109,192,111091,1,0,0:0:0:0:
475,192,111227,1,0,0:0:0:0:
256,192,111363,1,0,0:0:0:0:
36,192,111363,1,0,0:0:0:0:
109,192,111500,1,0,0:0:0:0:
182,192,111636,1,0,0:0:0:0:
402,192,111636,1,0,0:0:0:0:
36,192,111772,1,0,0:0:0:0:
256,192,111909,1,0,0:0:0:0:
329,192,111909,1,0,0:0:0:0:
475,192,112045,1,0,0:0:0:0:
402,192,112181,1,0,0:0:0:0:
109,192,112181,1,0,0:0:0:0:
182,192,112318,1,0,0:0:0:0:
329,192,112454,1,0,0:0:0:0:
256,192,112454,1,0,0:0:0:0:
36,192,112591,1,0,0:0:0:0:
475,192,112727,1,0,0:0:0:0:
402,192,112727,1,0,0:0:0:0:
182,192,112863,1,0,0:0:0:0:
109,192,113000,1,0,0:0:0:0:
329,192,113000,1,0,0:0:0:0:
36,192,113136,1,0,0:0:0:0:
475,192,113272,1,0,0:0:0:0:
256,192,113272,1,0,0:0:0:0:
402,192,113409,1,0,0:0:0:0:
109,192,113545,1,0,0:0:0:0:
182,192,113545,1,0,0:0:0:0:
256,192,113681,1,0,0:0:0:0:
475,192,113818,1,0,0:0:0:0:
329,192,113818,1,0,0:0:0:0:
402,192,113954,1,0,0:0:0:0:
36,192,114091,1,0,0:0:0:0:
182,192,114091,1,0,0:0:0:0:
109,192,114227,1,0,0:0:0:0:
256,192,114363,1,0,0:0:0:0:
475,192,114363,1,0,0:0:0:0:
402,192,114500,1,0,0:0:0:0:
36,192,114636,1,0,0:0:0:0:
329,192,114636,1,0,0:0:0:0:
182,192,114772,1,0,0:0:0:0:
109,192,114909,1,0,0:0:0:0:
475,192,114909,1,0,0:0:0:0:
402,192,115045,1,0,0:0:0:0:
36,192,115181,1,0,0:0:0:0:
329,192,115181,1,0,0:0:0:0:
256,192,115318,1,0,0:0:0:0:
182,192,115454,1,0,0:0:0:0:
109,192,115454,1,0,0:0:0:0:
329,192,115591,1,0,0:0:0:0:
36,192,115727,1,0,0:0:0:0:
475,192,115727,1,0,0:0:0:0:
256,192,115863,1,0,0:0:0:0:
109,192,116000,1,0,0:0:0:0:
402,192,116000,1,0,0:0:0:0:
182,192,116136,1,0,0:0:0:0:
36,192,116272,1,0,0:0:0:0:
475,192,116272,1,0,0:0:0:0:
329,192,116272,1,0,0:0:0:0:
256,192,116409,1,0,0:0:0:0:
109,192,116545,1,0,0:0:0:0:
402,192,116545,1,0,0:0:0:0:
182,192,116681,1,0,0:0:0:0:
475,192,116818,1,0,0:0:0:0:
329,192,116818,1,0,0:0:0:0:
256,192,116954,1,0,0:0:0:0:
36,192,117091,1,0,0:0:0:0:
402,192,117091,1,0,0:0:0:0:
182,192,117227,1,0,0:0:0:0:
109,192,117363,1,0,0:0:0:0:
475,192,117363,1,0,0:0:0:0:
329,192,117500,1,0,0:0:0:0:
36,192,117636,1,0,0:0:0:0:
256,192,117636,1,0,0:0:0:0:
402,192,117772,1,0,0:0:0:0:
109,192,117909,1,0,0:0:0:0:
182,192,117909,1,0,0:0:0:0:
475,192,118045,1,0,0:0:0:0:
256,192,118181,1,0,0:0:0:0:
36,192,118181,1,0,0:0:0:0:
402,192,118318,1,0,0:0:0:0:
182,192,118454,1,0,0:0:0:0:
329,192,118454,1,0,0:0:0:0:
109,192,118591,1,0,0:0:0:0:
36,192,118727,1,0,0:0:0:0:
475,192,118727,1,0,0:0:0:0:
402,192,118863,1,0,0:0:0:0:
329,192,119000,1,0,0:0:0:0:
182,192,119000,1,0,0:0:0:0:
256,192,119136,1,0,0:0:0:0:
36,192,119272,1,0,0:0:0:0:
475,192,119272,1,0,0:0:0:0:
109,192,119409,1,0,0:0:0:0:
256,192,119545,1,0,0:0:0:0:
329,192,119545,1,0,0:0:0:0:
182,192,119545,1,0,0:0:0:0:
402,192,119681,1,0,0:0:0:0:
109,192,119818,1,0,0:0:0:0:
36,192,119818,1,0,0:0:0:0:
475,192,119954,1,0,0:0:0:0:
329,192,120091,1,0,0:0:0:0:
256,192,120091,1,0,0:0:0:0:
402,192,120227,1,0,0:0:0:0:
36,192,120363,1,0,0:0:0:0:
182,192,120363,1,0,0:0:0:0:
475,192,120500,1,0,0:0:0:0:
256,192,120636,1,0,0:0:0:0:
329,192,120636,1,0,0:0:0:0:
109,192,120772,1,0,0:0:0:0:
402,192,120909,1,0,0:0:0:0:
36,192,120909,1,0,0:0:0:0:
182,192,121045,1,0,0:0:0:0:
109,192,121181,1,0,0:0:0:0:
475,192,121181,1,0,0:0:0:0:
329,192,121318,1,0,0:0:0:0:
402,192,121454,1,0,0:0:0:0:
256,192,121454,1,0,0:0:0:0:
36,192,121591,1,0,0:0:0:0:
109,192,121727,1,0,0:0:0:0:
182,192,121727,1,0,0:0:0:0:
475,192,121863,1,0,0:0:0:0:
329,192,122000,1,0,0:0:0:0:
256,192,122000,1,0,0:0:0:0:
402,192,122136,1,0,0:0:0:0:
182,192,122272,1,0,0:0:0:0:
36,192,122272,1,0,0:0:0:0:
109,192,122409,1,0,0:0:0:0:
475,192,122545,1,0,0:0:0:0:
256,192,122545,1,0,0:0:0:0:
402,192,122681,1,0,0:0:0:0:
182,192,122750,1,0,0:0:0:0:
329,192,122818,1,0,0:0:0:0:
36,192,122818,1,0,0:0:0:0:
109,192,122818,1,0,0:0:0:0:
109,192,123227,1,0,0:0:0:0:
329,192,123227,1,0,0:0:0:0:
36,192,123227,1,0,0:0:0:0:
36,192,123636,1,0,0:0:0:0:
109,192,123636,1,0,0:0:0:0:
256,192,123636,1,0,0:0:0:0:
36,192,123909,1,0,0:0:0:0:
475,192,123909,1,0,0:0:0:0:
109,192,123909,1,0,0:0:0:0:
402,192,124181,128,0,124454:0:0:0:0:
182,192,124454,1,0,0:0:0:0:
329,192,124454,128,0,124727:0:0:0:0:
475,192,124727,128,0,125000:0:0:0:0:
256,192,125000,128,0,125272:0:0:0:0:
402,192,125272,128,0,125545:0:0:0:0:
182,192,125272,1,0,0:0:0:0:
36,192,125545,128,0,125818:0:0:0:0:
109,192,125818,128,0,126091:0:0:0:0:
256,192,126091,1,0,0:0:0:0:
182,192,126091,1,0,0:0:0:0:
329,192,126091,1,0,0:0:0:0:
182,192,126500,1,0,0:0:0:0:
256,192,126500,1,0,0:0:0:0:
329,192,126500,1,0,0:0:0:0:
475,192,126909,1,0,0:0:0:0:
329,192,126909,1,0,0:0:0:0:
256,192,126909,1,0,0:0:0:0:
256,192,127181,1,0,0:0:0:0:
329,192,127181,1,0,0:0:0:0:
109,192,127181,1,0,0:0:0:0:
256,192,127454,128,0,127659:0:0:0:0:
402,192,127727,1,0,0:0:0:0:
256,192,127727,128,0,128000:0:0:0:0:
402,192,128000,128,0,128272:0:0:0:0:
36,192,128272,128,0,128545:0:0:0:0:
182,192,128545,1,0,0:0:0:0:
475,192,128545,128,0,128818:0:0:0:0:
182,192,128818,128,0,129091:0:0:0:0:
109,192,129091,128,0,129363:0:0:0:0:
329,192,129363,1,0,0:0:0:0:
475,192,129363,1,0,0:0:0:0:
36,192,129363,1,0,0:0:0:0:
402,192,129500,1,0,0:0:0:0:
109,192,129636,1,0,0:0:0:0:
256,192,129636,1,0,0:0:0:0:
475,192,129772,1,0,0:0:0:0:
36,192,129909,1,0,0:0:0:0:
329,192,129909,1,0,0:0:0:0:
402,192,130045,1,0,0:0:0:0:
182,192,130181,1,0,0:0:0:0:
256,192,130181,1,0,0:0:0:0:
329,192,130318,1,0,0:0:0:0:
402,192,130454,1,0,0:0:0:0:
36,192,130454,1,0,0:0:0:0:
109,192,130591,1,0,0:0:0:0:
182,192,130727,1,0,0:0:0:0:
475,192,130727,1,0,0:0:0:0:
256,192,130863,1,0,0:0:0:0:
402,192,131000,1,0,0:0:0:0:
36,192,131000,1,0,0:0:0:0:
109,192,131136,1,0,0:0:0:0:
182,192,131272,1,0,0:0:0:0:
475,192,131272,1,0,0:0:0:0:
329,192,131409,1,0,0:0:0:0:
36,192,131545,1,0,0:0:0:0:
256,192,131545,1,0,0:0:0:0:
475,192,131681,1,0,0:0:0:0:
402,192,131818,1,0,0:0:0:0:
329,192,131818,1,0,0:0:0:0:
182,192,131954,1,0,0:0:0:0:
109,192,132091,1,0,0:0:0:0:
256,192,132091,1,0,0:0:0:0:
36,192,132227,1,0,0:0:0:0:
475,192,132363,1,0,0:0:0:0:
402,192,132363,1,0,0:0:0:0:
256,192,132500,1,0,0:0:0:0:
109,192,132500,1,0,0:0:0:0:
256,192,132636,1,0,0:0:0:0:
182,192,132636,1,0,0:0:0:0:
329,192,132636,1,0,0:0:0:0:
36,192,132772,1,0,0:0:0:0:
475,192,132909,1,0,0:0:0:0:
402,192,132909,1,0,0:0:0:0:
329,192,133045,1,0,0:0:0:0:
182,192,133181,1,0,0:0:0:0:
109,192,133181,1,0,0:0:0:0:
36,192,133318,1,0,0:0:0:0:
402,192,133454,1,0,0:0:0:0:
475,192,133454,1,0,0:0:0:0:
182,192,133591,1,0,0:0:0:0:
256,192,133727,1,0,0:0:0:0:
329,192,133727,1,0,0:0:0:0:
109,192,133863,1,0,0:0:0:0:
36,192,134000,1,0,0:0:0:0:
402,192,134000,1,0,0:0:0:0:
475,192,134136,1,0,0:0:0:0:
329,192,134272,1,0,0:0:0:0:
256,192,134272,1,0,0:0:0:0:
182,192,134409,1,0,0:0:0:0:
36,192,134545,1,0,0:0:0:0:
402,192,134545,1,0,0:0:0:0:
109,192,134681,1,0,0:0:0:0:
329,192,134818,1,0,0:0:0:0:
256,192,134818,1,0,0:0:0:0:
182,192,134954,1,0,0:0:0:0:
109,192,135091,1,0,0:0:0:0:
475,192,135091,1,0,0:0:0:0:
36,192,135227,1,0,0:0:0:0:
402,192,135363,1,0,0:0:0:0:
256,192,135363,1,0,0:0:0:0:
329,192,135500,1,0,0:0:0:0:
402,192,135500,1,0,0:0:0:0:
329,192,135636,1,0,0:0:0:0:
182,192,135636,1,0,0:0:0:0:
475,192,135772,1,0,0:0:0:0:
329,192,135772,1,0,0:0:0:0:
109,192,135909,1,0,0:0:0:0:
475,192,135909,1,0,0:0:0:0:
256,192,135909,1,0,0:0:0:0:
36,192,136045,1,0,0:0:0:0:
402,192,136181,1,0,0:0:0:0:
182,192,136181,1,0,0:0:0:0:
256,192,136318,1,0,0:0:0:0:
36,192,136454,1,0,0:0:0:0:
109,192,136454,1,0,0:0:0:0:
182,192,136591,1,0,0:0:0:0:
256,192,136727,1,0,0:0:0:0:
329,192,136727,1,0,0:0:0:0:
36,192,136863,1,0,0:0:0:0:
475,192,136931,1,0,0:0:0:0:
109,192,137000,1,0,0:0:0:0:
402,192,137000,1,0,0:0:0:0:
329,192,137136,1,0,0:0:0:0:
256,192,137204,1,0,0:0:0:0:
182,192,137272,1,0,0:0:0:0:
36,192,137272,1,0,0:0:0:0:
402,192,137409,1,0,0:0:0:0:
109,192,137477,1,0,0:0:0:0:
329,192,137545,1,0,0:0:0:0:
182,192,137545,1,0,0:0:0:0:
475,192,137545,1,0,0:0:0:0:
475,192,138091,128,0,138363:0:0:0:0:
36,192,138363,128,0,138636:0:0:0:0:
256,192,138636,128,0,138909:0:0:0:0:
329,192,138909,128,0,139181:0:0:0:0:
402,192,139181,1,0,0:0:0:0:
182,192,139181,128,0,140272:0:0:0:0:
109,192,139181,1,0,0:0:0:0:
109,192,139454,1,0,0:0:0:0:
256,192,139727,1,0,0:0:0:0:
36,192,140000,1,0,0:0:0:0:
402,192,140272,1,0,0:0:0:0:
475,192,140272,128,0,140545:0:0:0:0:
402,192,140545,128,0,140818:0:0:0:0:
329,192,140545,1,0,0:0:0:0:
329,192,140818,128,0,141091:0:0:0:0:
256,192,140818,1,0,0:0:0:0:
109,192,141091,1,0,0:0:0:0:
182,192,141091,128,0,141363:0:0:0:0:
109,192,141363,128,0,141909:0:0:0:0:
36,192,141363,1,0,0:0:0:0:
475,192,141636,1,0,0:0:0:0:
475,192,141909,128,0,142181:0:0:0:0:
256,192,141909,1,0,0:0:0:0:
36,192,142181,128,0,142454:0:0:0:0:
182,192,142181,1,0,0:0:0:0:
402,192,142454,1,0,0:0:0:0:
256,192,142454,128,0,142727:0:0:0:0:
182,192,142727,1,0,0:0:0:0:
329,192,142727,128,0,143000:0:0:0:0:
182,192,143000,128,0,143545:0:0:0:0:
36,192,143000,1,0,0:0:0:0:
402,192,143272,1,0,0:0:0:0:
109,192,143545,1,0,0:0:0:0:
475,192,143818,128,0,144091:0:0:0:0:
329,192,143818,1,0,0:0:0:0:
402,192,144091,128,0,144909:0:0:0:0:
256,192,144091,1,0,0:0:0:0:
36,192,144363,1,0,0:0:0:0:
329,192,144636,1,0,0:0:0:0:
109,192,144909,1,0,0:0:0:0:
475,192,144909,128,0,145454:0:0:0:0:
182,192,145181,1,0,0:0:0:0:
36,192,145454,1,0,0:0:0:0:
402,192,145727,128,0,146000:0:0:0:0:
256,192,145727,1,0,0:0:0:0:
109,192,146000,1,0,0:0:0:0:
256,192,146000,128,0,146272:0:0:0:0:
329,192,146272,1,0,0:0:0:0:
109,192,146272,128,0,146545:0:0:0:0:
182,192,146545,128,0,146818:0:0:0:0:
475,192,146545,1,0,0:0:0:0:
36,192,146818,1,0,0:0:0:0:
475,192,146818,128,0,147091:0:0:0:0:
329,192,147091,1,0,0:0:0:0:
36,192,147091,128,0,147363:0:0:0:0:
329,192,147363,128,0,147636:0:0:0:0:
402,192,147363,1,0,0:0:0:0:
182,192,147636,1,0,0:0:0:0:
402,192,147636,128,0,147909:0:0:0:0:
109,192,147909,128,0,148181:0:0:0:0:
256,192,147909,1,0,0:0:0:0:
182,192,148181,1,0,0:0:0:0:
475,192,148181,128,0,148454:0:0:0:0:
36,192,148454,1,0,0:0:0:0:
256,192,148454,128,0,148727:0:0:0:0:
36,192,148727,128,0,149000:0:0:0:0:
182,192,148727,1,0,0:0:0:0:
182,192,149000,128,0,149545:0:0:0:0:
109,192,149000,1,0,0:0:0:0:
329,192,149272,1,0,0:0:0:0:
402,192,149545,1,0,0:0:0:0:
329,192,149545,128,0,149818:0:0:0:0:
475,192,149818,128,0,150636:0:0:0:0:
256,192,149818,1,0,0:0:0:0:
109,192,150091,1,0,0:0:0:0:
402,192,150363,1,0,0:0:0:0:
36,192,150636,1,0,0:0:0:0:
256,192,150909,1,0,0:0:0:0:
402,192,151181,1,0,0:0:0:0:
256,192,151181,128,0,151386:0:0:0:0:
256,192,151454,128,0,151727:0:0:0:0:
182,192,151454,1,0,0:0:0:0:
182,192,151727,128,0,152000:0:0:0:0:
109,192,151727,1,0,0:0:0:0:
109,192,152000,128,0,152272:0:0:0:0:
329,192,152000,1,0,0:0:0:0:
475,192,152272,128,0,153363:0:0:0:0:
36,192,152272,1,0,0:0:0:0:
402,192,152545,1,0,0:0:0:0:
329,192,152818,1,0,0:0:0:0:
36,192,153091,1,0,0:0:0:0:
402,192,153363,128,0,153636:0:0:0:0:
182,192,153363,1,0,0:0:0:0:
329,192,153636,1,0,0:0:0:0:
182,192,153636,128,0,153909:0:0:0:0:
329,192,153909,128,0,154181:0:0:0:0:
256,192,153909,1,0,0:0:0:0:
475,192,154181,128,0,154454:0:0:0:0:
36,192,154181,1,0,0:0:0:0:
36,192,154454,128,0,155000:0:0:0:0:
109,192,154454,1,0,0:0:0:0:
402,192,154727,1,0,0:0:0:0:
256,192,155000,128,0,155272:0:0:0:0:
475,192,155000,1,0,0:0:0:0:
475,192,155272,128,0,155545:0:0:0:0:
109,192,155272,1,0,0:0:0:0:
182,192,155545,1,0,0:0:0:0:
109,192,155545,128,0,155818:0:0:0:0:
402,192,155818,1,0,0:0:0:0:
329,192,155818,128,0,156091:0:0:0:0:
256,192,156091,128,0,156636:0:0:0:0:
402,192,156091,1,0,0:0:0:0:
182,192,156363,1,0,0:0:0:0:
36,192,156636,1,0,0:0:0:0:
329,192,156909,1,0,0:0:0:0:
182,192,156909,128,0,157181:0:0:0:0:
475,192,157181,128,0,158000:0:0:0:0:
36,192,157181,1,0,0:0:0:0:
256,192,157454,1,0,0:0:0:0:
109,192,157727,1,0,0:0:0:0:
402,192,158000,128,0,158545:0:0:0:0:
329,192,158000,1,0,0:0:0:0:
256,192,158272,1,0,0:0:0:0:
256,192,158545,128,0,158818:0:0:0:0:
36,192,158545,1,0,0:0:0:0:
109,192,158818,128,0,159363:0:0:0:0:
182,192,158818,1,0,0:0:0:0:
475,192,159091,1,0,0:0:0:0:
402,192,159363,1,0,0:0:0:0:
402,192,159636,1,0,0:0:0:0:
329,192,159636,128,0,159909:0:0:0:0:
402,192,159909,128,0,160181:0:0:0:0:
182,192,159909,1,0,0:0:0:0:
36,192,160181,1,0,0:0:0:0:
182,192,160181,128,0,160454:0:0:0:0:
109,192,160454,1,0,0:0:0:0:
36,192,160454,128,0,160727:0:0:0:0:
109,192,160727,128,0,161000:0:0:0:0:
256,192,160727,1,0,0:0:0:0:
475,192,161000,1,0,0:0:0:0:
256,192,161000,128,0,161272:0:0:0:0:
475,192,161272,128,0,161818:0:0:0:0:
329,192,161272,1,0,0:0:0:0:
402,192,161545,1,0,0:0:0:0:
402,192,161818,128,0,162091:0:0:0:0:
329,192,161818,1,0,0:0:0:0:
329,192,162091,128,0,162295:0:0:0:0:
182,192,162091,1,0,0:0:0:0:
36,192,162363,1,0,0:0:0:0:
329,192,162363,128,0,162636:0:0:0:0:
182,192,162636,1,0,0:0:0:0:
109,192,162636,128,0,162841:0:0:0:0:
109,192,162909,128,0,164000:0:0:0:0:
256,192,162909,1,0,0:0:0:0:
36,192,163181,1,0,0:0:0:0:
475,192,163454,1,0,0:0:0:0:
256,192,163727,1,0,0:0:0:0:
402,192,164000,1,0,0:0:0:0:
182,192,164272,1,0,0:0:0:0:
475,192,164545,128,0,165363:0:0:0:0:
329,192,164545,1,0,0:0:0:0:
36,192,164818,1,0,0:0:0:0:
256,192,165091,1,0,0:0:0:0:
402,192,165363,1,0,0:0:0:0:
182,192,165363,128,0,167000:0:0:0:0:
36,192,166181,1,0,0:0:0:0:
329,192,166181,1,0,0:0:0:0:
329,192,167000,128,0,168636:0:0:0:0:
109,192,167000,1,0,0:0:0:0:
402,192,167818,1,0,0:0:0:0:
475,192,167818,1,0,0:0:0:0:
256,192,168636,128,0,170272:0:0:0:0:
402,192,168636,1,0,0:0:0:0:
36,192,169454,1,0,0:0:0:0:
109,192,169454,1,0,0:0:0:0:
109,192,170272,1,0,0:0:0:0:
182,192,170272,128,0,173545:0:0:0:0:
475,192,171091,1,0,0:0:0:0:
36,192,171091,1,0,0:0:0:0:
256,192,171909,1,0,0:0:0:0:
36,192,171909,1,0,0:0:0:0:
36,192,172727,1,0,0:0:0:0:
329,192,172727,1,0,0:0:0:0:
402,192,173545,1,0,0:0:0:0:
329,192,173545,1,0,0:0:0:0:
329,192,174363,1,0,0:0:0:0:
109,192,174363,1,0,0:0:0:0:
475,192,175181,1,0,0:0:0:0:
256,192,175181,1,0,0:0:0:0:
402,192,176000,1,0,0:0:0:0:
256,192,176000,1,0,0:0:0:0:
256,192,176818,1,0,0:0:0:0:
109,192,176818,1,0,0:0:0:0:
109,192,177636,1,0,0:0:0:0:
475,192,177636,1,0,0:0:0:0:
36,192,178454,1,0,0:0:0:0:
475,192,178454,1,0,0:0:0:0:
182,192,178727,1,0,0:0:0:0:
475,192,178727,1,0,0:0:0:0:
329,192,179000,1,0,0:0:0:0:
182,192,179000,1,0,0:0:0:0:
256,192,179272,1,0,0:0:0:0:
402,192,179272,1,0,0:0:0:0:
402,192,179545,1,0,0:0:0:0:
36,192,179545,1,0,0:0:0:0:
36,192,179818,5,0,0:0:0:0:
109,192,179818,1,0,0:0:0:0:
256,192,180091,1,0,0:0:0:0:
329,192,180091,1,0,0:0:0:0:
109,192,180363,1,0,0:0:0:0:
329,192,180363,1,0,0:0:0:0:
475,192,180636,1,0,0:0:0:0:
109,192,180636,1,0,0:0:0:0:
256,192,180909,128,0,181181:0:0:0:0:
182,192,180909,1,0,0:0:0:0:
402,192,181181,1,0,0:0:0:0:
182,192,181181,128,0,181454:0:0:0:0:
36,192,181454,1,0,0:0:0:0:
402,192,181454,128,0,181727:0:0:0:0:
36,192,181727,128,0,182272:0:0:0:0:
475,192,181727,1,0,0:0:0:0:
475,192,182000,1,0,0:0:0:0:
256,192,182000,1,0,0:0:0:0:
329,192,182272,1,0,0:0:0:0:
475,192,182272,1,0,0:0:0:0:
475,192,182545,1,0,0:0:0:0:
109,192,182545,128,0,182818:0:0:0:0:
182,192,182818,1,0,0:0:0:0:
256,192,182818,128,0,183091:0:0:0:0:
329,192,183091,128,0,183295:0:0:0:0:
402,192,183091,1,0,0:0:0:0:
329,192,183363,128,0,183909:0:0:0:0:
109,192,183363,1,0,0:0:0:0:
36,192,183636,1,0,0:0:0:0:
182,192,183636,1,0,0:0:0:0:
256,192,183909,1,0,0:0:0:0:
36,192,183909,128,0,184181:0:0:0:0:
402,192,184181,1,0,0:0:0:0:
475,192,184181,128,0,185000:0:0:0:0:
402,192,184454,1,0,0:0:0:0:
182,192,184454,1,0,0:0:0:0:
402,192,184727,1,0,0:0:0:0:
109,192,184727,1,0,0:0:0:0:
256,192,185000,1,0,0:0:0:0:
402,192,185000,1,0,0:0:0:0:
109,192,185272,1,0,0:0:0:0:
402,192,185272,1,0,0:0:0:0:
329,192,185545,1,0,0:0:0:0:
109,192,185545,1,0,0:0:0:0:
109,192,185818,128,0,186091:0:0:0:0:
329,192,185818,1,0,0:0:0:0:
329,192,186091,128,0,186363:0:0:0:0:
36,192,186091,1,0,0:0:0:0:
36,192,186363,128,0,186568:0:0:0:0:
182,192,186363,1,0,0:0:0:0:
475,192,186636,1,0,0:0:0:0:
36,192,186636,128,0,186909:0:0:0:0:
402,192,186909,1,0,0:0:0:0:
256,192,186909,128,0,187181:0:0:0:0:
402,192,187181,128,0,187454:0:0:0:0:
182,192,187181,1,0,0:0:0:0:
182,192,187454,128,0,187727:0:0:0:0:
475,192,187454,1,0,0:0:0:0:
475,192,187727,128,0,188000:0:0:0:0:
109,192,187727,1,0,0:0:0:0:
256,192,188000,1,0,0:0:0:0:
109,192,188000,128,0,188272:0:0:0:0:
256,192,188272,128,0,188818:0:0:0:0:
329,192,188272,1,0,0:0:0:0:
402,192,188545,1,0,0:0:0:0:
36,192,188545,1,0,0:0:0:0:
329,192,188818,1,0,0:0:0:0:
402,192,188818,1,0,0:0:0:0:
402,192,189091,1,0,0:0:0:0:
182,192,189091,128,0,189363:0:0:0:0:
475,192,189363,128,0,189636:0:0:0:0:
36,192,189363,1,0,0:0:0:0:
109,192,189636,1,0,0:0:0:0:
36,192,189636,128,0,189841:0:0:0:0:
329,192,189909,1,0,0:0:0:0:
36,192,189909,128,0,190454:0:0:0:0:
182,192,190181,1,0,0:0:0:0:
256,192,190181,1,0,0:0:0:0:
109,192,190454,1,0,0:0:0:0:
256,192,190454,128,0,190727:0:0:0:0:
475,192,190727,128,0,191545:0:0:0:0:
329,192,190727,1,0,0:0:0:0:
402,192,191545,1,0,0:0:0:0:
329,192,191545,1,0,0:0:0:0:
182,192,191545,1,0,0:0:0:0:
109,192,191681,1,0,0:0:0:0:
256,192,191818,1,0,0:0:0:0:
36,192,191818,1,0,0:0:0:0:
182,192,191954,1,0,0:0:0:0:
475,192,192091,1,0,0:0:0:0:
402,192,192091,1,0,0:0:0:0:
329,192,192227,1,0,0:0:0:0:
109,192,192363,1,0,0:0:0:0:
36,192,192363,1,0,0:0:0:0:
256,192,192500,1,0,0:0:0:0:
475,192,192636,1,0,0:0:0:0:
402,192,192636,1,0,0:0:0:0:
182,192,192772,1,0,0:0:0:0:
329,192,192909,1,0,0:0:0:0:
109,192,192909,1,0,0:0:0:0:
256,192,193045,1,0,0:0:0:0:
36,192,193181,1,0,0:0:0:0:
475,192,193181,1,0,0:0:0:0:
402,192,193318,1,0,0:0:0:0:
329,192,193454,1,0,0:0:0:0:
182,192,193454,1,0,0:0:0:0:
109,192,193591,1,0,0:0:0:0:
36,192,193727,1,0,0:0:0:0:
256,192,193727,1,0,0:0:0:0:
402,192,193863,1,0,0:0:0:0:
182,192,194000,1,0,0:0:0:0:
475,192,194000,1,0,0:0:0:0:
109,192,194136,1,0,0:0:0:0:
329,192,194272,1,0,0:0:0:0:
36,192,194272,1,0,0:0:0:0:
402,192,194409,1,0,0:0:0:0:
256,192,194545,1,0,0:0:0:0:
475,192,194545,1,0,0:0:0:0:
109,192,194681,1,0,0:0:0:0:
182,192,194818,1,0,0:0:0:0:
36,192,194818,1,0,0:0:0:0:
329,192,194818,1,0,0:0:0:0:
402,192,194954,1,0,0:0:0:0:
475,192,195091,1,0,0:0:0:0:
256,192,195091,1,0,0:0:0:0:
109,192,195227,1,0,0:0:0:0:
182,192,195363,1,0,0:0:0:0:
329,192,195363,1,0,0:0:0:0:
402,192,195500,1,0,0:0:0:0:
256,192,195636,1,0,0:0:0:0:
36,192,195636,1,0,0:0:0:0:
109,192,195772,1,0,0:0:0:0:
475,192,195909,1,0,0:0:0:0:
182,192,195909,1,0,0:0:0:0:
402,192,196045,1,0,0:0:0:0:
256,192,196181,1,0,0:0:0:0:
329,192,196181,1,0,0:0:0:0:
36,192,196318,1,0,0:0:0:0:
182,192,196454,1,0,0:0:0:0:
109,192,196454,1,0,0:0:0:0:
475,192,196591,1,0,0:0:0:0:
402,192,196727,1,0,0:0:0:0:
256,192,196727,1,0,0:0:0:0:
36,192,196863,1,0,0:0:0:0:
109,192,197000,1,0,0:0:0:0:
329,192,197000,1,0,0:0:0:0:
182,192,197136,1,0,0:0:0:0:
475,192,197272,1,0,0:0:0:0:
402,192,197272,1,0,0:0:0:0:
256,192,197409,1,0,0:0:0:0:
109,192,197545,1,0,0:0:0:0:
36,192,197545,1,0,0:0:0:0:
329,192,197681,1,0,0:0:0:0:
402,192,197818,1,0,0:0:0:0:
182,192,197818,1,0,0:0:0:0:
475,192,197954,1,0,0:0:0:0:
182,192,197954,1,0,0:0:0:0:
475,192,198091,1,0,0:0:0:0:
36,192,198091,1,0,0:0:0:0:
256,192,198091,1,0,0:0:0:0:
329,192,198227,1,0,0:0:0:0:
402,192,198363,1,0,0:0:0:0:
109,192,198363,1,0,0:0:0:0:
256,192,198500,1,0,0:0:0:0:
36,192,198636,1,0,0:0:0:0:
329,192,198636,1,0,0:0:0:0:
402,192,198772,1,0,0:0:0:0:
182,192,198909,1,0,0:0:0:0:
109,192,198909,1,0,0:0:0:0:
475,192,199045,1,0,0:0:0:0:
329,192,199181,1,0,0:0:0:0:
36,192,199181,1,0,0:0:0:0:
256,192,199318,1,0,0:0:0:0:
109,192,199454,1,0,0:0:0:0:
402,192,199454,1,0,0:0:0:0:
475,192,199591,1,0,0:0:0:0:
329,192,199727,1,0,0:0:0:0:
182,192,199727,1,0,0:0:0:0:
36,192,199863,1,0,0:0:0:0:
256,192,200000,1,0,0:0:0:0:
402,192,200000,1,0,0:0:0:0:
109,192,200136,1,0,0:0:0:0:
182,192,200272,1,0,0:0:0:0:
329,192,200272,1,0,0:0:0:0:
36,192,200409,1,0,0:0:0:0:
256,192,200545,1,0,0:0:0:0:
475,192,200545,1,0,0:0:0:0:
402,192,200681,1,0,0:0:0:0:
182,192,200818,1,0,0:0:0:0:
109,192,200818,1,0,0:0:0:0:
475,192,200954,1,0,0:0:0:0:
329,192,201091,1,0,0:0:0:0:
256,192,201091,1,0,0:0:0:0:
36,192,201227,1,0,0:0:0:0:
182,192,201363,1,0,0:0:0:0:
402,192,201363,1,0,0:0:0:0:
109,192,201363,1,0,0:0:0:0:
256,192,201500,1,0,0:0:0:0:
329,192,201636,1,0,0:0:0:0:
475,192,201636,1,0,0:0:0:0:
36,192,201772,1,0,0:0:0:0:
402,192,201909,1,0,0:0:0:0:
182,192,201909,1,0,0:0:0:0:
109,192,202045,1,0,0:0:0:0:
36,192,202181,1,0,0:0:0:0:
256,192,202181,1,0,0:0:0:0:
329,192,202318,1,0,0:0:0:0:
402,192,202454,1,0,0:0:0:0:
182,192,202454,1,0,0:0:0:0:
475,192,202591,1,0,0:0:0:0:
109,192,202727,1,0,0:0:0:0:
256,192,202727,1,0,0:0:0:0:
329,192,202863,1,0,0:0:0:0:
475,192,203000,1,0,0:0:0:0:
182,192,203000,1,0,0:0:0:0:
36,192,203136,1,0,0:0:0:0:
109,192,203204,1,0,0:0:0:0:
402,192,203272,1,0,0:0:0:0:
329,192,203272,1,0,0:0:0:0:
182,192,203409,1,0,0:0:0:0:
36,192,203545,1,0,0:0:0:0:
475,192,203545,1,0,0:0:0:0:
256,192,203681,1,0,0:0:0:0:
109,192,203818,1,0,0:0:0:0:
402,192,203818,1,0,0:0:0:0:
182,192,203954,1,0,0:0:0:0:
256,192,204091,1,0,0:0:0:0:
36,192,204091,1,0,0:0:0:0:
329,192,204227,1,0,0:0:0:0:
402,192,204363,1,0,0:0:0:0:
109,192,204363,1,0,0:0:0:0:
475,192,204431,1,0,0:0:0:0:
182,192,204500,1,0,0:0:0:0:
256,192,204568,1,0,0:0:0:0:
109,192,204636,1,0,0:0:0:0:
329,192,204636,1,0,0:0:0:0:
36,192,204636,1,0,0:0:0:0:
402,192,204772,1,0,0:0:0:0:
256,192,204909,1,0,0:0:0:0:
475,192,204909,1,0,0:0:0:0:
329,192,205045,1,0,0:0:0:0:
182,192,205181,1,0,0:0:0:0:
36,192,205181,1,0,0:0:0:0:
402,192,205318,1,0,0:0:0:0:
475,192,205454,1,0,0:0:0:0:
109,192,205454,1,0,0:0:0:0:
256,192,205591,1,0,0:0:0:0:
36,192,205727,1,0,0:0:0:0:
182,192,205727,1,0,0:0:0:0:
329,192,205863,1,0,0:0:0:0:
109,192,206000,1,0,0:0:0:0:
402,192,206000,1,0,0:0:0:0:
475,192,206136,1,0,0:0:0:0:
256,192,206272,1,0,0:0:0:0:
182,192,206272,1,0,0:0:0:0:
329,192,206409,1,0,0:0:0:0:
475,192,206545,1,0,0:0:0:0:
36,192,206545,1,0,0:0:0:0:
402,192,206681,1,0,0:0:0:0:
182,192,206818,1,0,0:0:0:0:
109,192,206818,1,0,0:0:0:0:
256,192,206954,1,0,0:0:0:0:
36,192,207091,1,0,0:0:0:0:
329,192,207091,1,0,0:0:0:0:
109,192,207227,1,0,0:0:0:0:
402,192,207363,1,0,0:0:0:0:
182,192,207363,1,0,0:0:0:0:
475,192,207500,1,0,0:0:0:0:
256,192,207636,1,0,0:0:0:0:
329,192,207636,1,0,0:0:0:0:
36,192,207772,1,0,0:0:0:0:
402,192,207909,1,0,0:0:0:0:
475,192,207909,1,0,0:0:0:0:
109,192,207909,1,0,0:0:0:0:
182,192,208045,1,0,0:0:0:0:
329,192,208181,1,0,0:0:0:0:
256,192,208181,1,0,0:0:0:0:
36,192,208318,1,0,0:0:0:0:
475,192,208454,1,0,0:0:0:0:
402,192,208454,1,0,0:0:0:0:
109,192,208591,1,0,0:0:0:0:
256,192,208727,1,0,0:0:0:0:
36,192,208727,1,0,0:0:0:0:
329,192,208863,1,0,0:0:0:0:
475,192,209000,1,0,0:0:0:0:
182,192,209000,1,0,0:0:0:0:
402,192,209136,1,0,0:0:0:0:
256,192,209272,1,0,0:0:0:0:
36,192,209272,1,0,0:0:0:0:
109,192,209409,1,0,0:0:0:0:
182,192,209545,1,0,0:0:0:0:
329,192,209545,1,0,0:0:0:0:
475,192,209681,1,0,0:0:0:0:
402,192,209818,1,0,0:0:0:0:
109,192,209818,1,0,0:0:0:0:
36,192,209954,1,0,0:0:0:0:
182,192,210091,1,0,0:0:0:0:
256,192,210091,1,0,0:0:0:0:
329,192,210227,1,0,0:0:0:0:
109,192,210363,1,0,0:0:0:0:
402,192,210363,1,0,0:0:0:0:
475,192,210500,1,0,0:0:0:0:
256,192,210568,1,0,0:0:0:0:
182,192,210636,1,0,0:0:0:0:
329,192,210636,1,0,0:0:0:0:
182,192,210772,1,0,0:0:0:0:
36,192,210841,1,0,0:0:0:0:
109,192,210909,1,0,0:0:0:0:
402,192,210909,1,0,0:0:0:0:
475,192,211045,1,0,0:0:0:0:
329,192,211113,1,0,0:0:0:0:
36,192,211181,1,0,0:0:0:0:
402,192,211181,1,0,0:0:0:0:
256,192,211181,1,0,0:0:0:0:
109,192,211318,1,0,0:0:0:0:
329,192,211454,1,0,0:0:0:0:
475,192,211454,1,0,0:0:0:0:
256,192,211591,1,0,0:0:0:0:
182,192,211727,1,0,0:0:0:0:
36,192,211727,1,0,0:0:0:0:
475,192,211863,1,0,0:0:0:0:
402,192,212000,1,0,0:0:0:0:
109,192,212000,1,0,0:0:0:0:
182,192,212136,1,0,0:0:0:0:
329,192,212272,1,0,0:0:0:0:
256,192,212272,1,0,0:0:0:0:
475,192,212409,1,0,0:0:0:0:
36,192,212545,1,0,0:0:0:0:
109,192,212545,1,0,0:0:0:0:
402,192,212681,1,0,0:0:0:0:
329,192,212818,1,0,0:0:0:0:
182,192,212818,1,0,0:0:0:0:
36,192,212954,1,0,0:0:0:0:
475,192,213091,1,0,0:0:0:0:
256,192,213091,1,0,0:0:0:0:
402,192,213227,1,0,0:0:0:0:
182,192,213363,1,0,0:0:0:0:
109,192,213363,1,0,0:0:0:0:
36,192,213500,1,0,0:0:0:0:
256,192,213636,1,0,0:0:0:0:
329,192,213636,1,0,0:0:0:0:
109,192,213772,1,0,0:0:0:0:
402,192,213909,1,0,0:0:0:0:
475,192,213909,1,0,0:0:0:0:
182,192,214045,1,0,0:0:0:0:
36,192,214181,1,0,0:0:0:0:
329,192,214181,1,0,0:0:0:0:
256,192,214318,1,0,0:0:0:0:
475,192,214454,1,0,0:0:0:0:
402,192,214454,1,0,0:0:0:0:
109,192,214591,1,0,0:0:0:0:
182,192,214727,1,0,0:0:0:0:
329,192,214727,1,0,0:0:0:0:
256,192,214863,1,0,0:0:0:0:
475,192,215000,1,0,0:0:0:0:
36,192,215000,1,0,0:0:0:0:
109,192,215136,1,0,0:0:0:0:
182,192,215272,1,0,0:0:0:0:
329,192,215272,1,0,0:0:0:0:
402,192,215409,1,0,0:0:0:0:
475,192,215545,1,0,0:0:0:0:
256,192,215545,1,0,0:0:0:0:
36,192,215681,1,0,0:0:0:0:
109,192,215818,1,0,0:0:0:0:
329,192,215818,1,0,0:0:0:0:
402,192,215954,1,0,0:0:0:0:
256,192,216091,5,0,0:0:0:0:
182,192,216091,1,0,0:0:0:0:
475,192,216091,1,0,0:0:0:0:
256,192,216227,1,0,0:0:0:0:
329,192,216295,1,0,0:0:0:0:
109,192,216363,1,0,0:0:0:0:
36,192,216363,1,0,0:0:0:0:
402,192,216500,1,0,0:0:0:0:
182,192,216568,1,0,0:0:0:0:
475,192,216636,1,0,0:0:0:0:
329,192,216636,1,0,0:0:0:0:
109,192,216772,1,0,0:0:0:0:
36,192,216841,1,0,0:0:0:0:
402,192,216909,1,0,0:0:0:0:
182,192,216909,1,0,0:0:0:0:
256,192,216977,1,0,0:0:0:0:
475,192,217045,1,0,0:0:0:0:
109,192,217113,1,0,0:0:0:0:
329,192,217181,1,0,0:0:0:0:
36,192,217250,1,0,0:0:0:0:
402,192,217318,1,0,0:0:0:0:
182,192,217386,1,0,0:0:0:0:
475,192,217454,1,0,0:0:0:0:
109,192,217522,1,0,0:0:0:0:
329,192,217591,1,0,0:0:0:0:
36,192,217659,1,0,0:0:0:0:
256,192,217727,128,0,219363:0:0:0:0:
402,192,217727,128,0,219363:0:0:0:0:
329,192,219909,128,0,220181:0:0:0:0:
109,192,220181,128,0,220454:0:0:0:0:
182,192,220454,128,0,220727:0:0:0:0:
475,192,220727,128,0,221000:0:0:0:0:
329,192,221000,1,0,0:0:0:0:
36,192,221000,1,0,0:0:0:0:
402,192,221000,1,0,0:0:0:0:
256,192,221136,1,0,0:0:0:0:
109,192,221272,1,0,0:0:0:0:
182,192,221272,1,0,0:0:0:0:
36,192,221409,1,0,0:0:0:0:
475,192,221409,1,0,0:0:0:0:
402,192,221545,1,0,0:0:0:0:
329,192,221545,1,0,0:0:0:0:
256,192,221681,1,0,0:0:0:0:
109,192,221818,1,0,0:0:0:0:
182,192,221818,1,0,0:0:0:0:
475,192,221954,1,0,0:0:0:0:
329,192,222091,1,0,0:0:0:0:
36,192,222091,1,0,0:0:0:0:
256,192,222227,1,0,0:0:0:0:
402,192,222227,1,0,0:0:0:0:
182,192,222363,1,0,0:0:0:0:
109,192,222363,1,0,0:0:0:0:
329,192,222500,1,0,0:0:0:0:
475,192,222500,1,0,0:0:0:0:
36,192,222636,1,0,0:0:0:0:
402,192,222772,1,0,0:0:0:0:
256,192,222772,1,0,0:0:0:0:
109,192,222909,1,0,0:0:0:0:
182,192,222909,1,0,0:0:0:0:
475,192,223045,1,0,0:0:0:0:
329,192,223045,1,0,0:0:0:0:
256,192,223181,1,0,0:0:0:0:
36,192,223181,1,0,0:0:0:0:
402,192,223318,1,0,0:0:0:0:
182,192,223454,1,0,0:0:0:0:
109,192,223454,1,0,0:0:0:0:
329,192,223591,1,0,0:0:0:0:
36,192,223727,1,0,0:0:0:0:
475,192,223727,1,0,0:0:0:0:
182,192,223863,1,0,0:0:0:0:
402,192,223863,1,0,0:0:0:0:
109,192,224000,1,0,0:0:0:0:
256,192,224000,1,0,0:0:0:0:
475,192,224136,1,0,0:0:0:0:
36,192,224136,1,0,0:0:0:0:
182,192,224272,1,0,0:0:0:0:
36,192,224272,1,0,0:0:0:0:
329,192,224272,1,0,0:0:0:0:
402,192,224409,1,0,0:0:0:0:
329,192,224409,1,0,0:0:0:0:
109,192,224545,1,0,0:0:0:0:
256,192,224545,1,0,0:0:0:0:
182,192,224681,1,0,0:0:0:0:
475,192,224681,1,0,0:0:0:0:
402,192,224818,1,0,0:0:0:0:
109,192,224818,1,0,0:0:0:0:
256,192,224954,1,0,0:0:0:0:
182,192,225091,1,0,0:0:0:0:
475,192,225091,1,0,0:0:0:0:
36,192,225227,1,0,0:0:0:0:
402,192,225363,1,0,0:0:0:0:
256,192,225363,1,0,0:0:0:0:
329,192,225500,1,0,0:0:0:0:
182,192,225500,1,0,0:0:0:0:
36,192,225636,1,0,0:0:0:0:
475,192,225636,1,0,0:0:0:0:
256,192,225772,1,0,0:0:0:0:
109,192,225772,1,0,0:0:0:0:
329,192,225909,1,0,0:0:0:0:
402,192,225909,1,0,0:0:0:0:
36,192,226045,1,0,0:0:0:0:
475,192,226181,1,0,0:0:0:0:
182,192,226181,1,0,0:0:0:0:
402,192,226318,1,0,0:0:0:0:
109,192,226318,1,0,0:0:0:0:
256,192,226454,1,0,0:0:0:0:
329,192,226454,1,0,0:0:0:0:
36,192,226591,1,0,0:0:0:0:
182,192,226727,1,0,0:0:0:0:
402,192,226727,1,0,0:0:0:0:
182,192,226863,1,0,0:0:0:0:
475,192,226863,1,0,0:0:0:0:
475,192,227000,1,0,0:0:0:0:
109,192,227000,1,0,0:0:0:0:
329,192,227136,1,0,0:0:0:0:
256,192,227136,1,0,0:0:0:0:
36,192,227272,1,0,0:0:0:0:
329,192,227272,1,0,0:0:0:0:
36,192,227409,1,0,0:0:0:0:
109,192,227409,1,0,0:0:0:0:
402,192,227545,1,0,0:0:0:0:
109,192,227545,1,0,0:0:0:0:
256,192,227545,1,0,0:0:0:0:
182,192,227681,1,0,0:0:0:0:
475,192,227818,1,0,0:0:0:0:
256,192,227818,1,0,0:0:0:0:
329,192,227954,1,0,0:0:0:0:
402,192,227954,1,0,0:0:0:0:
475,192,228091,1,0,0:0:0:0:
182,192,228091,1,0,0:0:0:0:
36,192,228227,1,0,0:0:0:0:
109,192,228363,1,0,0:0:0:0:
402,192,228363,1,0,0:0:0:0:
182,192,228500,1,0,0:0:0:0:
256,192,228500,1,0,0:0:0:0:
36,192,228636,1,0,0:0:0:0:
329,192,228772,1,0,0:0:0:0:
109,192,228772,1,0,0:0:0:0:
475,192,228909,1,0,0:0:0:0:
402,192,228909,1,0,0:0:0:0:
182,192,229045,1,0,0:0:0:0:
256,192,229181,1,0,0:0:0:0:
329,192,229181,1,0,0:0:0:0:
402,192,229318,1,0,0:0:0:0:
36,192,229318,1,0,0:0:0:0:
475,192,229454,1,0,0:0:0:0:
109,192,229454,1,0,0:0:0:0:
182,192,229591,1,0,0:0:0:0:
402,192,229727,1,0,0:0:0:0:
256,192,229727,1,0,0:0:0:0:
329,192,229863,1,0,0:0:0:0:
109,192,229863,1,0,0:0:0:0:
475,192,230000,1,0,0:0:0:0:
36,192,230000,1,0,0:0:0:0:
256,192,230136,1,0,0:0:0:0:
109,192,230272,1,0,0:0:0:0:
329,192,230272,1,0,0:0:0:0:
182,192,230409,1,0,0:0:0:0:
36,192,230409,1,0,0:0:0:0:
402,192,230545,1,0,0:0:0:0:
475,192,230545,1,0,0:0:0:0:
109,192,230681,1,0,0:0:0:0:
329,192,230681,1,0,0:0:0:0:
256,192,230818,1,0,0:0:0:0:
36,192,230818,1,0,0:0:0:0:
109,192,230818,1,0,0:0:0:0:
402,192,230954,1,0,0:0:0:0:
182,192,231091,1,0,0:0:0:0:
475,192,231091,1,0,0:0:0:0:
256,192,231227,1,0,0:0:0:0:
36,192,231227,1,0,0:0:0:0:
402,192,231363,1,0,0:0:0:0:
329,192,231363,1,0,0:0:0:0:
475,192,231500,1,0,0:0:0:0:
256,192,231636,1,0,0:0:0:0:
109,192,231636,1,0,0:0:0:0:
182,192,231636,1,0,0:0:0:0:
36,192,231772,1,0,0:0:0:0:
402,192,231909,1,0,0:0:0:0:
329,192,231909,1,0,0:0:0:0:
182,192,232045,1,0,0:0:0:0:
475,192,232045,1,0,0:0:0:0:
36,192,232181,1,0,0:0:0:0:
256,192,232181,1,0,0:0:0:0:
329,192,232318,1,0,0:0:0:0:
109,192,232318,1,0,0:0:0:0:
475,192,232454,1,0,0:0:0:0:
329,192,232454,1,0,0:0:0:0:
182,192,232454,1,0,0:0:0:0:
402,192,232591,1,0,0:0:0:0:
109,192,232727,1,0,0:0:0:0:
36,192,232727,1,0,0:0:0:0:
182,192,232863,1,0,0:0:0:0:
256,192,232863,1,0,0:0:0:0:
475,192,233000,1,0,0:0:0:0:
402,192,233000,1,0,0:0:0:0:
36,192,233136,1,0,0:0:0:0:
256,192,233272,1,0,0:0:0:0:
182,192,233272,1,0,0:0:0:0:
109,192,233272,1,0,0:0:0:0:
182,192,233409,1,0,0:0:0:0:
329,192,233409,1,0,0:0:0:0:
329,192,233545,1,0,0:0:0:0:
475,192,233545,1,0,0:0:0:0:
402,192,233681,1,0,0:0:0:0:
329,192,233681,1,0,0:0:0:0:
256,192,233818,1,0,0:0:0:0:
402,192,233818,1,0,0:0:0:0:
36,192,233954,1,0,0:0:0:0:
402,192,233954,1,0,0:0:0:0:
475,192,234091,1,0,0:0:0:0:
36,192,234091,1,0,0:0:0:0:
109,192,234091,1,0,0:0:0:0:
256,192,234227,1,0,0:0:0:0:
109,192,234363,1,0,0:0:0:0:
182,192,234363,1,0,0:0:0:0:
475,192,234431,1,0,0:0:0:0:
329,192,234500,1,0,0:0:0:0:
256,192,234568,1,0,0:0:0:0:
109,192,234636,1,0,0:0:0:0:
182,192,234636,1,0,0:0:0:0:
475,192,234772,1,0,0:0:0:0:
329,192,234909,1,0,0:0:0:0:
402,192,234909,1,0,0:0:0:0:
36,192,235045,1,0,0:0:0:0:
256,192,235181,1,0,0:0:0:0:
109,192,235181,1,0,0:0:0:0:
182,192,235318,1,0,0:0:0:0:
402,192,235318,1,0,0:0:0:0:
36,192,235454,1,0,0:0:0:0:
329,192,235454,1,0,0:0:0:0:
475,192,235591,1,0,0:0:0:0:
402,192,235727,1,0,0:0:0:0:
256,192,235727,1,0,0:0:0:0:
109,192,235863,1,0,0:0:0:0:
475,192,236000,1,0,0:0:0:0:
182,192,236000,1,0,0:0:0:0:
329,192,236136,1,0,0:0:0:0:
36,192,236136,1,0,0:0:0:0:
109,192,236272,1,0,0:0:0:0:
256,192,236272,1,0,0:0:0:0:
402,192,236409,1,0,0:0:0:0:
329,192,236545,1,0,0:0:0:0:
182,192,236545,1,0,0:0:0:0:
36,192,236681,1,0,0:0:0:0:
109,192,236818,1,0,0:0:0:0:
475,192,236818,1,0,0:0:0:0:
256,192,236954,1,0,0:0:0:0:
182,192,236954,1,0,0:0:0:0:
36,192,237091,1,0,0:0:0:0:
402,192,237091,1,0,0:0:0:0:
475,192,237227,1,0,0:0:0:0:
329,192,237227,1,0,0:0:0:0:
256,192,237363,1,0,0:0:0:0:
329,192,237363,1,0,0:0:0:0:
182,192,237363,1,0,0:0:0:0:
36,192,237500,1,0,0:0:0:0:
256,192,237500,1,0,0:0:0:0:
109,192,237636,1,0,0:0:0:0:
475,192,237636,1,0,0:0:0:0:
182,192,237772,1,0,0:0:0:0:
402,192,237772,1,0,0:0:0:0:
36,192,237909,1,0,0:0:0:0:
109,192,237909,1,0,0:0:0:0:
475,192,238045,1,0,0:0:0:0:
329,192,238181,1,0,0:0:0:0:
402,192,238181,1,0,0:0:0:0:
256,192,238318,1,0,0:0:0:0:
475,192,238454,1,0,0:0:0:0:
182,192,238454,1,0,0:0:0:0:
402,192,238591,1,0,0:0:0:0:
36,192,238727,1,0,0:0:0:0:
109,192,238727,1,0,0:0:0:0:
256,192,238863,1,0,0:0:0:0:
182,192,238863,1,0,0:0:0:0:
402,192,239000,1,0,0:0:0:0:
329,192,239000,1,0,0:0:0:0:
36,192,239136,1,0,0:0:0:0:
109,192,239272,1,0,0:0:0:0:
475,192,239272,1,0,0:0:0:0:
182,192,239409,1,0,0:0:0:0:
256,192,239409,1,0,0:0:0:0:
329,192,239545,1,0,0:0:0:0:
402,192,239545,1,0,0:0:0:0:
36,192,239681,1,0,0:0:0:0:
475,192,239818,1,0,0:0:0:0:
109,192,239818,1,0,0:0:0:0:
109,192,239954,1,0,0:0:0:0:
256,192,239954,1,0,0:0:0:0:
256,192,240091,1,0,0:0:0:0:
182,192,240091,1,0,0:0:0:0:
329,192,240227,1,0,0:0:0:0:
36,192,240227,1,0,0:0:0:0:
329,192,240363,1,0,0:0:0:0:
402,192,240363,1,0,0:0:0:0:
475,192,240431,1,0,0:0:0:0:
182,192,240500,1,0,0:0:0:0:
36,192,240568,1,0,0:0:0:0:
475,192,240636,1,0,0:0:0:0:
402,192,240636,1,0,0:0:0:0:
109,192,240636,1,0,0:0:0:0:
182,192,240772,1,0,0:0:0:0:
256,192,240909,1,0,0:0:0:0:
36,192,240909,1,0,0:0:0:0:
329,192,241045,1,0,0:0:0:0:
109,192,241045,1,0,0:0:0:0:
402,192,241181,1,0,0:0:0:0:
256,192,241181,1,0,0:0:0:0:
182,192,241318,1,0,0:0:0:0:
475,192,241454,1,0,0:0:0:0:
109,192,241454,1,0,0:0:0:0:
36,192,241454,1,0,0:0:0:0:
329,192,241591,1,0,0:0:0:0:
182,192,241727,1,0,0:0:0:0:
256,192,241727,1,0,0:0:0:0:
475,192,241863,1,0,0:0:0:0:
402,192,241863,1,0,0:0:0:0:
109,192,242000,1,0,0:0:0:0:
36,192,242000,1,0,0:0:0:0:
256,192,242136,1,0,0:0:0:0:
182,192,242136,1,0,0:0:0:0:
402,192,242272,1,0,0:0:0:0:
256,192,242272,1,0,0:0:0:0:
329,192,242272,1,0,0:0:0:0:
475,192,242409,1,0,0:0:0:0:
109,192,242545,1,0,0:0:0:0:
36,192,242545,1,0,0:0:0:0:
182,192,242681,1,0,0:0:0:0:
329,192,242681,1,0,0:0:0:0:
475,192,242818,1,0,0:0:0:0:
402,192,242818,1,0,0:0:0:0:
36,192,242954,1,0,0:0:0:0:
182,192,243091,1,0,0:0:0:0:
329,192,243091,1,0,0:0:0:0:
256,192,243091,1,0,0:0:0:0:
475,192,243227,1,0,0:0:0:0:
402,192,243363,1,0,0:0:0:0:
109,192,243363,1,0,0:0:0:0:
182,192,243500,1,0,0:0:0:0:
36,192,243500,1,0,0:0:0:0:
475,192,243636,1,0,0:0:0:0:
256,192,243636,1,0,0:0:0:0:
402,192,243772,1,0,0:0:0:0:
329,192,243772,1,0,0:0:0:0:
109,192,243909,1,0,0:0:0:0:
402,192,243909,1,0,0:0:0:0:
182,192,243909,1,0,0:0:0:0:
256,192,244045,1,0,0:0:0:0:
182,192,244045,1,0,0:0:0:0:
36,192,244181,1,0,0:0:0:0:
329,192,244181,1,0,0:0:0:0:
109,192,244318,1,0,0:0:0:0:
475,192,244318,1,0,0:0:0:0:
36,192,244454,1,0,0:0:0:0:
256,192,244454,1,0,0:0:0:0:
329,192,244591,1,0,0:0:0:0:
475,192,244727,1,0,0:0:0:0:
109,192,244727,1,0,0:0:0:0:
402,192,244727,1,0,0:0:0:0:
256,192,244863,1,0,0:0:0:0:
182,192,245000,1,0,0:0:0:0:
329,192,245000,1,0,0:0:0:0:
36,192,245136,1,0,0:0:0:0:
475,192,245136,1,0,0:0:0:0:
109,192,245272,1,0,0:0:0:0:
256,192,245272,1,0,0:0:0:0:
402,192,245409,1,0,0:0:0:0:
182,192,245409,1,0,0:0:0:0:
402,192,245545,1,0,0:0:0:0:
475,192,245545,1,0,0:0:0:0:
329,192,245545,1,0,0:0:0:0:
109,192,245681,1,0,0:0:0:0:
182,192,245818,1,0,0:0:0:0:
36,192,245818,1,0,0:0:0:0:
256,192,245954,1,0,0:0:0:0:
329,192,245954,1,0,0:0:0:0:
109,192,246091,1,0,0:0:0:0:
475,192,246091,1,0,0:0:0:0:
36,192,246227,1,0,0:0:0:0:
329,192,246363,1,0,0:0:0:0:
402,192,246363,1,0,0:0:0:0:
256,192,246500,1,0,0:0:0:0:
329,192,246500,1,0,0:0:0:0:
182,192,246636,1,0,0:0:0:0:
256,192,246636,1,0,0:0:0:0:
256,192,246772,1,0,0:0:0:0:
36,192,246772,1,0,0:0:0:0:
109,192,246909,1,0,0:0:0:0:
36,192,246909,1,0,0:0:0:0:
36,192,247045,1,0,0:0:0:0:
475,192,247045,1,0,0:0:0:0:
402,192,247181,1,0,0:0:0:0:
475,192,247181,1,0,0:0:0:0:
182,192,247181,1,0,0:0:0:0:
109,192,247318,1,0,0:0:0:0:
402,192,247454,1,0,0:0:0:0:
329,192,247454,1,0,0:0:0:0:
182,192,247591,1,0,0:0:0:0:
256,192,247591,1,0,0:0:0:0:
329,192,247727,1,0,0:0:0:0:
109,192,247727,1,0,0:0:0:0:
36,192,247863,1,0,0:0:0:0:
475,192,248000,1,0,0:0:0:0:
182,192,248000,1,0,0:0:0:0:
256,192,248136,1,0,0:0:0:0:
109,192,248272,1,0,0:0:0:0:
402,192,248272,1,0,0:0:0:0:
329,192,248409,1,0,0:0:0:0:
475,192,248545,1,0,0:0:0:0:
36,192,248545,1,0,0:0:0:0:
402,192,248681,1,0,0:0:0:0:
182,192,248681,1,0,0:0:0:0:
256,192,248818,1,0,0:0:0:0:
329,192,248818,1,0,0:0:0:0:
36,192,248954,1,0,0:0:0:0:
402,192,249091,1,0,0:0:0:0:
109,192,249091,1,0,0:0:0:0:
475,192,249227,1,0,0:0:0:0:
256,192,249227,1,0,0:0:0:0:
182,192,249363,1,0,0:0:0:0:
329,192,249363,1,0,0:0:0:0:
109,192,249500,1,0,0:0:0:0:
36,192,249636,1,0,0:0:0:0:
475,192,249636,1,0,0:0:0:0:
256,192,249772,1,0,0:0:0:0:
402,192,249909,1,0,0:0:0:0:
182,192,249909,1,0,0:0:0:0:
329,192,250045,1,0,0:0:0:0:
36,192,250045,1,0,0:0:0:0:
109,192,250181,1,0,0:0:0:0:
256,192,250181,1,0,0:0:0:0:
475,192,250318,1,0,0:0:0:0:
402,192,250318,1,0,0:0:0:0:
475,192,250454,1,0,0:0:0:0:
329,192,250454,1,0,0:0:0:0:
182,192,250454,1,0,0:0:0:0:
36,192,250591,1,0,0:0:0:0:
256,192,250727,1,0,0:0:0:0:
109,192,250727,1,0,0:0:0:0:
402,192,250863,1,0,0:0:0:0:
329,192,250863,1,0,0:0:0:0:
36,192,251000,1,0,0:0:0:0:
182,192,251000,1,0,0:0:0:0:
256,192,251136,1,0,0:0:0:0:
402,192,251272,1,0,0:0:0:0:
109,192,251272,1,0,0:0:0:0:
182,192,251409,1,0,0:0:0:0:
329,192,251545,1,0,0:0:0:0:
475,192,251545,1,0,0:0:0:0:
402,192,251681,1,0,0:0:0:0:
36,192,251818,1,0,0:0:0:0:
109,192,251818,1,0,0:0:0:0:
256,192,251954,1,0,0:0:0:0:
475,192,251954,1,0,0:0:0:0:
329,192,252091,1,0,0:0:0:0:
182,192,252227,1,0,0:0:0:0:
109,192,252227,1,0,0:0:0:0:
256,192,252363,1,0,0:0:0:0:
36,192,252363,1,0,0:0:0:0:
402,192,252500,1,0,0:0:0:0:
475,192,252500,1,0,0:0:0:0:
329,192,252636,1,0,0:0:0:0:
109,192,252636,1,0,0:0:0:0:
182,192,252772,1,0,0:0:0:0:
402,192,252909,1,0,0:0:0:0:
36,192,252909,1,0,0:0:0:0:
36,192,253045,1,0,0:0:0:0:
256,192,253045,1,0,0:0:0:0:
329,192,253181,1,0,0:0:0:0:
256,192,253181,1,0,0:0:0:0:
475,192,253318,1,0,0:0:0:0:
182,192,253318,1,0,0:0:0:0:
182,192,253454,1,0,0:0:0:0:
109,192,253454,1,0,0:0:0:0:
109,192,253591,1,0,0:0:0:0:
402,192,253591,1,0,0:0:0:0:
329,192,253727,1,0,0:0:0:0:
475,192,253727,1,0,0:0:0:0:
109,192,253727,1,0,0:0:0:0:
36,192,253863,1,0,0:0:0:0:
402,192,254000,1,0,0:0:0:0:
256,192,254000,1,0,0:0:0:0:
475,192,254136,1,0,0:0:0:0:
329,192,254136,1,0,0:0:0:0:
36,192,254272,1,0,0:0:0:0:
182,192,254272,1,0,0:0:0:0:
256,192,254409,1,0,0:0:0:0:
329,192,254545,1,0,0:0:0:0:
475,192,254545,1,0,0:0:0:0:
109,192,254681,1,0,0:0:0:0:
182,192,254818,1,0,0:0:0:0:
402,192,254818,1,0,0:0:0:0:
256,192,254954,1,0,0:0:0:0:
109,192,255091,1,0,0:0:0:0:
36,192,255091,1,0,0:0:0:0:
402,192,255227,1,0,0:0:0:0:
475,192,255227,1,0,0:0:0:0:
329,192,255363,1,0,0:0:0:0:
182,192,255500,1,0,0:0:0:0:
109,192,255500,1,0,0:0:0:0:
256,192,255636,1,0,0:0:0:0:
36,192,255636,1,0,0:0:0:0:
402,192,255772,1,0,0:0:0:0:
329,192,255909,1,0,0:0:0:0:
475,192,255909,1,0,0:0:0:0:
256,192,256045,1,0,0:0:0:0:
36,192,256181,1,0,0:0:0:0:
109,192,256181,1,0,0:0:0:0:
182,192,256318,1,0,0:0:0:0:
402,192,256386,1,0,0:0:0:0:
329,192,256454,1,0,0:0:0:0:
475,192,256454,1,0,0:0:0:0:
475,192,256591,1,0,0:0:0:0:
256,192,256659,1,0,0:0:0:0:
109,192,256727,1,0,0:0:0:0:
36,192,256727,1,0,0:0:0:0:
109,192,256863,1,0,0:0:0:0:
329,192,256931,1,0,0:0:0:0:
182,192,257000,1,0,0:0:0:0:
402,192,257000,1,0,0:0:0:0:
256,192,257136,1,0,0:0:0:0:
36,192,257272,1,0,0:0:0:0:
329,192,257272,1,0,0:0:0:0:
182,192,257409,1,0,0:0:0:0:
402,192,257409,1,0,0:0:0:0:
256,192,257545,1,0,0:0:0:0:
475,192,257545,1,0,0:0:0:0:
36,192,257681,1,0,0:0:0:0:
329,192,257818,1,0,0:0:0:0:
109,192,257818,1,0,0:0:0:0:
475,192,257954,1,0,0:0:0:0:
182,192,258091,1,0,0:0:0:0:
402,192,258091,1,0,0:0:0:0:
109,192,258227,1,0,0:0:0:0:
256,192,258363,1,0,0:0:0:0:
36,192,258363,1,0,0:0:0:0:
402,192,258500,1,0,0:0:0:0:
475,192,258500,1,0,0:0:0:0:
329,192,258636,1,0,0:0:0:0:
182,192,258772,1,0,0:0:0:0:
256,192,258772,1,0,0:0:0:0:
36,192,258909,1,0,0:0:0:0:
109,192,258909,1,0,0:0:0:0:
402,192,259045,1,0,0:0:0:0:
329,192,259045,1,0,0:0:0:0:
256,192,259181,1,0,0:0:0:0:
182,192,259181,1,0,0:0:0:0:
475,192,259318,1,0,0:0:0:0:
36,192,259454,1,0,0:0:0:0:
109,192,259454,1,0,0:0:0:0:
329,192,259522,1,0,0:0:0:0:
402,192,259591,1,0,0:0:0:0:
475,192,259659,1,0,0:0:0:0:
182,192,259727,1,0,0:0:0:0:
256,192,259795,1,0,0:0:0:0:
36,192,259863,1,0,0:0:0:0:
109,192,259931,1,0,0:0:0:0:
402,192,260000,1,0,0:0:0:0:
329,192,260068,1,0,0:0:0:0:
475,192,260136,1,0,0:0:0:0:
256,192,260204,1,0,0:0:0:0:
182,192,260272,1,0,0:0:0:0:
36,192,260272,1,0,0:0:0:0:
109,192,260272,1,0,0:0:0:0:
402,192,260409,1,0,0:0:0:0:
36,192,260409,1,0,0:0:0:0:
475,192,260545,1,0,0:0:0:0:
36,192,260545,1,0,0:0:0:0:
329,192,260613,1,0,0:0:0:0:
182,192,260681,1,0,0:0:0:0:
109,192,260681,1,0,0:0:0:0:
256,192,260750,1,0,0:0:0:0:
475,192,260818,1,0,0:0:0:0:
402,192,260818,1,0,0:0:0:0:
329,192,260954,1,0,0:0:0:0:
182,192,260954,1,0,0:0:0:0:
182,192,261091,1,0,0:0:0:0:
109,192,261091,1,0,0:0:0:0:
256,192,261091,1,0,0:0:0:0:
402,192,261227,1,0,0:0:0:0:
182,192,261227,1,0,0:0:0:0:
182,192,261363,1,0,0:0:0:0:
36,192,261363,1,0,0:0:0:0:
36,192,261500,1,0,0:0:0:0:
329,192,261500,1,0,0:0:0:0:
36,192,261636,1,0,0:0:0:0:
475,192,261636,1,0,0:0:0:0:
109,192,261772,1,0,0:0:0:0:
475,192,261772,1,0,0:0:0:0:
475,192,261909,1,0,0:0:0:0:
402,192,261909,1,0,0:0:0:0:
256,192,261909,1,0,0:0:0:0:
329,192,262045,1,0,0:0:0:0:
402,192,262045,1,0,0:0:0:0:
109,192,262181,1,0,0:0:0:0:
182,192,262181,1,0,0:0:0:0:
256,192,262318,1,0,0:0:0:0:
182,192,262318,1,0,0:0:0:0:
182,192,262454,1,0,0:0:0:0:
36,192,262454,1,0,0:0:0:0:
109,192,262591,1,0,0:0:0:0:
329,192,262591,1,0,0:0:0:0:
109,192,262727,1,0,0:0:0:0:
475,192,262727,1,0,0:0:0:0:
256,192,262727,1,0,0:0:0:0:
256,192,262863,1,0,0:0:0:0:
402,192,262863,1,0,0:0:0:0:
36,192,263000,1,0,0:0:0:0:
329,192,263000,1,0,0:0:0:0:
329,192,263136,1,0,0:0:0:0:
475,192,263136,1,0,0:0:0:0:
402,192,263272,1,0,0:0:0:0:
329,192,263272,1,0,0:0:0:0:
402,192,263409,1,0,0:0:0:0:
182,192,263409,1,0,0:0:0:0:
109,192,263545,1,0,0:0:0:0:
475,192,263545,1,0,0:0:0:0:
402,192,263545,1,0,0:0:0:0:
475,192,263681,1,0,0:0:0:0:
256,192,263681,1,0,0:0:0:0:
36,192,263818,1,0,0:0:0:0:
182,192,263818,1,0,0:0:0:0:
256,192,263818,1,0,0:0:0:0:
109,192,263954,1,0,0:0:0:0:
256,192,263954,1,0,0:0:0:0:
182,192,264091,1,0,0:0:0:0:
329,192,264091,1,0,0:0:0:0:
109,192,264091,1,0,0:0:0:0:
109,192,264227,1,0,0:0:0:0:
36,192,264227,1,0,0:0:0:0:
402,192,264363,1,0,0:0:0:0:
36,192,264363,1,0,0:0:0:0:
329,192,264363,1,0,0:0:0:0:
36,192,264500,1,0,0:0:0:0:
475,192,264500,1,0,0:0:0:0:
182,192,264636,1,0,0:0:0:0:
475,192,264636,1,0,0:0:0:0:
256,192,264636,1,0,0:0:0:0:
475,192,264772,1,0,0:0:0:0:
402,192,264772,1,0,0:0:0:0:
109,192,264909,1,0,0:0:0:0:
329,192,264909,1,0,0:0:0:0:
402,192,264909,1,0,0:0:0:0:
182,192,265045,1,0,0:0:0:0:
402,192,265045,1,0,0:0:0:0:
402,192,265181,1,0,0:0:0:0:
36,192,265181,1,0,0:0:0:0:
256,192,265181,1,0,0:0:0:0:
329,192,265250,1,0,0:0:0:0:
109,192,265318,1,0,0:0:0:0:
182,192,265386,1,0,0:0:0:0:
475,192,265454,1,0,0:0:0:0:
36,192,265522,1,0,0:0:0:0:
256,192,265591,1,0,0:0:0:0:
329,192,265659,1,0,0:0:0:0:
109,192,265727,1,0,0:0:0:0:
182,192,265795,1,0,0:0:0:0:
402,192,265863,1,0,0:0:0:0:
36,192,265931,1,0,0:0:0:0:
256,192,266000,1,0,0:0:0:0:
475,192,266068,1,0,0:0:0:0:
109,192,266136,1,0,0:0:0:0:
329,192,266204,1,0,0:0:0:0:
36,192,266272,1,0,0:0:0:0:
402,192,266341,1,0,0:0:0:0:
182,192,266409,1,0,0:0:0:0:
475,192,266477,1,0,0:0:0:0:
256,192,266545,1,0,0:0:0:0:
329,192,266613,1,0,0:0:0:0:
109,192,266681,1,0,0:0:0:0:
36,192,266750,1,0,0:0:0:0:
475,192,266818,1,0,0:0:0:0:
182,192,266818,1,0,0:0:0:0:
402,192,266818,1,0,0:0:0:0:
