osu file format v14

[General]
AudioFilename: audio.mp3
AudioLeadIn: 2500
PreviewTime: 56272
Countdown: 0
SampleSet: None
StackLeniency: 0.7
Mode: 3
LetterboxInBreaks: 0
SpecialStyle: 0
WidescreenStoryboard: 1

[Editor]
DistanceSpacing: 0.8
BeatDivisor: 4
GridSize: 16
TimelineZoom: 2.5

[Metadata]
Title:Katayoku No Tori
TitleUnicode:片翼の鳥
Artist:Hommarju feat. mamiko
ArtistUnicode:Hommarju feat. mamiko
Creator:semyon422
Version:NM 10K 1st Twilight
Source:Exit Trance
Tags:Umineko No Naku Koro Ni Katayoku No Tori Gexigamma
BeatmapID:1738764
BeatmapSetID:829848

[Difficulty]
HPDrainRate:6
CircleSize:10
OverallDifficulty:7
ApproachRate:5
SliderMultiplier:1.4
SliderTickRate:1

[Events]
//Background and Video events
0,0,"background.jpg",0,0
//Break Periods
//Storyboard Layer 0 (Background)
//Storyboard Layer 1 (Fail)
//Storyboard Layer 2 (Pass)
//Storyboard Layer 3 (Foreground)
//Storyboard Sound Samples

[TimingPoints]
91,272.727272727273,3,2,0,20,1,0
57363,-100,3,2,0,20,0,1
88454,-100,3,2,0,20,0,0
221000,-100,3,2,0,20,0,1
266818,-100,3,2,0,20,0,0

[HitObjects]
76,192,91,5,0,0:0:0:0:
435,192,91,1,0,0:0:0:0:
332,192,500,1,0,0:0:0:0:
384,192,909,1,0,0:0:0:0:
179,192,1181,1,0,0:0:0:0:
281,192,1454,1,0,0:0:0:0:
230,192,1727,1,0,0:0:0:0:
486,192,2136,1,0,0:0:0:0:
25,192,2545,1,0,0:0:0:0:
128,192,2818,1,0,0:0:0:0:
76,192,3091,1,0,0:0:0:0:
435,192,3363,1,0,0:0:0:0:
332,192,3363,1,0,0:0:0:0:
384,192,3772,1,0,0:0:0:0:
179,192,4181,1,0,0:0:0:0:
281,192,4454,1,0,0:0:0:0:
230,192,4727,1,0,0:0:0:0:
486,192,5000,1,0,0:0:0:0:
25,192,5272,1,0,0:0:0:0:
128,192,5545,1,0,0:0:0:0:
76,192,5818,128,0,6363:0:0:0:0:
435,192,6636,1,0,0:0:0:0:
332,192,6636,1,0,0:0:0:0:
384,192,7045,1,0,0:0:0:0:
281,192,7454,1,0,0:0:0:0:
179,192,7727,1,0,0:0:0:0:
230,192,8000,1,0,0:0:0:0:
25,192,8272,1,0,0:0:0:0:
486,192,8681,1,0,0:0:0:0:
128,192,9091,1,0,0:0:0:0:
332,192,9363,1,0,0:0:0:0:
76,192,9636,1,0,0:0:0:0:
435,192,9909,1,0,0:0:0:0:
384,192,9909,1,0,0:0:0:0:
179,192,10318,1,0,0:0:0:0:
281,192,10727,1,0,0:0:0:0:
25,192,11000,1,0,0:0:0:0:
230,192,11272,1,0,0:0:0:0:
486,192,11545,1,0,0:0:0:0:
128,192,11545,1,0,0:0:0:0:
76,192,11818,1,0,0:0:0:0:
332,192,12091,1,0,0:0:0:0:
435,192,12363,128,0,12909:0:0:0:0:
384,192,13181,1,0,0:0:0:0:
179,192,13181,128,0,14000:0:0:0:0:
230,192,14000,128,0,14818:0:0:0:0:
486,192,14818,128,0,16454:0:0:0:0:
25,192,16454,128,0,17272:0:0:0:0:
281,192,16454,1,0,0:0:0:0:
332,192,17272,128,0,18091:0:0:0:0:
128,192,18091,128,0,19727:0:0:0:0:
384,192,19727,1,0,0:0:0:0:
76,192,19727,128,0,20545:0:0:0:0:
435,192,20545,128,0,21363:0:0:0:0:
230,192,21363,128,0,22181:0:0:0:0:
179,192,22181,128,0,23000:0:0:0:0:
486,192,23000,128,0,23818:0:0:0:0:
281,192,23000,1,0,0:0:0:0:
25,192,23818,128,0,24636:0:0:0:0:
128,192,24636,128,0,25454:0:0:0:0:
435,192,25454,1,0,0:0:0:0:
384,192,25727,1,0,0:0:0:0:
332,192,26000,1,0,0:0:0:0:
76,192,26272,1,0,0:0:0:0:
281,192,26272,1,0,0:0:0:0:
179,192,26545,1,0,0:0:0:0:
230,192,26818,1,0,0:0:0:0:
486,192,27091,1,0,0:0:0:0:
25,192,27363,1,0,0:0:0:0:
435,192,27636,1,0,0:0:0:0:
384,192,27909,1,0,0:0:0:0:
128,192,28181,1,0,0:0:0:0:
332,192,28454,1,0,0:0:0:0:
76,192,28727,1,0,0:0:0:0:
281,192,29000,1,0,0:0:0:0:
230,192,29272,1,0,0:0:0:0:
486,192,29545,1,0,0:0:0:0:
179,192,29545,1,0,0:0:0:0:
25,192,29818,1,0,0:0:0:0:
384,192,30091,1,0,0:0:0:0:
435,192,30363,1,0,0:0:0:0:
332,192,30636,1,0,0:0:0:0:
128,192,30909,1,0,0:0:0:0:
76,192,31181,1,0,0:0:0:0:
230,192,31454,1,0,0:0:0:0:
179,192,31727,1,0,0:0:0:0:
281,192,32000,1,0,0:0:0:0:
25,192,32272,1,0,0:0:0:0:
486,192,32545,1,0,0:0:0:0:
128,192,32818,1,0,0:0:0:0:
384,192,32818,1,0,0:0:0:0:
435,192,33091,1,0,0:0:0:0:
76,192,33363,1,0,0:0:0:0:
332,192,33636,1,0,0:0:0:0:
179,192,33909,1,0,0:0:0:0:
281,192,34181,1,0,0:0:0:0:
25,192,34454,1,0,0:0:0:0:
486,192,34727,1,0,0:0:0:0:
230,192,35000,1,0,0:0:0:0:
128,192,35272,1,0,0:0:0:0:
435,192,35545,1,0,0:0:0:0:
384,192,35818,1,0,0:0:0:0:
179,192,36091,1,0,0:0:0:0:
332,192,36091,1,0,0:0:0:0:
76,192,36363,1,0,0:0:0:0:
281,192,36636,1,0,0:0:0:0:
230,192,36909,1,0,0:0:0:0:
486,192,37181,1,0,0:0:0:0:
25,192,37454,1,0,0:0:0:0:
384,192,37727,128,0,38545:0:0:0:0:
435,192,38545,128,0,39363:0:0:0:0:
76,192,39363,1,0,0:0:0:0:
281,192,39363,1,0,0:0:0:0:
281,192,39772,1,0,0:0:0:0:
76,192,39772,1,0,0:0:0:0:
128,192,40181,1,0,0:0:0:0:
332,192,40181,1,0,0:0:0:0:
179,192,40454,1,0,0:0:0:0:
486,192,40454,1,0,0:0:0:0:
179,192,41000,128,0,41818:0:0:0:0:
230,192,41818,128,0,42636:0:0:0:0:
25,192,42636,1,0,0:0:0:0:
384,192,42636,1,0,0:0:0:0:
384,192,43045,1,0,0:0:0:0:
25,192,43045,1,0,0:0:0:0:
435,192,43454,1,0,0:0:0:0:
332,192,43454,1,0,0:0:0:0:
486,192,43727,1,0,0:0:0:0:
128,192,43727,1,0,0:0:0:0:
281,192,44272,128,0,45091:0:0:0:0:
230,192,45091,128,0,45909:0:0:0:0:
435,192,45909,1,0,0:0:0:0:
332,192,45909,128,0,46727:0:0:0:0:
128,192,46727,128,0,47545:0:0:0:0:
76,192,47545,128,0,48363:0:0:0:0:
486,192,48363,128,0,49181:0:0:0:0:
179,192,49181,128,0,51636:0:0:0:0:
25,192,51636,128,0,52454:0:0:0:0:
384,192,52454,128,0,55727:0:0:0:0:
281,192,57363,1,0,0:0:0:0:
384,192,57363,128,0,58454:0:0:0:0:
281,192,58454,1,0,0:0:0:0:
230,192,58727,1,0,0:0:0:0:
332,192,59000,1,0,0:0:0:0:
435,192,59272,1,0,0:0:0:0:
128,192,59545,128,0,60091:0:0:0:0:
486,192,60091,1,0,0:0:0:0:
76,192,60363,1,0,0:0:0:0:
25,192,60636,1,0,0:0:0:0:
179,192,60909,1,0,0:0:0:0:
230,192,61181,128,0,61727:0:0:0:0:
332,192,62000,1,0,0:0:0:0:
435,192,62272,128,0,63091:0:0:0:0:
128,192,63091,128,0,63500:0:0:0:0:
76,192,63909,1,0,0:0:0:0:
486,192,63909,1,0,0:0:0:0:
25,192,64181,1,0,0:0:0:0:
179,192,64454,1,0,0:0:0:0:
281,192,64727,1,0,0:0:0:0:
230,192,65000,1,0,0:0:0:0:
332,192,65272,1,0,0:0:0:0:
384,192,65545,1,0,0:0:0:0:
435,192,65818,1,0,0:0:0:0:
486,192,66091,1,0,0:0:0:0:
76,192,66363,1,0,0:0:0:0:
128,192,66636,1,0,0:0:0:0:
25,192,66909,1,0,0:0:0:0:
179,192,67181,128,0,67727:0:0:0:0:
384,192,67727,1,0,0:0:0:0:
281,192,68000,128,0,68954:0:0:0:0:
230,192,69363,1,0,0:0:0:0:
435,192,69636,1,0,0:0:0:0:
332,192,69909,1,0,0:0:0:0:
76,192,70181,1,0,0:0:0:0:
128,192,70454,128,0,71545:0:0:0:0:
486,192,71545,1,0,0:0:0:0:
179,192,71818,1,0,0:0:0:0:
25,192,72091,1,0,0:0:0:0:
230,192,72363,1,0,0:0:0:0:
384,192,72636,128,0,73181:0:0:0:0:
435,192,73181,1,0,0:0:0:0:
281,192,73454,1,0,0:0:0:0:
332,192,73727,1,0,0:0:0:0:
128,192,74000,1,0,0:0:0:0:
76,192,74272,128,0,74818:0:0:0:0:
179,192,75091,1,0,0:0:0:0:
486,192,75363,128,0,76181:0:0:0:0:
25,192,76181,128,0,76727:0:0:0:0:
230,192,76727,128,0,77000:0:0:0:0:
332,192,77000,1,0,0:0:0:0:
281,192,77000,128,0,77545:0:0:0:0:
384,192,77818,1,0,0:0:0:0:
435,192,78091,1,0,0:0:0:0:
179,192,78363,1,0,0:0:0:0:
76,192,78636,1,0,0:0:0:0:
486,192,78909,1,0,0:0:0:0:
128,192,79181,1,0,0:0:0:0:
332,192,79454,128,0,80000:0:0:0:0:
25,192,80000,1,0,0:0:0:0:
230,192,80272,128,0,80818:0:0:0:0:
384,192,80818,1,0,0:0:0:0:
435,192,81091,128,0,82318:0:0:0:0:
281,192,82727,128,0,83545:0:0:0:0:
128,192,83545,128,0,88454:0:0:0:0:
179,192,83818,1,0,0:0:0:0:
486,192,84363,1,0,0:0:0:0:
76,192,84636,1,0,0:0:0:0:
332,192,84909,1,0,0:0:0:0:
25,192,85181,1,0,0:0:0:0:
230,192,85591,1,0,0:0:0:0:
384,192,86000,1,0,0:0:0:0:
281,192,86272,1,0,0:0:0:0:
179,192,86545,1,0,0:0:0:0:
435,192,86818,1,0,0:0:0:0:
76,192,87091,1,0,0:0:0:0:
486,192,87363,1,0,0:0:0:0:
25,192,87636,1,0,0:0:0:0:
332,192,87909,1,0,0:0:0:0:
230,192,88181,1,0,0:0:0:0:
384,192,88454,1,0,0:0:0:0:
281,192,90091,128,0,91181:0:0:0:0:
384,192,90091,1,0,0:0:0:0:
384,192,91727,1,0,0:0:0:0:
179,192,92000,1,0,0:0:0:0:
76,192,92272,1,0,0:0:0:0:
435,192,92545,1,0,0:0:0:0:
25,192,93091,1,0,0:0:0:0:
486,192,93363,128,0,95000:0:0:0:0:
128,192,95000,128,0,96363:0:0:0:0:
332,192,96636,128,0,97454:0:0:0:0:
230,192,96977,1,0,0:0:0:0:
230,192,97454,1,0,0:0:0:0:
435,192,98272,1,0,0:0:0:0:
76,192,98545,1,0,0:0:0:0:
281,192,98818,1,0,0:0:0:0:
179,192,99091,128,0,99636:0:0:0:0:
384,192,99909,128,0,101545:0:0:0:0:
25,192,101545,128,0,102363:0:0:0:0:
332,192,102363,128,0,103181:0:0:0:0:
128,192,103181,1,0,0:0:0:0:
486,192,103181,1,0,0:0:0:0:
435,192,103454,1,0,0:0:0:0:
76,192,103727,1,0,0:0:0:0:
179,192,104000,1,0,0:0:0:0:
281,192,104272,1,0,0:0:0:0:
384,192,104545,1,0,0:0:0:0:
25,192,104818,1,0,0:0:0:0:
230,192,105091,1,0,0:0:0:0:
332,192,105363,1,0,0:0:0:0:
128,192,105636,1,0,0:0:0:0:
486,192,105909,1,0,0:0:0:0:
435,192,106181,1,0,0:0:0:0:
76,192,106454,1,0,0:0:0:0:
281,192,106727,1,0,0:0:0:0:
179,192,107000,1,0,0:0:0:0:
384,192,107272,1,0,0:0:0:0:
230,192,107545,1,0,0:0:0:0:
25,192,107818,1,0,0:0:0:0:
332,192,108091,1,0,0:0:0:0:
128,192,108363,1,0,0:0:0:0:
486,192,108636,1,0,0:0:0:0:
435,192,108909,1,0,0:0:0:0:
76,192,109181,1,0,0:0:0:0:
179,192,109454,1,0,0:0:0:0:
281,192,109727,128,0,110272:0:0:0:0:
384,192,109727,1,0,0:0:0:0:
230,192,110272,1,0,0:0:0:0:
25,192,110545,1,0,0:0:0:0:
332,192,110818,1,0,0:0:0:0:
486,192,111091,1,0,0:0:0:0:
128,192,111363,1,0,0:0:0:0:
76,192,111772,1,0,0:0:0:0:
179,192,112181,1,0,0:0:0:0:
281,192,112727,1,0,0:0:0:0:
435,192,113000,1,0,0:0:0:0:
230,192,113545,1,0,0:0:0:0:
332,192,113818,1,0,0:0:0:0:
384,192,114091,1,0,0:0:0:0:
128,192,114363,1,0,0:0:0:0:
25,192,114636,1,0,0:0:0:0:
179,192,115181,1,0,0:0:0:0:
435,192,115454,1,0,0:0:0:0:
76,192,116272,1,0,0:0:0:0:
486,192,116681,1,0,0:0:0:0:
384,192,117091,1,0,0:0:0:0:
25,192,117909,1,0,0:0:0:0:
230,192,118318,1,0,0:0:0:0:
281,192,118727,1,0,0:0:0:0:
332,192,119000,1,0,0:0:0:0:
76,192,119272,1,0,0:0:0:0:
486,192,119545,1,0,0:0:0:0:
179,192,120091,1,0,0:0:0:0:
128,192,120363,1,0,0:0:0:0:
435,192,120909,1,0,0:0:0:0:
230,192,121181,128,0,122000:0:0:0:0:
332,192,122000,128,0,122818:0:0:0:0:
384,192,122818,1,0,0:0:0:0:
281,192,122818,1,0,0:0:0:0:
384,192,123227,1,0,0:0:0:0:
281,192,123227,1,0,0:0:0:0:
486,192,123636,1,0,0:0:0:0:
25,192,123636,1,0,0:0:0:0:
179,192,123909,1,0,0:0:0:0:
128,192,123909,1,0,0:0:0:0:
128,192,124454,128,0,125272:0:0:0:0:
76,192,125272,128,0,126091:0:0:0:0:
435,192,126091,1,0,0:0:0:0:
486,192,126091,1,0,0:0:0:0:
435,192,126500,1,0,0:0:0:0:
486,192,126500,1,0,0:0:0:0:
25,192,126909,1,0,0:0:0:0:
332,192,126909,1,0,0:0:0:0:
179,192,127181,1,0,0:0:0:0:
230,192,127181,1,0,0:0:0:0:
281,192,127727,128,0,128545:0:0:0:0:
76,192,128545,128,0,129363:0:0:0:0:
25,192,129363,1,0,0:0:0:0:
230,192,129363,1,0,0:0:0:0:
332,192,130181,1,0,0:0:0:0:
384,192,130454,1,0,0:0:0:0:
179,192,130727,1,0,0:0:0:0:
128,192,131000,1,0,0:0:0:0:
230,192,131818,1,0,0:0:0:0:
76,192,132091,1,0,0:0:0:0:
435,192,132363,1,0,0:0:0:0:
25,192,132636,1,0,0:0:0:0:
486,192,133045,1,0,0:0:0:0:
332,192,133454,1,0,0:0:0:0:
384,192,133863,1,0,0:0:0:0:
179,192,134272,1,0,0:0:0:0:
281,192,135091,128,0,135636:0:0:0:0:
486,192,135636,1,0,0:0:0:0:
128,192,135909,128,0,137545:0:0:0:0:
230,192,138636,128,0,139181:0:0:0:0:
435,192,139181,1,0,0:0:0:0:
25,192,139181,1,0,0:0:0:0:
76,192,140818,1,0,0:0:0:0:
179,192,142454,1,0,0:0:0:0:
384,192,144091,1,0,0:0:0:0:
332,192,144909,1,0,0:0:0:0:
486,192,145727,1,0,0:0:0:0:
281,192,147363,1,0,0:0:0:0:
230,192,148181,1,0,0:0:0:0:
25,192,149000,1,0,0:0:0:0:
128,192,149818,1,0,0:0:0:0:
332,192,150636,1,0,0:0:0:0:
76,192,151454,1,0,0:0:0:0:
435,192,152272,1,0,0:0:0:0:
384,192,152272,1,0,0:0:0:0:
281,192,153909,1,0,0:0:0:0:
179,192,155545,1,0,0:0:0:0:
486,192,157181,1,0,0:0:0:0:
230,192,158000,1,0,0:0:0:0:
435,192,158818,1,0,0:0:0:0:
128,192,159636,1,0,0:0:0:0:
332,192,160454,1,0,0:0:0:0:
25,192,161272,1,0,0:0:0:0:
76,192,162091,1,0,0:0:0:0:
281,192,162909,1,0,0:0:0:0:
179,192,163727,1,0,0:0:0:0:
486,192,164545,128,0,165363:0:0:0:0:
230,192,165363,1,0,0:0:0:0:
384,192,165363,128,0,167000:0:0:0:0:
332,192,166181,1,0,0:0:0:0:
25,192,167000,1,0,0:0:0:0:
435,192,167000,128,0,168636:0:0:0:0:
76,192,167818,1,0,0:0:0:0:
128,192,168636,128,0,170272:0:0:0:0:
179,192,168636,1,0,0:0:0:0:
281,192,169454,1,0,0:0:0:0:
230,192,170272,128,0,173545:0:0:0:0:
486,192,170272,1,0,0:0:0:0:
384,192,171091,1,0,0:0:0:0:
332,192,171909,1,0,0:0:0:0:
25,192,172727,1,0,0:0:0:0:
435,192,173545,1,0,0:0:0:0:
179,192,174363,1,0,0:0:0:0:
128,192,175181,1,0,0:0:0:0:
281,192,176000,1,0,0:0:0:0:
76,192,176818,1,0,0:0:0:0:
486,192,177636,1,0,0:0:0:0:
332,192,178454,1,0,0:0:0:0:
384,192,178454,1,0,0:0:0:0:
25,192,179272,1,0,0:0:0:0:
435,192,180091,1,0,0:0:0:0:
179,192,180909,1,0,0:0:0:0:
281,192,181727,1,0,0:0:0:0:
230,192,182545,1,0,0:0:0:0:
128,192,183363,1,0,0:0:0:0:
76,192,184181,1,0,0:0:0:0:
384,192,185000,1,0,0:0:0:0:
486,192,185818,1,0,0:0:0:0:
332,192,186636,1,0,0:0:0:0:
179,192,187454,1,0,0:0:0:0:
435,192,188272,1,0,0:0:0:0:
25,192,189091,1,0,0:0:0:0:
76,192,189909,1,0,0:0:0:0:
281,192,190727,128,0,191545:0:0:0:0:
486,192,191545,1,0,0:0:0:0:
230,192,191545,1,0,0:0:0:0:
128,192,191818,1,0,0:0:0:0:
179,192,192091,1,0,0:0:0:0:
332,192,192363,1,0,0:0:0:0:
384,192,192636,1,0,0:0:0:0:
435,192,192909,1,0,0:0:0:0:
25,192,193181,1,0,0:0:0:0:
76,192,193454,1,0,0:0:0:0:
486,192,193727,1,0,0:0:0:0:
281,192,194000,1,0,0:0:0:0:
230,192,194272,1,0,0:0:0:0:
128,192,194545,1,0,0:0:0:0:
332,192,194818,1,0,0:0:0:0:
179,192,194818,1,0,0:0:0:0:
384,192,195091,1,0,0:0:0:0:
435,192,195363,1,0,0:0:0:0:
25,192,195636,1,0,0:0:0:0:
76,192,195909,1,0,0:0:0:0:
486,192,196181,1,0,0:0:0:0:
230,192,196454,1,0,0:0:0:0:
281,192,196727,1,0,0:0:0:0:
179,192,197000,1,0,0:0:0:0:
128,192,197272,1,0,0:0:0:0:
384,192,197545,1,0,0:0:0:0:
332,192,197818,1,0,0:0:0:0:
435,192,198091,1,0,0:0:0:0:
25,192,198091,1,0,0:0:0:0:
76,192,198363,1,0,0:0:0:0:
230,192,198636,1,0,0:0:0:0:
486,192,198909,1,0,0:0:0:0:
281,192,199181,1,0,0:0:0:0:
179,192,199454,1,0,0:0:0:0:
128,192,199727,1,0,0:0:0:0:
384,192,200000,1,0,0:0:0:0:
332,192,200272,1,0,0:0:0:0:
76,192,200545,1,0,0:0:0:0:
435,192,200818,1,0,0:0:0:0:
25,192,201091,1,0,0:0:0:0:
486,192,201363,1,0,0:0:0:0:
230,192,201363,1,0,0:0:0:0:
281,192,201636,1,0,0:0:0:0:
128,192,201909,1,0,0:0:0:0:
179,192,202181,1,0,0:0:0:0:
332,192,202454,1,0,0:0:0:0:
384,192,202727,1,0,0:0:0:0:
435,192,203000,128,0,203818:0:0:0:0:
25,192,203818,128,0,204636:0:0:0:0:
128,192,204636,1,0,0:0:0:0:
486,192,204636,1,0,0:0:0:0:
179,192,204909,1,0,0:0:0:0:
230,192,205181,1,0,0:0:0:0:
76,192,205454,1,0,0:0:0:0:
281,192,205727,1,0,0:0:0:0:
332,192,206000,1,0,0:0:0:0:
435,192,206272,1,0,0:0:0:0:
384,192,206545,1,0,0:0:0:0:
486,192,206818,1,0,0:0:0:0:
128,192,207091,1,0,0:0:0:0:
25,192,207363,1,0,0:0:0:0:
179,192,207636,1,0,0:0:0:0:
230,192,207909,1,0,0:0:0:0:
281,192,207909,1,0,0:0:0:0:
76,192,208181,1,0,0:0:0:0:
384,192,208454,1,0,0:0:0:0:
332,192,208727,1,0,0:0:0:0:
435,192,209000,1,0,0:0:0:0:
486,192,209272,1,0,0:0:0:0:
25,192,209545,1,0,0:0:0:0:
179,192,209818,1,0,0:0:0:0:
128,192,210091,1,0,0:0:0:0:
230,192,210363,1,0,0:0:0:0:
281,192,210636,1,0,0:0:0:0:
76,192,210909,1,0,0:0:0:0:
332,192,211181,1,0,0:0:0:0:
384,192,211181,1,0,0:0:0:0:
486,192,211454,1,0,0:0:0:0:
435,192,211727,1,0,0:0:0:0:
179,192,212000,1,0,0:0:0:0:
128,192,212272,1,0,0:0:0:0:
230,192,212545,1,0,0:0:0:0:
281,192,212818,1,0,0:0:0:0:
76,192,213091,1,0,0:0:0:0:
25,192,213363,1,0,0:0:0:0:
332,192,213636,1,0,0:0:0:0:
384,192,213909,1,0,0:0:0:0:
435,192,214181,1,0,0:0:0:0:
230,192,214454,1,0,0:0:0:0:
486,192,214454,128,0,215272:0:0:0:0:
76,192,215272,128,0,216091:0:0:0:0:
25,192,215272,1,0,0:0:0:0:
179,192,216091,128,0,217727:0:0:0:0:
332,192,216091,1,0,0:0:0:0:
332,192,217727,128,0,219363:0:0:0:0:
128,192,217727,1,0,0:0:0:0:
128,192,221000,1,0,0:0:0:0:
281,192,221000,1,0,0:0:0:0:
128,192,222091,1,0,0:0:0:0:
384,192,222363,1,0,0:0:0:0:
435,192,222636,1,0,0:0:0:0:
25,192,222909,1,0,0:0:0:0:
486,192,223181,1,0,0:0:0:0:
230,192,223727,1,0,0:0:0:0:
76,192,224000,1,0,0:0:0:0:
281,192,224272,1,0,0:0:0:0:
179,192,224545,1,0,0:0:0:0:
332,192,224818,1,0,0:0:0:0:
332,192,225636,1,0,0:0:0:0:
384,192,225909,128,0,226727:0:0:0:0:
486,192,226727,128,0,227272:0:0:0:0:
230,192,227545,1,0,0:0:0:0:
435,192,227818,1,0,0:0:0:0:
281,192,228091,1,0,0:0:0:0:
25,192,228363,1,0,0:0:0:0:
76,192,228636,1,0,0:0:0:0:
179,192,228909,1,0,0:0:0:0:
128,192,229181,1,0,0:0:0:0:
384,192,229454,1,0,0:0:0:0:
230,192,229727,1,0,0:0:0:0:
486,192,230000,1,0,0:0:0:0:
435,192,230272,1,0,0:0:0:0:
25,192,230545,1,0,0:0:0:0:
281,192,230818,128,0,231363:0:0:0:0:
76,192,231363,1,0,0:0:0:0:
179,192,231636,128,0,232591:0:0:0:0:
128,192,233000,1,0,0:0:0:0:
384,192,233272,1,0,0:0:0:0:
332,192,233545,1,0,0:0:0:0:
435,192,233818,1,0,0:0:0:0:
76,192,234091,1,0,0:0:0:0:
486,192,234091,1,0,0:0:0:0:
281,192,235181,1,0,0:0:0:0:
25,192,235454,1,0,0:0:0:0:
230,192,235727,1,0,0:0:0:0:
128,192,236000,1,0,0:0:0:0:
384,192,236272,1,0,0:0:0:0:
332,192,236818,1,0,0:0:0:0:
179,192,237091,1,0,0:0:0:0:
76,192,237363,1,0,0:0:0:0:
486,192,237636,1,0,0:0:0:0:
435,192,237909,1,0,0:0:0:0:
435,192,238727,1,0,0:0:0:0:
25,192,239000,128,0,239818:0:0:0:0:
230,192,239818,128,0,240363:0:0:0:0:
332,192,240363,128,0,240636:0:0:0:0:
179,192,240636,1,0,0:0:0:0:
128,192,240636,1,0,0:0:0:0:
281,192,241454,1,0,0:0:0:0:
486,192,241727,1,0,0:0:0:0:
384,192,242000,1,0,0:0:0:0:
76,192,242272,1,0,0:0:0:0:
230,192,242545,1,0,0:0:0:0:
25,192,242818,1,0,0:0:0:0:
332,192,243091,1,0,0:0:0:0:
179,192,243636,1,0,0:0:0:0:
128,192,243909,1,0,0:0:0:0:
281,192,244454,1,0,0:0:0:0:
486,192,244727,128,0,245954:0:0:0:0:
435,192,246363,128,0,247181:0:0:0:0:
25,192,247181,128,0,252091:0:0:0:0:
384,192,247181,1,0,0:0:0:0:
281,192,248000,1,0,0:0:0:0:
230,192,248818,1,0,0:0:0:0:
76,192,249636,1,0,0:0:0:0:
76,192,250454,1,0,0:0:0:0:
332,192,250727,1,0,0:0:0:0:
128,192,251000,1,0,0:0:0:0:
179,192,251272,1,0,0:0:0:0:
384,192,251545,1,0,0:0:0:0:
281,192,251818,1,0,0:0:0:0:
486,192,252091,1,0,0:0:0:0:
435,192,252363,1,0,0:0:0:0:
230,192,252636,1,0,0:0:0:0:
332,192,252909,1,0,0:0:0:0:
128,192,253181,1,0,0:0:0:0:
179,192,253454,1,0,0:0:0:0:
384,192,254545,128,0,255363:0:0:0:0:
281,192,255363,128,0,256181:0:0:0:0:
486,192,256181,128,0,257000:0:0:0:0:
435,192,257000,1,0,0:0:0:0:
230,192,257272,1,0,0:0:0:0:
25,192,257545,1,0,0:0:0:0:
76,192,257818,128,0,258636:0:0:0:0:
332,192,258636,1,0,0:0:0:0:
384,192,258909,1,0,0:0:0:0:
179,192,259181,1,0,0:0:0:0:
128,192,259454,1,0,0:0:0:0:
435,192,259727,1,0,0:0:0:0:
486,192,260000,1,0,0:0:0:0:
25,192,260272,1,0,0:0:0:0:
281,192,260272,1,0,0:0:0:0:
230,192,260545,1,0,0:0:0:0:
76,192,260818,1,0,0:0:0:0:
384,192,261091,128,0,261909:0:0:0:0:
332,192,261363,1,0,0:0:0:0:
128,192,261636,1,0,0:0:0:0:
179,192,261909,128,0,262727:0:0:0:0:
486,192,262181,1,0,0:0:0:0:
435,192,262454,1,0,0:0:0:0:
230,192,262727,128,0,263545:0:0:0:0:
25,192,263000,1,0,0:0:0:0:
281,192,263272,1,0,0:0:0:0:
76,192,263545,128,0,263818:0:0:0:0:
332,192,263818,128,0,264091:0:0:0:0:
384,192,264091,128,0,264363:0:0:0:0:
128,192,264363,128,0,264636:0:0:0:0:
435,192,264636,128,0,264909:0:0:0:0:
179,192,264909,128,0,265181:0:0:0:0:
486,192,265181,128,0,266818:0:0:0:0:
25,192,265454,1,0,0:0:0:0:
281,192,265727,1,0,0:0:0:0:
230,192,266000,1,0,0:0:0:0:
76,192,266272,1,0,0:0:0:0:
332,192,266545,1,0,0:0:0:0:
435,192,266818,1,0,0:0:0:0:
128,192,266818,1,0,0:0:0:0:
